<?xml version="1.0" standalone="no"?>
<!DOCTYPE svg PUBLIC "-//W3C//DTD SVG 1.1//EN" "http://www.w3.org/Graphics/SVG/1.1/DTD/svg11.dtd" >
<svg xmlns="http://www.w3.org/2000/svg" xmlns:xlink="http://www.w3.org/1999/xlink" version="1.1">
<metadata>
Created by FontForge 20201107 at Tue Mar 16 10:16:45 2021
 By Robert Madole
Copyright (c) Font Awesome
</metadata>
<!-- Font Awesome Pro 5.15.3 by @fontawesome - https://fontawesome.com License - https://fontawesome.com/license (Commercial License) --><defs>
<font id="FontAwesome5Duotone-Solid" horiz-adv-x="640" >
  <font-face 
    font-family="Font Awesome 5 Duotone Solid"
    font-weight="900"
    font-stretch="normal"
    units-per-em="512"
    panose-1="2 0 5 3 0 0 0 0 0 0"
    ascent="448"
    descent="-64"
    bbox="-1.00977 -64.3027 640.058 448.244"
    underline-thickness="25"
    underline-position="-50"
    unicode-range="U+0020-10F8FF"
  />
    <missing-glyph />
    <glyph glyph-name="search-minus-primary" unicode="&#xf010;" horiz-adv-x="512" 
d="M292 268c6.62305 0 12 -5.37695 12 -12v-32c0 -6.62305 -5.37695 -12 -12 -12h-168c-6.62305 0 -12 5.37695 -12 12v32c0 6.62305 5.37695 12 12 12h168zM505 5.2998c4.30566 -4.35547 6.9668 -10.3496 6.9668 -16.9531c0 -6.6543 -2.70117 -12.6826 -7.06641 -17.0469
l-28.3008 -28.2998c-4.33008 -4.35547 -10.3311 -7.05371 -16.9521 -7.05371s-12.6172 2.69824 -16.9473 7.05371l-99.7002 99.7002c-4.32715 4.3418 -7 10.332 -7 16.9395v0.0605469v16.2998l36 36h16.2998c0.0205078 0 0.0429688 0.00292969 0.0625 0.00292969
c6.6084 0 12.5957 -2.67578 16.9375 -7.00293z" />
    <glyph glyph-name="plus-primary" unicode="&#xf067;" horiz-adv-x="448" 
d="M448 208v-32c0 -17.6611 -14.3389 -32 -32 -32h-384c-17.6611 0 -32 14.3389 -32 32v32c0 17.6611 14.3389 32 32 32h384c17.6611 0 32 -14.3389 32 -32z" />
    <glyph glyph-name="plane-primary" unicode="&#xf072;" horiz-adv-x="576" 
d="M480 128h-368l-43.2002 -57.5996c-2.91992 -3.89355 -7.56348 -6.40039 -12.7998 -6.40039h-40c-8.8252 0.00683594 -15.9873 7.17383 -15.9873 16c0 1.34082 0.166016 2.63574 0.477539 3.87988l31.5098 108.12l-31.5098 108.12
c-0.311523 1.24414 -0.476562 2.54688 -0.476562 3.88672c0 8.82617 7.16113 15.9863 15.9863 15.9932h40c5.23633 0 9.87988 -2.50684 12.7998 -6.40039l43.2002 -57.5996h368c35.3496 0 96 -28.6504 96 -64s-60.6504 -64 -96 -64z" />
    <glyph glyph-name="wrench-primary" unicode="&#xf0ad;" horiz-adv-x="512" 
d="M469.69 201.8c-40 -40 -97.4805 -51 -147.721 -34.2695l-0.259766 -0.260742c-42.5479 14.5293 -76.1211 48.2822 -90.4102 90.9404l0.129883 0.129883c-16.54 50.1699 -5.59961 107.71 34.1299 147.4c26.1328 26.1211 62.2188 42.2861 102.051 42.2861
c12.0342 0 23.6807 -1.50684 34.8594 -4.28613c5.28027 -1.25879 9.21094 -6.01074 9.21094 -11.6738c0 -3.32812 -1.34961 -6.3418 -3.54102 -8.5166l-74.5293 -74.4795l11.3301 -68l68.0596 -11.3506l74.5303 74.5205c2.17578 2.19922 5.19434 3.5625 8.5293 3.5625
c5.61426 0 10.333 -3.87109 11.6406 -9.08301c2.80566 -11.2119 4.29492 -22.9424 4.29492 -35.0195c0 -39.8096 -16.1562 -75.8232 -42.3047 -101.9z" />
    <glyph glyph-name="money-bill-primary" unicode="&#xf0d6;" 
d="M616 384c13.2461 0 24 -10.7539 24 -24v-336c0 -13.2461 -10.7539 -24 -24 -24h-592c-13.2461 0 -24 10.7539 -24 24v336c0 13.2461 10.7539 24 24 24h592zM592 101.22v181.561c-23.3467 11.1143 -42.1055 29.873 -53.2197 53.2197h-437.561
c-11.1143 -23.3467 -29.873 -42.1055 -53.2197 -53.2197v-181.561c23.3467 -11.1143 42.1055 -29.873 53.2197 -53.2197h437.561c11.1143 23.3467 29.873 42.1055 53.2197 53.2197z" />
    <glyph glyph-name="sitemap-primary" unicode="&#xf0e8;" 
d="M128 96c17.6611 0 32 -14.3389 32 -32v-96c0 -17.6611 -14.3389 -32 -32 -32h-96c-17.6611 0 -32 14.3389 -32 32v96c0 17.6611 14.3389 32 32 32h96zM384 448c17.6611 0 32 -14.3389 32 -32v-96c0 -17.6611 -14.3389 -32 -32 -32h-128c-17.6611 0 -32 14.3389 -32 32v96
c0 17.6611 14.3389 32 32 32h128zM608 96c17.6611 0 32 -14.3389 32 -32v-96c0 -17.6611 -14.3389 -32 -32 -32h-96c-17.6611 0 -32 14.3389 -32 32v96c0 17.6611 14.3389 32 32 32h96zM368 96c17.6611 0 32 -14.3389 32 -32v-96c0 -17.6611 -14.3389 -32 -32 -32h-96
c-17.6611 0 -32 14.3389 -32 32v96c0 17.6611 14.3389 32 32 32h96z" />
    <glyph glyph-name="microphone-primary" unicode="&#xf130;" horiz-adv-x="352" 
d="M352 192c0 -88.9004 -66.29 -162.47 -152 -174.23v-33.7695h56c8.83105 0 16 -7.16895 16 -16v-16c0 -8.83105 -7.16895 -16 -16 -16h-160c-8.83105 0 -16 7.16895 -16 16v16c0 8.83105 7.16895 16 16 16h56v34.1504c-88 12.1396 -152 92.0498 -152 181.689v40.1602
c0 8.83105 7.16895 16 16 16h16c8.83105 0 16 -7.16895 16 -16v-42.2998c0 -66.8105 48.71 -126.59 115.21 -133.08c4.2002 -0.416016 8.46094 -0.629883 12.7695 -0.629883c70.6787 0 127.94 57.3496 128.021 128.01v48c0 8.83105 7.16895 16 16 16h16
c8.83105 0 16 -7.16895 16 -16v-48z" />
    <glyph glyph-name="microphone-slash-primary" unicode="&#xf131;" 
d="M2.37012 416.55l19.6299 25.2705c2.92773 3.77051 7.50488 6.19922 12.6445 6.19922c3.7002 0 7.11426 -1.27734 9.8252 -3.38965l588.351 -454.729c3.76855 -2.92871 6.19629 -7.50391 6.19629 -12.6426c0 -3.69141 -1.27246 -7.09863 -3.37695 -9.80762
l-19.6396 -25.2705c-2.92871 -3.76855 -7.50293 -6.19434 -12.6406 -6.19434c-3.69727 0 -7.1084 1.27539 -9.81934 3.38477l-588.36 454.729c-3.76562 2.92871 -6.18945 7.50195 -6.18945 12.6377c0 3.69434 1.27344 7.10352 3.37988 9.8125z" />
    <glyph glyph-name="balance-scale-primary" unicode="&#xf24e;" 
d="M256 112c0 -44.1797 -57.3096 -80 -128 -80s-128 35.8203 -128 80c0 15.6699 -2.05957 7.25 85.1299 181.51c17.6797 35.3604 68.2197 35.29 85.8701 0c86.3398 -172.779 85 -165.33 85 -181.51zM128 272l-72 -144h144zM640 112c0 -44.1797 -57.3096 -80 -128 -80
s-128 35.8203 -128 80c0 15.6699 -2.05957 7.25 85.0801 181.51c17.6797 35.3604 68.2197 35.29 85.8701 0c86.3896 -172.779 85.0498 -165.33 85.0498 -181.51zM440 128h144l-72 144z" />
    <glyph glyph-name="microphone-alt-primary" unicode="&#xf3c9;" horiz-adv-x="352" 
d="M186.67 320c-5.88965 0 -10.6699 3.58008 -10.6699 8v16c0 4.41992 4.78027 8 10.6699 8h85.3301v-32h-85.3301zM186.67 256c-5.88965 0 -10.6699 3.58008 -10.6699 8v16c0 4.41992 4.78027 8 10.6699 8h85.3301v-32h-85.3301zM336 256c8.83105 0 16 -7.16895 16 -16v-48
c0 -88.9004 -66.29 -162.47 -152 -174.23v-33.7695h56c8.83105 0 16 -7.16895 16 -16v-16c0 -8.83105 -7.16895 -16 -16 -16h-160c-8.83105 0 -16 7.16895 -16 16v16c0 8.83105 7.16895 16 16 16h56v34.1504c-88 12.1396 -152 92.0498 -152 181.689v40.1602
c0 8.83105 7.16895 16 16 16h16c8.83105 0 16 -7.16895 16 -16v-42.2998c0 -66.8105 48.71 -126.59 115.21 -133.08c4.2002 -0.416016 8.33105 -0.62207 12.6396 -0.62207c70.6787 0 128.07 57.3418 128.15 128.002v48c0 8.83105 7.16895 16 16 16h16zM186.67 192
c-5.88965 0 -10.6699 3.58008 -10.6699 8v16c0 4.41992 4.78027 8 10.6699 8h85.3301v-32h-85.3301z" />
    <glyph glyph-name="money-bill-alt-primary" unicode="&#xf3d1;" 
d="M616 384c13.2461 0 24 -10.7539 24 -24v-336c0 -13.2461 -10.7539 -24 -24 -24h-592c-13.2461 0 -24 10.7539 -24 24v336c0 13.2461 10.7539 24 24 24h592zM592 101.22v181.561c-23.3467 11.1143 -42.1055 29.873 -53.2197 53.2197h-437.561
c-11.1143 -23.3467 -29.873 -42.1055 -53.2197 -53.2197v-181.561c23.3467 -11.1143 42.1055 -29.873 53.2197 -53.2197h437.561c11.1143 23.3467 29.873 42.1055 53.2197 53.2197zM352 160c4.41504 0 8 -3.58496 8 -8v-16c0 -4.41504 -3.58496 -8 -8 -8h-64
c-4.41504 0 -8 3.58496 -8 8v16c0 4.41504 3.58496 8 8 8h15.9902v55.4805l-0.470703 -0.310547c-1.26562 -0.841797 -2.78906 -1.34473 -4.42188 -1.34473c-2.77539 0 -5.22266 1.41602 -6.65723 3.56445l-8.88086 13.3105
c-0.84082 1.2666 -1.34473 2.78906 -1.34473 4.42285c0 2.77441 1.41699 5.22168 3.56543 6.65723l15.3301 10.2197c3.7959 2.51855 8.37207 4 13.2656 4h0.0439453h13.5801c4.41504 0 8 -3.58496 8 -8v-88h16z" />
    <glyph glyph-name="blender-primary" unicode="&#xf517;" horiz-adv-x="512" 
d="M416 64c35.3223 0 64 -28.6777 64 -64v-32c0 -17.6611 -14.3389 -32 -32 -32h-320c-17.6611 0 -32 14.3389 -32 32v32c0 35.3223 28.6777 64 64 64h256zM288 -32c17.6611 0 32 14.3389 32 32s-14.3389 32 -32 32s-32 -14.3389 -32 -32s14.3389 -32 32 -32zM328 256
c-4.41504 0 -8 3.58496 -8 8v16c0 4.41504 3.58496 8 8 8h140.36l-8.7207 -32h-131.64zM328 160c-4.41504 0 -8 3.58496 -8 8v16c0 4.41504 3.58496 8 8 8h114.18l-8.71973 -32h-105.46zM328 384h166.54l-8.73047 -32h-157.81c-4.41504 0 -8 3.58496 -8 8v16
c0 4.41504 3.58496 8 8 8z" />
    <glyph glyph-name="broadcast-tower-primary" unicode="&#xf519;" 
d="M503.26 -29.5303c0.785156 -1.88867 1.2373 -3.96387 1.2373 -6.13477c0 -6.66211 -4.08105 -12.3789 -9.87695 -14.7852l-29.5098 -12.3096c-1.88965 -0.786133 -3.96484 -1.23828 -6.1377 -1.23828c-6.65137 0 -12.3594 4.06738 -14.7725 9.84766l-49.2002 118.15h-150
l-49.2305 -118.15c-2.41211 -5.78027 -8.12402 -9.8291 -14.7754 -9.8291c-2.17285 0 -4.24512 0.433594 -6.13379 1.21973l-29.5107 12.3096c-5.78223 2.41211 -9.83301 8.125 -9.83301 14.7773c0 2.17578 0.435547 4.25098 1.22363 6.14258l130.5 313.41
c-7.06641 10.292 -11.2773 22.749 -11.2773 36.1641c0 35.3232 28.6777 64 64 64c35.3232 0 64 -28.6768 64 -64c0 -13.415 -4.13672 -25.8721 -11.2031 -36.1641zM271.62 128h96.7598l-48.3799 116.19z" />
    <glyph glyph-name="broom-primary" unicode="&#xf51a;" 
d="M93.1699 190.29c59.9697 47.71 163.3 40.9404 163.3 40.9404l86.7305 -109.23s-16.6006 -102.29 -76.5703 -150.07c-59.9697 -47.7793 -266.63 -34.1201 -266.63 -34.1201s3.7998 23.1406 11 55.4307l94.6504 112.17c0.878906 1.04395 1.4082 2.39258 1.4082 3.86328
c0 3.31055 -2.68848 6 -6 6c-0.723633 0 -1.41602 -0.128906 -2.05859 -0.363281l-60.4297 -22.0898c14.4297 41.6602 32.7197 80.04 54.5996 97.4697zM435.59 173.81c1.48926 -1.87598 2.37598 -4.25781 2.37598 -6.83789c0 -5.28711 -3.73926 -9.70898 -8.71582 -10.7617
l-58.7998 -12.4502l-86.7305 109.181l25.3301 54.5498c1.74805 3.76367 5.55273 6.375 9.97266 6.375c3.48926 0 6.60156 -1.62793 8.61719 -4.16504z" />
    <glyph glyph-name="chalkboard-primary" unicode="&#xf51b;" 
d="M544 384v-384h-64v64h-192v-64h-192v384h448z" />
    <glyph glyph-name="chalkboard-teacher-primary" unicode="&#xf51c;" 
d="M208 96c61.8145 0 112.002 -50.1738 112.002 -111.988c0 -0.210938 -0.000976562 -0.420898 -0.00195312 -0.631836c-0.139648 -26.2598 -21.7305 -47.3799 -48 -47.3799h-224c-26.2695 0 -47.8604 21.1201 -48 47.3799
c-0.000976562 0.210938 -0.00292969 0.40918 -0.00292969 0.620117c0 61.8145 50.1855 112 112 112h0.0527344c0.0107422 0 0.0224609 -0.00488281 0.0332031 -0.00488281c2.42969 0 4.77051 -0.380859 6.9668 -1.08496c12.8643 -4.33691 26.6621 -6.77832 40.9502 -6.91016
c14.2852 0.130859 28.0791 2.57324 40.9404 6.91016c2.19922 0.704102 4.54395 1.08984 6.97656 1.08984h0.0830078zM160 128c-52.9834 0 -96 43.0166 -96 96s43.0166 96 96 96s96 -43.0166 96 -96s-43.0166 -96 -96 -96zM224 384h352v-288h-64v64h-128v-64h-85.4902
c-16.6572 13.4902 -36.5635 23.3809 -58.1396 28.3701c3.56152 2.89062 6.89844 5.89941 10.1396 9.13965c23.1641 23.1689 37.499 55.2002 37.499 90.5176c0 35.3184 -14.335 67.3145 -37.499 90.4824c-7.92285 7.93164 -16.752 14.7373 -26.5098 20.4004v49.0898z" />
    <glyph glyph-name="church-primary" unicode="&#xf51d;" 
d="M480 173.88v-237.88h-96v96c0 35.3223 -28.6777 64 -64 64s-64 -28.6777 -64 -64v-96h-96v237.88c0.000976562 11.6572 6.21387 21.8457 15.54 27.4404l112.46 67.4795v51.2002h-48c-8.83105 0 -16 7.16895 -16 16v32c0 8.83105 7.16895 16 16 16h48v48
c0 8.83105 7.16895 16 16 16h32c8.83105 0 16 -7.16895 16 -16v-48h48c8.83105 0 16 -7.16895 16 -16v-32c0 -8.83105 -7.16895 -16 -16 -16h-48v-51.2002l112.46 -67.4795c9.32617 -5.59473 15.5391 -15.7832 15.54 -27.4404z" />
    <glyph glyph-name="coins-primary" unicode="&#xf51e;" horiz-adv-x="512" 
d="M192 128c-106 0 -192 35.7998 -192 80s86 80 192 80s192 -35.7998 192 -80s-86 -80 -192 -80zM0 42.7002c41.2998 -29.1006 116.8 -42.7002 192 -42.7002s150.7 13.5996 192 42.7002v-42.7002c0 -35.2998 -86 -64 -192 -64s-192 28.7002 -192 64v42.7002zM0 147.6
c41.2998 -34 116.9 -51.5996 192 -51.5996s150.7 17.5996 192 51.5996v-51.5996c0 -35.2998 -86 -64 -192 -64s-192 28.7002 -192 64v51.5996z" />
    <glyph glyph-name="crow-primary" unicode="&#xf520;" 
d="M464 448c44.1533 0 80 -35.8467 80 -80v-112c0 -106 -86 -192 -192 -192h-186.73l-121.539 -60.7695c-4.05078 -2.01758 -8.66992 -3.18359 -13.498 -3.18359c-16.6787 0 -30.2197 13.541 -30.2197 30.2197c0 9.87305 4.74512 18.6475 12.0771 24.1631l371.91 292.57v21
c0 44.1533 35.8467 80 80 80zM464 344c13.2461 0 24 10.7539 24 24s-10.7539 24 -24 24s-24 -10.7539 -24 -24s10.7539 -24 24 -24z" />
    <glyph glyph-name="crown-primary" unicode="&#xf521;" 
d="M640 272c0 -26.4922 -21.5078 -48 -48 -48c-2.62988 0.0644531 -5.1875 0.335938 -7.7002 0.799805l-72.2998 -192.8h-384l-72.2998 192.8c-2.5127 -0.463867 -5.07031 -0.735352 -7.7002 -0.799805c-0.0878906 0 -0.174805 -0.000976562 -0.262695 -0.000976562
c-26.6904 0 -48.3604 21.6699 -48.3604 48.3604s21.6699 48.3604 48.3604 48.3604s48.3604 -21.6699 48.3604 -48.3604c0 -7.17676 -1.58789 -14.0322 -4.39746 -20.1592l72.2998 -43.4004c4.79297 -2.86328 10.3945 -4.50879 16.3789 -4.50879
c11.9014 0 22.3086 6.45703 27.8213 16.1094l81.5 142.6c-10.8174 8.80469 -17.7324 22.2227 -17.7324 37.2441c0 26.4922 21.5078 48 48 48s48 -21.5078 48 -48c0 -15.0215 -6.85059 -28.4395 -17.668 -37.2441l81.5 -142.6
c5.5127 -9.65234 15.9062 -16.1641 27.8076 -16.1641c5.9834 0 11.5996 1.7002 16.3926 4.56348l72.4004 43.4004c-2.7998 6.00586 -4.3916 12.7432 -4.40039 19.7998c0 26.4922 21.5078 48 48 48s48 -21.5078 48 -48z" />
    <glyph glyph-name="dice-primary" unicode="&#xf522;" 
d="M592 256c26.4922 0 48 -21.5078 48 -48v-224c0 -26.4922 -21.5078 -48 -48 -48h-224c-26.4922 0 -48 21.5078 -48 48v46.4199l136.26 136.26c14.6064 14.666 23.5918 34.957 23.5918 57.2705c0 11.3809 -2.35059 22.2168 -6.5918 32.0498h118.74zM480 72
c13.2461 0 24 10.7539 24 24s-10.7539 24 -24 24s-24 -10.7539 -24 -24s10.7539 -24 24 -24zM96 248c13.2461 0 24 -10.7539 24 -24s-10.7539 -24 -24 -24s-24 10.7539 -24 24s10.7539 24 24 24zM352 200c-13.2461 0 -24 10.7539 -24 24s10.7539 24 24 24
s24 -10.7539 24 -24s-10.7539 -24 -24 -24zM224 120c13.2461 0 24 -10.7539 24 -24s-10.7539 -24 -24 -24s-24 10.7539 -24 24s10.7539 24 24 24zM224 376c13.2461 0 24 -10.7539 24 -24s-10.7539 -24 -24 -24s-24 10.7539 -24 24s10.7539 24 24 24zM224 248
c13.2461 0 24 -10.7539 24 -24s-10.7539 -24 -24 -24s-24 10.7539 -24 24s10.7539 24 24 24z" />
    <glyph glyph-name="dice-five-primary" unicode="&#xf523;" horiz-adv-x="448" 
d="M320 256c-17.6611 0 -32 14.3389 -32 32s14.3389 32 32 32s32 -14.3389 32 -32s-14.3389 -32 -32 -32zM320 128c17.6611 0 32 -14.3389 32 -32s-14.3389 -32 -32 -32s-32 14.3389 -32 32s14.3389 32 32 32zM224 224c17.6611 0 32 -14.3389 32 -32s-14.3389 -32 -32 -32
s-32 14.3389 -32 32s14.3389 32 32 32zM128 320c17.6611 0 32 -14.3389 32 -32s-14.3389 -32 -32 -32s-32 14.3389 -32 32s14.3389 32 32 32zM128 128c17.6611 0 32 -14.3389 32 -32s-14.3389 -32 -32 -32s-32 14.3389 -32 32s14.3389 32 32 32z" />
    <glyph glyph-name="dice-four-primary" unicode="&#xf524;" horiz-adv-x="448" 
d="M128 128c17.6611 0 32 -14.3389 32 -32s-14.3389 -32 -32 -32s-32 14.3389 -32 32s14.3389 32 32 32zM128 320c17.6611 0 32 -14.3389 32 -32s-14.3389 -32 -32 -32s-32 14.3389 -32 32s14.3389 32 32 32zM320 128c17.6611 0 32 -14.3389 32 -32s-14.3389 -32 -32 -32
s-32 14.3389 -32 32s14.3389 32 32 32zM320 256c-17.6611 0 -32 14.3389 -32 32s14.3389 32 32 32s32 -14.3389 32 -32s-14.3389 -32 -32 -32z" />
    <glyph glyph-name="dice-one-primary" unicode="&#xf525;" horiz-adv-x="448" 
d="M256 192c0 -17.6611 -14.3389 -32 -32 -32s-32 14.3389 -32 32s14.3389 32 32 32s32 -14.3389 32 -32z" />
    <glyph glyph-name="dice-six-primary" unicode="&#xf526;" horiz-adv-x="448" 
d="M320 256c-17.6611 0 -32 14.3389 -32 32s14.3389 32 32 32s32 -14.3389 32 -32s-14.3389 -32 -32 -32zM320 224c17.6611 0 32 -14.3389 32 -32s-14.3389 -32 -32 -32s-32 14.3389 -32 32s14.3389 32 32 32zM320 128c17.6611 0 32 -14.3389 32 -32s-14.3389 -32 -32 -32
s-32 14.3389 -32 32s14.3389 32 32 32zM128 320c17.6611 0 32 -14.3389 32 -32s-14.3389 -32 -32 -32s-32 14.3389 -32 32s14.3389 32 32 32zM128 224c17.6611 0 32 -14.3389 32 -32s-14.3389 -32 -32 -32s-32 14.3389 -32 32s14.3389 32 32 32zM128 128
c17.6611 0 32 -14.3389 32 -32s-14.3389 -32 -32 -32s-32 14.3389 -32 32s14.3389 32 32 32z" />
    <glyph glyph-name="dice-three-primary" unicode="&#xf527;" horiz-adv-x="448" 
d="M320 128c17.6611 0 32 -14.3389 32 -32s-14.3389 -32 -32 -32s-32 14.3389 -32 32s14.3389 32 32 32zM224 224c17.6611 0 32 -14.3389 32 -32s-14.3389 -32 -32 -32s-32 14.3389 -32 32s14.3389 32 32 32zM128 320c17.6611 0 32 -14.3389 32 -32s-14.3389 -32 -32 -32
s-32 14.3389 -32 32s14.3389 32 32 32z" />
    <glyph glyph-name="dice-two-primary" unicode="&#xf528;" horiz-adv-x="448" 
d="M128 320c17.6611 0 32 -14.3389 32 -32s-14.3389 -32 -32 -32s-32 14.3389 -32 32s14.3389 32 32 32zM320 128c17.6611 0 32 -14.3389 32 -32s-14.3389 -32 -32 -32s-32 14.3389 -32 32s14.3389 32 32 32z" />
    <glyph glyph-name="divide-primary" unicode="&#xf529;" horiz-adv-x="448" 
d="M0 208c0 17.6611 14.3389 32 32 32h384c17.6611 0 32 -14.3389 32 -32v-32c0 -17.6611 -14.3389 -32 -32 -32h-384c-17.6611 0 -32 14.3389 -32 32v32z" />
    <glyph glyph-name="door-closed-primary" unicode="&#xf52a;" 
d="M464 448c26.4697 0 48 -22.7803 48 -50.7998v-397.2h-384v397.2c0 28.0195 21.5303 50.7998 48 50.7998h288zM416 160c17.6611 0 32 14.3389 32 32s-14.3389 32 -32 32s-32 -14.3389 -32 -32s14.3389 -32 32 -32z" />
    <glyph glyph-name="door-open-primary" unicode="&#xf52b;" 
d="M312.24 447c20.2002 5.23047 39.7598 -10.5996 39.7598 -32.1797v-414.82h-256v365.08c0 15.2197 10 28.4795 24.2402 32.1797zM264 160c13.25 0 24 14.3301 24 32s-10.75 32 -24 32s-24 -14.3301 -24 -32s10.75 -32 24 -32z" />
    <glyph glyph-name="equals-primary" unicode="&#xf52c;" horiz-adv-x="448" 
d="M448 304v-32c0 -17.6611 -14.3389 -32 -32 -32h-384c-17.6611 0 -32 14.3389 -32 32v32c0 17.6611 14.3389 32 32 32h384c17.6611 0 32 -14.3389 32 -32z" />
    <glyph glyph-name="frog-primary" unicode="&#xf52e;" horiz-adv-x="576" 
d="M368 416c44.1533 0 80 -35.8467 80 -80s-35.8467 -80 -80 -80s-80 35.8467 -80 80s35.8467 80 80 80zM368 368c-17.6611 0 -32 -14.3389 -32 -32h64c0 17.6611 -14.3389 32 -32 32z" />
    <glyph glyph-name="glasses-primary" unicode="&#xf530;" horiz-adv-x="576" 
d="M574.1 167.62c1.2373 -4.97363 1.89941 -10.1465 1.90039 -15.5v-70.25c0 -62.8701 -51.5801 -113.87 -115.2 -113.87h-37.1201c-60.2793 0 -110.37 45.9297 -114.87 105.37l-2.92969 38.6299h-35.75l-2.92969 -38.6299
c-4.50977 -59.4297 -54.6006 -105.37 -114.88 -105.37h-37.1201c-63.6201 0 -115.2 51 -115.2 113.88v70.25c0.000976562 5.35059 0.663086 10.5205 1.90039 15.4902l45.3398 181.729c9.54297 38.248 44.1631 66.6357 85.3486 66.6357
c9.72852 0 19.0898 -1.58301 27.8408 -4.50488l15.25 -5.08008c6.35352 -2.12012 10.9316 -8.11816 10.9316 -15.1807c0 -1.75977 -0.285156 -3.45508 -0.811523 -5.04004l-5.05957 -15.1797c-2.11426 -6.36426 -8.11719 -10.9521 -15.1875 -10.9521
c-1.76172 0 -3.45703 0.285156 -5.04297 0.8125l-13.1699 4.38965c-10.8701 3.62012 -22.9902 3.57031 -33.1494 -1.73047c-10.0859 -5.1748 -17.624 -14.5479 -20.3809 -25.8096l-38.46 -153.8c25.6699 7.97461 52.9541 12.3682 81.21 12.46
c34.7803 0 73.9902 -7.00977 114.86 -26.75h73.1797c40.8506 19.7402 80.0801 26.7402 114.851 26.7402c28.2529 -0.09375 55.5332 -4.48633 81.2002 -12.46l-38.46 153.819c-2.75586 11.2627 -10.2891 20.6377 -20.3701 25.8203
c-10.1602 5.2998 -22.29 5.34961 -33.1602 1.72949l-13.1797 -4.38965c-1.58789 -0.52832 -3.28418 -0.821289 -5.04785 -0.821289c-7.06348 0 -13.0635 4.58691 -15.1826 10.9414l-5.05957 15.1504c-0.530273 1.58984 -0.824219 3.28906 -0.824219 5.05664
c0 7.06348 4.58789 13.0645 10.9434 15.1826l15.25 5.08008c8.75293 2.92383 18.124 4.49121 27.8545 4.49121c41.1885 0 75.8008 -28.3779 85.3359 -66.6309zM203.38 78.2002l3.12988 41.2197c-21.6982 8.29004 -45.3359 12.9092 -69.9297 12.9199
c-25.4287 -0.140625 -49.9277 -4.7334 -72.5801 -12.9199v-37.54c0 -27.5098 23 -49.8799 51.2002 -49.8896h37.1201c26.6602 0 49.0596 20.2998 51.0596 46.21zM460.8 32c28.2002 0 51.2002 22.3604 51.2002 49.8701v37.54
c-22.6455 8.19141 -47.1387 12.79 -72.5596 12.9395c-24.6016 -0.00976562 -48.2461 -4.62891 -69.9502 -12.9199l3.12988 -41.2197c1.95996 -25.9102 24.3896 -46.21 51.0596 -46.21h37.1201z" />
    <glyph glyph-name="greater-than-primary" unicode="&#xf531;" horiz-adv-x="384" 
 />
    <glyph glyph-name="greater-than-equal-primary" unicode="&#xf532;" horiz-adv-x="448" 
d="M55.3398 204.17l175.44 68.0498l-175.561 68.0898c-18.29 6 -27.7393 24.2607 -21.0996 40.79l12.0303 29.9004c6.63965 16.5498 26.8496 25.0801 45.1494 19.0801l301.7 -119.98c13.7695 -4.51953 23 -16.6094 23 -30.1699v-16
c0 -13.5596 -9.20996 -25.6494 -23 -30.1699l-301.39 -119.819c-18.3906 -6 -38.7002 2.54004 -45.3799 19.1494l-12.0908 30.0801c-6.67969 16.6104 2.86035 34.9697 21.2002 41z" />
    <glyph glyph-name="helicopter-primary" unicode="&#xf533;" 
d="M384 320c123.71 0 224 -100.29 224 -224c0 -17.6611 -14.3389 -32 -32 -32h-272c-10.4717 0 -19.7607 5.01465 -25.5996 12.7998l-86.4004 115.2l-160 64l-31.5098 108.12c-0.311523 1.24414 -0.477539 2.53906 -0.477539 3.87988c0 8.82617 7.16211 15.9932 15.9873 16
h40c5.23633 0 9.87988 -2.50684 12.7998 -6.40039l43.2002 -57.5996h272zM416 128h124.79c-12.79 62.5596 -62.2402 111.7 -124.79 124.49v-124.49z" />
    <glyph glyph-name="kiwi-bird-primary" unicode="&#xf535;" horiz-adv-x="576" 
d="M464 336c61.8145 0 112.001 -50.1855 112.001 -112s-50.1855 -112 -112 -112h-16c-54.4199 -0.0996094 -106 -19.3301 -151.67 -49.0596c-2.71973 -1.77051 -5.5 -3.44043 -8.33008 -5.05078v-0.199219c-28.1016 -16.2598 -60.917 -25.6904 -95.6904 -25.6904h-0.30957
c-106 0 -192 86 -192 192s86 192 192 192c0.103516 0 0.405273 -0.121094 0.508789 -0.121094c34.7734 0 67.3896 -9.30957 95.4912 -25.5693v-0.129883c4.28613 -2.47949 8.45898 -5.12598 12.5186 -7.93945c41.9082 -29 92.9834 -46.168 147.74 -46.2402h15.7402z
M464.001 200c13.2461 0 24 10.7539 24 24s-10.7539 24 -24 24s-24 -10.7539 -24 -24s10.7539 -24 24 -24z" />
    <glyph glyph-name="less-than-primary" unicode="&#xf536;" horiz-adv-x="384" 
 />
    <glyph glyph-name="less-than-equal-primary" unicode="&#xf537;" horiz-adv-x="448" 
d="M392.77 340.31l-175.56 -68.0898l175.44 -68.0498c18.3896 -6 27.8896 -24.3896 21.21 -41l-12.0908 -30.0801c-6.66992 -16.6094 -27 -25.1797 -45.3799 -19.1494l-301.39 119.869c-13.79 4.52051 -23 16.6104 -23 30.1904v16c0 13.5703 9.20996 25.6602 23 30.1797
l301.71 120c18.29 6 38.5098 -2.5293 45.1504 -19.0596l12 -29.9199c6.64941 -16.6201 -2.80078 -34.8906 -21.0908 -40.8906z" />
    <glyph glyph-name="memory-primary" unicode="&#xf538;" 
d="M224 320v-128h-64v128h64zM352 320v-128h-64v128h64zM480 320v-128h-64v128h64zM0 96h640v-96h-64v26.6699c0 8.83105 -7.16895 16 -16 16s-16 -7.16895 -16 -16v-26.6699h-128v26.6699c0 8.83105 -7.16895 16 -16 16s-16 -7.16895 -16 -16v-26.6699h-128v26.6699
c0 8.83105 -7.16895 16 -16 16s-16 -7.16895 -16 -16v-26.6699h-128v26.6699c0 8.83105 -7.16895 16 -16 16s-16 -7.16895 -16 -16v-26.6699h-64v96z" />
    <glyph glyph-name="microphone-alt-slash-primary" unicode="&#xf539;" 
d="M3.37012 416.55l19.6299 25.2705c2.92773 3.77051 7.50488 6.19922 12.6445 6.19922c3.7002 0 7.11426 -1.27734 9.8252 -3.38965l588.351 -454.729c3.76855 -2.92871 6.19629 -7.50391 6.19629 -12.6426c0 -3.69141 -1.27246 -7.09863 -3.37695 -9.80762
l-19.6396 -25.2705c-2.92871 -3.76855 -7.50293 -6.19434 -12.6406 -6.19434c-3.69727 0 -7.1084 1.27539 -9.81934 3.38477l-588.36 454.729c-3.76562 2.92871 -6.18945 7.50195 -6.18945 12.6377c0 3.69434 1.27344 7.10352 3.37988 9.8125z" />
    <glyph glyph-name="money-bill-wave-primary" unicode="&#xf53a;" 
d="M621.16 393.54c11.6094 -4.87012 18.8398 -16.8301 18.8398 -29.4697v-317.25c0 -18.4902 -15 -31.8203 -32.2402 -31.8203c-3.60645 0.00878906 -7.08691 0.584961 -10.3496 1.62988c-30.8906 9.7998 -61.7598 13.7197 -92.6504 13.7197
c-123.17 0 -246.34 -62.3496 -369.51 -62.3496c-38.7998 0 -77.6201 6.19043 -116.41 22.4697c-11.6094 4.86035 -18.8398 16.8301 -18.8398 29.46v317.261c0 18.4893 15 31.8096 32.25 31.8096c3.60645 -0.00488281 7.08594 -0.578125 10.3496 -1.62012
c30.8906 -9.7998 61.7607 -13.7197 92.6504 -13.7197c123.16 0 246.31 62.3398 369.5 62.3398c38.7998 0 77.6201 -6.19043 116.41 -22.46zM308.23 45.71c63.3994 16.0498 128.96 32.6396 196.52 32.6201c0.160156 0 -0.0849609 0.0146484 0.0751953 0.0146484
c13.7617 0 27.3545 -0.723633 40.7451 -2.13477c11.3213 17.7275 27.3047 31.8965 46.4297 41v197.58c-22.6396 10.7686 -40.9521 28.7148 -52.1797 51.0898c-11.4385 1.40723 -22.7822 2.12012 -34.5977 2.12012h-0.50293c-55.5996 0 -112.609 -14.4297 -172.96 -29.6904
c-63.3896 -16.0498 -128.95 -32.6396 -196.51 -32.6396c-0.160156 0 0.0830078 -0.0146484 -0.078125 -0.0146484c-13.7637 0 -27.3594 0.723633 -40.752 2.13477c-11.3184 -17.7266 -27.2988 -31.8945 -46.4199 -41v-197.58
c22.627 -10.7754 40.9277 -28.7207 52.1504 -51.0898c11.4375 -1.40723 22.7812 -2.12012 34.5977 -2.12012h0.501953c55.5996 0 112.62 14.4297 172.98 29.71z" />
    <glyph glyph-name="money-bill-wave-alt-primary" unicode="&#xf53b;" 
d="M621.16 393.54c11.6094 -4.87012 18.8398 -16.8301 18.8398 -29.4697v-317.25c0 -18.4902 -15 -31.8203 -32.2402 -31.8203c-3.60547 0.0107422 -7.08594 0.586914 -10.3496 1.62988c-30.8906 9.7998 -61.7598 13.7197 -92.6504 13.7197
c-123.17 0 -246.34 -62.3496 -369.51 -62.3496c-38.7998 0 -77.6201 6.19043 -116.41 22.4697c-11.6094 4.86035 -18.8398 16.8301 -18.8398 29.46v317.261c0 18.4893 15 31.8096 32.25 31.8096c3.60742 -0.00195312 7.08691 -0.575195 10.3496 -1.62012
c30.8906 -9.7998 61.7607 -13.7197 92.6504 -13.7197c123.16 0 246.31 62.3398 369.5 62.3398c38.7998 0 77.6201 -6.19043 116.41 -22.46zM320 96c44.1699 0 80 43 80 96s-35.8203 96 -80 96s-80 -43 -80 -96s35.8096 -96 80 -96z" />
    <glyph glyph-name="money-check-primary" unicode="&#xf53c;" 
d="M568 96c4.41504 0 8 -3.58496 8 -8v-16c0 -4.41504 -3.58496 -8 -8 -8h-112c-4.41504 0 -8 3.58496 -8 8v16c0 4.41504 3.58496 8 8 8h112zM376 192c4.41504 0 8 -3.58496 8 -8v-16c0 -4.41504 -3.58496 -8 -8 -8h-304c-4.41504 0 -8 3.58496 -8 8v16
c0 4.41504 3.58496 8 8 8h304zM248 96c4.41504 0 8 -3.58496 8 -8v-16c0 -4.41504 -3.58496 -8 -8 -8h-176c-4.41504 0 -8 3.58496 -8 8v16c0 4.41504 3.58496 8 8 8h176zM624 416c8.83105 0 16 -7.16895 16 -16v-48h-640v48c0 8.83105 7.16895 16 16 16h608z" />
    <glyph glyph-name="money-check-alt-primary" unicode="&#xf53d;" 
d="M144 279.88v16.1201c0 4.41504 3.58496 8 8 8h16c4.41504 0 8 -3.58496 8 -8v-16.29c11.6973 -0.598633 22.5615 -4.74805 31.3701 -11.3496c1.88184 -1.46484 3.09375 -3.75098 3.09375 -6.31738c0 -2.2959 -0.972656 -4.36328 -2.52344 -5.82324l-11.7607 -11.2197
c-1.45898 -1.3291 -3.39844 -2.13965 -5.52539 -2.13965c-1.70117 0 -3.29297 0.522461 -4.60449 1.40918c-3.70215 2.34766 -8.11621 3.72461 -12.8193 3.73047h-28.1104c-6.5 0 -11.7998 -5.91992 -11.7998 -13.1904c0 -5.94922 3.60938 -11.1895 8.76953 -12.7295
l45 -13.5c18.5898 -5.58008 31.5801 -23.4199 31.5801 -43.3896c0 -24.5303 -19 -44.4404 -42.6699 -45.0703v-16.1201c0 -4.41504 -3.58496 -8 -8 -8h-16c-4.41504 0 -8 3.58496 -8 8v16.29c-11.6953 0.603516 -22.5586 4.75195 -31.3701 11.3496
c-1.88184 1.46484 -3.09375 3.75098 -3.09375 6.31738c0 2.2959 0.972656 4.36328 2.52344 5.82324l11.75 11.2197c1.45898 1.3291 3.39844 2.13965 5.52637 2.13965c1.7002 0 3.29297 -0.522461 4.60449 -1.40918c3.7041 -2.34375 8.11816 -3.71973 12.8193 -3.73047
h28.1104c6.5 0 11.7998 5.91992 11.7998 13.1904c0 5.94922 -3.61035 11.1895 -8.76953 12.7295l-45 13.5c-18.5908 5.58008 -31.5801 23.4199 -31.5801 43.3896c0 24.5205 19.0498 44.4404 42.6797 45.0703z" />
    <glyph glyph-name="not-equal-primary" unicode="&#xf53e;" horiz-adv-x="448" 
d="M416 144c17.6611 0 32 -14.3389 32 -32v-32c0 -17.6611 -14.3389 -32 -32 -32h-384c-17.6611 0 -32 14.3389 -32 32v32c0 17.6611 14.3389 32 32 32h384zM416 336c17.6611 0 32 -14.3389 32 -32v-32c0 -17.6611 -14.3389 -32 -32 -32h-384c-17.6611 0 -32 14.3389 -32 32
v32c0 17.6611 14.3389 32 32 32h384z" />
    <glyph glyph-name="palette-primary" unicode="&#xf53f;" horiz-adv-x="512" 
d="M96 192c17.6611 0 32 -14.3389 32 -32s-14.3389 -32 -32 -32s-32 14.3389 -32 32s14.3389 32 32 32zM128 320c17.6611 0 32 -14.3389 32 -32s-14.3389 -32 -32 -32s-32 14.3389 -32 32s14.3389 32 32 32zM256 384c17.6611 0 32 -14.3389 32 -32s-14.3389 -32 -32 -32
s-32 14.3389 -32 32s14.3389 32 32 32zM384 320c17.6611 0 32 -14.3389 32 -32s-14.3389 -32 -32 -32s-32 14.3389 -32 32s14.3389 32 32 32z" />
    <glyph glyph-name="parking-primary" unicode="&#xf540;" horiz-adv-x="448" 
d="M240 320c52.9834 0 96 -43.0166 96 -96s-43.0166 -96 -96 -96h-48v-48c0 -8.83105 -7.16895 -16 -16 -16h-32c-8.83105 0 -16 7.16895 -16 16v224c0 8.83105 7.16895 16 16 16h96zM240 192c17.6611 0 32 14.3389 32 32s-14.3389 32 -32 32h-48v-64h48z" />
    <glyph glyph-name="percentage-primary" unicode="&#xf541;" horiz-adv-x="384" 
d="M363.31 295.44l-274.75 -274.75c-5.79199 -5.79102 -13.791 -9.375 -22.6201 -9.375s-16.8369 3.58398 -22.6299 9.375l-22.6191 22.6191c-5.79102 5.79297 -9.375 13.792 -9.375 22.6211s3.58398 16.8369 9.375 22.6289l274.75 274.75
c5.79199 5.79102 13.791 9.375 22.6201 9.375s16.8369 -3.58398 22.6299 -9.375l22.6191 -22.6191c5.79102 -5.79297 9.375 -13.792 9.375 -22.6211s-3.58398 -16.8369 -9.375 -22.6289z" />
    <glyph glyph-name="project-diagram-primary" unicode="&#xf542;" 
d="M384 128c17.6611 0 32 -14.3389 32 -32v-128c0 -17.6611 -14.3389 -32 -32 -32h-128c-17.6611 0 -32 14.3389 -32 32v128c0 17.6611 14.3389 32 32 32h128zM160 448c17.6611 0 32 -14.3389 32 -32v-128c0 -17.6611 -14.3389 -32 -32 -32h-128
c-17.6611 0 -32 14.3389 -32 32v128c0 17.6611 14.3389 32 32 32h128zM608 448c17.6611 0 32 -14.3389 32 -32v-128c0 -17.6611 -14.3389 -32 -32 -32h-128c-17.6611 0 -32 14.3389 -32 32v128c0 17.6611 14.3389 32 32 32h128z" />
    <glyph glyph-name="receipt-primary" unicode="&#xf543;" horiz-adv-x="384" 
d="M312 304c4.41504 0 8 -3.58496 8 -8v-16c0 -4.41504 -3.58496 -8 -8 -8h-240c-4.41504 0 -8 3.58496 -8 8v16c0 4.41504 3.58496 8 8 8h240zM312 208c4.41504 0 8 -3.58496 8 -8v-16c0 -4.41504 -3.58496 -8 -8 -8h-240c-4.41504 0 -8 3.58496 -8 8v16
c0 4.41504 3.58496 8 8 8h240zM312 112c4.41504 0 8 -3.58496 8 -8v-16c0 -4.41504 -3.58496 -8 -8 -8h-240c-4.41504 0 -8 3.58496 -8 8v16c0 4.41504 3.58496 8 8 8h240z" />
    <glyph glyph-name="ruler-primary" unicode="&#xf545;" 
d="M112.66 200.85l59.6396 -101.52c0.671875 -1.15039 1.06934 -2.49023 1.06934 -3.91699c0 -2.91016 -1.60059 -5.44824 -3.96875 -6.7832l-13.8008 -7.7998c-1.17285 -0.675781 -2.53613 -1.0752 -3.98535 -1.0752c-2.94824 0 -5.52637 1.59863 -6.91406 3.97559
l-59.7002 101.399zM278.06 294.73l59.8008 -101.7c0.670898 -1.15039 1.06836 -2.49121 1.06836 -3.91699c0 -2.91016 -1.60059 -5.44922 -3.96875 -6.7832l-13.7998 -7.7998c-1.17285 -0.675781 -2.53711 -1.0752 -3.98633 -1.0752
c-2.94824 0 -5.52637 1.59766 -6.91406 3.97461l-59.7002 101.69zM195.37 247.8l27.8896 -47.3701c0.675781 -1.15039 1.07715 -2.49414 1.07715 -3.92383c0 -2.91016 -1.60547 -5.44727 -3.97656 -6.77539l-13.8008 -7.80078
c-1.17285 -0.674805 -2.53613 -1.0752 -3.98535 -1.0752c-2.94824 0 -5.52637 1.59863 -6.91406 3.97559l-27.8105 47.3398zM503.37 287.03c0.675781 -1.15137 1.06641 -2.52441 1.06641 -3.95508c0 -2.90918 -1.60449 -5.44727 -3.97656 -6.77539l-13.7998 -7.7998
c-1.17285 -0.674805 -2.53711 -1.0752 -3.98633 -1.0752c-2.94824 0 -5.52637 1.59863 -6.91406 3.97559l-59.7002 101.6l27.6104 15.7305zM360.87 341.73l27.8896 -47.4307c0.675781 -1.15039 1.07715 -2.49414 1.07715 -3.92383
c0 -2.91016 -1.60547 -5.44727 -3.97656 -6.77637l-13.8008 -7.7998c-1.17285 -0.674805 -2.53613 -1.0752 -3.98535 -1.0752c-2.94824 0 -5.52637 1.59863 -6.91406 3.97559l-27.9004 47.2998z" />
    <glyph glyph-name="ruler-combined-primary" unicode="&#xf546;" horiz-adv-x="512" 
d="M96 184c0 4.41504 3.58496 8 8 8h56v-32h-56c-4.41504 0 -8 3.58496 -8 8v16zM96 376c0 4.41504 3.58496 8 8 8h56v-32h-56c-4.41504 0 -8 3.58496 -8 8v16zM96 280c0 4.41504 3.58496 8 8 8h56v-32h-56c-4.41504 0 -8 3.58496 -8 8v16zM416 96h32v-56
c0 -4.41504 -3.58496 -8 -8 -8h-16c-4.41504 0 -8 3.58496 -8 8v56zM224 40v56h32v-56c0 -4.41504 -3.58496 -8 -8 -8h-16c-4.41504 0 -8 3.58496 -8 8zM320 40v56h32v-56c0 -4.41504 -3.58496 -8 -8 -8h-16c-4.41504 0 -8 3.58496 -8 8z" />
    <glyph glyph-name="ruler-horizontal-primary" unicode="&#xf547;" horiz-adv-x="576" 
d="M176 232v88h32v-88c0 -4.41504 -3.58496 -8 -8 -8h-16c-4.41504 0 -8 3.58496 -8 8zM80 232v88h32v-88c0 -4.41504 -3.58496 -8 -8 -8h-16c-4.41504 0 -8 3.58496 -8 8zM272 232v88h32v-88c0 -4.41504 -3.58496 -8 -8 -8h-16c-4.41504 0 -8 3.58496 -8 8zM464 320h32v-88
c0 -4.41504 -3.58496 -8 -8 -8h-16c-4.41504 0 -8 3.58496 -8 8v88zM368 232v88h32v-88c0 -4.41504 -3.58496 -8 -8 -8h-16c-4.41504 0 -8 3.58496 -8 8z" />
    <glyph glyph-name="ruler-vertical-primary" unicode="&#xf548;" horiz-adv-x="256" 
d="M160 152c0 4.41504 3.58496 8 8 8h88v-32h-88c-4.41504 0 -8 3.58496 -8 8v16zM160 56c0 4.41504 3.58496 8 8 8h88v-32h-88c-4.41504 0 -8 3.58496 -8 8v16zM160 248c0 4.41504 3.58496 8 8 8h88v-32h-88c-4.41504 0 -8 3.58496 -8 8v16zM168 352h88v-32h-88
c-4.41504 0 -8 3.58496 -8 8v16c0 4.41504 3.58496 8 8 8z" />
    <glyph glyph-name="school-primary" unicode="&#xf549;" 
d="M497.75 336c8.60742 -5.73828 14.25 -15.5137 14.25 -26.625v-0.0449219v-373.33h-128v144c0 8.83105 -7.16895 16 -16 16h-96c-8.83105 0 -16 -7.16895 -16 -16v-144h-128v373.34c0 0.0117188 -0.0322266 0.00390625 -0.0322266 0.015625
c0 11.1104 5.6748 20.9062 14.2822 26.6445l160 106.63c5.07422 3.38281 11.2324 5.35547 17.7822 5.35547c6.55078 0 12.6436 -1.97266 17.7178 -5.35547zM320 192c44.1533 0 80 35.8467 80 80s-35.8467 80 -80 80s-80 -35.8467 -80 -80s35.8467 -80 80 -80z" />
    <glyph glyph-name="screwdriver-primary" unicode="&#xf54a;" horiz-adv-x="512" 
d="M63.6104 -53.0801l-52.7002 52.7002c-6.74512 6.74707 -10.918 16.0654 -10.918 26.3496c0 10.2852 4.17285 19.6123 10.918 26.3604l117.09 117.08c13.4287 13.0537 31.7529 21.0967 51.9404 21.0967c41.1406 0 74.54 -33.4004 74.54 -74.54
c0 -20.1904 -8.02344 -38.5381 -21.0801 -51.9668l-117.08 -117.08c-6.74512 -6.74902 -16.0635 -10.9268 -26.3506 -10.9268c-10.2861 0 -19.6143 4.17773 -26.3594 10.9268z" />
    <glyph glyph-name="shoe-prints-primary" unicode="&#xf54b;" 
d="M128 352c0 35.3223 28.6777 64 64 64h32v-128h-32c-35.3223 0 -64 28.6777 -64 64zM491.42 440.81c109.48 -23.5098 148.58 -75.5898 148.58 -120.81c0 -64 -84.1797 -96 -174.54 -96c-34.9102 0 -76.1602 13.1201 -104.729 32c-24.79 16.3799 -44.5303 32 -104.73 32
v128l57.5303 16.0098c26.21 7.23047 53.0098 13.0703 80.3096 15c32.6904 2.32031 65.5801 0.669922 97.5801 -6.2002z" />
    <glyph glyph-name="smoking-ban-primary" unicode="&#xf54d;" horiz-adv-x="512" 
d="M256 448c141.4 0 256 -114.6 256 -256s-114.6 -256 -256 -256s-256 114.6 -256 256s114.6 256 256 256zM256 0c41.3545 0 79.8438 13.2959 111.1 35.7002l-267.399 267.399c-22.4043 -31.2559 -35.7002 -69.7451 -35.7002 -111.1c0 -105.9 86.0996 -192 192 -192z
M412.3 80.9004c22.4043 31.2559 35.7002 69.7451 35.7002 111.1c0 105.9 -86.0996 192 -192 192c-41.3545 0 -79.8438 -13.2959 -111.1 -35.7002z" />
    <glyph glyph-name="store-alt-primary" unicode="&#xf54f;" 
d="M634.55 305.8c14.1006 -21.2998 -1.09961 -49.7998 -26.5996 -49.7998h-575.9c-25.5996 0 -40.7998 28.5 -26.5996 49.7998l85.2998 128c5.71387 8.57715 15.4727 14.2324 26.542 14.2324c0.0263672 0 0.0322266 -0.0322266 0.0576172 -0.0322266h405.2h0.0117188
c11.1172 0 20.9062 -5.61719 26.6885 -14.2002z" />
    <glyph glyph-name="stream-primary" unicode="&#xf550;" horiz-adv-x="512" 
d="M432 416c8.83105 0 16 -7.16895 16 -16v-64c0 -8.83105 -7.16895 -16 -16 -16h-416c-8.83105 0 -16 7.16895 -16 16v64c0 8.83105 7.16895 16 16 16h416zM432 64c8.83105 0 16 -7.16895 16 -16v-64c0 -8.83105 -7.16895 -16 -16 -16h-416c-8.83105 0 -16 7.16895 -16 16
v64c0 8.83105 7.16895 16 16 16h416z" />
    <glyph glyph-name="stroopwafel-primary" unicode="&#xf551;" horiz-adv-x="512" 
d="M442.68 163.72c1.44434 -1.44727 2.33789 -3.44727 2.33789 -5.65137c0 -2.18848 -0.880859 -4.17285 -2.30762 -5.61816l-11.3096 -11.3105c-1.44824 -1.44629 -3.4502 -2.3418 -5.65625 -2.3418c-2.20703 0 -4.20605 0.895508 -5.6543 2.3418l-28.29 28.29
l-45.25 -45.25l33.9404 -33.9395l17 17c1.44727 1.44629 3.44922 2.3418 5.65625 2.3418c2.20605 0 4.20605 -0.895508 5.65332 -2.3418l11.3105 -11.3105c1.44629 -1.44727 2.3418 -3.44922 2.3418 -5.65625c0 -2.20605 -0.895508 -4.20508 -2.3418 -5.65332l-17 -17
l17 -17c1.44629 -1.44824 2.3418 -3.44922 2.3418 -5.65625s-0.895508 -4.20605 -2.3418 -5.6543l-11.3105 -11.3096c-1.44727 -1.44727 -3.44922 -2.34277 -5.65625 -2.34277c-2.20605 0 -4.20605 0.895508 -5.65332 2.34277l-17 17l-17 -17
c-1.44824 -1.44727 -3.44922 -2.34277 -5.65625 -2.34277s-4.20605 0.895508 -5.6543 2.34277l-11.3398 11.2598c-1.44727 1.44824 -2.3418 3.44922 -2.3418 5.65625s0.894531 4.20605 2.3418 5.6543l17 17l-33.9395 33.9395l-45.2607 -45.2598l28.29 -28.29
c1.44727 -1.44824 2.34277 -3.44922 2.34277 -5.65625s-0.895508 -4.20605 -2.34277 -5.65332l-11.3096 -11.3105c-1.44824 -1.44727 -3.44922 -2.3418 -5.65625 -2.3418s-4.20605 0.894531 -5.6543 2.3418l-28.3096 28.2705l-28.2598 -28.2207
c-1.44824 -1.44629 -3.44922 -2.3418 -5.65625 -2.3418s-4.20605 0.895508 -5.6543 2.3418l-11.3096 11.3105c-1.44727 1.44727 -2.34277 3.44922 -2.34277 5.65625c0 2.20605 0.895508 4.20605 2.34277 5.65332l28.29 28.29l-45.25 45.2598l-33.9404 -33.9395l17 -17
c1.44727 -1.44824 2.34277 -3.44922 2.34277 -5.65625s-0.895508 -4.20605 -2.34277 -5.6543l-11.3096 -11.3096c-1.44824 -1.44727 -3.44922 -2.34277 -5.65625 -2.34277s-4.20605 0.895508 -5.6543 2.34277l-17 17l-17 -17
c-1.44727 -1.44727 -3.44922 -2.34277 -5.65527 -2.34277c-2.20703 0 -4.20605 0.895508 -5.6543 2.34277l-11.29 11.21c-1.44727 1.44824 -2.34277 3.44922 -2.34277 5.65625s0.895508 4.20605 2.34277 5.65332l17 17l-17 17
c-1.44727 1.44824 -2.34277 3.4502 -2.34277 5.65625c0 2.20703 0.895508 4.20605 2.34277 5.6543l11.2598 11.3398c1.44824 1.44727 3.44922 2.34277 5.65625 2.34277s4.20605 -0.895508 5.6543 -2.34277l17 -17l33.9395 33.9404l-45.25 45.25l-28.29 -28.29
c-1.44727 -1.44727 -3.44922 -2.34277 -5.65625 -2.34277c-2.20605 0 -4.20508 0.895508 -5.65332 2.34277l-11.3398 11.3301c-1.44727 1.44727 -2.34277 3.44922 -2.34277 5.65527c0 2.20703 0.895508 4.20605 2.34277 5.6543l28.29 28.29l-28.29 28.29
c-1.44727 1.44824 -2.34277 3.44922 -2.34277 5.65625s0.895508 4.20605 2.34277 5.65332l11.3096 11.3105c1.44824 1.44727 3.44922 2.3418 5.65625 2.3418s4.20605 -0.894531 5.6543 -2.3418l28.3691 -28.3203l45.25 45.2598l-33.9395 33.9404l-17 -17
c-1.44824 -1.44727 -3.44922 -2.34277 -5.65625 -2.34277s-4.20605 0.895508 -5.6543 2.34277l-11.3096 11.3096c-1.44727 1.44824 -2.34277 3.4502 -2.34277 5.65625c0 2.20703 0.895508 4.20605 2.34277 5.6543l17 17l-17 17
c-1.44727 1.44824 -2.34277 3.44922 -2.34277 5.65625c0 2.20605 0.895508 4.20605 2.34277 5.65332l11.2002 11.2803c1.44727 1.44727 3.44922 2.34277 5.65625 2.34277c2.20605 0 4.20605 -0.895508 5.65332 -2.34277l17 -17l17 17
c1.44824 1.44727 3.44922 2.34277 5.65625 2.34277s4.20605 -0.895508 5.6543 -2.34277l11.3398 -11.25c1.44727 -1.44824 2.3418 -3.44922 2.3418 -5.65625s-0.894531 -4.20605 -2.3418 -5.65332l-17 -17l33.9395 -33.9404l45.2607 45.25l-28.29 28.29
c-1.44727 1.44824 -2.34277 3.44922 -2.34277 5.65625s0.895508 4.20605 2.34277 5.65332l11.3096 11.3105c1.44824 1.44727 3.44922 2.3418 5.65625 2.3418s4.20605 -0.894531 5.6543 -2.3418l28.3096 -28.2705l28.29 28.29
c1.44824 1.44727 3.44922 2.34277 5.65625 2.34277s4.20605 -0.895508 5.65332 -2.34277l11.2803 -11.3896c1.44727 -1.44824 2.34277 -3.44922 2.34277 -5.65625s-0.895508 -4.20605 -2.34277 -5.65332l-28.29 -28.29l45.2598 -45.25l33.9404 33.9395l-17 17
c-1.44727 1.44824 -2.34277 3.44922 -2.34277 5.65625s0.895508 4.20605 2.34277 5.6543l11.3096 11.3096c1.44824 1.44727 3.4502 2.34277 5.65625 2.34277c2.20703 0 4.20605 -0.895508 5.6543 -2.34277l17 -17l17 17c1.44824 1.44727 3.44922 2.34277 5.65625 2.34277
c2.20605 0 4.20605 -0.895508 5.65332 -2.34277l11.2803 -11.2002c1.44727 -1.44727 2.34277 -3.44922 2.34277 -5.65625c0 -2.20605 -0.895508 -4.20605 -2.34277 -5.65332l-17 -17l17 -17c1.44727 -1.44824 2.34277 -3.44922 2.34277 -5.65625
s-0.895508 -4.20605 -2.34277 -5.6543l-11.25 -11.3398c-1.44824 -1.44727 -3.44922 -2.3418 -5.65625 -2.3418s-4.20605 0.894531 -5.65332 2.3418l-17 17l-33.9404 -33.9395l45.25 -45.2607l28.29 28.29c1.44824 1.44727 3.44922 2.34277 5.65625 2.34277
s4.20605 -0.895508 5.65332 -2.34277l11.3105 -11.3096c1.44727 -1.44824 2.3418 -3.44922 2.3418 -5.65625s-0.894531 -4.20605 -2.3418 -5.6543l-28.2705 -28.3096zM256 305.14l-45.25 -45.25l45.25 -45.2598l45.25 45.25zM188.11 146.75l45.2598 45.25l-45.25 45.2598
l-45.2598 -45.2598zM256 78.8604l45.2598 45.2598l-45.2598 45.25l-45.25 -45.25zM323.89 146.75l45.25 45.25l-45.25 45.2598l-45.2598 -45.2598z" />
    <glyph glyph-name="toolbox-primary" unicode="&#xf552;" horiz-adv-x="512" 
d="M336 416c26.4922 0 48 -21.5078 48 -48v-80h-64v64h-128v-64h-64v80c0 26.4922 21.5078 48 48 48h160zM176 160c8.83105 0 16 -7.16895 16 -16v-64c0 -8.83105 -7.16895 -16 -16 -16h-32c-8.83105 0 -16 7.16895 -16 16v64c0 8.83105 7.16895 16 16 16h32zM368 160
c8.83105 0 16 -7.16895 16 -16v-64c0 -8.83105 -7.16895 -16 -16 -16h-32c-8.83105 0 -16 7.16895 -16 16v64c0 8.83105 7.16895 16 16 16h32z" />
    <glyph glyph-name="walking-primary" unicode="&#xf554;" horiz-adv-x="320" 
d="M73.5801 62.2002l20.71 51.5c8.70996 -11.9004 -7.88965 6.59961 47.4004 -53.7002l-13.5 -33.7998c-3.27441 -8.12012 -8.11133 -15.3965 -14.1904 -21.5l-59.4199 -59.4004c-5.76172 -5.58301 -13.623 -9.01367 -22.2725 -9.01367c-17.6611 0 -32 14.3389 -32 32
c0 8.6748 3.45898 16.5479 9.07227 22.3135l50 50.1006c6.14062 6.0498 10.9922 13.3398 14.2002 21.5zM302.48 202.9c10.459 -5.36816 17.5723 -16.2744 17.5723 -28.8301c0 -5.08105 -1.17285 -9.88965 -3.2627 -14.1699
c-5.1377 -10.4727 -15.9219 -17.6406 -28.3643 -17.6406c-5.08008 0 -9.88281 1.20312 -14.1357 3.33984l-23.29 11.8008c-14.9395 7.59961 -26.418 20.8623 -31.71 37l-5.5 16.5l-17.1904 -68.7002l45.5 -49.7002c7.07031 -7.71973 12.2764 -17.2266 14.9004 -27.7002
l22.1904 -89c0.680664 -2.59668 1.04883 -5.29395 1.04883 -8.10254c0 -17.6611 -14.3389 -32 -32 -32c-15.1152 0 -27.7979 10.5029 -31.1396 24.6025l-18.3096 73.2998c-2.63867 10.4648 -7.83789 19.9688 -14.8896 27.7002l-59.9004 65.4004
c-10.4277 11.4189 -16.792 26.6084 -16.792 43.2754c0 5.35254 0.65625 10.5527 1.8916 15.5244l15.1904 60.7002l-26.79 -10.7998c-7.22168 -2.94824 -13.0801 -8.43652 -16.5 -15.4004l-6.73047 -13.5996c-5.1377 -10.4727 -15.9209 -17.6406 -28.3633 -17.6406
c-5.08105 0 -9.88281 1.20312 -14.1367 3.33984c-10.4268 5.30469 -17.5264 16.1514 -17.5264 28.6426c0 5.12012 1.20117 9.96094 3.33691 14.2578l6.68945 13.5996c10.3223 20.918 27.9717 37.3857 49.7109 46.2002c37.3994 15.1006 57.2891 25.2998 93.2891 25.2002
c46.5 -0.0996094 87.5 -31.2998 102.211 -75.9004l9.68945 -29.3994z" />
    <glyph glyph-name="wallet-primary" unicode="&#xf555;" horiz-adv-x="512" 
d="M461.2 320c28.0195 0 50.7998 -21.5303 50.7998 -48v-256c0 -26.4697 -22.7998 -48 -50.7998 -48h-397.2c-35.3223 0 -64 28.6777 -64 64v320c0 -17.6611 14.3389 -32 32 -32h429.2zM416 112c17.6611 0 32 14.3389 32 32s-14.3389 32 -32 32s-32 -14.3389 -32 -32
s14.3389 -32 32 -32z" />
    <glyph glyph-name="search-minus-secondary" unicode="&#x10f010;" horiz-adv-x="512" 
d="M208 368c-0.120117 0 -0.249023 0.0195312 -0.369141 0.0195312c-35.2148 0 -67.1055 -14.3467 -90.1406 -37.5098c-23.1699 -23.1689 -37.4912 -55.1875 -37.4912 -90.5098c0 -70.6455 57.3555 -128 128 -128c70.6455 0 128 57.3545 128 128
c0 70.6445 -57.3545 128 -127.999 128zM208 448c114.88 0 208 -93.1201 208 -208s-93.1201 -208 -208 -208s-208 93.1201 -208 208s93.1201 208 208 208z" />
    <glyph glyph-name="plus-secondary" unicode="&#x10f067;" horiz-adv-x="448" 
d="M176 0v144h96v-144c0 -17.6611 -14.3389 -32 -32 -32h-32c-17.6611 0 -32 14.3389 -32 32zM240 416c17.6611 0 32 -14.3389 32 -32v-144h-96v144c0 17.6611 14.3389 32 32 32h32z" />
    <glyph glyph-name="plane-secondary" unicode="&#x10f072;" horiz-adv-x="576" 
d="M214.86 256l-49.0303 171.61c-0.398438 1.39551 -0.614258 2.86621 -0.614258 4.38965c0 8.8291 7.16602 15.9971 15.9941 16h65.5c0.00292969 0 -0.00390625 0.0175781 -0.000976562 0.0175781c5.94922 0 11.1436 -3.25391 13.9014 -8.07715l105.1 -183.94h-150.85z
M165.86 -43.5996l49 171.6h150.85l-105.11 -183.94c-2.75684 -4.82227 -7.94141 -8.05957 -13.8896 -8.05957h-65.5c-8.81543 0.0185547 -15.9648 7.17773 -15.9648 15.9971c0 1.52637 0.214844 3.00391 0.615234 4.40332z" />
    <glyph glyph-name="wrench-secondary" unicode="&#x10f0ad;" horiz-adv-x="512" 
d="M322 167.53l-213.41 -213.44c-11.5273 -11.1953 -27.2695 -18.0742 -44.5928 -18.0742c-35.3223 0 -64 28.6768 -64 64c0 17.3223 6.89746 33.0469 18.0928 44.5742l213.351 213.32c14.3398 -42.5176 47.8525 -76.1455 90.2998 -90.6406zM63.3496 -24.6504
c13.2461 0 24 10.7549 24 24c0 13.2461 -10.7539 24 -24 24c-13.2451 0 -24 -10.7539 -24 -24c0 -13.2451 10.7549 -24 24 -24z" />
    <glyph glyph-name="money-bill-secondary" unicode="&#x10f0d6;" 
d="M101.22 336h437.561c11.1143 -23.3467 29.873 -42.1055 53.2197 -53.2197v-181.561c-23.3467 -11.1143 -42.1055 -29.873 -53.2197 -53.2197h-437.561c-11.1143 23.3467 -29.873 42.1055 -53.2197 53.2197v181.561c23.3467 11.1143 42.1055 29.873 53.2197 53.2197z
M320 96c44.1699 0 80 43 80 96s-35.8203 96 -80 96s-80 -43 -80 -96s35.8096 -96 80 -96z" />
    <glyph glyph-name="sitemap-secondary" unicode="&#x10f0e8;" 
d="M104 128h-48v57.5898c0.0224609 21.1895 17.2207 38.3877 38.4102 38.4102h201.59v64h48v-64h201.59c21.1865 -0.0273438 38.3828 -17.2236 38.4102 -38.4102v-57.5898h-48v48h-192v-48h-48v48h-192v-48z" />
    <glyph glyph-name="microphone-secondary" unicode="&#x10f130;" horiz-adv-x="352" 
d="M80 192v160c0 52.9834 43.0166 96 96 96s96 -43.0166 96 -96v-160c0 -52.9834 -43.0166 -96 -96 -96s-96 43.0166 -96 96z" />
    <glyph glyph-name="microphone-slash-secondary" unicode="&#x10f131;" 
d="M436.61 141.55c6.64648 15.4238 10.3291 32.4189 10.3291 50.2686c0 0.0302734 0.0605469 0.151367 0.0605469 0.181641v48c0 8.83105 7.16895 16 16 16h16c8.83105 0 16 -7.16895 16 -16v-48v-0.219727c0 -28.8564 -7.12109 -56.2598 -19.54 -80.25zM399 -16
c8.83105 0 16 -7.16895 16 -16v-16c0 -8.83105 -7.16895 -16 -16 -16h-160c-8.83105 0 -16 7.16895 -16 16v16c0 8.83105 7.16895 16 16 16h56.0703v34.1904c-88 12.1396 -152 92.0498 -152 181.689v6.85059l52 -40.2207c12.4395 -53.2197 55.3301 -96.3994 111.18 -101.85
c6.94043 -0.669922 13.6396 -0.200195 20.3496 0.200195l50.4004 -39c-10.8193 -3.74219 -22.3418 -6.5127 -34 -8.08008v-33.7803h56zM410.2 162l-187.2 144.65v45.3496c0 52.9834 43.0166 96 96 96s96 -43.0166 96 -96v-160
c0 -0.0117188 -0.0234375 -0.0351562 -0.0234375 -0.046875c0 -10.458 -1.67676 -20.5264 -4.77637 -29.9531z" />
    <glyph glyph-name="balance-scale-secondary" unicode="&#x10f24e;" 
d="M544 -16v-32c0 -8.83105 -7.16895 -16 -16 -16h-416c-8.83105 0 -16 7.16895 -16 16v32c0 8.83105 7.16895 16 16 16h176v294.75c-23.5166 10.2656 -41.1006 31.5244 -46.3896 57.25h-129.61c-8.83105 0 -16 7.16895 -16 16v32c0 8.83105 7.16895 16 16 16h144.36
c14.4521 19.4541 37.6035 32.0693 63.6787 32.0693c26.0742 0 49.1484 -12.6152 63.6006 -32.0693h144.36c8.83105 0 16 -7.16895 16 -16v-32c0 -8.83105 -7.16895 -16 -16 -16h-129.61c-5.28906 -25.7256 -22.873 -46.9844 -46.3896 -57.25v-294.75h176
c8.83105 0 16 -7.16895 16 -16z" />
    <glyph glyph-name="microphone-alt-secondary" unicode="&#x10f3c9;" horiz-adv-x="352" 
d="M80 192v160c0 52.9834 43.0166 96 96 96s96 -43.0166 96 -96h-85.3301c-5.88965 0 -10.6699 -3.58008 -10.6699 -8v-16c0 -4.41992 4.78027 -8 10.6699 -8h85.3301v-32h-85.3301c-5.88965 0 -10.6699 -3.58008 -10.6699 -8v-16c0 -4.41992 4.78027 -8 10.6699 -8h85.3301
v-32h-85.3301c-5.88965 0 -10.6699 -3.58008 -10.6699 -8v-16c0 -4.41992 4.78027 -8 10.6699 -8h85.3301c0 -52.9834 -43.0166 -96 -96 -96s-96 43.0166 -96 96z" />
    <glyph glyph-name="money-bill-alt-secondary" unicode="&#x10f3d1;" 
d="M101.22 336h437.561c11.1143 -23.3467 29.873 -42.1055 53.2197 -53.2197v-181.561c-23.3467 -11.1143 -42.1055 -29.873 -53.2197 -53.2197h-437.561c-11.1143 23.3467 -29.873 42.1055 -53.2197 53.2197v181.561c23.3467 11.1143 42.1055 29.873 53.2197 53.2197z
M320 80c53 0 96 50.1396 96 112s-43 112 -96 112s-96 -50.1602 -96 -112s43 -112 96 -112z" />
    <glyph glyph-name="blender-secondary" unicode="&#x10f517;" horiz-adv-x="512" 
d="M328 160h105.45l-17.4502 -64h-256l-8.73047 96h-103.27c-26.4922 0 -48 21.5078 -48 48v160c0 26.4922 21.5078 48 48 48h464l-17.4502 -64h-166.55c-4.41504 0 -8 -3.58496 -8 -8v-16c0 -4.41504 3.58496 -8 8 -8h157.82l-17.46 -64h-140.36
c-4.41504 0 -8 -3.58496 -8 -8v-16c0 -4.41504 3.58496 -8 8 -8h131.64l-17.46 -64h-114.18c-4.41504 0 -8 -3.58496 -8 -8v-16c0 -4.41504 3.58496 -8 8 -8zM64 256h81.46l-11.6396 128h-69.8203v-128z" />
    <glyph glyph-name="broadcast-tower-secondary" unicode="&#x10f519;" 
d="M184.67 384c0.0253906 0 0.0449219 -0.00585938 0.0703125 -0.00585938c8.69238 0 15.75 -7.05762 15.75 -15.75c0 -1.90527 -0.338867 -3.73242 -0.959961 -5.42383c-4.8584 -13.3486 -7.50879 -27.8467 -7.50879 -42.8662
c0 -15.0205 2.65039 -29.4258 7.50879 -42.7744c0.618164 -1.68848 0.961914 -3.51758 0.961914 -5.41992c0 -8.69824 -7.06152 -15.7598 -15.7598 -15.7598h-0.0625h-33.7295c-0.0458984 0 -0.0859375 -0.000976562 -0.131836 -0.000976562
c-7.17285 0 -13.25 4.73145 -15.2783 11.2412c-4.88477 16.7529 -7.50391 34.417 -7.50391 52.7393s2.61914 36.0371 7.50391 52.79c2.03125 6.50488 8.09961 11.2314 15.2695 11.2314c0.046875 0 0.09375 -0.000976562 0.140625 -0.000976562h33.7295zM89.9199 424.66
c-16.54 -31.1406 -49.6104 -115.97 0.219727 -209.29c1.20898 -2.23633 1.90625 -4.8125 1.90625 -7.53027c0 -8.74219 -7.09766 -15.8398 -15.8398 -15.8398h-0.0664062h-34.8398c-0.03125 0 -0.0517578 -0.0146484 -0.0830078 -0.0146484
c-6.39941 0 -11.9316 3.74121 -14.5264 9.1543c-23.5703 50.5303 -26.6904 94.1104 -26.6904 118.86c0.0214844 42.2451 9.38086 82.6016 25.8896 118.69c2.58301 5.50684 8.16797 9.30957 14.6475 9.30957h0.0927734h35.3701
c8.72949 -0.00878906 15.8047 -7.11523 15.8047 -15.8467c0 -2.70996 -0.682617 -5.26172 -1.88477 -7.49316zM614.06 438.66l-0.0595703 0.0498047c16.5635 -36.0752 25.8008 -76.6846 25.8008 -118.951s-9.2373 -82.3936 -25.8008 -118.469
c-2.58398 -5.49609 -8.16211 -9.29004 -14.6318 -9.29004h-0.0585938h-35.2295c-8.75195 0.0078125 -15.8457 7.13281 -15.8457 15.8867c0 2.7666 0.708984 5.36816 1.95605 7.63281c48.1396 89.8105 17.9893 174.94 -0.280273 209.23
c-1.18066 2.21387 -1.86133 4.75781 -1.86133 7.44043c0 8.72559 7.08398 15.8096 15.8105 15.8096h0.0507812h35.4199c0.0244141 0 0.0400391 0.0146484 0.0644531 0.0146484c6.49023 0 12.0918 -3.83203 14.665 -9.35449zM489.06 384
c0.0605469 0.000976562 0.115234 0.000976562 0.175781 0.000976562c7.16211 0 13.2275 -4.73438 15.2344 -11.2412c4.88477 -16.752 7.50391 -34.4141 7.50391 -52.7344s-2.61914 -36.0332 -7.50391 -52.7852c-2.02832 -6.50977 -8.09961 -11.2412 -15.2725 -11.2412
c-0.0458984 0 -0.0917969 0.000976562 -0.137695 0.000976562h-33.7295c-0.0253906 0 -0.0449219 0.00585938 -0.0703125 0.00585938c-8.69238 0 -15.75 7.05762 -15.75 15.75c0 1.90527 0.338867 3.73242 0.959961 5.42383c4.8584 13.3486 7.50879 27.8467 7.50879 42.8662
c0 15.0205 -2.65039 29.4258 -7.50879 42.7744c-0.618164 1.68848 -0.961914 3.51758 -0.961914 5.41992c0 8.69824 7.06152 15.7598 15.7598 15.7598h0.0625h33.7295z" />
    <glyph glyph-name="broom-secondary" unicode="&#x10f51a;" 
d="M636.53 417c2.17676 -2.7334 3.47852 -6.19434 3.47852 -9.95703c0 -5.05957 -2.33691 -9.58008 -6.00879 -12.5127l-232.5 -177.8l-39.7197 50l232.479 177.8c2.72461 2.17383 6.17676 3.47363 9.92969 3.47363c5.0498 0 9.55957 -2.33594 12.4805 -6.00391z" />
    <glyph glyph-name="chalkboard-secondary" unicode="&#x10f51b;" 
d="M624 0c8.83105 0 16 -7.16895 16 -16v-32c0 -8.83105 -7.16895 -16 -16 -16h-608c-8.83105 0 -16 7.16895 -16 16v32c0 8.83105 7.16895 16 16 16h16v408c0 22.0762 17.9238 40 40 40h496c22.0762 0 40 -17.9238 40 -40v-408h16zM96 0h448v384h-448v-384z" />
    <glyph glyph-name="chalkboard-teacher-secondary" unicode="&#x10f51c;" 
d="M640 398.41v-316.82c0 -27.3398 -21.5303 -49.5898 -48 -49.5898h-248.21c-0.900391 2.53027 -1.86035 5.0498 -2.90039 7.54004c-9.32715 22.2363 -23.8926 41.5059 -42.3799 56.46h277.49v288h-352v-49.0996c-17.5391 10.1455 -37.9268 16.2988 -59.46 17h-0.330078
c-1.40039 0 -2.7998 0.0800781 -4.20996 0.0800781v46.4297c0 27.3398 21.5303 49.5898 48 49.5898h384c26.4697 0 48 -22.25 48 -49.5898z" />
    <glyph glyph-name="church-secondary" unicode="&#x10f51d;" 
d="M620.61 81.46c11.4111 -4.89258 19.3896 -16.2158 19.3896 -29.4102v-0.0498047v-100c0 -8.83105 -7.16895 -16 -16 -16h-112v192zM0 52c0 0.0166016 -0.0234375 0.0175781 -0.0234375 0.0341797c0 13.1934 8.00195 24.5332 19.4131 29.4258l108.61 46.54v-192h-112
c-8.83105 0 -16 7.16895 -16 16v100z" />
    <glyph glyph-name="coins-secondary" unicode="&#x10f51e;" horiz-adv-x="512" 
d="M416 136.6v63.6006c38.7002 6.89941 72.7998 18.0996 96 34.5v-42.7002c0 -23.7002 -38.7002 -44.2998 -96 -55.4004zM411.3 231.7c-8.7998 23.7002 -30.5 42.8994 -60 57.2002c64.2002 3.19922 125.2 16.6992 160.7 41.7998v-42.7002
c0 -24.2998 -40.7002 -45.5 -100.7 -56.2998zM512 384c0 -35.2998 -86 -64 -192 -64s-192 28.7002 -192 64s86 64 192 64s192 -28.7002 192 -64z" />
    <glyph glyph-name="crow-secondary" unicode="&#x10f520;" 
d="M447.27 -39.6699c0.46582 -1.2793 0.720703 -2.66016 0.720703 -4.09961c0 -5.18262 -3.28418 -9.60352 -7.89062 -11.2803l-22.5498 -8.20996c-1.2793 -0.46582 -2.66016 -0.719727 -4.09961 -0.719727c-5.18262 0 -9.60254 3.28418 -11.2803 7.88965l-44.6504 120.17
c16.8525 0.469727 33.2305 3.14941 48.7305 7.7002zM312.87 64l38.4502 -103.68c0.46582 -1.28027 0.727539 -2.66113 0.727539 -4.10059c0 -5.18262 -3.29199 -9.60254 -7.89746 -11.2793l-22.5508 -8.20996c-1.2793 -0.46582 -2.66016 -0.728516 -4.09961 -0.728516
c-5.18262 0 -9.60254 3.29199 -11.2803 7.89844l-45.2197 120.1h51.8701zM640 352l-96 -16v32c0 0.0371094 -0.0371094 0.138672 -0.0371094 0.176758c0 17.9385 -5.94238 34.5 -15.9629 47.8232h16c53 0 96 -28.6504 96 -64z" />
    <glyph glyph-name="crown-secondary" unicode="&#x10f521;" 
d="M544 -16v-32c0 -8.83105 -7.16895 -16 -16 -16h-416c-8.83105 0 -16 7.16895 -16 16v32c0 8.83105 7.16895 16 16 16h416c8.83105 0 16 -7.16895 16 -16z" />
    <glyph glyph-name="dice-secondary" unicode="&#x10f522;" 
d="M433.63 258.7c8.88086 -8.88379 14.377 -21.165 14.377 -34.707s-5.49609 -25.8096 -14.377 -34.6934l-174.939 -174.93c-8.88281 -8.88086 -21.1621 -14.376 -34.7021 -14.376s-25.8066 5.49512 -34.6885 14.376l-174.93 174.939
c-8.88086 8.88281 -14.376 21.1621 -14.376 34.7021s5.49512 25.8066 14.376 34.6885l174.939 174.93c8.88281 8.88086 21.1621 14.376 34.7021 14.376s25.8066 -5.49512 34.6885 -14.376zM96 200c13.2461 0 24 10.7539 24 24s-10.7539 24 -24 24s-24 -10.7539 -24 -24
s10.7539 -24 24 -24zM224 72c13.2461 0 24 10.7539 24 24s-10.7539 24 -24 24s-24 -10.7539 -24 -24s10.7539 -24 24 -24zM224 200c13.2461 0 24 10.7539 24 24s-10.7539 24 -24 24s-24 -10.7539 -24 -24s10.7539 -24 24 -24zM224 328c13.2461 0 24 10.7539 24 24
s-10.7539 24 -24 24s-24 -10.7539 -24 -24s10.7539 -24 24 -24zM352 200c13.2461 0 24 10.7539 24 24s-10.7539 24 -24 24s-24 -10.7539 -24 -24s10.7539 -24 24 -24z" />
    <glyph glyph-name="dice-five-secondary" unicode="&#x10f523;" horiz-adv-x="448" 
d="M384 416c35.3223 0 64 -28.6777 64 -64v-320c0 -35.3223 -28.6777 -64 -64 -64h-320c-35.3223 0 -64 28.6777 -64 64v320c0 35.3223 28.6777 64 64 64h320zM128 64c17.6611 0 32 14.3389 32 32s-14.3389 32 -32 32s-32 -14.3389 -32 -32s14.3389 -32 32 -32zM128 256
c17.6611 0 32 14.3389 32 32s-14.3389 32 -32 32s-32 -14.3389 -32 -32s14.3389 -32 32 -32zM224 160c17.6611 0 32 14.3389 32 32s-14.3389 32 -32 32s-32 -14.3389 -32 -32s14.3389 -32 32 -32zM320 64c17.6611 0 32 14.3389 32 32s-14.3389 32 -32 32
s-32 -14.3389 -32 -32s14.3389 -32 32 -32zM320 256c17.6611 0 32 14.3389 32 32s-14.3389 32 -32 32s-32 -14.3389 -32 -32s14.3389 -32 32 -32z" />
    <glyph glyph-name="dice-four-secondary" unicode="&#x10f524;" horiz-adv-x="448" 
d="M384 416c35.3223 0 64 -28.6777 64 -64v-320c0 -35.3223 -28.6777 -64 -64 -64h-320c-35.3223 0 -64 28.6777 -64 64v320c0 35.3223 28.6777 64 64 64h320zM128 64c17.6611 0 32 14.3389 32 32s-14.3389 32 -32 32s-32 -14.3389 -32 -32s14.3389 -32 32 -32zM128 256
c17.6611 0 32 14.3389 32 32s-14.3389 32 -32 32s-32 -14.3389 -32 -32s14.3389 -32 32 -32zM320 64c17.6611 0 32 14.3389 32 32s-14.3389 32 -32 32s-32 -14.3389 -32 -32s14.3389 -32 32 -32zM320 256c17.6611 0 32 14.3389 32 32s-14.3389 32 -32 32
s-32 -14.3389 -32 -32s14.3389 -32 32 -32z" />
    <glyph glyph-name="dice-one-secondary" unicode="&#x10f525;" horiz-adv-x="448" 
d="M384 416c35.3223 0 64 -28.6777 64 -64v-320c0 -35.3223 -28.6777 -64 -64 -64h-320c-35.3223 0 -64 28.6777 -64 64v320c0 35.3223 28.6777 64 64 64h320zM224 160c17.6611 0 32 14.3389 32 32s-14.3389 32 -32 32s-32 -14.3389 -32 -32s14.3389 -32 32 -32z" />
    <glyph glyph-name="dice-six-secondary" unicode="&#x10f526;" horiz-adv-x="448" 
d="M384 416c35.3223 0 64 -28.6777 64 -64v-320c0 -35.3223 -28.6777 -64 -64 -64h-320c-35.3223 0 -64 28.6777 -64 64v320c0 35.3223 28.6777 64 64 64h320zM128 64c17.6611 0 32 14.3389 32 32s-14.3389 32 -32 32s-32 -14.3389 -32 -32s14.3389 -32 32 -32zM128 160
c17.6611 0 32 14.3389 32 32s-14.3389 32 -32 32s-32 -14.3389 -32 -32s14.3389 -32 32 -32zM128 256c17.6611 0 32 14.3389 32 32s-14.3389 32 -32 32s-32 -14.3389 -32 -32s14.3389 -32 32 -32zM320 64c17.6611 0 32 14.3389 32 32s-14.3389 32 -32 32
s-32 -14.3389 -32 -32s14.3389 -32 32 -32zM320 160c17.6611 0 32 14.3389 32 32s-14.3389 32 -32 32s-32 -14.3389 -32 -32s14.3389 -32 32 -32zM320 256c17.6611 0 32 14.3389 32 32s-14.3389 32 -32 32s-32 -14.3389 -32 -32s14.3389 -32 32 -32z" />
    <glyph glyph-name="dice-three-secondary" unicode="&#x10f527;" horiz-adv-x="448" 
d="M384 416c35.3223 0 64 -28.6777 64 -64v-320c0 -35.3223 -28.6777 -64 -64 -64h-320c-35.3223 0 -64 28.6777 -64 64v320c0 35.3223 28.6777 64 64 64h320zM128 256c17.6611 0 32 14.3389 32 32s-14.3389 32 -32 32s-32 -14.3389 -32 -32s14.3389 -32 32 -32zM224 160
c17.6611 0 32 14.3389 32 32s-14.3389 32 -32 32s-32 -14.3389 -32 -32s14.3389 -32 32 -32zM320 64c17.6611 0 32 14.3389 32 32s-14.3389 32 -32 32s-32 -14.3389 -32 -32s14.3389 -32 32 -32z" />
    <glyph glyph-name="dice-two-secondary" unicode="&#x10f528;" horiz-adv-x="448" 
d="M384 416c35.3223 0 64 -28.6777 64 -64v-320c0 -35.3223 -28.6777 -64 -64 -64h-320c-35.3223 0 -64 28.6777 -64 64v320c0 35.3223 28.6777 64 64 64h320zM128 256c17.6611 0 32 14.3389 32 32s-14.3389 32 -32 32s-32 -14.3389 -32 -32s14.3389 -32 32 -32zM320 64
c17.6611 0 32 14.3389 32 32s-14.3389 32 -32 32s-32 -14.3389 -32 -32s14.3389 -32 32 -32z" />
    <glyph glyph-name="divide-secondary" unicode="&#x10f529;" horiz-adv-x="448" 
d="M224 288c-35.3223 0 -64 28.6777 -64 64s28.6777 64 64 64s64 -28.6777 64 -64s-28.6777 -64 -64 -64zM224 96c35.3223 0 64 -28.6777 64 -64s-28.6777 -64 -64 -64s-64 28.6777 -64 64s28.6777 64 64 64z" />
    <glyph glyph-name="door-closed-secondary" unicode="&#x10f52a;" 
d="M640 -16v-32c0 -8.83105 -7.16895 -16 -16 -16h-608c-8.83105 0 -16 7.16895 -16 16v32c0 8.83105 7.16895 16 16 16h608c8.83105 0 16 -7.16895 16 -16z" />
    <glyph glyph-name="door-open-secondary" unicode="&#x10f52b;" 
d="M0 -16c0 8.83105 7.16895 16 16 16h336v-64h-336c-8.83105 0 -16 7.16895 -16 16v32zM624 0c8.83105 0 16 -7.16895 16 -16v-32c0 -8.83105 -7.16895 -16 -16 -16h-144v384h-96v64h112c26.4697 0 48 -22.1904 48 -49.4502v-334.55h80z" />
    <glyph glyph-name="equals-secondary" unicode="&#x10f52c;" horiz-adv-x="448" 
d="M448 112v-32c0 -17.6611 -14.3389 -32 -32 -32h-384c-17.6611 0 -32 14.3389 -32 32v32c0 17.6611 14.3389 32 32 32h384c17.6611 0 32 -14.3389 32 -32z" />
    <glyph glyph-name="frog-secondary" unicode="&#x10f52e;" horiz-adv-x="576" 
d="M576 -16c0 -8.83105 -7.16895 -16 -16 -16h-90.3799l-118.53 125.91c5.07031 54.1494 -29.9297 85.0596 -40.7998 93.21c-17.4492 12.9883 -39.0713 20.6787 -62.4756 20.6787s-45.2051 -7.69043 -62.6543 -20.6787l-34.7803 -26.1201
c-3.89062 -2.9209 -6.40918 -7.57227 -6.40918 -12.8076c0 -8.83398 7.17188 -16.0059 16.0059 -16.0059c3.59863 0 6.94922 1.20508 9.62305 3.21387l32.7607 24.5996c20.6895 15.5303 48.3496 20.8096 72.2393 10.8799c44.0605 -18.3203 57.8506 -70.3701 33.71 -106.6
l-35.7998 -48.2803h79.4902c17.6611 0 32 -14.3389 32 -32c0 -8.83105 -7.16895 -16 -16 -16h-304c-34.9199 0 -63.8896 28 -64 63c-0.5 166.8 126.69 303.9 289.33 319.45c-0.209961 -1.15039 -0.400391 -2.32031 -0.560547 -3.49023
c-0.499023 -3.62305 -0.759766 -7.24219 -0.769531 -11c0 -47.54 39.29 -80 80 -80c46 0 80 37.6104 80 80c-0.0107422 4.98242 -0.469727 9.79492 -1.33984 14.5303c3 -1 59.4102 -19.6201 98.8594 -41.2305c18.208 -9.8457 30.5879 -29.1123 30.5879 -51.248
c0 -21.8223 -12.0312 -40.7832 -29.8174 -50.752l-154.44 -86.6094l98.5205 -104.65h53.6299c17.6611 0 32 -14.3389 32 -32z" />
    <glyph glyph-name="glasses-secondary" unicode="&#x10f530;" horiz-adv-x="576" 
d="M64 119.42c22.6514 8.18945 47.1514 12.7861 72.5801 12.9297c24.5938 -0.0107422 48.2314 -4.62988 69.9297 -12.9199l-3.12988 -41.2197c-1.96973 -25.9102 -24.3994 -46.21 -51.0596 -46.21h-37.1201c-28.2002 0 -51.2002 22.3701 -51.2002 49.8799v37.54z
M512 81.8701c0 -27.5098 -23 -49.8701 -51.2002 -49.8799h-37.1094c-26.6709 0 -49.0605 20.2998 -51.0605 46.21l-3.12988 41.2197c21.7051 8.29102 45.3496 12.9092 69.9502 12.9199c25.418 -0.147461 49.9072 -4.74316 72.5498 -12.9297v-37.54z" />
    <glyph glyph-name="greater-than-secondary" unicode="&#x10f531;" horiz-adv-x="384" 
d="M18.4902 90l218.51 101.9l-218.47 101.85c-10.959 5.10742 -18.5615 16.2246 -18.5615 29.1025c0 4.83203 1.11523 9.42578 3.03125 13.5371l13.5801 29.0801c5.10742 10.959 16.2246 18.5615 29.1025 18.5615c4.83203 0 9.42578 -1.11523 13.5371 -3.03125
l306.3 -142.84c10.9307 -5.09082 18.4873 -16.1582 18.4902 -29v-34.2305c-0.000976562 -12.8398 -7.55371 -23.9062 -18.4795 -29l-306.471 -142.93c-4.10156 -1.91309 -8.67578 -2.98242 -13.498 -2.98242c-12.8418 0 -23.9375 7.53613 -29.0312 18.4629l-13.5303 29
c-1.91016 4.09863 -2.97656 8.66895 -2.97656 13.4863c0 12.8438 7.53711 23.9404 18.4668 29.0332z" />
    <glyph glyph-name="greater-than-equal-secondary" unicode="&#x10f532;" horiz-adv-x="448" 
d="M24 48h400c13.2461 0 24 -10.7539 24 -24v-48c0 -13.2461 -10.7539 -24 -24 -24h-400c-13.2461 0 -24 10.7539 -24 24v48c0 13.2461 10.7539 24 24 24z" />
    <glyph glyph-name="helicopter-secondary" unicode="&#x10f533;" 
d="M635.37 -10.8096c2.86523 -2.93555 4.63965 -6.94824 4.63965 -11.3701c0 -4.90918 -2.17773 -9.31445 -5.62012 -12.3008c-33.1494 -29.0498 -53.5693 -29.5195 -68.4492 -29.5195h-325.94c-8.83105 0 -16 7.16895 -16 16v32.1396c0 8.83105 7.16895 16 16 16h325.94
c10.7998 0 17.5498 4.48047 24.6396 11.25c2.91211 2.87012 6.91504 4.6416 11.3232 4.6416c4.40723 0 8.4043 -1.77148 11.3164 -4.6416zM320 320v64h-176c-8.83105 0 -16 7.16895 -16 16v32c0 8.83105 7.16895 16 16 16h416c8.83105 0 16 -7.16895 16 -16v-32
c0 -8.83105 -7.16895 -16 -16 -16h-176v-64h-64z" />
    <glyph glyph-name="kiwi-bird-secondary" unicode="&#x10f535;" horiz-adv-x="576" 
d="M144 38v-54c0 -8.83105 -7.16895 -16 -16 -16h-16c-8.83105 0 -16 7.16895 -16 16v73.6904c14.7705 -8.56738 31.0703 -15.3135 48 -19.6904zM576 224v-240c-0.00195312 -7.46289 -5.13184 -13.7373 -12.0498 -15.5c-1.26562 -0.322266 -2.58594 -0.496094 -3.9502 -0.5
c-0.0107422 0 -0.0117188 -0.0166016 -0.0224609 -0.0166016c-6.06348 0 -11.3438 3.37988 -14.0576 8.35645l-72.54 136.05c57.3809 4.82324 102.62 52.9912 102.62 111.61zM208 32.6797c16.6104 1.36426 32.8613 4.92188 48 10.2705v-58.9502
c0 -8.83105 -7.16895 -16 -16 -16h-16c-8.83105 0 -16 7.16895 -16 16v48.6797z" />
    <glyph glyph-name="less-than-secondary" unicode="&#x10f536;" horiz-adv-x="384" 
d="M381 47.6104l-13.5596 -29.0801c-5.10742 -10.9609 -16.2256 -18.5654 -29.1055 -18.5654c-4.83398 0 -9.43164 1.11719 -13.5449 3.03516l-306.31 142.84c-10.9268 5.09375 -18.4795 16.1602 -18.4805 29v34.2402c0.000976562 12.8398 7.55371 23.9072 18.4805 29
l306.46 142.92c4.10156 1.91309 8.67578 2.98242 13.498 2.98242c12.8418 0 23.9375 -7.53613 29.0312 -18.4629l13.5205 -29c1.91113 -4.09961 2.97852 -8.6709 2.97852 -13.4902c0 -12.8398 -7.53418 -23.9346 -18.459 -29.0293l-218.51 -101.9l218.46 -101.85
c10.9639 -5.10254 18.5723 -16.2207 18.5723 -29.1016c0 -4.83203 -1.11523 -9.42676 -3.03223 -13.5381z" />
    <glyph glyph-name="less-than-equal-secondary" unicode="&#x10f537;" horiz-adv-x="448" 
d="M24 48h400c13.2461 0 24 -10.7539 24 -24v-48c0 -13.2461 -10.7539 -24 -24 -24h-400c-13.2461 0 -24 10.7539 -24 24v48c0 13.2461 10.7539 24 24 24z" />
    <glyph glyph-name="memory-secondary" unicode="&#x10f538;" 
d="M640 317.06c-18.626 -6.50586 -32.0029 -24.2119 -32.0029 -45.0459c0 -20.833 13.377 -38.5674 32.0029 -45.0732v-98.9404h-640v98.9404c18.6074 6.53516 31.958 24.2402 32 45.0596c-0.0419922 20.8193 -13.3926 38.5244 -32 45.0596v34.9404
c0 17.6611 14.3389 32 32 32h576c17.6611 0 32 -14.3389 32 -32v-34.9404zM224 192v128h-64v-128h64zM352 192v128h-64v-128h64zM480 192v128h-64v-128h64z" />
    <glyph glyph-name="microphone-alt-slash-secondary" unicode="&#x10f539;" 
d="M437.52 141.34c6.70312 15.4736 10.4199 32.5371 10.4199 50.4609c0 0.0351562 0.0605469 0.164062 0.0605469 0.199219v48c0 8.83105 7.16895 16 16 16h16c8.83105 0 16 -7.16895 16 -16v-48v-0.205078c0 -28.9775 -7.17773 -56.4893 -19.6904 -80.5547zM411.14 161.8
l-38.9297 30.2002h43.79c0 -0.0263672 -0.0244141 -0.0654297 -0.0244141 -0.0917969c0 -10.5166 -1.69824 -20.6387 -4.83594 -30.1084zM400 -16c8.83105 0 16 -7.16895 16 -16v-16c0 -8.83105 -7.16895 -16 -16 -16h-160c-8.83105 0 -16 7.16895 -16 16v16
c0 8.83105 7.16895 16 16 16h56.0703v34.1904c-88 12.1396 -152 92.0498 -152 181.689v6.85059l52 -40.2207c12.4395 -53.2197 55.3301 -96.3994 111.18 -101.85c6.94043 -0.669922 13.6396 -0.200195 20.3496 0.200195l50.4004 -39
c-10.8193 -3.74219 -22.3418 -6.5127 -34 -8.08008v-33.7803h56zM331 224l-107 83v45c0 52.9834 43.0166 96 96 96s96 -43.0166 96 -96h-85.3301c-5.88965 0 -10.6699 -3.58008 -10.6699 -8v-16c0 -4.41992 4.78027 -8 10.6699 -8h85.3301v-32h-85.3301
c-5.88965 0 -10.6699 -3.58008 -10.6699 -8v-16c0 -4.41992 4.78027 -8 10.6699 -8h85.3301v-32h-85z" />
    <glyph glyph-name="money-bill-wave-secondary" unicode="&#x10f53a;" 
d="M545.58 76.2305c-13.3896 1.41016 -26.5801 2.12012 -40.3408 2.12012c-0.15625 0 -0.3125 0 -0.469727 -0.000976562c-67.5293 0 -133.13 -16.5898 -196.529 -32.6396c-60.3799 -15.2803 -117.4 -29.71 -173 -29.71
c-0.167969 0 -0.03125 -0.0117188 -0.199219 -0.0117188c-11.8154 0 -23.4629 0.724609 -34.9014 2.13184c-11.2217 22.3691 -29.5225 40.3145 -52.1494 51.0898v197.57c19.1211 9.10449 35.1016 23.2734 46.4199 41c13.3926 -1.41113 26.584 -2.12012 40.3477 -2.12012
h0.482422c67.5596 0 133.12 16.6396 196.51 32.6396c60.3896 15.2705 117.4 29.7002 173 29.7002c0.166992 0 0.03125 0.0117188 0.199219 0.0117188c11.8154 0 23.4629 -0.724609 34.9004 -2.13184c11.2236 -22.3721 29.5283 -40.3174 52.1602 -51.0898v-197.56
c-19.125 -9.10449 -35.1084 -23.2725 -46.4297 -41zM320 96c44.1699 0 80 43 80 96s-35.8203 96 -80 96s-80 -43 -80 -96s35.8096 -96 80 -96z" />
    <glyph glyph-name="money-bill-wave-alt-secondary" unicode="&#x10f53b;" 
d="M320 96c-44.1904 0 -80 43 -80 96s35.8203 96 80 96s80 -43 80 -96s-35.8301 -96 -80 -96z" />
    <glyph glyph-name="money-check-secondary" unicode="&#x10f53c;" 
d="M0 0v320h640v-320c0 -17.6611 -14.3389 -32 -32 -32h-576c-17.6611 0 -32 14.3389 -32 32zM448 208v-32c0 -8.83105 7.16895 -16 16 -16h96c8.83105 0 16 7.16895 16 16v32c0 8.83105 -7.16895 16 -16 16h-96c-8.83105 0 -16 -7.16895 -16 -16zM448 88v-16
c0 -4.41504 3.58496 -8 8 -8h112c4.41504 0 8 3.58496 8 8v16c0 4.41504 -3.58496 8 -8 8h-112c-4.41504 0 -8 -3.58496 -8 -8zM64 184v-16c0 -4.41504 3.58496 -8 8 -8h304c4.41504 0 8 3.58496 8 8v16c0 4.41504 -3.58496 8 -8 8h-304c-4.41504 0 -8 -3.58496 -8 -8z
M64 88v-16c0 -4.41504 3.58496 -8 8 -8h176c4.41504 0 8 3.58496 8 8v16c0 4.41504 -3.58496 8 -8 8h-176c-4.41504 0 -8 -3.58496 -8 -8z" />
    <glyph glyph-name="money-check-alt-secondary" unicode="&#x10f53d;" 
d="M608 416c17.6611 0 32 -14.3389 32 -32v-384c0 -17.6611 -14.3389 -32 -32 -32h-576c-17.6611 0 -32 14.3389 -32 32v384c0 17.6611 14.3389 32 32 32h576zM176 120.12c23.6201 0.629883 42.6699 20.54 42.6699 45.0703c0 19.9697 -12.9902 37.8096 -31.5801 43.3896
l-45 13.5c-5.16016 1.54004 -8.76953 6.78027 -8.76953 12.7295c0 7.27051 5.2998 13.1904 11.7998 13.1904h28.1104c4.70312 -0.00585938 9.11719 -1.38281 12.8193 -3.73047c1.31152 -0.886719 2.90332 -1.40918 4.60449 -1.40918
c2.12695 0 4.06641 0.810547 5.52539 2.13965l11.75 11.2197c1.55078 1.45996 2.52344 3.52734 2.52344 5.82324c0 2.56641 -1.21094 4.85254 -3.09277 6.31738c-8.80957 6.60156 -19.6729 10.751 -31.3701 11.3496v16.29c0 4.41504 -3.58496 8 -8 8h-16
c-4.41602 0 -8 -3.58496 -8 -8v-16.1201c-23.6201 -0.629883 -42.6699 -20.5498 -42.6699 -45.0703c0 -19.9697 12.9893 -37.8096 31.5801 -43.3896l45 -13.5c5.15918 -1.54004 8.76953 -6.78027 8.76953 -12.7295c0 -7.27051 -5.2998 -13.1904 -11.7998 -13.1904h-28.1104
c-4.70117 0.0107422 -9.11523 1.38672 -12.8193 3.73047c-1.31152 0.886719 -2.9043 1.40918 -4.60449 1.40918c-2.12793 0 -4.06738 -0.810547 -5.52637 -2.13965l-11.75 -11.2197c-1.55078 -1.45996 -2.52344 -3.52734 -2.52344 -5.82324
c0 -2.56641 1.21191 -4.85254 3.09375 -6.31738c8.81152 -6.59766 19.6748 -10.7461 31.3701 -11.3496v-16.29c0 -4.41504 3.58496 -8 8 -8h16c4.41504 0 8 3.58496 8 8v16.1201zM416 136v16c0 4.41504 -3.58496 8 -8 8h-112c-4.41504 0 -8 -3.58496 -8 -8v-16
c0 -4.41504 3.58496 -8 8 -8h112c4.41504 0 8 3.58496 8 8zM576 136v16c0 4.41504 -3.58496 8 -8 8h-80c-4.41504 0 -8 -3.58496 -8 -8v-16c0 -4.41504 3.58496 -8 8 -8h80c4.41504 0 8 3.58496 8 8zM576 232v16c0 4.41504 -3.58496 8 -8 8h-272
c-4.41504 0 -8 -3.58496 -8 -8v-16c0 -4.41504 3.58496 -8 8 -8h272c4.41504 0 8 3.58496 8 8z" />
    <glyph glyph-name="not-equal-secondary" unicode="&#x10f53e;" horiz-adv-x="448" 
d="M35.5898 -18.8301l51.9297 66.8301h81l-82.0898 -105.75c-2.92383 -3.82812 -7.54199 -6.28027 -12.7275 -6.28027c-3.64648 0 -7.00977 1.22266 -9.70215 3.28027l-25.4102 19.5c-3.8252 2.9248 -6.27539 7.54102 -6.27539 12.7236
c0 3.64453 1.2207 7.00488 3.27539 9.69629zM162 144l74.5098 96h81l-74.5098 -96h-81zM441 425.22c3.82812 -2.92383 6.28027 -7.54199 6.28027 -12.7275c0 -3.64648 -1.22266 -7.00977 -3.28027 -9.70215l-51.8896 -66.79h-81l82.0693 105.71
c2.9248 3.82812 7.54297 6.28027 12.7275 6.28027c3.64746 0 7.01074 -1.22266 9.70312 -3.28027z" />
    <glyph glyph-name="palette-secondary" unicode="&#x10f53f;" horiz-adv-x="512" 
d="M204.29 443c163.8 31.8701 307.2 -92.1299 307.7 -249.69c-0.100586 -35.71 -29.1006 -65.3096 -64.9004 -65.3096h-79.7002c-51 0 -84 -53 -60.8994 -98.4004c18.8994 -37.0996 -1.2998 -85.29 -42.5 -91.6895c-127.101 -19.7002 -295.8 119.689 -258.8 306.689
c19.5996 99.1104 99.6992 179 199.1 198.4zM96 128c17.6611 0 32 14.3389 32 32s-14.3389 32 -32 32s-32 -14.3389 -32 -32s14.3389 -32 32 -32zM128 256c17.6611 0 32 14.3389 32 32s-14.3389 32 -32 32s-32 -14.3389 -32 -32s14.3389 -32 32 -32zM256 320
c17.6611 0 32 14.3389 32 32s-14.3389 32 -32 32s-32 -14.3389 -32 -32s14.3389 -32 32 -32zM384 256c17.6611 0 32 14.3389 32 32s-14.3389 32 -32 32s-32 -14.3389 -32 -32s14.3389 -32 32 -32z" />
    <glyph glyph-name="parking-secondary" unicode="&#x10f540;" horiz-adv-x="448" 
d="M272 224c-0.0498047 -17.6387 -14.3613 -31.9502 -32 -32h-48v64h48c17.6387 -0.0498047 31.9502 -14.3613 32 -32zM448 368v-352c0 -26.4922 -21.5078 -48 -48 -48h-352c-26.4922 0 -48 21.5078 -48 48v352c0 26.4922 21.5078 48 48 48h352
c26.4922 0 48 -21.5078 48 -48zM336 224c-0.0830078 52.9453 -43.0547 95.917 -96 96h-96c-8.83105 0 -16 -7.16895 -16 -16v-224c0 -8.83105 7.16895 -16 16 -16h32c8.83105 0 16 7.16895 16 16v48h48c52.9453 0.0830078 95.917 43.0547 96 96z" />
    <glyph glyph-name="percentage-secondary" unicode="&#x10f541;" horiz-adv-x="384" 
d="M365.25 109.26c11.585 -11.584 18.7539 -27.6025 18.7539 -45.2637s-7.16895 -33.6611 -18.7539 -45.2461s-27.585 -18.7363 -45.2461 -18.7363c-35.3223 0 -64 28.6777 -64 64c0 35.3232 28.6777 64 64 64c17.6611 0 33.6611 -7.16895 45.2461 -18.7539zM18.7402 365.26
c11.584 11.585 27.6025 18.7549 45.2637 18.7549s33.6611 -7.16992 45.2461 -18.7549c11.585 -11.584 18.7363 -27.584 18.7363 -45.2451c0 -35.3232 -28.6777 -64 -64 -64c-35.3232 0 -64 28.6768 -64 64c0 17.6611 7.16895 33.6611 18.7539 45.2451z" />
    <glyph glyph-name="project-diagram-secondary" unicode="&#x10f542;" 
d="M416 320h-251.35l91.6299 -160h-0.280273c-23.584 -0.0683594 -44.1377 -12.8945 -55.1201 -32l-146.1 256h361.22v-64z" />
    <glyph glyph-name="receipt-secondary" unicode="&#x10f543;" horiz-adv-x="384" 
d="M358.4 444.77c2.67188 2.00488 6.00488 3.2002 9.59961 3.2002c8.82031 0 15.9834 -7.15332 16 -15.9697v-480c0 -8.83105 -7.18262 -15.9922 -16.0137 -15.9922c-3.59473 0 -6.91406 1.1875 -9.58594 3.19238l-38.4004 44.7998l-54.4004 -44.7998
c-2.66602 -2.01953 -6.01367 -3.21777 -9.6123 -3.21777c-3.59961 0 -6.9209 1.19824 -9.58691 3.21777l-54.4004 44.7998l-54.4004 -44.7998c-2.66602 -2.01953 -6.01367 -3.21777 -9.6123 -3.21777c-3.59961 0 -6.9209 1.19824 -9.58691 3.21777l-54.4004 44.7998
l-38.4004 -44.7998c-2.67188 -2.00488 -6.00488 -3.2002 -9.59961 -3.2002c-8.83105 0 -16 7.16895 -16 16v480c0.0166016 8.81641 7.19336 15.9629 16.0137 15.9629c3.59473 0 6.91406 -1.18848 9.58594 -3.19336l38.4004 -44.7695l54.4004 44.7695
c2.66602 2.01953 6.01367 3.21875 9.6123 3.21875c3.59961 0 6.9209 -1.19922 9.58691 -3.21875l54.4004 -44.7695l54.4004 44.7695c2.66602 2.01953 6.01367 3.21875 9.6123 3.21875c3.59961 0 6.9209 -1.19922 9.58691 -3.21875l54.4004 -44.7695zM320 88v16
c0 4.41504 -3.58496 8 -8 8h-240c-4.41504 0 -8 -3.58496 -8 -8v-16c0 -4.41504 3.58496 -8 8 -8h240c4.41504 0 8 3.58496 8 8zM320 184v16c0 4.41504 -3.58496 8 -8 8h-240c-4.41504 0 -8 -3.58496 -8 -8v-16c0 -4.41504 3.58496 -8 8 -8h240c4.41504 0 8 3.58496 8 8z
M320 280v16c0 4.41504 -3.58496 8 -8 8h-240c-4.41504 0 -8 -3.58496 -8 -8v-16c0 -4.41504 3.58496 -8 8 -8h240c4.41504 0 8 3.58496 8 8z" />
    <glyph glyph-name="ruler-secondary" unicode="&#x10f545;" 
d="M624.16 238l-496.8 -281.9c-4.67676 -2.65039 -10.0801 -4.16406 -15.835 -4.16406c-11.748 0 -22.0469 6.25293 -27.665 15.6641l-79.6006 135.631c-2.66016 4.58203 -4.18359 9.9043 -4.18359 15.5791c0 11.6768 6.39648 21.873 15.9238 27.1904l69 39.0996
l59.7002 -101.399c1.3877 -2.37695 3.96582 -3.97559 6.91406 -3.97559c1.44922 0 2.8125 0.400391 3.98535 1.0752l13.8008 7.7998c2.36816 1.33496 3.96875 3.87402 3.96875 6.7832c0 1.42676 -0.397461 2.76758 -1.06934 3.91699l-59.5996 101.521l55.1895 31.3193
l27.8105 -47.3398c1.3877 -2.37695 3.96582 -3.97461 6.91406 -3.97461c1.44922 0 2.8125 0.399414 3.98535 1.0752l13.8008 7.7998c2.37109 1.32812 3.97656 3.86621 3.97656 6.77539c0 1.42969 -0.401367 2.77344 -1.07715 3.9248l-27.9297 47.3994l55.1895 31.3105
l59.7002 -101.681c1.3877 -2.37695 3.96582 -3.97461 6.91406 -3.97461c1.44922 0 2.81348 0.399414 3.98633 1.0752l13.7998 7.7998c2.36816 1.33398 3.96875 3.87305 3.96875 6.7832c0 1.42578 -0.397461 2.7666 -1.06836 3.91699l-59.8008 101.68l55.2002 31.29
l27.9004 -47.2998c1.3877 -2.37695 3.96582 -3.97559 6.91406 -3.97559c1.44922 0 2.8125 0.400391 3.98535 1.0752l13.8008 7.7998c2.37109 1.3291 3.97656 3.86621 3.97656 6.77637c0 1.42969 -0.401367 2.77344 -1.07715 3.92383l-27.8896 47.3799l55.1895 31.3203
l59.7002 -101.59c1.3877 -2.37695 3.96582 -3.97559 6.91406 -3.97559c1.44922 0 2.81348 0.400391 3.98633 1.0752l13.7998 7.7998c2.37207 1.3291 3.97656 3.86621 3.97656 6.77637c0 1.42969 -0.400391 2.77344 -1.07617 3.92383l-59.6807 101.681l69 39.1396
c4.67676 2.65039 10.0801 4.16406 15.835 4.16406c11.748 0 22.0469 -6.25293 27.665 -15.6641l79.6006 -135.5c2.71777 -4.6084 4.27734 -9.98047 4.27734 -15.7139c0 -11.6484 -6.38672 -21.8193 -15.8975 -27.1162z" />
    <glyph glyph-name="ruler-combined-secondary" unicode="&#x10f546;" horiz-adv-x="512" 
d="M512 64v-96c0 -17.6611 -14.3389 -32 -32 -32h-448c-2.75977 0 -5.24023 0.910156 -7.7998 1.57031l158.43 158.43h41.3701v-56c0 -4.41504 3.58496 -8 8 -8h16c4.41504 0 8 3.58496 8 8v56h64v-56c0 -4.41504 3.58496 -8 8 -8h16c4.41504 0 8 3.58496 8 8v56h64v-56
c0 -4.41504 3.58496 -8 8 -8h16c4.41504 0 8 3.58496 8 8v56h32c17.6611 0 32 -14.3389 32 -32zM160 160v-41.3799l-158.43 -158.42c-0.660156 2.55957 -1.57031 5.03027 -1.57031 7.7998v448c0 17.6611 14.3389 32 32 32h96c17.6611 0 32 -14.3389 32 -32v-32h-56
c-4.41504 0 -8 -3.58496 -8 -8v-16c0 -4.41504 3.58496 -8 8 -8h56v-64h-56c-4.41504 0 -8 -3.58496 -8 -8v-16c0 -4.41504 3.58496 -8 8 -8h56v-64h-56c-4.41504 0 -8 -3.58496 -8 -8v-16c0 -4.41504 3.58496 -8 8 -8h56z" />
    <glyph glyph-name="ruler-horizontal-secondary" unicode="&#x10f547;" horiz-adv-x="576" 
d="M576 288v-192c0 -17.6611 -14.3389 -32 -32 -32h-512c-17.6611 0 -32 14.3389 -32 32v192c0 17.6611 14.3389 32 32 32h48v-88c0 -4.41504 3.58496 -8 8 -8h16c4.41504 0 8 3.58496 8 8v88h64v-88c0 -4.41504 3.58496 -8 8 -8h16c4.41504 0 8 3.58496 8 8v88h64v-88
c0 -4.41504 3.58496 -8 8 -8h16c4.41504 0 8 3.58496 8 8v88h64v-88c0 -4.41504 3.58496 -8 8 -8h16c4.41504 0 8 3.58496 8 8v88h64v-88c0 -4.41504 3.58496 -8 8 -8h16c4.41504 0 8 3.58496 8 8v88h48c17.6611 0 32 -14.3389 32 -32z" />
    <glyph glyph-name="ruler-vertical-secondary" unicode="&#x10f548;" horiz-adv-x="256" 
d="M160 344v-16c0 -4.41504 3.58496 -8 8 -8h88v-64h-88c-4.41504 0 -8 -3.58496 -8 -8v-16c0 -4.41504 3.58496 -8 8 -8h88v-64h-88c-4.41504 0 -8 -3.58496 -8 -8v-16c0 -4.41504 3.58496 -8 8 -8h88v-64h-88c-4.41504 0 -8 -3.58496 -8 -8v-16
c0 -4.41504 3.58496 -8 8 -8h88v-64c0 -17.6611 -14.3389 -32 -32 -32h-192c-17.6611 0 -32 14.3389 -32 32v448c0 17.6611 14.3389 32 32 32h192c17.6611 0 32 -14.3389 32 -32v-64h-88c-4.41504 0 -8 -3.58496 -8 -8z" />
    <glyph glyph-name="school-secondary" unicode="&#x10f549;" 
d="M360 272c4.41504 0 8 -3.58496 8 -8v-16c0 -4.41504 -3.58496 -8 -8 -8h-48c-4.41504 0 -8 3.58496 -8 8v64c0 4.41504 3.58496 8 8 8h16c4.41504 0 8 -3.58496 8 -8v-40h24zM0 224c0 17.6611 14.3389 32 32 32h64v-320h-80c-8.83105 0 -16 7.16895 -16 16v272zM608 256
c17.6611 0 32 -14.3389 32 -32v-272c0 -8.83105 -7.16895 -16 -16 -16h-80v320h64z" />
    <glyph glyph-name="screwdriver-secondary" unicode="&#x10f54a;" horiz-adv-x="512" 
d="M448 448l64 -64l-96 -128h-62.0703l-83 -83c-8.37207 13.9795 -19.9443 25.5459 -33.9297 33.9102l83 83v62.0898z" />
    <glyph glyph-name="shoe-prints-secondary" unicode="&#x10f54b;" 
d="M0 32c0 35.3223 28.6777 64 64 64h32v-128h-32c-35.3223 0 -64 28.6777 -64 64zM337.46 160c90.3604 0 174.54 -32 174.54 -96c0 -45.2197 -39.0996 -97.2998 -148.58 -120.8c-31.9795 -6.87012 -64.8896 -8.50977 -97.5801 -6.2002
c-27.3096 1.87988 -54.0996 7.71973 -80.3096 15l-57.5303 16v128c60.21 0 79.9404 15.6201 104.73 32c28.5693 18.8799 69.8193 32 104.729 32z" />
    <glyph glyph-name="smoking-ban-secondary" unicode="&#x10f54d;" horiz-adv-x="512" 
d="M96 208c0 8.83105 7.16895 16 16 16h21.5l96 -96h-117.5c-8.83105 0 -16 7.16895 -16 16v64zM320.6 288c-32.0908 0.0332031 -58.6934 23.7754 -63.2998 54.5996c-0.0615234 0.404297 -0.0917969 0.80957 -0.0917969 1.23047c0 4.4834 3.61914 8.12793 8.0918 8.16992
h16.2002c0.0458984 0.000976562 0.0888672 -0.00390625 0.135742 -0.00390625c3.70703 0 6.80957 -2.61328 7.56445 -6.0957c2.86035 -14.7314 15.8389 -25.8936 31.3994 -25.9004c32.0918 -0.0332031 58.6934 -23.7754 63.3008 -54.5996
c0.0615234 -0.404297 0.0917969 -0.80957 0.0917969 -1.23047c0 -4.4834 -3.61914 -8.12793 -8.0918 -8.16992h-16.2002c-0.0458984 -0.000976562 -0.0898438 0.00390625 -0.135742 0.00390625c-3.70703 0 -6.80957 2.61328 -7.56445 6.0957
c-2.86035 14.7314 -15.8398 25.8936 -31.4004 25.9004zM416 208v-64c0 -8.83105 -7.16895 -16 -16 -16h-34.7998l-32 32h50.7998v32h-82.7998l-32 32h130.8c8.83105 0 16 -7.16895 16 -16z" />
    <glyph glyph-name="store-alt-secondary" unicode="&#x10f54f;" 
d="M320 64v160h64v-256c0 -17.6611 -14.3389 -32 -32 -32h-256c-17.6611 0 -32 14.3389 -32 32v256h64v-160h192zM512 224h64v-272c0 -8.83105 -7.16895 -16 -16 -16h-32c-8.83105 0 -16 7.16895 -16 16v272z" />
    <glyph glyph-name="stream-secondary" unicode="&#x10f550;" horiz-adv-x="512" 
d="M512 224v-64c0 -8.83105 -7.16895 -16 -16 -16h-416c-8.83105 0 -16 7.16895 -16 16v64c0 8.83105 7.16895 16 16 16h416c8.83105 0 16 -7.16895 16 -16z" />
    <glyph glyph-name="stroopwafel-secondary" unicode="&#x10f551;" horiz-adv-x="512" 
d="M188.12 237.26l45.25 -45.2598l-45.2598 -45.25l-45.25 45.25zM210.75 124.12l45.25 45.25l45.2598 -45.25l-45.2598 -45.2598zM301.25 259.88l-45.25 -45.25l-45.25 45.2598l45.25 45.25zM256 448c141.38 0 256 -114.62 256 -256s-114.62 -256 -256 -256
s-256 114.62 -256 256s114.62 256 256 256zM442.68 152.4c1.4502 1.44824 2.34766 3.45117 2.34766 5.66113c0 2.20898 -0.897461 4.20996 -2.34766 5.6582l-28.29 28.2803l28.2305 28.3096c1.44727 1.44824 2.3418 3.4502 2.3418 5.65625
c0 2.20703 -0.894531 4.20605 -2.3418 5.6543l-11.3105 11.3096c-1.44727 1.44727 -3.44922 2.34277 -5.65527 2.34277c-2.20703 0 -4.20605 -0.895508 -5.6543 -2.34277l-28.25 -28.29l-45.25 45.2607l33.8799 33.9092l17 -17
c1.44824 -1.44629 3.44922 -2.3418 5.65625 -2.3418s4.20605 0.895508 5.6543 2.3418l11.3096 11.3105c1.44727 1.44824 2.34277 3.44922 2.34277 5.65625c0 2.20605 -0.895508 4.20605 -2.34277 5.65332l-17 17l17 17c1.44727 1.44824 2.34277 3.4502 2.34277 5.65625
c0 2.20703 -0.895508 4.20605 -2.34277 5.6543l-11.2197 11.2598c-1.44824 1.44727 -3.44922 2.34277 -5.65625 2.34277s-4.20605 -0.895508 -5.6543 -2.34277l-17 -17l-17 17c-1.44727 1.44727 -3.44922 2.34277 -5.65625 2.34277
c-2.20605 0 -4.20508 -0.895508 -5.65332 -2.34277l-11.3398 -11.2305c-1.44727 -1.44727 -2.34277 -3.44922 -2.34277 -5.65527c0 -2.20703 0.895508 -4.20605 2.34277 -5.6543l17 -17l-33.9404 -33.9404l-45.2598 45.25l28.29 28.29
c1.44727 1.44824 2.3418 3.4502 2.3418 5.65625c0 2.20703 -0.894531 4.20605 -2.3418 5.6543l-11.3105 11.3096c-1.44727 1.44727 -3.44922 2.34277 -5.65527 2.34277c-2.20703 0 -4.20605 -0.895508 -5.6543 -2.34277l-28.29 -28.29l-28.3096 28.2305
c-1.44824 1.44727 -3.4502 2.3418 -5.65625 2.3418c-2.20703 0 -4.20605 -0.894531 -5.6543 -2.3418l-11.3096 -11.3105c-1.44727 -1.44727 -2.34277 -3.44922 -2.34277 -5.65527c0 -2.20703 0.895508 -4.20605 2.34277 -5.6543l28.29 -28.25l-45.2607 -45.25
l-33.9092 33.8799l17 17c1.44629 1.44824 2.3418 3.44922 2.3418 5.65625s-0.895508 4.20605 -2.3418 5.6543l-11.3105 11.3096c-1.44824 1.44727 -3.44922 2.34277 -5.65625 2.34277c-2.20605 0 -4.20605 -0.895508 -5.65332 -2.34277l-17 -17l-17 17
c-1.44824 1.44727 -3.4502 2.34277 -5.65625 2.34277c-2.20703 0 -4.20605 -0.895508 -5.6543 -2.34277l-11.2598 -11.2197c-1.44727 -1.44824 -2.34277 -3.44922 -2.34277 -5.65625s0.895508 -4.20605 2.34277 -5.6543l17 -17l-17 -17
c-1.44727 -1.44727 -2.34277 -3.44922 -2.34277 -5.65625c0 -2.20605 0.895508 -4.20508 2.34277 -5.65332l11.2305 -11.3398c1.44727 -1.44727 3.44922 -2.34277 5.65527 -2.34277c2.20703 0 4.20605 0.895508 5.6543 2.34277l17 17l33.9404 -33.9404l-45.25 -45.2598
l-28.29 28.29c-1.44824 1.44727 -3.4502 2.3418 -5.65625 2.3418c-2.20703 0 -4.20605 -0.894531 -5.6543 -2.3418l-11.3096 -11.3105c-1.44727 -1.44727 -2.34277 -3.44922 -2.34277 -5.65527c0 -2.20703 0.895508 -4.20605 2.34277 -5.6543l28.29 -28.29l-28.29 -28.29
c-1.44727 -1.44824 -2.34277 -3.44922 -2.34277 -5.65625s0.895508 -4.20605 2.34277 -5.65332l11.3701 -11.3301c1.44727 -1.44727 3.44922 -2.34277 5.65527 -2.34277c2.20703 0 4.20605 0.895508 5.6543 2.34277l28.3096 28.3193l45.25 -45.25l-33.9395 -33.9395l-17 17
c-1.44824 1.44727 -3.44922 2.3418 -5.65625 2.3418s-4.20605 -0.894531 -5.6543 -2.3418l-11.3096 -11.3105c-1.44727 -1.44727 -2.34277 -3.44922 -2.34277 -5.65625c0 -2.20605 0.895508 -4.20508 2.34277 -5.65332l17 -17l-17 -17
c-1.44727 -1.44824 -2.34277 -3.44922 -2.34277 -5.65625s0.895508 -4.20605 2.34277 -5.6543l11.2305 -11.2695c1.44727 -1.44727 3.44922 -2.34277 5.65527 -2.34277c2.20703 0 4.20605 0.895508 5.6543 2.34277l17 17l17 -17
c1.44824 -1.44727 3.44922 -2.34277 5.65625 -2.34277s4.20605 0.895508 5.65332 2.34277l11.3408 11.2402c1.44629 1.44727 2.3418 3.44922 2.3418 5.65625c0 2.20605 -0.895508 4.20605 -2.3418 5.65332l-17 17l33.9395 33.9404l45.25 -45.2598l-28.29 -28.29
c-1.44727 -1.44824 -2.3418 -3.4502 -2.3418 -5.65625c0 -2.20703 0.894531 -4.20605 2.3418 -5.6543l11.3105 -11.3096c1.44727 -1.44727 3.44922 -2.34277 5.65527 -2.34277c2.20703 0 4.20605 0.895508 5.6543 2.34277l28.29 28.29l28.3096 -28.2305
c1.44824 -1.44727 3.4502 -2.3418 5.65625 -2.3418c2.20703 0 4.20605 0.894531 5.6543 2.3418l11.3096 11.3105c1.44727 1.44727 2.34277 3.44922 2.34277 5.65527c0 2.20703 -0.895508 4.20605 -2.34277 5.6543l-28.29 28.25l45.2607 45.2598l33.9092 -33.8896l-17 -17
c-1.44629 -1.44824 -2.3418 -3.44922 -2.3418 -5.65625s0.895508 -4.20605 2.3418 -5.6543l11.3105 -11.3096c1.44824 -1.44727 3.44922 -2.34277 5.65625 -2.34277c2.20605 0 4.20605 0.895508 5.65332 2.34277l17 17l17 -17
c1.44824 -1.44727 3.4502 -2.34277 5.65625 -2.34277c2.20703 0 4.20605 0.895508 5.6543 2.34277l11.3398 11.2598c1.44727 1.44824 2.34277 3.44922 2.34277 5.65625s-0.895508 4.20605 -2.34277 5.6543l-17 17l17 17c1.44727 1.44727 2.34277 3.44922 2.34277 5.65625
c0 2.20605 -0.895508 4.20508 -2.34277 5.65332l-11.3105 11.3105c-1.44727 1.44629 -3.44922 2.3418 -5.65527 2.3418c-2.20703 0 -4.20605 -0.895508 -5.6543 -2.3418l-17 -17l-33.9404 33.9395l45.25 45.25l28.29 -28.29
c1.44824 -1.44727 3.4502 -2.3418 5.65625 -2.3418c2.20703 0 4.20605 0.894531 5.6543 2.3418zM278.68 192l45.21 45.2598l45.25 -45.2598l-45.1992 -45.25z" />
    <glyph glyph-name="toolbox-secondary" unicode="&#x10f552;" horiz-adv-x="512" 
d="M384 80v16h128v-96c0 -17.6611 -14.3389 -32 -32 -32h-448c-17.6611 0 -32 14.3389 -32 32v96h128v-16c0 -8.83105 7.16895 -16 16 -16h32c8.83105 0 16 7.16895 16 16v16h128v-16c0 -8.83105 7.16895 -16 16 -16h32c8.83105 0 16 7.16895 16 16zM502.63 233.37
c5.79004 -5.79102 9.36914 -13.793 9.37012 -22.6201v-82.75h-128v16c0 8.83105 -7.16895 16 -16 16h-32c-8.83105 0 -16 -7.16895 -16 -16v-16h-128v16c0 8.83105 -7.16895 16 -16 16h-32c-8.83105 0 -16 -7.16895 -16 -16v-16h-128v82.7402
c0 8.8291 3.5791 16.8379 9.37012 22.6299l45.25 45.2598c5.79199 5.79102 13.8008 9.37012 22.6299 9.37012h357.5c8.83203 -0.000976562 16.8379 -3.58398 22.6299 -9.37988z" />
    <glyph glyph-name="walking-secondary" unicode="&#x10f554;" horiz-adv-x="320" 
d="M208 448c26.4922 0 48 -21.5078 48 -48s-21.5078 -48 -48 -48s-48 21.5078 -48 48s21.5078 48 48 48z" />
    <glyph glyph-name="wallet-secondary" unicode="&#x10f555;" horiz-adv-x="512" 
d="M416 176c17.6611 0 32 -14.3389 32 -32s-14.3389 -32 -32 -32s-32 14.3389 -32 32s14.3389 32 32 32zM432 416c26.4922 0 48 -21.5078 48 -48c0 -8.83105 -7.16895 -16 -16 -16h-384c-8.83105 0 -16 -7.16895 -16 -16s7.16895 -16 16 -16h-48
c-17.6611 0 -32 14.3389 -32 32c0 35.3223 28.6777 64 64 64h368z" />
  </font>
</defs>
</svg>
