<?xml version="1.0" standalone="no"?>
<!DOCTYPE svg PUBLIC "-//W3C//DTD SVG 1.1//EN" "http://www.w3.org/Graphics/SVG/1.1/DTD/svg11.dtd" >
<svg xmlns="http://www.w3.org/2000/svg" xmlns:xlink="http://www.w3.org/1999/xlink" version="1.1">
<metadata>
Created by FontForge 20201107 at Tue Mar 16 10:16:39 2021
 By Robert Madole
Copyright (c) Font Awesome
</metadata>
<!-- Font Awesome Pro 5.15.3 by @fontawesome - https://fontawesome.com License - https://fontawesome.com/license (Commercial License) --><defs>
<font id="FontAwesome5Duotone-Solid" horiz-adv-x="640" >
  <font-face 
    font-family="Font Awesome 5 Duotone Solid"
    font-weight="900"
    font-stretch="normal"
    units-per-em="512"
    panose-1="2 0 5 3 0 0 0 0 0 0"
    ascent="448"
    descent="-64"
    bbox="-0.0185547 -64.082 640.083 448.035"
    underline-thickness="25"
    underline-position="-50"
    unicode-range="U+0020-10F8FF"
  />
    <missing-glyph />
    <glyph glyph-name="futbol-primary" unicode="&#xf1e3;" horiz-adv-x="512" 
d="M352.4 395.89l-96.4004 -53.4092l-96.4004 53.4092l12.6504 29.6006c26.1543 9.34082 54.4844 14.4287 83.8311 14.4287s57.5146 -5.08789 83.6689 -14.4287zM318.22 102.52l-124.09 0.0400391l-38.4502 117.44l100.32 72.6699l100.32 -72.6699zM92.0801 346.85
l20.8301 -108.5l-80.6104 -75.2393l-24.1699 21.0801c-0.0800781 2.59961 -0.129883 5.19922 -0.129883 7.80957c0 0.143555 0.103516 0.46875 0.103516 0.612305c0 57.0283 19.375 109.567 51.8965 151.388zM344.34 70.4102l109.51 13.4297l7.15039 -31.4502
c-32.0635 -47.0342 -79.7393 -82.2236 -135.66 -98.5498l-27.6895 16.4697zM58.1602 83.8398l109.49 -13.4297l46.6895 -100.101l-27.6895 -16.4697c-55.917 16.3281 -103.59 51.5176 -135.65 98.5498zM452 344c32.5518 -41.8311 52.0498 -94.5771 52.0498 -151.635v-0.375
c0 -2.61035 -0.0498047 -5.20996 -0.129883 -7.81055l-24.1602 -21.0801l-80.6201 75.2402l21.1602 108.5z" />
    <glyph glyph-name="baseball-primary" unicode="&#xf432;" 
d="M629.67 391.92c17.5996 -24.5996 12.3301 -59 -11.7695 -76.7998l-212.101 -156.2c-69.0996 -50.9004 -128.2 -77.5 -162.8 -92.7002l-62.2002 86.7002c24.7998 28.5 68.1006 77.4004 137.2 128.3l212 156.3c8.91895 6.55957 19.9473 10.5127 31.8564 10.5127
c18.1191 0 34.1582 -8.97168 43.9131 -22.7119zM46.3701 30.3203c9 6.59961 26 18.7998 56 44.7793l43.2002 -60.2998c-31.8008 -19.7002 -48.2002 -32 -56.4004 -37.8994c15.2002 -19.1006 0.5 -33.4004 -2.2998 -35.6006
c-4.10059 -3.31738 -9.32715 -5.33203 -15.0068 -5.33203c-7.56836 0 -14.3184 3.53027 -18.6934 9.03223l-47.9004 60c-3.29199 4.1084 -5.28809 9.33008 -5.28809 14.999c0 7.56738 3.50977 14.3203 8.98828 18.7207c0.799805 0.600586 18.2002 15.7002 37.4004 -8.39941z
" />
    <glyph glyph-name="bowling-pins-primary" unicode="&#xf437;" horiz-adv-x="448" 
d="M59 288h74l4 -32h-82zM389 288l4 -32h-82l4 32h74z" />
    <glyph glyph-name="boxing-glove-primary" unicode="&#xf438;" horiz-adv-x="448" 
d="M15.7998 161.3c-10.4033 62.4258 -15.793 125.442 -15.7998 190.8c0 52.8008 43.2998 95.9004 96 95.9004h192c52.9834 0 96 -43.0166 96 -96v-32.2002c-29.0996 0 -67.5996 5.60059 -96 -32.5v0.5h-146.8h-0.157227c-23.0088 0 -44.1201 8.41406 -60.3428 22.2998
c-1.40332 1.21484 -3.23242 1.94922 -5.23145 1.94922c-2.21191 0 -4.21973 -0.896484 -5.66895 -2.34863l-11.2998 -11.2998c-1.45215 -1.44922 -2.35156 -3.45215 -2.35156 -5.66309c0 -2.40918 1.06445 -4.57031 2.75195 -6.03711
c21.8916 -19.1602 50.5498 -30.7764 81.8994 -30.7764c0.115234 0 0.285156 -0.0244141 0.400391 -0.0234375h132.5c-1.02832 -5.19824 -1.57715 -10.5078 -1.60059 -16c0.0625 -41.1201 31.252 -75.0254 71.2002 -79.5
c0.265625 -0.0273438 0.535156 -0.0410156 0.808594 -0.0410156c4.41504 0 8 3.58496 8 8c0 0.0136719 -0.00878906 0.0273438 -0.00878906 0.0410156v16v0.0292969c0 4.07422 -2.99609 7.45605 -6.89941 8.07031c-23.2031 3.32227 -41.0615 23.2998 -41.0615 47.415
c0 0.333984 -0.0458984 0.652344 -0.0390625 0.985352c0.5 26.2998 22.5 47.0996 48.8008 47.0996h31.0996c35.3076 -0.0332031 63.9668 -28.6924 64 -64c0 -13.7998 2.7998 -61.0996 -37.5 -101.5l-58.5 -58.5v-16h-133.3l40.5 30.4004
c1.92773 1.47852 3.1709 3.80566 3.1709 6.4209c0 1.78516 -0.589844 3.44043 -1.57129 4.77832l-9.59961 12.8008c-1.45996 1.94629 -3.78613 3.20605 -6.4043 3.20605c-1.79688 0 -3.45996 -0.604492 -4.7959 -1.60645l-48 -36l-48 36
c-1.33594 1.00195 -2.99609 1.59668 -4.79297 1.59668c-2.61816 0 -4.94727 -1.25 -6.40723 -3.19629l-9.59961 -12.8008c-1.00195 -1.33594 -1.59668 -2.99512 -1.59668 -4.79297c0 -2.61816 1.25 -4.94727 3.19629 -6.40625l40.5 -30.4004h-133.3v16z" />
    <glyph glyph-name="cricket-primary" unicode="&#xf449;" 
d="M496 96c44.1533 0 80 -35.8467 80 -80s-35.8467 -80 -80 -80s-80 35.8467 -80 80s35.8467 80 80 80zM635.7 417.6c2.71777 -3.90527 4.32715 -8.67969 4.32715 -13.7949c0 -8.14355 -4.04199 -15.3516 -10.2275 -19.7246l-144.1 -101.9
c-8.27637 -5.80176 -13.6436 -15.4248 -13.6436 -26.291c0 -6.80371 2.12305 -13.1162 5.74316 -18.3086l24.5 -35c1.82812 -2.60059 2.92578 -5.77539 2.92578 -9.19336c0 -5.41895 -2.69922 -10.2119 -6.8252 -13.1064l-21.3008 -14.9004l-175.1 30.9004l30.9004 175.1
l21.2998 14.9004c2.60059 1.82812 5.77539 2.92578 9.19238 2.92578c5.41895 0 10.2129 -2.69922 13.1074 -6.82617l21.9004 -31.2998c5.80176 -8.27637 15.4248 -13.6436 26.291 -13.6436c6.80371 0 13.1162 2.12402 18.3086 5.74316l144 100.5
c3.90527 2.71777 8.66016 4.34766 13.7744 4.34766c8.14453 0 15.3525 -4.04199 19.7256 -10.2275z" />
    <glyph glyph-name="curling-primary" unicode="&#xf44a;" 
d="M554.1 256h-468.199c13.1992 37.2002 48.3994 64 90.0996 64h48v16v0.0615234c0 61.7812 50.1582 111.939 111.94 111.939c0.0195312 0 0.0390625 -0.000976562 0.0595703 -0.000976562h128c8.83105 0 16 -7.16895 16 -16v-32c0 -8.83105 -7.16895 -16 -16 -16
c-117.7 0 -176 11.4004 -176 -48v-16h176c41.7002 0 76.9004 -26.7998 90.0996 -64z" />
    <glyph glyph-name="dumbbell-primary" unicode="&#xf44b;" 
d="M232 416c0.0205078 0 0.0400391 0.000976562 0.0605469 0.000976562c13.2119 0 23.9395 -10.7266 23.9395 -23.9395v-0.0615234v-400c0 -0.0205078 0.000976562 -0.0400391 0.000976562 -0.0605469c0 -13.2119 -10.7266 -23.9395 -23.9395 -23.9395h-0.0615234h-48
c-0.0205078 0 -0.0400391 -0.000976562 -0.0605469 -0.000976562c-13.2119 0 -23.9395 10.7266 -23.9395 23.9395v0.0615234v400c0 0.0205078 -0.000976562 0.0400391 -0.000976562 0.0605469c0 13.2119 10.7266 23.9395 23.9395 23.9395h0.0615234h48zM456 416
c0.0205078 0 0.0400391 0.000976562 0.0605469 0.000976562c13.2119 0 23.9395 -10.7266 23.9395 -23.9395v-0.0615234v-400c0 -0.0205078 0.000976562 -0.0400391 0.000976562 -0.0605469c0 -13.2119 -10.7266 -23.9395 -23.9395 -23.9395h-0.0615234h-48
c-0.0205078 0 -0.0400391 -0.000976562 -0.0605469 -0.000976562c-13.2119 0 -23.9395 10.7266 -23.9395 23.9395v0.0615234v400c0 0.0205078 -0.000976562 0.0400391 -0.000976562 0.0605469c0 13.2119 10.7266 23.9395 23.9395 23.9395h0.0615234h48zM584 352
c0.0205078 0 0.0400391 0.000976562 0.0605469 0.000976562c13.2119 0 23.9395 -10.7266 23.9395 -23.9395v-0.0615234v-272c0 -0.0205078 0.000976562 -0.0400391 0.000976562 -0.0605469c0 -13.2119 -10.7266 -23.9395 -23.9395 -23.9395h-0.0615234h-48
c-0.0205078 0 -0.0400391 -0.000976562 -0.0605469 -0.000976562c-13.2119 0 -23.9395 10.7266 -23.9395 23.9395v0.0615234v272c0 0.0205078 -0.000976562 0.0400391 -0.000976562 0.0605469c0 13.2119 10.7266 23.9395 23.9395 23.9395h0.0615234h48zM104 352
c0.0205078 0 0.0400391 0.000976562 0.0605469 0.000976562c13.2119 0 23.9395 -10.7266 23.9395 -23.9395v-0.0615234v-272c0 -0.0205078 0.000976562 -0.0400391 0.000976562 -0.0605469c0 -13.2119 -10.7266 -23.9395 -23.9395 -23.9395h-0.0615234h-48
c-0.0205078 0 -0.0400391 -0.000976562 -0.0605469 -0.000976562c-13.2119 0 -23.9395 10.7266 -23.9395 23.9395v0.0615234v272c0 0.0205078 -0.000976562 0.0400391 -0.000976562 0.0605469c0 13.2119 10.7266 23.9395 23.9395 23.9395h0.0615234h48z" />
    <glyph glyph-name="field-hockey-primary" unicode="&#xf44c;" 
d="M0 128.8c-0.000976562 0.209961 -0.000976562 0.419922 -0.000976562 0.629883c0 52.7998 21.4775 100.628 56.2012 135.17c14.4385 14.2461 34.2656 23.0449 56.1318 23.0449c44.1201 0 79.9395 -35.8203 79.9395 -79.9404
c0 -21.8916 -8.7959 -41.7617 -23.0713 -56.2041c-29.7998 -29.9004 15.2002 -75.2002 45.2002 -45.2998l230.699 231l113 -113.101l-50.7998 -50.7998c-99.5996 19.1006 -187.399 -68 -168.1 -168.5c-14.9004 -14.7998 -61.2998 -68 -147.4 -68
c-106.2 0 -191.8 86 -191.8 192z" />
    <glyph glyph-name="football-helmet-primary" unicode="&#xf44f;" horiz-adv-x="512" 
d="M491 240.54c1.66016 -8.90039 -4.94043 -17.54 -13.9004 -18.7002l-188.199 -24.5c-15.7031 -2.03809 -27.8691 -15.498 -27.8691 -31.752c0 -4.18457 0.805664 -8.18262 2.26855 -11.8477l23.1006 -57.7002c5.89941 -14.7998 31.1992 -60.5 -5 -96.7002
c-11.8721 -11.877 -28.3438 -19.1797 -46.4463 -19.1797c-10.5098 0 -20.4453 2.47754 -29.2539 6.87988l-85.7002 45h-53.5c-0.0351562 0 -0.0634766 -0.0117188 -0.0986328 -0.0117188c-5.13672 0 -9.7207 2.38672 -12.7012 6.11133
c-40.4004 50.9004 -61.2998 117.9 -51.1006 190c15.2002 107.301 102 194.2 209.301 209.301c136 19.1992 254.3 -72 279.1 -196.9zM176 88c0.0205078 0 0.0400391 -0.000976562 0.0605469 -0.000976562c13.2119 0 23.9395 10.7266 23.9395 23.9395v0.0615234
c0 13.2461 -10.7539 24 -24 24s-24 -10.7539 -24 -24s10.7539 -24 24 -24z" />
    <glyph glyph-name="golf-ball-primary" unicode="&#xf450;" horiz-adv-x="416" 
d="M326.9 244.1c12.8594 -4.47656 22.0996 -16.7119 22.0996 -31.0889c0 -18.1641 -14.7461 -32.9102 -32.9092 -32.9102c-14.3779 0 -26.6143 9.23926 -31.0908 22.0996c26.2998 -9.40039 51.5 15.0996 41.9004 41.8994zM221 138.2
c26.2998 -9.40039 51.5 15.0996 41.9004 41.8994c12.8594 -4.47656 22.0996 -16.7119 22.0996 -31.0889c0 -18.1641 -14.7461 -32.9102 -32.9092 -32.9102c-14.3779 0 -26.6143 9.23926 -31.0908 22.0996zM235.9 196.1
c-14.3037 0.0712891 -26.4531 9.28613 -30.9004 22.1006c26.2998 -9.40039 51.5 15.0996 41.9004 41.8994c12.874 -4.46777 22.123 -16.7021 22.123 -31.0898c0 -18.1641 -14.7471 -32.9102 -32.9102 -32.9102h-0.212891zM128 0c-17.6611 0 -32 14.3389 -32 32h224
c0 -17.6611 -14.3389 -32 -32 -32h-16c-17.6611 0 -32 -14.3389 -32 -32v-20c0 -6.62305 -5.37695 -12 -12 -12h-40c-6.62305 0 -12 5.37695 -12 12v20c0 17.6611 -14.3389 32 -32 32h-16z" />
    <glyph glyph-name="golf-club-primary" unicode="&#xf451;" 
d="M120 55.9502c4.41504 0 8 -3.58496 8 -8v-32c0 -4.41504 -3.58496 -8 -8 -8h-120v48h120zM120 151.95c4.41504 0 8 -3.58496 8 -8v-32c0 -4.41504 -3.58496 -8 -8 -8h-120v48h120zM631 439.41c5.32422 -2.63867 8.96387 -8.13574 8.96387 -14.4756
c0 -2.48145 -0.561523 -4.83301 -1.56348 -6.93457l-124.091 -258.37l-48.7598 9.12988l129.65 270.19c2.56152 5.35742 8.03809 9.03906 14.3682 9.03906c2.45312 0 4.77637 -0.556641 6.85156 -1.54883l0.179688 -0.0908203z" />
    <glyph glyph-name="hockey-puck-primary" unicode="&#xf453;" horiz-adv-x="512" 
d="M0 96v109.8c113.5 -82.3994 398.6 -82.2998 512 0v-109.8c0 -53 -114.6 -96 -256 -96s-256 43 -256 96z" />
    <glyph glyph-name="luchador-primary" unicode="&#xf455;" horiz-adv-x="448" 
d="M224 448c123.7 0 224 -100.3 224 -224v-128c0 -88.3066 -71.6934 -160 -160 -160h-128c-88.3066 0 -160 71.6934 -160 160v128c0 123.7 100.3 224 224 224zM384 245.3v30.7002c0 6.62305 -5.37695 12 -12 12h-68c-37.9004 0 -69.2998 -28.2998 -77.5 -66.2002
c-0.900391 0.700195 -4.2002 0.700195 -5.09961 0c-8.10059 37.9004 -39.4004 66.2002 -77.4004 66.2002h-68c-6.62305 0 -12 -5.37695 -12 -12v-30.7002c0 -47.0996 35.7998 -85.2998 80 -85.2998h22.4004c-6.31055 -10.2812 -11.6611 -21.3809 -15.8008 -32.9004
c-30.8018 -4.51758 -54.5527 -31.0615 -54.5996 -63.0996c0 -35.5 29.4004 -64 64.9004 -64h126.1c35.5 0 64.9004 28.5 64.9004 64c-0.0478516 32.0381 -23.7979 58.582 -54.6006 63.0996c-4.11914 11.5303 -9.47168 22.6309 -15.7998 32.9004h22.5
c44.2002 0 80 38.2002 80 85.2998z" />
    <glyph glyph-name="quidditch-primary" unicode="&#xf458;" 
d="M93.2002 190.28c59.8994 47.7998 163.3 40.9199 163.3 40.9199l86.7002 -109.2s-16.7002 -102.42 -76.6006 -150.12c-59.8994 -47.7002 -266.6 -34.0996 -266.6 -34.0996s3.7998 23.0996 11 55.3994l94.5996 112.2c0.866211 1.04004 1.3877 2.37988 1.3877 3.83789
c0 3.31152 -2.68848 6 -6 6c-0.696289 0 -1.36523 -0.119141 -1.9873 -0.337891l-60.4004 -22.0996c14.4004 41.7002 32.7002 80 54.6006 97.5zM435.6 173.68c1.49316 -1.87793 2.38281 -4.26172 2.38281 -6.84473c0 -5.27637 -3.72266 -9.68945 -8.68262 -10.7549
l-58.7998 -12.4004l-86.7002 109.2l25.2998 54.6006c1.74805 3.76465 5.55273 6.37695 9.97363 6.37695c3.49512 0 6.61133 -1.63281 8.62695 -4.17773z" />
    <glyph glyph-name="racquet-primary" unicode="&#xf45a;" 
d="M615.55 388.19c54.2998 -76.7002 15.4502 -197.601 -86.7998 -270c-49.0996 -34.8008 -103.9 -52 -153.5 -52c-27.5996 0 -84.5 15.0996 -171.9 -18.6006l-45.6992 64.5c32.6992 38.2002 56.6992 83.2002 67.6992 132.7c12.2002 54.7002 49.5 110.5 106.801 151.1
c100.5 71.2002 228.199 70.2002 283.399 -7.69922zM210.15 101c15.2979 4.7041 31.3477 8.54883 47.3994 11.2998c-11.7002 12.2998 -12 11.7002 -21.2002 29.7002c-7.82129 -14.3135 -16.5518 -27.9648 -26.1992 -41zM569.85 271.2
c21.3008 66.0996 -13.2998 112.8 -83.8496 112.8c-106.45 0 -178.65 -90 -195.05 -141.1c-21.2998 -66.2002 13.2998 -112.801 83.8994 -112.801c84.1006 0 171.101 66.8008 195 141.101z" />
    <glyph glyph-name="shuttlecock-primary" unicode="&#xf45b;" horiz-adv-x="512" 
d="M512 228v-54.5996c-0.0351562 -11.2373 -6.64355 -20.9199 -16.2002 -25.4004l-250.35 -116.5l-39.2002 -39.2002l-150 150l39.2002 39.2002l116.55 250.3c4.46191 9.55176 14.1289 16.1602 25.3496 16.2002h54.6504c15.4336 -0.0439453 27.9561 -12.5664 28 -28v-20
c-12.2998 0 -56.5996 1.2998 -71.0996 -44.7002l-28.8008 -91.2002l-45.3994 -26.3994l-36.2998 -78l25.6992 -25.7002l70.8008 70.7998l44.5 140.8c4.07324 12.9551 16.166 22.3662 30.4492 22.4004h94.1504c15.4541 0 28 -12.5459 28 -28v-94.0996
c-0.0380859 -14.2959 -9.44434 -26.4004 -22.4004 -30.5l-140.8 -44.5l-70.7998 -70.8008l25.7002 -25.7998l78 36.2998l26.3994 45.4004l91.2002 28.7998c49 15.5 44.7002 65.2002 44.7002 71.2002h20c15.4336 -0.0439453 27.9561 -12.5664 28 -28z" />
    <glyph glyph-name="table-tennis-primary" unicode="&#xf45d;" horiz-adv-x="512" 
d="M5.78027 -4.76953c-3.56836 3.56543 -5.77637 8.49219 -5.77637 13.9307c0 5.93359 2.62109 11.2559 6.77637 14.8691l103 89.3896l-34.5 34.5801c-39 39.0898 -44.6006 98.79 -17.2998 144.09l220.399 -220.29c-3.7002 -12.71 -6.2998 -25.9102 -6.2002 -39.71v-0.1875
c0 -19.418 3.95508 -38.0264 11 -54.9023c-25.6992 2.7998 -50.5996 13.5898 -70.2998 33.2998l-35.7002 35.7002l-89.2998 -103.3c-3.59277 -4.15332 -8.90137 -6.78223 -14.8184 -6.78223c-5.42285 0 -10.333 2.21582 -13.8818 5.78223z" />
    <glyph glyph-name="futbol-secondary" unicode="&#x10f1e3;" horiz-adv-x="512" 
d="M452 344v0zM503.88 184.23c-1.44238 -48.667 -17.1523 -94.1758 -42.8799 -131.841l-7.15039 31.4502l-109.5 -13.4297l-46.6895 -100.101l27.3398 -16.3096l0.0595703 -0.230469c-21.9326 -6.33203 -45.1074 -9.72559 -69.0684 -9.72559
s-47.0576 3.39355 -68.9912 9.72559v0.230469l27.3701 16.2803l-46.6904 100.1l-109.52 13.46l-7.16016 -31.4502c-25.7168 37.6553 -41.4229 83.1504 -42.8701 131.801l24.1699 -21.0801l80.6104 75.2393l-20.8301 108.5l-32.0801 -2.84961
c28.5674 36.8018 67.0488 65.1006 111.65 81.2598l0.349609 -0.259766l-12.4004 -29.1104l96.4004 -53.4092l96.4004 53.4092l-12.6504 29.6006c44.8516 -16.1289 83.5527 -44.5234 112.25 -81.4902l-31.7002 2.83984l-21.1602 -108.5l80.6201 -75.2402zM356.32 220
l-100.32 72.6699l-100.32 -72.6699l38.4502 -117.44h124.09z" />
    <glyph glyph-name="baseball-secondary" unicode="&#x10f432;" 
d="M123 93.1201c13.4697 12.5996 26.3701 25.7002 39 39.2002l55.7998 -77.8203c-16.5 -8 -32.8994 -16.4004 -48.7998 -25.5zM495 95.9199c44.0488 -0.0380859 79.7998 -35.8096 79.7998 -79.8672v-0.132812c0 -44.1533 -35.8506 -80 -80.0039 -80s-80 35.8467 -80 80
s35.8467 80 80 80h0.204102z" />
    <glyph glyph-name="bowling-pins-secondary" unicode="&#x10f437;" horiz-adv-x="448" 
d="M133.17 288h-74.3701c-0.799805 35.7998 -20.8994 59.0996 -18.7998 96c1.90039 34.2002 22.5996 63.9004 56 64c33.2695 -0.0996094 54.0703 -29.7998 55.9697 -64c2.10059 -36.9004 -18 -60.2002 -18.7998 -96zM314.77 288
c-0.799805 35.7998 -20.8994 59.0996 -18.7998 96c1.90039 34.2002 22.7002 63.9004 56 64c33.4004 -0.0996094 54.1006 -29.7002 56 -64c2.10059 -36.9004 -18 -60.2998 -18.7998 -96h-74.4004zM443.67 128c11.4004 -51 -0.599609 -140.5 -26.5996 -192h-130
c-26.1006 51.5 -38.2002 140.9 -26.7002 192c10.7998 48.0996 39.8994 82.7998 50.7002 128h81.8994c10.7998 -45.2002 39.9004 -79.9004 50.7002 -128zM136.87 256c10.7998 -45.2002 40 -79.9004 50.8301 -128c11.3994 -51.0996 -0.600586 -140.5 -26.7002 -192h-130.03
c-26.0996 51.5 -38.0996 140.9 -26.5996 192c10.7002 48.0996 39.8994 82.7998 50.7002 128h81.7998z" />
    <glyph glyph-name="boxing-glove-secondary" unicode="&#x10f438;" horiz-adv-x="448" 
d="M352 48v-80c0 -17.6611 -14.3389 -32 -32 -32h-256c-17.6611 0 -32 14.3389 -32 32v80h133.3l-40.5 -30.4004c-1.92773 -1.47852 -3.1709 -3.80566 -3.1709 -6.4209c0 -1.78516 0.589844 -3.44043 1.57129 -4.77832l9.59961 -12.8008
c1.45996 -1.94629 3.78613 -3.20605 6.4043 -3.20605c1.79688 0 3.45996 0.604492 4.7959 1.60645l48 36l48 -36c1.33594 -1.00195 2.99609 -1.59668 4.79297 -1.59668c2.61816 0 4.94727 1.25 6.40723 3.19629l9.59961 12.8008
c0.983398 1.33789 1.56445 2.99023 1.56445 4.77637c0 2.61523 -1.23438 4.94629 -3.16406 6.42285l-40.5 30.4004h133.3z" />
    <glyph glyph-name="cricket-secondary" unicode="&#x10f449;" 
d="M421.48 126.48l-263.48 -184.48c-8.90039 -6.2002 -20.5 -7.90039 -30.4004 -3.5c-71.0498 31.7285 -121.727 100.76 -127.52 182.08c-0.799805 10.7998 4.7998 21.2002 13.7002 27.4004l263.5 184.5l-30.9004 -175.101z" />
    <glyph glyph-name="curling-secondary" unicode="&#x10f44a;" 
d="M0 32v32h640v-32c0 -52.9834 -43.0166 -96 -96 -96h-448c-52.9834 0 -96 43.0166 -96 96zM544 208c52.9834 0 96 -43.0166 96 -96v-16h-640v16c0 52.9834 43.0166 96 96 96h448z" />
    <glyph glyph-name="dumbbell-secondary" unicode="&#x10f44b;" 
d="M32 160h-16c-8.83105 0 -16 7.16895 -16 16v32c0 8.83105 7.16895 16 16 16h16v-64zM384 224v-64h-128v64h128zM624 224c8.83105 0 16 -7.16895 16 -16v-32c0 -8.83105 -7.16895 -16 -16 -16h-16v64h16z" />
    <glyph glyph-name="field-hockey-secondary" unicode="&#x10f44c;" 
d="M628 448c6.62305 0 12 -5.37695 12 -12v-124.9c-0.0253906 -3.30371 -1.35449 -6.30273 -3.5 -8.5l-44.5 -44.5996l-113 113.1l73.2998 73.3008c2.1084 2.21875 5.08789 3.59961 8.38672 3.59961h0.0136719h67.2998zM480.2 128
c52.9316 -0.0224609 95.8994 -43.002 95.8994 -95.9385v-0.0615234c0 -52.9834 -43.0176 -96 -96.002 -96c-52.9834 0 -96 43.0166 -96 96c0 52.9844 43.0166 96 96 96h0.102539z" />
    <glyph glyph-name="football-helmet-secondary" unicode="&#x10f44f;" horiz-adv-x="512" 
d="M480 128c17.6426 -0.0224609 31.96 -14.3525 31.96 -32v-112c0 -12.2998 -9.5 -32 -32 -32c-2.7998 0 -1.2998 -0.0996094 -45.2998 5.40039c-47.9004 6 -86.4004 43.8994 -95.9004 91.2998l-9.5 47.2998h-42.8994c5.89941 -14.7998 -12.8008 32 -12.8008 32h49.3008
l-14.4004 71.9004l31.7998 4.09961l15.2002 -76h124.54zM480 -16v45.9004h-101.4c12.0635 -21.9316 34.1807 -37.5059 60.1006 -40.7002zM480 64v32h-118.14l6.39941 -32h111.74z" />
    <glyph glyph-name="golf-ball-secondary" unicode="&#x10f450;" horiz-adv-x="416" 
d="M208 448c114.9 0 208 -93.0996 208 -208c0 -74.2002 -39 -139.2 -97.5 -176h-221c-58.5 36.7998 -97.5 101.8 -97.5 176c0 114.9 93.0996 208 208 208zM205 218.2c4.47656 -12.8604 16.7119 -22.1006 31.0898 -22.1006c18.1631 0 32.9102 14.7461 32.9102 32.9102
c0 14.377 -9.24023 26.6133 -22.0996 31.0898c9.59961 -26.7998 -15.6006 -51.2998 -41.9004 -41.8994zM251.9 116.1c0.0703125 0 0.146484 -0.00976562 0.217773 -0.00976562c18.1631 0 32.9102 14.7461 32.9102 32.9102c0 14.3877 -9.25391 26.6318 -22.1279 31.0996
c9.59961 -26.7998 -15.6006 -51.2998 -41.9004 -41.8994c4.44727 -12.8145 16.5967 -22.0293 30.9004 -22.1006zM315.9 180.1c0.0703125 0 0.146484 -0.00976562 0.217773 -0.00976562c18.1631 0 32.9102 14.7461 32.9102 32.9102
c0 14.3877 -9.25391 26.6318 -22.1279 31.0996c9.59961 -26.7998 -15.6006 -51.2998 -41.9004 -41.8994c4.44727 -12.8145 16.5967 -22.0293 30.9004 -22.1006z" />
    <glyph glyph-name="golf-club-secondary" unicode="&#x10f451;" 
d="M64 242.85c4.0498 -0.000976562 7.95801 -0.37793 11.7998 -1.09961l438.5 -82.1201l-90 -187.42c-10.3301 -21.4785 -32.2656 -36.2598 -57.6748 -36.2598h-0.0253906h-302.6c-35.3076 0.0332031 -63.9668 28.6924 -64 64v8h120c4.41504 0 8 3.58496 8 8v32
c0 4.41504 -3.58496 8 -8 8h-120v48h120c4.41504 0 8 3.58496 8 8v32c0 4.41504 -3.58496 8 -8 8h-120v26.8994c0 35.3232 28.6777 64 64 64z" />
    <glyph glyph-name="hockey-puck-secondary" unicode="&#x10f453;" horiz-adv-x="512" 
d="M0 288c0 53 114.6 96 256 96s256 -43 256 -96s-114.6 -96 -256 -96s-256 43 -256 96z" />
    <glyph glyph-name="luchador-secondary" unicode="&#x10f455;" horiz-adv-x="448" 
d="M372 288c6.62305 0 12 -5.37695 12 -12v-30.7002c0 -47.0996 -35.7998 -85.2998 -80 -85.2998h-22.5c6.32812 -10.2695 11.6807 -21.3701 15.7998 -32.9004c30.8027 -4.51758 54.5527 -31.0615 54.6006 -63.0996c0 -35.5 -29.4004 -64 -64.9004 -64h-126.1
c-35.5 0 -64.9004 28.5 -64.9004 64c0.046875 32.0381 23.7979 58.582 54.5996 63.0996c4.13965 11.5195 9.49023 22.6191 15.8008 32.9004h-22.4004c-44.2002 0 -80 38.2002 -80 85.2998v30.7002c0 6.62305 5.37695 12 12 12h68c38 0 69.2998 -28.2998 77.4004 -66.2002
c0.899414 0.700195 4.19922 0.700195 5.09961 0c8.2002 37.9004 39.5996 66.2002 77.5 66.2002h68zM224 181.3c-20.2002 -19.8994 -31.9004 -38.5 -38.7002 -53.2998h77.4004c-6.7998 14.7998 -18.5 33.4004 -38.7002 53.2998zM144 192l44.79 0.0595703
c0.0107422 0 0.0205078 -0.000976562 0.03125 -0.000976562c0.916992 0 1.74316 0.384766 2.3291 1.00098c0.527344 0.569336 0.849609 1.33203 0.849609 2.16797v0.00292969v7.46973c0 29.3994 -21.5 53.2998 -48 53.2998h-48v-10.7002
c0 -29.3994 21.5 -53.2998 48 -53.2998zM288 96h-128c-17.6611 0 -32 -14.3389 -32 -32s14.3389 -32 32 -32h128c17.6611 0 32 14.3389 32 32s-14.3389 32 -32 32zM352 245.3l0.0195312 10.7002h-48c-26.5 0 -48 -23.9004 -48 -53.2998v-7.53027l0.000976562 -0.00292969
c0 -0.835938 0.322266 -1.59766 0.849609 -2.16699c0.584961 -0.616211 1.41113 -1 2.32715 -1h0.0332031h44.7695c26.5 0 48 23.9004 48 53.2998z" />
    <glyph glyph-name="quidditch-secondary" unicode="&#x10f458;" 
d="M494.5 96.1797c44.0488 -0.0605469 79.7949 -35.8379 79.7998 -79.8994c0 -44.0986 -35.8037 -79.9004 -79.9014 -79.9004c-44.0986 0 -79.9004 35.8018 -79.9004 79.9004c0 44.0977 35.8018 79.8994 79.9004 79.8994h0.101562zM636.5 417
c2.19922 -2.74023 3.53223 -6.22363 3.53223 -10.0078c0 -5.0625 -2.35645 -9.5791 -6.03223 -12.5117l-232.5 -177.9l-39.7002 50.0996l232.5 177.92c2.72168 2.14062 6.1582 3.43555 9.88574 3.43555c5.06348 0 9.58203 -2.3584 12.5146 -6.03516z" />
    <glyph glyph-name="racquet-secondary" unicode="&#x10f45a;" 
d="M6.65039 16.8896c0.0996094 -0.0996094 119.35 84.6006 119.35 84.6006l56.7002 -80l-120.7 -82.6006c-2.58789 -1.79883 -5.73828 -2.87891 -9.12598 -2.87891c-5.39844 0 -10.1758 2.67969 -13.0742 6.7793l-36.7998 51.7998
c-1.85645 2.62402 -2.96973 5.83398 -2.96973 9.28906c0 5.34277 2.6084 10.082 6.62012 13.0107zM486 384c70.5498 0 105.15 -46.71 83.9004 -112.8c-23.9004 -74.2998 -110.9 -141.101 -195 -141.101c-70.6006 0 -105.2 46.6006 -83.9004 112.801
c16.4004 51.0996 88.5996 141.1 195 141.1z" />
    <glyph glyph-name="shuttlecock-secondary" unicode="&#x10f45b;" horiz-adv-x="512" 
d="M181.05 -33c-19.1455 -18.8164 -45.3926 -30.4297 -74.3301 -30.4297c-58.542 0 -106.07 47.5283 -106.07 106.069c0 28.9385 11.584 55.2148 30.4004 74.3604l2.60059 2.59961l150 -150z" />
    <glyph glyph-name="table-tennis-secondary" unicode="&#x10f45d;" horiz-adv-x="512" 
d="M496.28 151.52c-64.1006 43.2109 -149.5 27.9004 -195.601 -34.1895l-211.5 211.5l56 56.0898c83.9004 84.0996 220 84.0996 303.9 0c63 -63.0898 78.7002 -155.59 47.2002 -233.4zM416.08 128c52.9834 0 96 -43.0166 96 -96s-43.0166 -96 -96 -96
c-52.9844 0 -96 43.0166 -96 96s43.0156 96 96 96z" />
  </font>
</defs>
</svg>
