<?xml version="1.0" standalone="no"?>
<!DOCTYPE svg PUBLIC "-//W3C//DTD SVG 1.1//EN" "http://www.w3.org/Graphics/SVG/1.1/DTD/svg11.dtd" >
<svg xmlns="http://www.w3.org/2000/svg" xmlns:xlink="http://www.w3.org/1999/xlink" version="1.1">
<metadata>
Created by FontForge 20201107 at Tue Mar 16 10:16:40 2021
 By Robert Madole
Copyright (c) Font Awesome
</metadata>
<!-- Font Awesome Pro 5.15.3 by @fontawesome - https://fontawesome.com License - https://fontawesome.com/license (Commercial License) --><defs>
<font id="FontAwesome5Duotone-Solid" horiz-adv-x="640" >
  <font-face 
    font-family="Font Awesome 5 Duotone Solid"
    font-weight="900"
    font-stretch="normal"
    units-per-em="512"
    panose-1="2 0 5 3 0 0 0 0 0 0"
    ascent="448"
    descent="-64"
    bbox="-1 -64 640 449"
    underline-thickness="25"
    underline-position="-50"
    unicode-range="U+0020-10F8FF"
  />
    <missing-glyph />
    <glyph glyph-name="truck-primary" unicode="&#xf0d1;" 
d="M624 96c8.83105 0 16 -7.16895 16 -16v-32c0 -8.83105 -7.16895 -16 -16 -16h-50.1602c-7.83984 54.0703 -53.5596 96 -109.84 96s-102.53 -41.8604 -110.38 -96h-67.2402c-7.83984 54.1396 -54.1602 96 -110.38 96s-102 -41.9297 -109.84 -96h-18.1602
c-26.4922 0 -48 21.5078 -48 48v320c0 26.4922 21.5078 48 48 48h320c26.4922 0 48 -21.5078 48 -48v-48h44.0996c13.2344 -0.0224609 25.2266 -5.40527 33.9004 -14.0996l99.9004 -99.9004c8.69434 -8.67383 14.0771 -20.666 14.0996 -33.9004v-108.1h16zM560 192v12.0996
l-99.9004 99.9004h-44.0996v-112h144z" />
    <glyph glyph-name="stethoscope-primary" unicode="&#xf0f1;" horiz-adv-x="512" 
d="M448 336c35.3223 0 64 -28.6777 64 -64s-28.6777 -64 -64 -64s-64 28.6777 -64 64s28.6777 64 64 64zM448 256c8.83105 0 16 7.16895 16 16s-7.16895 16 -16 16s-16 -7.16895 -16 -16s7.16895 -16 16 -16zM300.7 434.93c10.9785 -2.19238 19.2832 -11.8848 19.2998 -23.5
v-155.43c0 -88.2197 -71.7803 -160 -160 -160s-160 71.7803 -160 160v155.43c0.0185547 11.6318 8.31738 21.3418 19.2998 23.5703l62.7998 12.4297c1.53223 0.308594 3.09863 0.451172 4.71973 0.451172c11.6084 0 21.2988 -8.2793 23.4805 -19.251l3.10059 -15.7002
c0.307617 -1.53125 0.451172 -3.09766 0.451172 -4.71973c0 -11.6084 -8.28027 -21.2979 -19.252 -23.4795l-30.6992 -6.10059v-50.6299l0.0996094 -72c0 -52.9834 43.0166 -96 96 -96s96 43.0166 96 96l-0.0996094 122.7l-30.7002 6.09961
c-10.9717 2.18262 -19.2695 11.8535 -19.2695 23.4619c0 1.62207 0.161133 3.20605 0.469727 4.73828l3.19922 15.7305c2.18262 10.9707 11.8535 19.2695 23.4619 19.2695c1.62207 0 3.20703 -0.162109 4.73828 -0.469727z" />
    <glyph glyph-name="ambulance-primary" unicode="&#xf0f9;" 
d="M624 96c8.83105 0 16 -7.16895 16 -16v-32c0 -8.83105 -7.16895 -16 -16 -16h-50.1602c-7.83984 54.0703 -53.5596 96 -109.84 96s-102.53 -41.8604 -110.38 -96h-67.2402c-7.83984 54.1396 -54.1602 96 -110.38 96s-102 -41.9297 -109.84 -96h-18.1602
c-26.4922 0 -48 21.5078 -48 48v320c0 26.4922 21.5078 48 48 48h320c26.4922 0 48 -21.5078 48 -48v-48h44.0996c13.2344 -0.0224609 25.2266 -5.40527 33.9004 -14.0996l99.9004 -99.9004c8.69434 -8.67383 14.0771 -20.666 14.0996 -33.9004v-108.1h16zM304 264v48
c0 4.41504 -3.58496 8 -8 8h-56v56c0 4.41504 -3.58496 8 -8 8h-48c-4.41504 0 -8 -3.58496 -8 -8v-56h-56c-4.41504 0 -8 -3.58496 -8 -8v-48c0 -4.41504 3.58496 -8 8 -8h56v-56c0 -4.41504 3.58496 -8 8 -8h48c4.41504 0 8 3.58496 8 8v56h56c4.41504 0 8 3.58496 8 8z
M560 192v12.0996l-99.9004 99.9004h-44.0996v-112h144z" />
    <glyph glyph-name="heartbeat-primary" unicode="&#xf21e;" horiz-adv-x="512" 
d="M451 160l-0.0996094 -0.0498047h-108.591l-22.0996 44.2002l-49.7002 -99.4004c-2.62695 -5.24707 -8.05371 -8.85352 -14.3164 -8.85352c-6.49805 0 -12.0791 3.88477 -14.583 9.45312l-56.9004 126.301l-30 -71.7002h-93.71v0.0498047l-29.9502 31.9502h102.37
l35.8896 86.2002c2.40137 5.80664 8.12305 9.89648 14.793 9.89648c6.5166 0 12.1133 -3.90234 14.6074 -9.49707l58.21 -129.3l49 97.9004c2.63184 5.2334 8.05176 8.82812 14.3047 8.82812s11.6543 -3.59473 14.2852 -8.82812l27.6006 -55.2002h118.89z" />
    <glyph glyph-name="allergies-primary" unicode="&#xf461;" horiz-adv-x="448" 
d="M176 160c8.83105 0 16 -7.16895 16 -16s-7.16895 -16 -16 -16s-16 7.16895 -16 16s7.16895 16 16 16zM240 32c8.83105 0 16 -7.16895 16 -16s-7.16895 -16 -16 -16s-16 7.16895 -16 16s7.16895 16 16 16zM304 96c8.83105 0 16 -7.16895 16 -16s-7.16895 -16 -16 -16
s-16 7.16895 -16 16s7.16895 16 16 16zM368 160c8.83105 0 16 -7.16895 16 -16s-7.16895 -16 -16 -16s-16 7.16895 -16 16s7.16895 16 16 16z" />
    <glyph glyph-name="barcode-alt-primary" unicode="&#xf463;" 
d="M152 352c4.41504 0 8 -3.58496 8 -8v-304c0 -4.41504 -3.58496 -8 -8 -8h-48c-4.41504 0 -8 3.58496 -8 8v304c0 4.41504 3.58496 8 8 8h48zM216 352c4.41504 0 8 -3.58496 8 -8v-304c0 -4.41504 -3.58496 -8 -8 -8h-16c-4.41504 0 -8 3.58496 -8 8v304
c0 4.41504 3.58496 8 8 8h16zM280 352c4.41504 0 8 -3.58496 8 -8v-304c0 -4.41504 -3.58496 -8 -8 -8h-16c-4.41504 0 -8 3.58496 -8 8v304c0 4.41504 3.58496 8 8 8h16zM408 352c4.41504 0 8 -3.58496 8 -8v-304c0 -4.41504 -3.58496 -8 -8 -8h-48
c-4.41504 0 -8 3.58496 -8 8v304c0 4.41504 3.58496 8 8 8h48zM536 352c4.41504 0 8 -3.58496 8 -8v-304c0 -4.41504 -3.58496 -8 -8 -8h-48c-4.41504 0 -8 3.58496 -8 8v304c0 4.41504 3.58496 8 8 8h48z" />
    <glyph glyph-name="barcode-read-primary" unicode="&#xf464;" 
d="M184 320c4.41504 0 8 -3.58496 8 -8v-240c0 -4.41504 -3.58496 -8 -8 -8h-48c-4.41504 0 -8 3.58496 -8 8v240c0 4.41504 3.58496 8 8 8h48zM248 320c4.41504 0 8 -3.58496 8 -8v-240c0 -4.41504 -3.58496 -8 -8 -8h-16c-4.41504 0 -8 3.58496 -8 8v240
c0 4.41504 3.58496 8 8 8h16zM408 320c4.41504 0 8 -3.58496 8 -8v-240c0 -4.41504 -3.58496 -8 -8 -8h-48c-4.41504 0 -8 3.58496 -8 8v240c0 4.41504 3.58496 8 8 8h48zM312 320c4.41504 0 8 -3.58496 8 -8v-240c0 -4.41504 -3.58496 -8 -8 -8h-16
c-4.41504 0 -8 3.58496 -8 8v240c0 4.41504 3.58496 8 8 8h16zM504 320c4.41504 0 8 -3.58496 8 -8v-240c0 -4.41504 -3.58496 -8 -8 -8h-48c-4.41504 0 -8 3.58496 -8 8v240c0 4.41504 3.58496 8 8 8h48z" />
    <glyph glyph-name="barcode-scan-primary" unicode="&#xf465;" 
d="M640 216v-48c0 -4.41504 -3.58496 -8 -8 -8h-624c-4.41504 0 -8 3.58496 -8 8v48c0 4.41504 3.58496 8 8 8h624c4.41504 0 8 -3.58496 8 -8z" />
    <glyph glyph-name="box-primary" unicode="&#xf466;" horiz-adv-x="512" 
d="M53.0996 415.2c6.31836 19.0498 24.2764 32.7998 45.4355 32.7998h0.0644531h141.4v-192h-238.7c0.400391 2.5 0.400391 5 1.2002 7.40039zM509.5 263.4c0.799805 -2.40039 0.799805 -4.90039 1.2002 -7.40039h-238.7v192h141.4
c0.0214844 0 0.0292969 0.0078125 0.0517578 0.0078125c21.1582 0 39.1299 -13.7578 45.4482 -32.8076z" />
    <glyph glyph-name="box-check-primary" unicode="&#xf467;" 
d="M240 448v-192h-238.7c0.400391 2.5 0.400391 5 1.2002 7.40039l50.5996 151.8c6.31836 19.0498 24.2764 32.7998 45.4355 32.7998h0.0644531h141.4zM448 368c-69.5996 0 -132.1 -29.9004 -176 -77.4004v157.4h141.4
c0.0195312 0 0.0273438 0.00683594 0.0478516 0.00683594c21.1875 0 39.1768 -13.8076 45.4521 -32.9072l16.2998 -48.7998c-8.9873 1.11914 -17.9141 1.69141 -27.2002 1.7002zM208 128c0 -78.5996 38.0996 -148.2 96.5996 -192h-256.6c-26.4922 0 -48 21.5078 -48 48v240
h228.2c-12.9053 -29.3281 -20.1904 -61.9268 -20.2002 -96zM562.2 187.7c1.94531 -1.98438 3.14551 -4.70605 3.14551 -7.70117c0 -3.04688 -1.24121 -5.80664 -3.24609 -7.79883l-131 -130c-1.98828 -1.97461 -4.72949 -3.19629 -7.75098 -3.19629
c-3.07227 0 -5.85254 1.2627 -7.84863 3.2959l-75.7002 76.2998c-1.97461 1.98926 -3.19629 4.73047 -3.19629 7.75195c0 3.07227 1.2627 5.85156 3.29688 7.84863l26 25.7998c1.98828 1.97461 4.72949 3.19629 7.75098 3.19629c3.07227 0 5.85254 -1.2627 7.84863 -3.2959
l42.0996 -42.5l97.2002 96.3994c1.98926 1.97461 4.73047 3.19629 7.75195 3.19629c3.07227 0 5.85156 -1.2627 7.84863 -3.2959z" />
    <glyph glyph-name="boxes-primary" unicode="&#xf468;" horiz-adv-x="576" 
d="M560 160c8.83105 0 16 -7.16895 16 -16v-192c0 -8.83105 -7.16895 -16 -16 -16h-224c-8.83105 0 -16 7.16895 -16 16v192c0 8.83105 7.16895 16 16 16h80v-96l32 21.2998l32 -21.2998v96h80zM176 224c-8.83105 0 -16 7.16895 -16 16v192c0 8.83105 7.16895 16 16 16h80
v-96l32 21.2998l32 -21.2998v96h80c8.83105 0 16 -7.16895 16 -16v-192c0 -8.83105 -7.16895 -16 -16 -16h-224zM240 160c8.83105 0 16 -7.16895 16 -16v-192c0 -8.83105 -7.16895 -16 -16 -16h-224c-8.83105 0 -16 7.16895 -16 16v192c0 8.83105 7.16895 16 16 16h80v-96
l32 21.2998l32 -21.2998v96h80z" />
    <glyph glyph-name="briefcase-medical-primary" unicode="&#xf469;" horiz-adv-x="512" 
d="M464 320c26.4922 0 48 -21.5078 48 -48v-288c0 -26.4922 -21.5078 -48 -48 -48h-416c-26.4922 0 -48 21.5078 -48 48v288c0 26.4922 21.5078 48 48 48h416zM352 104v48c0 4.41504 -3.58496 8 -8 8h-56v56c0 4.41504 -3.58496 8 -8 8h-48c-4.41504 0 -8 -3.58496 -8 -8
v-56h-56c-4.41504 0 -8 -3.58496 -8 -8v-48c0 -4.41504 3.58496 -8 8 -8h56v-56c0 -4.41504 3.58496 -8 8 -8h48c4.41504 0 8 3.58496 8 8v56h56c4.41504 0 8 3.58496 8 8z" />
    <glyph glyph-name="burn-primary" unicode="&#xf46a;" horiz-adv-x="384" 
d="M276 114.95c0 -48.8301 -34.5596 -82.9502 -84 -82.9502s-84 34.1201 -84 82.9502c0 11.8096 4 53.8096 84 141c80 -87.1904 84 -129.19 84 -141z" />
    <glyph glyph-name="capsules-primary" unicode="&#xf46b;" horiz-adv-x="576" 
d="M0 80v112h224v-112c0 -61.8145 -50.1855 -112 -112 -112s-112 50.1855 -112 112zM555.3 147.9c12.9795 -18.5439 20.7256 -41.3281 20.7256 -65.6592c0 -63.0898 -51.2217 -114.312 -114.312 -114.312c-38.7588 0 -73.0381 19.3311 -93.7139 48.8701l-65 92.79
l187.38 131.061z" />
    <glyph glyph-name="clipboard-check-primary" unicode="&#xf46c;" horiz-adv-x="384" 
d="M285.1 221.6l28.2002 -28.3994c2.15137 -2.16992 3.48242 -5.1582 3.48242 -8.45117c0 -3.34473 -1.37207 -6.37207 -3.58203 -8.54883l-143 -141.8c-2.16992 -2.15137 -5.1582 -3.48242 -8.45117 -3.48242c-3.34473 0 -6.37207 1.37109 -8.54883 3.58203
l-82.6006 83.2998c-2.15137 2.16992 -3.48145 5.1582 -3.48145 8.45117c0 3.34473 1.37109 6.37207 3.58203 8.54883l28.3994 28.2002c2.16992 2.15137 5.1582 3.48145 8.45215 3.48145c3.34473 0 6.37109 -1.37109 8.54785 -3.58105l46 -46.4004l106 105.2
c2.16992 2.15137 5.1582 3.48145 8.45215 3.48145c3.34473 0 6.37109 -1.37109 8.54785 -3.58203zM256 384c35.3223 0 64 -28.6777 64 -64h-256c0 35.3223 28.6777 64 64 64c0 35.3223 28.6777 64 64 64s64 -28.6777 64 -64zM192 360
c0.0205078 0 0.0400391 -0.000976562 0.0605469 -0.000976562c13.2119 0 23.9395 10.7266 23.9395 23.9395v0.0615234c0 13.2461 -10.7539 24 -24 24s-24 -10.7539 -24 -24s10.7539 -24 24 -24z" />
    <glyph glyph-name="clipboard-list-primary" unicode="&#xf46d;" horiz-adv-x="384" 
d="M96 72c0.0205078 0 0.0400391 0.000976562 0.0605469 0.000976562c13.2119 0 23.9395 -10.7266 23.9395 -23.9395v-0.0615234c0 -13.2461 -10.7539 -24 -24 -24s-24 10.7539 -24 24s10.7539 24 24 24zM96 168c0.0205078 0 0.0400391 0.000976562 0.0605469 0.000976562
c13.2119 0 23.9395 -10.7266 23.9395 -23.9395v-0.0615234c0 -13.2461 -10.7539 -24 -24 -24s-24 10.7539 -24 24s10.7539 24 24 24zM96 264c0.0205078 0 0.0400391 0.000976562 0.0605469 0.000976562c13.2119 0 23.9395 -10.7266 23.9395 -23.9395v-0.0615234
c0 -13.2461 -10.7539 -24 -24 -24s-24 10.7539 -24 24s10.7539 24 24 24zM256 384c35.3223 0 64 -28.6777 64 -64h-256c0 35.3223 28.6777 64 64 64c0 35.3223 28.6777 64 64 64s64 -28.6777 64 -64zM192 360c0.0205078 0 0.0400391 -0.000976562 0.0605469 -0.000976562
c13.2119 0 23.9395 10.7266 23.9395 23.9395v0.0615234c0 13.2461 -10.7539 24 -24 24s-24 -10.7539 -24 -24s10.7539 -24 24 -24z" />
    <glyph glyph-name="conveyor-belt-primary" unicode="&#xf46e;" 
d="M544 128c52.9834 0 96 -43.0166 96 -96s-43.0166 -96 -96 -96h-448c-52.9834 0 -96 43.0166 -96 96s43.0166 96 96 96h448zM128 0c17.6611 0 32 14.3389 32 32s-14.3389 32 -32 32s-32 -14.3389 -32 -32s14.3389 -32 32 -32zM320 0c17.6611 0 32 14.3389 32 32
s-14.3389 32 -32 32s-32 -14.3389 -32 -32s14.3389 -32 32 -32zM512 0c17.6611 0 32 14.3389 32 32s-14.3389 32 -32 32s-32 -14.3389 -32 -32s14.3389 -32 32 -32zM384 320l-64 32l-64 -32v128h128v-128z" />
    <glyph glyph-name="conveyor-belt-alt-primary" unicode="&#xf46f;" 
d="M544 128c52.9834 0 96 -43.0166 96 -96s-43.0166 -96 -96 -96h-448c-52.9834 0 -96 43.0166 -96 96s43.0166 96 96 96h448zM128 0c17.6611 0 32 14.3389 32 32s-14.3389 32 -32 32s-32 -14.3389 -32 -32s14.3389 -32 32 -32zM320 0c17.6611 0 32 14.3389 32 32
s-14.3389 32 -32 32s-32 -14.3389 -32 -32s14.3389 -32 32 -32zM512 0c17.6611 0 32 14.3389 32 32s-14.3389 32 -32 32s-32 -14.3389 -32 -32s14.3389 -32 32 -32z" />
    <glyph glyph-name="dolly-primary" unicode="&#xf472;" horiz-adv-x="576" 
d="M575.2 121.6c0.517578 -1.57227 0.803711 -3.25098 0.803711 -4.99609c0 -7.08691 -4.61719 -13.1035 -11.0039 -15.2031l-181.31 -60.5508c-1.49805 22.2178 -8.7959 43.1191 -20.2705 60.7607l181.38 60.4893c1.58203 0.524414 3.27051 0.814453 5.02637 0.814453
c7.05371 0 13.0469 -4.57324 15.1738 -10.9141zM128 448c0.0117188 0 0.015625 0.00488281 0.0273438 0.00488281c14.1348 0 26.1416 -9.18359 30.373 -21.9053l88.7998 -266.409c-22.2334 -1.49121 -43.1523 -8.78613 -60.8105 -20.2607l-81.4893 244.57h-88.9004
c-8.83105 0 -16 7.16895 -16 16v32c0 8.83105 7.16895 16 16 16h112zM373.6 390.5l33.1006 -99.4004l-60.7002 -20.0996l-33.0996 99.4004z" />
    <glyph glyph-name="dolly-empty-primary" unicode="&#xf473;" horiz-adv-x="576" 
d="M128 448c0.0117188 0 0.015625 0.00488281 0.0273438 0.00488281c14.1348 0 26.1416 -9.18359 30.373 -21.9053l88.7998 -266.409c-22.2334 -1.49121 -43.1523 -8.78613 -60.8105 -20.2607l-81.4893 244.57h-88.9004c-8.83105 0 -16 7.16895 -16 16v32
c0 8.83105 7.16895 16 16 16h112zM575.2 121.6c0.517578 -1.57227 0.803711 -3.25098 0.803711 -4.99609c0 -7.08691 -4.61719 -13.1035 -11.0039 -15.2031l-181.31 -60.5508c-1.49805 22.2178 -8.7959 43.1191 -20.2705 60.7607l181.38 60.4893
c1.58203 0.524414 3.27051 0.814453 5.02637 0.814453c7.05371 0 13.0469 -4.57324 15.1738 -10.9141z" />
    <glyph glyph-name="dolly-flatbed-primary" unicode="&#xf474;" 
d="M448 288l-48 32l-48 -32v128h96v-128zM624 64c8.83105 0 16 -7.16895 16 -16v-32c0 -8.83105 -7.16895 -16 -16 -16h-544c-8.83105 0 -16 7.16895 -16 16v368h-48c-8.83105 0 -16 7.16895 -16 16v32c0 8.83105 7.16895 16 16 16h96c8.83105 0 16 -7.16895 16 -16v-368
h496z" />
    <glyph glyph-name="dolly-flatbed-alt-primary" unicode="&#xf475;" 
d="M640 48v-32c0 -8.83105 -7.16895 -16 -16 -16h-544c-8.83105 0 -16 7.16895 -16 16v368h-48c-8.83105 0 -16 7.16895 -16 16v32c0 8.83105 7.16895 16 16 16h96c8.83105 0 16 -7.16895 16 -16v-368h496c8.83105 0 16 -7.16895 16 -16z" />
    <glyph glyph-name="first-aid-primary" unicode="&#xf479;" horiz-adv-x="576" 
d="M128 -32v448h320v-448h-320zM192 216v-48c0 -4.41504 3.58496 -8 8 -8h56v-56c0 -4.41504 3.58496 -8 8 -8h48c4.41504 0 8 3.58496 8 8v56h56c4.41504 0 8 3.58496 8 8v48c0 4.41504 -3.58496 8 -8 8h-56v56c0 4.41504 -3.58496 8 -8 8h-48
c-4.41504 0 -8 -3.58496 -8 -8v-56h-56c-4.41504 0 -8 -3.58496 -8 -8zM0 368c0 26.4922 21.5078 48 48 48h16v-448h-16c-26.4922 0 -48 21.5078 -48 48v352zM528 416c26.4922 0 48 -21.5078 48 -48v-352c0 -26.4922 -21.5078 -48 -48 -48h-16v448h16z" />
    <glyph glyph-name="forklift-primary" unicode="&#xf47a;" 
d="M410.8 236.1c3.30762 -7.71094 5.17871 -16.248 5.2002 -25.1592v-103c-18.1289 12.627 -40.2705 19.9834 -64.0176 19.9834c-56.3555 0 -103.046 -41.7139 -110.853 -95.9238h-34.2598c-3.47754 24.4922 -14.9355 46.5527 -31.6699 63.2002
c-20.2734 20.2754 -48.3066 32.8232 -79.2158 32.8232s-58.9111 -12.5479 -79.1846 -32.8232c-6.45215 -6.45605 -12.0449 -13.5801 -16.7998 -21.4307v166.23c0 26.4922 21.5078 48 48 48h48v112c0 26.4922 21.5078 48 48 48h144.3
c0.0263672 0 0.0292969 0.0351562 0.0556641 0.0351562c19.7959 0 36.8086 -12.0107 44.1445 -29.1348zM352 192v18.9004l-74.2002 173.1h-117.8v-96l96 -96h96z" />
    <glyph glyph-name="hospital-alt-primary" unicode="&#xf47d;" horiz-adv-x="576" 
d="M344 357.33c4.41504 0 8 -3.58496 8 -8v-26.6602c0 -4.41504 -3.58496 -8 -8 -8h-34.6699v-34.6699c0 -4.41504 -3.58496 -8 -8 -8h-26.6602c-4.41504 0 -8 3.58496 -8 8v34.6699h-34.6699c-4.41504 0 -8 3.58496 -8 8v26.6602c0 4.41504 3.58496 8 8 8h34.6699v34.6699
c0 4.41504 3.58496 8 8 8h26.6602c4.41504 0 8 -3.58496 8 -8v-34.6699h34.6699zM148 64c6.62305 0 12 -5.37695 12 -12v-40c0 -6.62305 -5.37695 -12 -12 -12h-40c-6.62305 0 -12 5.37695 -12 12v40c0 6.62305 5.37695 12 12 12h40zM148 192c6.62305 0 12 -5.37695 12 -12
v-40c0 -6.62305 -5.37695 -12 -12 -12h-40c-6.62305 0 -12 5.37695 -12 12v40c0 6.62305 5.37695 12 12 12h40zM308 64c6.62305 0 12 -5.37695 12 -12v-40c0 -6.62305 -5.37695 -12 -12 -12h-40c-6.62305 0 -12 5.37695 -12 12v40c0 6.62305 5.37695 12 12 12h40zM308 192
c6.62305 0 12 -5.37695 12 -12v-40c0 -6.62305 -5.37695 -12 -12 -12h-40c-6.62305 0 -12 5.37695 -12 12v40c0 6.62305 5.37695 12 12 12h40zM468 64c6.62305 0 12 -5.37695 12 -12v-40c0 -6.62305 -5.37695 -12 -12 -12h-40c-6.62305 0 -12 5.37695 -12 12v40
c0 6.62305 5.37695 12 12 12h40zM468 192c6.62305 0 12 -5.37695 12 -12v-40c0 -6.62305 -5.37695 -12 -12 -12h-40c-6.62305 0 -12 5.37695 -12 12v40c0 6.62305 5.37695 12 12 12h40z" />
    <glyph glyph-name="hospital-symbol-primary" unicode="&#xf47e;" horiz-adv-x="512" 
d="M368 72c0 -4.41504 -3.58496 -8 -8 -8h-48c-4.41504 0 -8 3.58496 -8 8v88h-96v-88c0 -4.41504 -3.58496 -8 -8 -8h-48c-4.41504 0 -8 3.58496 -8 8v240c0 4.41504 3.58496 8 8 8h48c4.41504 0 8 -3.58496 8 -8v-88h96v88c0 4.41504 3.58496 8 8 8h48
c4.41504 0 8 -3.58496 8 -8v-240z" />
    <glyph glyph-name="notes-medical-primary" unicode="&#xf481;" horiz-adv-x="384" 
d="M255 385c35.3223 0 64 -28.6777 64 -64h-256c0 35.3223 28.6777 64 64 64c0 35.3223 28.6777 64 64 64s64 -28.6777 64 -64zM191 361c0.0205078 0 0.0400391 -0.000976562 0.0605469 -0.000976562c13.2119 0 23.9395 10.7266 23.9395 23.9395v0.0615234
c0 13.2461 -10.7539 24 -24 24s-24 -10.7539 -24 -24s10.7539 -24 24 -24zM280 160c4.41504 0 8 -3.58496 8 -8v-48c0 -4.41504 -3.58496 -8 -8 -8h-56v-56c0 -4.41504 -3.58496 -8 -8 -8h-48c-4.41504 0 -8 3.58496 -8 8v56h-56c-4.41504 0 -8 3.58496 -8 8v48
c0 4.41504 3.58496 8 8 8h56v56c0 4.41504 3.58496 8 8 8h48c4.41504 0 8 -3.58496 8 -8v-56h56z" />
    <glyph glyph-name="pallet-primary" unicode="&#xf482;" 
d="M624 64h-48v-64h48c8.83105 0 16 -7.16895 16 -16v-32c0 -8.83105 -7.16895 -16 -16 -16h-608c-8.83105 0 -16 7.16895 -16 16v32c0 8.83105 7.16895 16 16 16h48v64h-48c-8.83105 0 -16 7.16895 -16 16v32c0 8.83105 7.16895 16 16 16h608c8.83105 0 16 -7.16895 16 -16
v-32c0 -8.83105 -7.16895 -16 -16 -16zM288 0v64h-160v-64h160zM512 0v64h-160v-64h160zM384 320l-64 32l-64 -32v128h128v-128z" />
    <glyph glyph-name="pallet-alt-primary" unicode="&#xf483;" 
d="M624 64h-48v-64h48c8.83105 0 16 -7.16895 16 -16v-32c0 -8.83105 -7.16895 -16 -16 -16h-608c-8.83105 0 -16 7.16895 -16 16v32c0 8.83105 7.16895 16 16 16h48v64h-48c-8.83105 0 -16 7.16895 -16 16v32c0 8.83105 7.16895 16 16 16h608c8.83105 0 16 -7.16895 16 -16
v-32c0 -8.83105 -7.16895 -16 -16 -16zM288 0v64h-160v-64h160zM512 0v64h-160v-64h160z" />
    <glyph glyph-name="pills-primary" unicode="&#xf484;" horiz-adv-x="576" 
d="M224 192v-112c0 -61.8145 -50.1855 -112 -112 -112s-112 50.1855 -112 112v112h224z" />
    <glyph glyph-name="prescription-bottle-primary" unicode="&#xf485;" horiz-adv-x="384" 
d="M360 448c13.2285 -0.0380859 23.9619 -10.7715 24 -24v-48c-0.0380859 -13.2285 -10.7715 -23.9619 -24 -24h-336c-13.2285 0.0380859 -23.9619 10.7715 -24 24v48c0.0380859 13.2285 10.7715 23.9619 24 24h336zM152 64c4.41504 0 8 -3.58496 8 -8v-16
c0 -4.41504 -3.58496 -8 -8 -8h-120v32h120zM152 256c4.41504 0 8 -3.58496 8 -8v-16c0 -4.41504 -3.58496 -8 -8 -8h-120v32h120zM152 160c4.41504 0 8 -3.58496 8 -8v-16c0 -4.41504 -3.58496 -8 -8 -8h-120v32h120z" />
    <glyph glyph-name="prescription-bottle-alt-primary" unicode="&#xf486;" horiz-adv-x="384" 
d="M280 160c4.41504 0 8 -3.58496 8 -8v-48c0 -4.41504 -3.58496 -8 -8 -8h-56v-56c0 -4.41504 -3.58496 -8 -8 -8h-48c-4.41504 0 -8 3.58496 -8 8v56h-56c-4.41504 0 -8 3.58496 -8 8v48c0 4.41504 3.58496 8 8 8h56v56c0 4.41504 3.58496 8 8 8h48
c4.41504 0 8 -3.58496 8 -8v-56h56zM360 448c13.2285 -0.0380859 23.9619 -10.7715 24 -24v-48c-0.0380859 -13.2285 -10.7715 -23.9619 -24 -24h-336c-13.2285 0.0380859 -23.9619 10.7715 -24 24v48c0.0380859 13.2285 10.7715 23.9619 24 24h336z" />
    <glyph glyph-name="procedures-primary" unicode="&#xf487;" 
d="M136 352c-4.41504 0 -8 3.58496 -8 8v15.9697c0 4.41602 3.58496 8 8 8h140.9c0.0185547 0 0.03125 0.00878906 0.0507812 0.00878906c3.12402 0 5.83203 -1.79492 7.14844 -4.4082l19.9004 -39.8008l49.7002 99.4004c2.62891 5.23926 8.0332 8.83887 14.29 8.83887
s11.6807 -3.59961 14.3096 -8.83887l27.6006 -55.1699h102.1c8.83105 0 16 -7.16895 16 -16s-7.16895 -16 -16 -16h-121.9l-22.0996 44.1699l-49.7002 -99.3701c-2.62891 -5.23926 -8.0332 -8.83789 -14.29 -8.83789s-11.6807 3.59863 -14.3096 8.83789l-27.6006 55.2002
h-126.1zM256 64h384v-112c0 -8.83105 -7.16895 -16 -16 -16h-32c-8.83105 0 -16 7.16895 -16 16v48h-512v-48c0 -8.83105 -7.16895 -16 -16 -16h-32c-8.83105 0 -16 7.16895 -16 16v352c0 8.83105 7.16895 16 16 16h32c8.83105 0 16 -7.16895 16 -16v-240h192z" />
    <glyph glyph-name="scanner-keyboard-primary" unicode="&#xf489;" horiz-adv-x="576" 
d="M568 448c4.41504 0 8 -3.58496 8 -8v-272c0 -4.41504 -3.58496 -8 -8 -8h-48c-4.41504 0 -8 3.58496 -8 8v272c0 4.41504 3.58496 8 8 8h48zM320 440v-56h-32v56c0 4.41504 3.58496 8 8 8h16c4.41504 0 8 -3.58496 8 -8zM256 440v-56h-64v56c0 4.41504 3.58496 8 8 8h48
c4.41504 0 8 -3.58496 8 -8zM408 448c4.41504 0 8 -3.58496 8 -8v-56h-64v56c0 4.41504 3.58496 8 8 8h48zM472 448c4.41504 0 8 -3.58496 8 -8v-272c0 -4.41504 -3.58496 -8 -8 -8h-16c-4.41504 0 -8 3.58496 -8 8v272c0 4.41504 3.58496 8 8 8h16zM344 288
c4.41504 0 8 -3.58496 8 -8v-48c0 -4.41504 -3.58496 -8 -8 -8h-272c-4.41504 0 -8 3.58496 -8 8v48c0 4.41504 3.58496 8 8 8h272z" />
    <glyph glyph-name="shipping-fast-primary" unicode="&#xf48b;" 
d="M624 96c8.83105 0 16 -7.16895 16 -16v-32c0 -8.83105 -7.16895 -16 -16 -16h-49.1396c-7.7959 54.2217 -54.5 95.9473 -110.864 95.9473s-103.061 -41.7256 -110.856 -95.9473h-66.2793c-7.80664 54.209 -54.4619 96.082 -110.818 96.082
c-48.1328 0 -89.2139 -30.4287 -105.042 -73.082c-4.4209 7.2373 -7 15.79 -7 24.8848v0.115234v112h152c4.41504 0 8 3.58496 8 8v16c0 4.41504 -3.58496 8 -8 8h-152v32h184c4.41504 0 8 3.58496 8 8v16c0 4.41504 -3.58496 8 -8 8h-184v32h216c4.41504 0 8 3.58496 8 8
v16c0 4.41504 -3.58496 8 -8 8h-216v48c0 26.4922 21.5078 48 48 48h256c26.4922 0 48 -21.5078 48 -48v-48h44.0996c13.2344 -0.0224609 25.2266 -5.40527 33.9004 -14.0996l99.9004 -99.9004c8.69434 -8.67383 14.0771 -20.666 14.0996 -33.9004v-108.1h16zM560 192
v12.0996l-99.9004 99.9004h-44.0996v-112h144z" />
    <glyph glyph-name="shipping-timed-primary" unicode="&#xf48c;" 
d="M624 96c8.83105 0 16 -7.16895 16 -16v-32c0 -8.83105 -7.16895 -16 -16 -16h-50.1602c-7.83984 54.0703 -53.5596 96 -109.84 96s-102.53 -41.8604 -110.38 -96h-67.2402c-7.83984 54.1396 -54.1602 96 -110.38 96s-102 -41.9297 -109.84 -96h-18.1602
c-26.4922 0 -48 21.5078 -48 48v320c0 26.4922 21.5078 48 48 48h320c26.4922 0 48 -21.5078 48 -48v-48h44.0996c13.2344 -0.0224609 25.2266 -5.40527 33.9004 -14.0996l99.9004 -99.9004c8.69434 -8.67383 14.0771 -20.666 14.0996 -33.9004v-108.1h16zM208 176
c0.0205078 0 0.0400391 -0.000976562 0.0595703 -0.000976562c61.7822 0 111.94 50.1582 111.94 111.939v0.0615234c0 61.8145 -50.1855 112 -112 112s-112 -50.1855 -112 -112s50.1855 -112 112 -112zM560 192v12.0996l-99.9004 99.9004h-44.0996v-112h144z" />
    <glyph glyph-name="smoking-primary" unicode="&#xf48d;" 
d="M536 96c4.41504 0 8 -3.58496 8 -8v-144c0 -4.41504 -3.58496 -8 -8 -8h-48c-4.41504 0 -8 3.58496 -8 8v144c0 4.41504 3.58496 8 8 8h48zM632 96c4.41504 0 8 -3.58496 8 -8v-144c0 -4.41504 -3.58496 -8 -8 -8h-48c-4.41504 0 -8 3.58496 -8 8v144
c0 4.41504 3.58496 8 8 8h48zM432 96c8.83105 0 16 -7.16895 16 -16v-128c0 -8.83105 -7.16895 -16 -16 -16h-384c-26.4922 0 -48 21.5078 -48 48v64c0 26.4922 21.5078 48 48 48h384z" />
    <glyph glyph-name="syringe-primary" unicode="&#xf48e;" horiz-adv-x="512" 
d="M166.82 126.88l-55.8203 55.8896l22.5996 22.5l55.8105 -55.7891c1.43262 -1.45605 2.31738 -3.45215 2.31738 -5.6543c0 -2.20117 -0.884766 -4.20117 -2.31738 -5.65625l-11.3105 -11.29c-1.44629 -1.43848 -3.43945 -2.32715 -5.63867 -2.32715
s-4.19434 0.888672 -5.64062 2.32715zM245.93 194.77c-1.44727 -1.44629 -3.44922 -2.3418 -5.65625 -2.3418c-2.20605 0 -4.20508 0.895508 -5.65332 2.3418l-55.6904 55.8105l22.5898 22.5898l55.7109 -55.79c1.44336 -1.44727 2.33691 -3.44727 2.33691 -5.65137
s-0.893555 -4.20117 -2.33691 -5.64844zM509.72 355.08l-11.2998 -11.3105c-1.44727 -1.44336 -3.44434 -2.33691 -5.64844 -2.33691s-4.2041 0.893555 -5.65137 2.33691l-28.2998 28.3105l-45.3008 -45.3105l73.5 -73.5c1.42969 -1.44531 2.3125 -3.43164 2.3125 -5.62305
c0 -2.20215 -0.890625 -4.19922 -2.33203 -5.64648l-33.9004 -34c-1.44727 -1.44434 -3.44434 -2.33691 -5.64844 -2.33691s-4.2041 0.892578 -5.65137 2.33691l-17 17l-135.68 135.88l-17 17c-1.44141 1.44727 -2.33203 3.44238 -2.33203 5.64355
c0 2.20215 0.890625 4.19922 2.33203 5.64648l33.8799 33.9102c1.44727 1.44434 3.44434 2.33691 5.64844 2.33691s4.2041 -0.892578 5.65137 -2.33691l17 -17l56.6104 -56.5996l45.2998 45.2891l-28.2998 28.3105c-1.44434 1.44727 -2.33789 3.44434 -2.33789 5.64844
s0.893555 4.2041 2.33789 5.65137l11.2998 11.29c1.44727 1.44141 3.44238 2.33203 5.64355 2.33203c2.20215 0 4.19922 -0.890625 5.64648 -2.33203l79.21 -79.1895c1.44141 -1.4707 2.33105 -3.48438 2.33105 -5.7041c0 -2.21387 -0.885742 -4.22656 -2.32129 -5.69629z
" />
    <glyph glyph-name="tablet-rugged-primary" unicode="&#xf48f;" horiz-adv-x="448" 
d="M352 16c0 -8.83105 -7.16895 -16 -16 -16h-224c-8.83105 0 -16 7.16895 -16 16v352c0 8.83105 7.16895 16 16 16h224c8.83105 0 16 -7.16895 16 -16v-352z" />
    <glyph glyph-name="tablets-primary" unicode="&#xf490;" 
d="M311.6 80c5 0 9.10059 -4.50977 8.30078 -9.2998c-12.4004 -76.2002 -78.8008 -134.7 -159.9 -134.7s-147.5 58.4902 -159.9 134.7c-0.799805 4.7998 3.30078 9.2998 8.30078 9.2998h303.199zM8.40039 112c-5 0 -9.10059 4.49023 -8.30078 9.29004
c12.4004 76.2002 78.8008 134.71 159.9 134.71s147.5 -58.5098 160 -134.7c0.799805 -4.7998 -3.2998 -9.2998 -8.2998 -9.2998h-303.3z" />
    <glyph glyph-name="thermometer-primary" unicode="&#xf491;" horiz-adv-x="512" 
d="M214.05 185c1.44434 -1.44727 2.33789 -3.44434 2.33789 -5.64844s-0.893555 -4.2041 -2.33789 -5.65137l-11.2998 -11.2998c-1.44727 -1.44434 -3.44434 -2.33789 -5.64844 -2.33789s-4.2041 0.893555 -5.65137 2.33789l-50.0605 50.1396l22.5303 22.6699z
M276.75 348.77l22.5 22.6406l50.5 -50.5098c1.44434 -1.44824 2.33691 -3.44727 2.33691 -5.65137s-0.892578 -4.20117 -2.33691 -5.64941l-11.2998 -11.2998c-1.44727 -1.44336 -3.44727 -2.33691 -5.65137 -2.33691s-4.20117 0.893555 -5.64844 2.33691zM270.65 230.4
c-1.44629 -1.42969 -3.43555 -2.3125 -5.62695 -2.3125s-4.17773 0.882812 -5.62305 2.3125l-50.3008 50.2295l22.6006 22.7402l50.2998 -50.3701c1.44434 -1.44727 2.33691 -3.44727 2.33691 -5.65137s-0.892578 -4.20117 -2.33691 -5.64844z" />
    <glyph glyph-name="vial-primary" unicode="&#xf492;" horiz-adv-x="480" 
d="M477.65 261.88c1.4541 -1.43652 2.35547 -3.43262 2.35547 -5.63574c0 -2.17773 -0.880859 -4.15137 -2.30566 -5.58398l-34 -33.8906c-1.44727 -1.44336 -3.44727 -2.33691 -5.65137 -2.33691s-4.20117 0.893555 -5.64844 2.33691l-11.2002 11.1006l-246.3 -245.71
c-18.5986 -18.5967 -44.2939 -30.0908 -72.6465 -30.0908c-0.0849609 0 -0.168945 0 -0.253906 0.000976562h-0.400391c-0.0380859 0 -0.0488281 -0.0566406 -0.0878906 -0.0566406c-31.1748 0 -59.1162 13.9561 -77.9121 35.9561
c-35.6992 41.5 -29.3994 104.811 9.40039 143.5l242.35 241.91l-11.1992 11.1006c-1.44141 1.44629 -2.33301 3.44434 -2.33301 5.64551c0 2.20215 0.891602 4.19727 2.33301 5.64355l34 33.9004c1.44727 1.44434 3.44629 2.33789 5.65039 2.33789
s4.20215 -0.893555 5.64941 -2.33789zM141 16.1602l246.25 245.7l-78 77.54l-242.4 -241.9c-10.4668 -10.5352 -17.334 -24.7168 -18.6094 -40.4004c-1.08984 -14.3301 3.08984 -27.7793 11.7598 -37.8594c9.9248 -11.6904 24.7031 -19.082 41.2246 -19.082
c0.155273 0 0.310547 0 0.46582 0.00195312h0.359375c0.106445 -0.000976562 0.213867 -0.00878906 0.320312 -0.00878906c15.0781 0 28.7383 6.12012 38.6299 16.0088z" />
    <glyph glyph-name="vials-primary" unicode="&#xf493;" 
d="M360 384c-4.41504 0 -8 3.58496 -8 8v48c0 4.41504 3.58496 8 8 8h208c4.41504 0 8 -3.58496 8 -8v-48c0 -4.41504 -3.58496 -8 -8 -8h-24v-240c0 -44.1533 -35.8467 -80 -80 -80s-80 35.8467 -80 80v240h-24zM432 384v-240c0 -17.6611 14.3389 -32 32 -32
s32 14.3389 32 32v240h-64zM624 0c8.83105 0 16 -7.16895 16 -16v-32c0 -8.83105 -7.16895 -16 -16 -16h-608c-8.83105 0 -16 7.16895 -16 16v32c0 8.83105 7.16895 16 16 16h608zM72 384c-4.41504 0 -8 3.58496 -8 8v48c0 4.41504 3.58496 8 8 8h208
c4.41504 0 8 -3.58496 8 -8v-48c0 -4.41504 -3.58496 -8 -8 -8h-24v-240c0 -44.1533 -35.8467 -80 -80 -80s-80 35.8467 -80 80v240h-24zM144 384v-240c0 -17.6611 14.3389 -32 32 -32s32 14.3389 32 32v240h-64z" />
    <glyph glyph-name="warehouse-primary" unicode="&#xf494;" 
d="M640 286.72v-342.72c0 -4.41504 -3.58496 -8 -8 -8h-80c-4.41504 0 -8 3.58496 -8 8v248c0 17.5996 -14.5996 32 -32.5996 32h-382.801c-18 0 -32.5996 -14.4004 -32.5996 -32v-248c0 -4.41504 -3.58496 -8 -8 -8h-80c-4.41504 0 -8 3.58496 -8 8v342.72
c0.0351562 19.9326 12.1846 37.0166 29.5 44.2803l272 113.3c5.67383 2.35938 11.8945 3.66113 18.418 3.66113s12.8086 -1.30176 18.4824 -3.66113l272.1 -113.3c17.3154 -7.26367 29.4648 -24.3477 29.5 -44.2803z" />
    <glyph glyph-name="warehouse-alt-primary" unicode="&#xf495;" 
d="M640 286.72v-342.72c0 -4.41504 -3.58496 -8 -8 -8h-48c-4.41504 0 -8 3.58496 -8 8v296c0 8.83105 -7.16895 16 -16 16h-480c-8.83105 0 -16 -7.16895 -16 -16v-296c0 -4.41504 -3.58496 -8 -8 -8h-48c-4.41504 0 -8 3.58496 -8 8v342.72
c0.0351562 19.9326 12.1846 37.0166 29.5 44.2803l272 113.3c5.67383 2.35938 11.8945 3.66113 18.418 3.66113s12.8086 -1.30176 18.4824 -3.66113l272.1 -113.3c17.3154 -7.26367 29.4648 -24.3477 29.5 -44.2803z" />
    <glyph glyph-name="weight-primary" unicode="&#xf496;" horiz-adv-x="512" 
d="M512 320v-320c-0.0380859 -35.3047 -28.6953 -63.9619 -64 -64h-384c-35.3047 0.0380859 -63.9619 28.6953 -64 64v320c0.0380859 35.3047 28.6953 63.9619 64 64h26c-16.4346 -28.1484 -25.9814 -61.0859 -26 -96c0 -105.87 86.1299 -192 192 -192s192 86.1299 192 192
c-0.0185547 34.9141 -9.56543 67.8516 -26 96h26c35.3047 -0.0380859 63.9619 -28.6953 64 -64zM256 200h-0.137695c-22.0762 0 -40 17.9229 -40 40c0 22.0293 17.8467 39.9229 39.8574 40l33.5605 78.2998c2.44434 5.7168 8.10645 9.70312 14.7119 9.70312
c8.83594 0 16.0098 -7.17383 16.0098 -16.0098c0 -2.22949 -0.457031 -4.35352 -1.28223 -6.2832l-33.5801 -78.3301c6.7207 -7.15723 10.8398 -16.7979 10.8398 -27.3799c0 -22.0693 -17.9121 -39.9883 -39.9795 -40z" />
    <glyph glyph-name="truck-secondary" unicode="&#x10f0d1;" 
d="M176 96c44.1533 0 80 -35.8467 80 -80s-35.8467 -80 -80 -80s-80 35.8467 -80 80s35.8467 80 80 80zM464 96c44.1533 0 80 -35.8467 80 -80s-35.8467 -80 -80 -80s-80 35.8467 -80 80s35.8467 80 80 80z" />
    <glyph glyph-name="stethoscope-secondary" unicode="&#x10f0f1;" horiz-adv-x="512" 
d="M480 216.58v-112.58c0 -92.5996 -79 -168 -176 -168c-95.3896 0 -173.28 72.7803 -175.9 163.17h64.1006c2.7002 -55.0996 51.8994 -99.2002 111.899 -99.2002c61.8008 0 112 46.7002 112 104v112.561c-0.0996094 -0.530273 63.9004 -0.530273 63.9004 0.0498047z" />
    <glyph glyph-name="ambulance-secondary" unicode="&#x10f0f9;" 
d="M464 96c44.1533 0 80 -35.8467 80 -80s-35.8467 -80 -80 -80s-80 35.8467 -80 80s35.8467 80 80 80zM176 96c44.1533 0 80 -35.8467 80 -80s-35.8467 -80 -80 -80s-80 35.8467 -80 80s35.8467 80 80 80zM296 320c4.41504 0 8 -3.58496 8 -8v-48
c0 -4.41504 -3.58496 -8 -8 -8h-56v-56c0 -4.41504 -3.58496 -8 -8 -8h-48c-4.41504 0 -8 3.58496 -8 8v56h-56c-4.41504 0 -8 3.58496 -8 8v48c0 4.41504 3.58496 8 8 8h56v56c0 4.41504 3.58496 8 8 8h48c4.41504 0 8 -3.58496 8 -8v-56h56z" />
    <glyph glyph-name="heartbeat-secondary" unicode="&#x10f21e;" horiz-adv-x="512" 
d="M320.21 204.15l22.0996 -44.2002h109.11l-182.61 -186.5c-3.24316 -3.37598 -7.80371 -5.47852 -12.8506 -5.47852c-5.0459 0 -9.60547 2.10254 -12.8486 5.47852l-182.5 186.5h94.0996l30 71.7002l56.9004 -126.301c2.50391 -5.56836 8.08496 -9.45312 14.583 -9.45312
c6.2627 0 11.6895 3.60645 14.3164 8.85352zM473.71 374c48.71 -49.75 50.7998 -129.05 7.29004 -182.1h-118.89l-27.6006 55.1992c-2.63086 5.23438 -8.03223 8.8291 -14.2852 8.8291s-11.6729 -3.59473 -14.3047 -8.8291l-49 -97.8994l-58.21 129.3
c-2.49414 5.59473 -8.09082 9.49707 -14.6074 9.49707c-6.66992 0 -12.3916 -4.09082 -14.793 -9.89746l-35.8896 -86.1992h-102.41c-43.5 53 -41.3994 132.3 7.2998 182.1l2.39062 2.4502c23.7705 24.3936 56.9932 39.5508 93.709 39.5508
c36.7168 0 69.9209 -15.1572 93.6904 -39.5508l27.9004 -28.5l27.9199 28.5498c23.792 24.3486 57.0068 39.4717 93.7051 39.4717s69.8926 -15.123 93.6846 -39.4717z" />
    <glyph glyph-name="allergies-secondary" unicode="&#x10f461;" horiz-adv-x="448" 
d="M416 336c17.6387 -0.0498047 31.9502 -14.3613 32 -32v-176c-0.201172 -14.5527 -1.96094 -28.667 -5.09961 -42.3203l-26.5 -112.68c-4.96094 -21.1807 -23.9824 -37 -46.667 -37h-0.0332031h-197.62c-15.9541 0.0273438 -30.0723 7.7998 -38.7998 19.7998
l-125.61 172.66c-4.79199 6.5957 -7.66113 14.7812 -7.66113 23.5508c0 22.0801 17.9258 40.0059 40.0059 40.0059c13.3105 0 25.1113 -6.51465 32.3857 -16.5264l23.5996 -32.4902v241c0 17.6611 14.3389 32 32 32s32 -14.3389 32 -32v-152c0 -4.41504 3.58496 -8 8 -8h16
c4.41504 0 8 3.58496 8 8v184c0 17.6611 14.3389 32 32 32s32 -14.3389 32 -32v-184c0 -4.41504 3.58496 -8 8 -8h16c4.41504 0 8 3.58496 8 8v152c0 17.6611 14.3389 32 32 32s32 -14.3389 32 -32v-152c0 -4.41504 3.58496 -8 8 -8h16c4.41504 0 8 3.58496 8 8v72
c0.0498047 17.6387 14.3613 31.9502 32 32zM176 160c-8.83105 0 -16 -7.16895 -16 -16s7.16895 -16 16 -16s16 7.16895 16 16s-7.16895 16 -16 16zM176 32.0801c8.83105 0 16 7.16895 16 16c0 8.83008 -7.16895 16 -16 16s-16 -7.16992 -16 -16
c0 -8.83105 7.16895 -16 16 -16zM240 0c8.83105 0 16 7.16895 16 16s-7.16895 16 -16 16s-16 -7.16895 -16 -16s7.16895 -16 16 -16zM240 96.0703c8.83105 0 16 7.16895 16 16c0 8.83008 -7.16895 16 -16 16s-16 -7.16992 -16 -16c0 -8.83105 7.16895 -16 16 -16zM304 64
c8.83105 0 16 7.16895 16 16s-7.16895 16 -16 16s-16 -7.16895 -16 -16s7.16895 -16 16 -16zM336 0.0898438c8.83105 0 16 7.16992 16 16c0 8.83105 -7.16895 16 -16 16s-16 -7.16895 -16 -16c0 -8.83008 7.16895 -16 16 -16zM368 128c8.83105 0 16 7.16895 16 16
s-7.16895 16 -16 16s-16 -7.16895 -16 -16s7.16895 -16 16 -16z" />
    <glyph glyph-name="barcode-alt-secondary" unicode="&#x10f463;" 
d="M592 448c26.4922 0 48 -21.5078 48 -48v-416c0 -26.4922 -21.5078 -48 -48 -48h-544c-26.4922 0 -48 21.5078 -48 48v416c0 26.4922 21.5078 48 48 48h544zM160 40v304c0 4.41504 -3.58496 8 -8 8h-48c-4.41504 0 -8 -3.58496 -8 -8v-304c0 -4.41504 3.58496 -8 8 -8h48
c4.41504 0 8 3.58496 8 8zM224 40v304c0 4.41504 -3.58496 8 -8 8h-16c-4.41504 0 -8 -3.58496 -8 -8v-304c0 -4.41504 3.58496 -8 8 -8h16c4.41504 0 8 3.58496 8 8zM288 40v304c0 4.41504 -3.58496 8 -8 8h-16c-4.41504 0 -8 -3.58496 -8 -8v-304
c0 -4.41504 3.58496 -8 8 -8h16c4.41504 0 8 3.58496 8 8zM416 40v304c0 4.41504 -3.58496 8 -8 8h-48c-4.41504 0 -8 -3.58496 -8 -8v-304c0 -4.41504 3.58496 -8 8 -8h48c4.41504 0 8 3.58496 8 8zM544 40v304c0 4.41504 -3.58496 8 -8 8h-48
c-4.41504 0 -8 -3.58496 -8 -8v-304c0 -4.41504 3.58496 -8 8 -8h48c4.41504 0 8 3.58496 8 8z" />
    <glyph glyph-name="barcode-read-secondary" unicode="&#x10f464;" 
d="M144 0c8.83105 0 16 -7.16895 16 -16v-32c0 -8.83105 -7.16895 -16 -16 -16h-128c-8.83105 0 -16 7.16895 -16 16v128c0 8.83105 7.16895 16 16 16h32c8.83105 0 16 -7.16895 16 -16v-80h80zM144 448c8.83105 0 16 -7.16895 16 -16v-32c0 -8.83105 -7.16895 -16 -16 -16
h-80v-80c0 -8.83105 -7.16895 -16 -16 -16h-32c-8.83105 0 -16 7.16895 -16 16v128c0 8.83105 7.16895 16 16 16h128zM624 448c8.83105 0 16 -7.16895 16 -16v-128c0 -8.83105 -7.16895 -16 -16 -16h-32c-8.83105 0 -16 7.16895 -16 16v80h-80
c-8.83105 0 -16 7.16895 -16 16v32c0 8.83105 7.16895 16 16 16h128zM624 96c8.83105 0 16 -7.16895 16 -16v-128c0 -8.83105 -7.16895 -16 -16 -16h-128c-8.83105 0 -16 7.16895 -16 16v32c0 8.83105 7.16895 16 16 16h80v80c0 8.83105 7.16895 16 16 16h32z" />
    <glyph glyph-name="barcode-scan-secondary" unicode="&#x10f465;" 
d="M280 448c4.41504 0 8 -3.58496 8 -8v-152h-64v152c0 4.41504 3.58496 8 8 8h48zM152 448c4.41504 0 8 -3.58496 8 -8v-152h-96v152c0 4.41504 3.58496 8 8 8h80zM64 -56v152h96v-152c0 -4.41504 -3.58496 -8 -8 -8h-80c-4.41504 0 -8 3.58496 -8 8zM472 448
c4.41504 0 8 -3.58496 8 -8v-152h-64v152c0 4.41504 3.58496 8 8 8h48zM568 448c4.41504 0 8 -3.58496 8 -8v-152h-64v152c0 4.41504 3.58496 8 8 8h48zM376 448c4.41504 0 8 -3.58496 8 -8v-152h-32v152c0 4.41504 3.58496 8 8 8h16zM512 -56v152h64v-152
c0 -4.41504 -3.58496 -8 -8 -8h-48c-4.41504 0 -8 3.58496 -8 8zM224 -56v152h64v-152c0 -4.41504 -3.58496 -8 -8 -8h-48c-4.41504 0 -8 3.58496 -8 8zM416 -56v152h64v-152c0 -4.41504 -3.58496 -8 -8 -8h-48c-4.41504 0 -8 3.58496 -8 8zM352 -56v152h32v-152
c0 -4.41504 -3.58496 -8 -8 -8h-16c-4.41504 0 -8 3.58496 -8 8z" />
    <glyph glyph-name="box-secondary" unicode="&#x10f466;" horiz-adv-x="512" 
d="M512 224v-240c0 -26.4922 -21.5078 -48 -48 -48h-416c-26.4922 0 -48 21.5078 -48 48v240h512z" />
    <glyph glyph-name="box-check-secondary" unicode="&#x10f467;" 
d="M448 320c106 0 192 -86 192 -192s-86 -192 -192 -192s-192 86 -192 192s86 192 192 192zM562.1 172.2c2.00488 1.99219 3.24512 4.75488 3.24512 7.80273c0 2.99512 -1.19922 5.71289 -3.14453 7.69727l-25.7998 26c-1.99707 2.0332 -4.7793 3.29492 -7.85156 3.29492
c-3.02148 0 -5.75977 -1.2207 -7.74902 -3.19531l-97.2002 -96.3994l-42.0996 42.5c-1.99609 2.0332 -4.7793 3.29492 -7.85156 3.29492c-3.02148 0 -5.75977 -1.2207 -7.74805 -3.19531l-26 -25.7998c-2.03418 -1.99707 -3.2959 -4.7793 -3.2959 -7.85156
c0 -3.02148 1.2207 -5.75977 3.19531 -7.74902l75.7002 -76.2998c1.99609 -2.0332 4.7793 -3.29492 7.85156 -3.29492c3.02148 0 5.75977 1.2207 7.74805 3.19531z" />
    <glyph glyph-name="boxes-secondary" unicode="&#x10f468;" horiz-adv-x="576" 
d="M480 160v-96l-32 21.2998l-32 -21.2998v96h64zM320 448v-96l-32 21.2998l-32 -21.2998v96h64zM160 160v-96l-32 21.2998l-32 -21.2998v96h64z" />
    <glyph glyph-name="briefcase-medical-secondary" unicode="&#x10f469;" horiz-adv-x="512" 
d="M192 320h-64v48c0 26.4922 21.5078 48 48 48h160c26.4922 0 48 -21.5078 48 -48v-48h-64v32h-128v-32z" />
    <glyph glyph-name="burn-secondary" unicode="&#x10f46a;" horiz-adv-x="384" 
d="M192 448c111.8 -100.9 192 -220.6 192 -300.5c0 -124.5 -79 -211.5 -192 -211.5s-192 87 -192 211.5c0 79.5996 79.7002 199.2 192 300.5zM275 32.4004c21.29 20.9893 33 50.3096 33 82.5498c0 16.2998 -5.09961 35.1797 -15.1699 56.1094
c-14.9697 31.1309 -40.96 66.9902 -77.2402 106.561l-23.5898 25.7295l-23.5898 -25.7295c-36.2402 -39.5605 -62.2402 -75.4297 -77.2402 -106.561c-10.0703 -20.9297 -15.1699 -39.8096 -15.1699 -56.1094c0 -32.2402 11.8701 -61.6504 33 -82.5498
c21.1299 -20.9004 50.6396 -32.4004 83 -32.4004s61.8496 11.5 83 32.4004z" />
    <glyph glyph-name="capsules-secondary" unicode="&#x10f46b;" horiz-adv-x="576" 
d="M112 416c61.8145 0 112 -50.1855 112 -112v-112h-224v112c0 61.8145 50.1855 112 112 112zM424.2 335.2l66.1797 -94.5498l-187.38 -131.061l-47 67.1006v179.67c2.83008 2.42969 5.78027 4.75977 8.90039 6.93945c18.5557 13.0039 41.1904 20.8105 65.5488 20.8105
c38.7783 0 73.0742 -19.3486 93.751 -48.9102z" />
    <glyph glyph-name="clipboard-check-secondary" unicode="&#x10f46c;" horiz-adv-x="384" 
d="M336 384c26.4922 0 48 -21.5078 48 -48v-352c0 -26.4922 -21.5078 -48 -48 -48h-288c-26.4922 0 -48 21.5078 -48 48v352c0 26.4922 21.5078 48 48 48h80c-35.3223 0 -64 -28.6777 -64 -64h256c0 35.3223 -28.6777 64 -64 64h80zM313.2 176.2
c2.20996 2.17676 3.58105 5.20703 3.58105 8.55176c0 3.29297 -1.33008 6.27832 -3.48145 8.44824l-28.2002 28.3994c-2.17676 2.21094 -5.20703 3.58203 -8.55176 3.58203c-3.29297 0 -6.27832 -1.33008 -8.44824 -3.48145l-106 -105.2l-46 46.4004
c-2.17676 2.20996 -5.20703 3.58105 -8.55176 3.58105c-3.29297 0 -6.27832 -1.33008 -8.44824 -3.48145l-28.3994 -28.2002c-2.21094 -2.17676 -3.58105 -5.20703 -3.58105 -8.55176c0 -3.29297 1.3291 -6.27832 3.48047 -8.44824l82.6006 -83.2998
c2.17676 -2.21094 5.20703 -3.58105 8.55176 -3.58105c3.29297 0 6.27832 1.33008 8.44824 3.48145z" />
    <glyph glyph-name="clipboard-list-secondary" unicode="&#x10f46d;" horiz-adv-x="384" 
d="M336 384c26.4922 0 48 -21.5078 48 -48v-352c0 -26.4922 -21.5078 -48 -48 -48h-288c-26.4922 0 -48 21.5078 -48 48v352c0 26.4922 21.5078 48 48 48h80c-35.3223 0 -64 -28.6777 -64 -64h256c0 35.3223 -28.6777 64 -64 64h80zM96 24
c0.0205078 0 0.0400391 -0.000976562 0.0605469 -0.000976562c13.2119 0 23.9395 10.7266 23.9395 23.9395v0.0615234c0 13.2461 -10.7539 24 -24 24s-24 -10.7539 -24 -24s10.7539 -24 24 -24zM96 120c0.0205078 0 0.0400391 -0.000976562 0.0605469 -0.000976562
c13.2119 0 23.9395 10.7266 23.9395 23.9395v0.0615234c0 13.2461 -10.7539 24 -24 24s-24 -10.7539 -24 -24s10.7539 -24 24 -24zM96 216c0.0205078 0 0.0400391 -0.000976562 0.0605469 -0.000976562c13.2119 0 23.9395 10.7266 23.9395 23.9395v0.0615234
c0 13.2461 -10.7539 24 -24 24s-24 -10.7539 -24 -24s10.7539 -24 24 -24zM320 40v16c0 4.41504 -3.58496 8 -8 8h-144c-4.41504 0 -8 -3.58496 -8 -8v-16c0 -4.41504 3.58496 -8 8 -8h144c4.41504 0 8 3.58496 8 8zM320 136v16c0 4.41504 -3.58496 8 -8 8h-144
c-4.41504 0 -8 -3.58496 -8 -8v-16c0 -4.41504 3.58496 -8 8 -8h144c4.41504 0 8 3.58496 8 8zM320 232v16c0 4.41504 -3.58496 8 -8 8h-144c-4.41504 0 -8 -3.58496 -8 -8v-16c0 -4.41504 3.58496 -8 8 -8h144c4.41504 0 8 3.58496 8 8z" />
    <glyph glyph-name="conveyor-belt-secondary" unicode="&#x10f46e;" 
d="M128 208v224c0 8.83105 7.16895 16 16 16h352c8.83105 0 16 -7.16895 16 -16v-224c0 -8.83105 -7.16895 -16 -16 -16h-352c-8.83105 0 -16 7.16895 -16 16z" />
    <glyph glyph-name="conveyor-belt-alt-secondary" unicode="&#x10f46f;" 
d="M304 448c8.83105 0 16 -7.16895 16 -16v-224c0 -8.83105 -7.16895 -16 -16 -16h-224c-8.83105 0 -16 7.16895 -16 16v224c0 8.83105 7.16895 16 16 16h224zM560 384c8.83105 0 16 -7.16895 16 -16v-160c0 -8.83105 -7.16895 -16 -16 -16h-160
c-8.83105 0 -16 7.16895 -16 16v160c0 8.83105 7.16895 16 16 16h160z" />
    <glyph glyph-name="dolly-secondary" unicode="&#x10f472;" horiz-adv-x="576" 
d="M515.3 219.6c0.524414 -1.58105 0.814453 -3.26953 0.814453 -5.02637c0 -7.05273 -4.57324 -13.0459 -10.9141 -15.1729l-161.5 -53.8008c-14.54 11.1416 -31.3857 19.6514 -49.5 24.7002l-53 159.4c-0.524414 1.58105 -0.814453 3.27051 -0.814453 5.02637
c0 7.05273 4.57324 13.0469 10.9141 15.1738l183.4 61c1.58105 0.523438 3.27051 0.814453 5.02637 0.814453c7.05273 0 13.0469 -4.57422 15.1738 -10.915zM256 128c52.9834 0 96 -43.0166 96 -96s-43.0166 -96 -96 -96s-96 43.0166 -96 96s43.0166 96 96 96zM256 0
c17.6611 0 32 14.3389 32 32s-14.3389 32 -32 32s-32 -14.3389 -32 -32s14.3389 -32 32 -32z" />
    <glyph glyph-name="dolly-empty-secondary" unicode="&#x10f473;" horiz-adv-x="576" 
d="M256 128c52.9834 0 96 -43.0166 96 -96s-43.0166 -96 -96 -96s-96 43.0166 -96 96s43.0166 96 96 96zM256 0c17.6611 0 32 14.3389 32 32s-14.3389 32 -32 32s-32 -14.3389 -32 -32s14.3389 -32 32 -32z" />
    <glyph glyph-name="dolly-flatbed-secondary" unicode="&#x10f474;" 
d="M450.74 0h90.5195c1.76562 -4.99707 2.75488 -10.373 2.75488 -15.9707c0 -26.4922 -21.5078 -48 -48 -48s-48 21.5078 -48 48c0 5.59766 0.959961 10.9736 2.72559 15.9707zM162.74 0h90.5195c1.76562 -4.99707 2.75488 -10.373 2.75488 -15.9707
c0 -26.4922 -21.5078 -48 -48 -48s-48 21.5078 -48 48c0 5.59766 0.959961 10.9736 2.72559 15.9707zM592 416c8.83105 0 16 -7.16895 16 -16v-256c0 -8.83105 -7.16895 -16 -16 -16h-384c-8.83105 0 -16 7.16895 -16 16v256c0 8.83105 7.16895 16 16 16h144v-128l48 32
l48 -32v128h144z" />
    <glyph glyph-name="dolly-flatbed-alt-secondary" unicode="&#x10f475;" 
d="M432 288c-8.83105 0 -16 7.16895 -16 16v96c0 8.83105 7.16895 16 16 16h96c8.83105 0 16 -7.16895 16 -16v-96c0 -8.83105 -7.16895 -16 -16 -16h-96zM368 416c8.83105 0 16 -7.16895 16 -16v-256c0 -8.83105 -7.16895 -16 -16 -16h-160c-8.83105 0 -16 7.16895 -16 16
v256c0 8.83105 7.16895 16 16 16h160zM592 256c8.83105 0 16 -7.16895 16 -16v-96c0 -8.83105 -7.16895 -16 -16 -16h-160c-8.83105 0 -16 7.16895 -16 16v96c0 8.83105 7.16895 16 16 16h160zM450.74 0h90.5195c1.76562 -4.99707 2.75488 -10.373 2.75488 -15.9707
c0 -26.4922 -21.5078 -48 -48 -48s-48 21.5078 -48 48c0 5.59766 0.959961 10.9736 2.72559 15.9707zM162.74 0h90.5195c1.76562 -4.99707 2.75488 -10.373 2.75488 -15.9707c0 -26.4922 -21.5078 -48 -48 -48s-48 21.5078 -48 48
c0 5.59766 0.959961 10.9736 2.72559 15.9707z" />
    <glyph glyph-name="first-aid-secondary" unicode="&#x10f479;" horiz-adv-x="576" 
d="M64 -32v448h64v-448h-64zM448 416h64v-448h-64v448z" />
    <glyph glyph-name="forklift-secondary" unicode="&#x10f47a;" 
d="M96 96c44.1533 0 80 -35.8467 80 -80s-35.8467 -80 -80 -80s-80 35.8467 -80 80s35.8467 80 80 80zM624 64c8.83105 0 16 -7.16895 16 -16v-32c0 -8.83105 -7.16895 -16 -16 -16h-128c-8.83105 0 -16 7.16895 -16 16v416c0 8.83105 7.16895 16 16 16h32
c8.83105 0 16 -7.16895 16 -16v-368h80zM352 96c44.1533 0 80 -35.8467 80 -80s-35.8467 -80 -80 -80s-80 35.8467 -80 80s35.8467 80 80 80z" />
    <glyph glyph-name="hospital-alt-secondary" unicode="&#x10f47d;" horiz-adv-x="576" 
d="M544 352c17.6611 0 32 -14.3389 32 -32v-368c0 -8.83105 -7.16895 -16 -16 -16h-544c-8.83105 0 -16 7.16895 -16 16v368c0 17.6611 14.3389 32 32 32h128v64c0 17.6611 14.3389 32 32 32h192c17.6611 0 32 -14.3389 32 -32v-64h128zM160 12v40
c0 6.62305 -5.37695 12 -12 12h-40c-6.62305 0 -12 -5.37695 -12 -12v-40c0 -6.62305 5.37695 -12 12 -12h40c6.62305 0 12 5.37695 12 12zM160 140v40c0 6.62305 -5.37695 12 -12 12h-40c-6.62305 0 -12 -5.37695 -12 -12v-40c0 -6.62305 5.37695 -12 12 -12h40
c6.62305 0 12 5.37695 12 12zM320 12v40c0 6.62305 -5.37695 12 -12 12h-40c-6.62305 0 -12 -5.37695 -12 -12v-40c0 -6.62305 5.37695 -12 12 -12h40c6.62305 0 12 5.37695 12 12zM320 140v40c0 6.62305 -5.37695 12 -12 12h-40c-6.62305 0 -12 -5.37695 -12 -12v-40
c0 -6.62305 5.37695 -12 12 -12h40c6.62305 0 12 5.37695 12 12zM352 322.67v26.6602c0 4.41504 -3.58496 8 -8 8h-34.6699v34.6699c0 4.41504 -3.58496 8 -8 8h-26.6602c-4.41504 0 -8 -3.58496 -8 -8v-34.6699h-34.6699c-4.41504 0 -8 -3.58496 -8 -8v-26.6602
c0 -4.41504 3.58496 -8 8 -8h34.6699v-34.6699c0 -4.41504 3.58496 -8 8 -8h26.6602c4.41504 0 8 3.58496 8 8v34.6699h34.6699c4.41504 0 8 3.58496 8 8zM480 12v40c0 6.62305 -5.37695 12 -12 12h-40c-6.62305 0 -12 -5.37695 -12 -12v-40c0 -6.62305 5.37695 -12 12 -12
h40c6.62305 0 12 5.37695 12 12zM480 140v40c0 6.62305 -5.37695 12 -12 12h-40c-6.62305 0 -12 -5.37695 -12 -12v-40c0 -6.62305 5.37695 -12 12 -12h40c6.62305 0 12 5.37695 12 12z" />
    <glyph glyph-name="hospital-symbol-secondary" unicode="&#x10f47e;" horiz-adv-x="512" 
d="M256 448c141.4 0 256 -114.6 256 -256s-114.6 -256 -256 -256s-256 114.6 -256 256s114.6 256 256 256zM368 72v240c0 4.41504 -3.58496 8 -8 8h-48c-4.41504 0 -8 -3.58496 -8 -8v-88h-96v88c0 4.41504 -3.58496 8 -8 8h-48c-4.41504 0 -8 -3.58496 -8 -8v-240
c0 -4.41504 3.58496 -8 8 -8h48c4.41504 0 8 3.58496 8 8v88h96v-88c0 -4.41504 3.58496 -8 8 -8h48c4.41504 0 8 3.58496 8 8z" />
    <glyph glyph-name="notes-medical-secondary" unicode="&#x10f481;" horiz-adv-x="384" 
d="M335 385c26.4922 0 48 -21.5078 48 -48v-352c0 -26.4922 -21.5078 -48 -48 -48h-288c-26.4922 0 -48 21.5078 -48 48v352c0 26.4922 21.5078 48 48 48h80c-35.3223 0 -64 -28.6777 -64 -64h256c0 35.3223 -28.6777 64 -64 64h80zM288 104v48c0 4.41504 -3.58496 8 -8 8
h-56v56c0 4.41504 -3.58496 8 -8 8h-48c-4.41504 0 -8 -3.58496 -8 -8v-56h-56c-4.41504 0 -8 -3.58496 -8 -8v-48c0 -4.41504 3.58496 -8 8 -8h56v-56c0 -4.41504 3.58496 -8 8 -8h48c4.41504 0 8 3.58496 8 8v56h56c4.41504 0 8 3.58496 8 8z" />
    <glyph glyph-name="pallet-secondary" unicode="&#x10f482;" 
d="M256 448v-128l64 32l64 -32v128h112c8.83105 0 16 -7.16895 16 -16v-224c0 -8.83105 -7.16895 -16 -16 -16h-352c-8.83105 0 -16 7.16895 -16 16v224c0 8.83105 7.16895 16 16 16h112z" />
    <glyph glyph-name="pallet-alt-secondary" unicode="&#x10f483;" 
d="M560 384c8.83105 0 16 -7.16895 16 -16v-160c0 -8.83105 -7.16895 -16 -16 -16h-160c-8.83105 0 -16 7.16895 -16 16v160c0 8.83105 7.16895 16 16 16h160zM304 448c8.83105 0 16 -7.16895 16 -16v-224c0 -8.83105 -7.16895 -16 -16 -16h-224
c-8.83105 0 -16 7.16895 -16 16v224c0 8.83105 7.16895 16 16 16h224z" />
    <glyph glyph-name="pills-secondary" unicode="&#x10f484;" horiz-adv-x="576" 
d="M299.7 221.7l210.8 -210.8c1.50293 -1.47754 2.44043 -3.53027 2.44043 -5.80176c0 -2.65332 -1.27246 -5.0127 -3.24023 -6.49902c-62.5 -45.2998 -150.101 -40.3994 -206.4 15.9004s-61.2002 143.9 -15.8994 206.4c1.50098 1.94727 3.85547 3.19824 6.50293 3.19824
c2.26172 0 4.31152 -0.916992 5.79688 -2.39844zM529.5 240.7c56.4004 -56.2998 61.2002 -143.8 15.9004 -206.4c-1.50195 -1.94727 -3.85645 -3.19824 -6.50391 -3.19824c-2.26172 0 -4.31055 0.916992 -5.79688 2.39844l-210.8 210.8
c-1.50293 1.47754 -2.44043 3.5293 -2.44043 5.80176c0 2.65332 1.27246 5.01172 3.24023 6.49805c62.5 45.3008 150.101 40.4004 206.4 -15.8994zM112 416c0.0205078 0 0.0400391 0.000976562 0.0595703 0.000976562c61.7822 0 111.94 -50.1582 111.94 -111.939v-0.0615234
v-112h-224v112c0 0.0205078 -0.000976562 0.0400391 -0.000976562 0.0595703c0 61.7822 50.1582 111.94 111.939 111.94h0.0615234z" />
    <glyph glyph-name="prescription-bottle-secondary" unicode="&#x10f485;" horiz-adv-x="384" 
d="M32 320h320v-352c-0.0498047 -17.6387 -14.3613 -31.9502 -32 -32h-256c-17.6387 0.0498047 -31.9502 14.3613 -32 32v64h120c4.41504 0 8 3.58496 8 8v16c0 4.41504 -3.58496 8 -8 8h-120v64h120c4.41504 0 8 3.58496 8 8v16c0 4.41504 -3.58496 8 -8 8h-120v64h120
c4.41504 0 8 3.58496 8 8v16c0 4.41504 -3.58496 8 -8 8h-120v64z" />
    <glyph glyph-name="prescription-bottle-alt-secondary" unicode="&#x10f486;" horiz-adv-x="384" 
d="M32 -32v352h320v-352c-0.0498047 -17.6387 -14.3613 -31.9502 -32 -32h-256c-17.6387 0.0498047 -31.9502 14.3613 -32 32zM96 152v-48c0 -4.41504 3.58496 -8 8 -8h56v-56c0 -4.41504 3.58496 -8 8 -8h48c4.41504 0 8 3.58496 8 8v56h56c4.41504 0 8 3.58496 8 8v48
c0 4.41504 -3.58496 8 -8 8h-56v56c0 4.41504 -3.58496 8 -8 8h-48c-4.41504 0 -8 -3.58496 -8 -8v-56h-56c-4.41504 0 -8 -3.58496 -8 -8z" />
    <glyph glyph-name="procedures-secondary" unicode="&#x10f487;" 
d="M160 224c35.3223 0 64 -28.6777 64 -64s-28.6777 -64 -64 -64s-64 28.6777 -64 64s28.6777 64 64 64zM528 224h0.0703125c61.7686 0 111.919 -50.1436 111.93 -111.91v-48.0898h-384v144c0 8.83105 7.16895 16 16 16h256z" />
    <glyph glyph-name="scanner-keyboard-secondary" unicode="&#x10f489;" horiz-adv-x="576" 
d="M400 352c8.83105 0 16 -7.16895 16 -16v-137.4c-0.0078125 -4.41113 -1.80176 -8.4082 -4.7002 -11.2998l-27.2998 -27.2998v-176c0 -26.4922 -21.5078 -48 -48 -48h-256c-26.4922 0 -48 21.5078 -48 48v176l-27.2998 27.2998
c-2.89844 2.8916 -4.69238 6.88867 -4.7002 11.2998v137.4c0 8.83105 7.16895 16 16 16h384zM192 8v48c0 4.41504 -3.58496 8 -8 8h-80c-4.41504 0 -8 -3.58496 -8 -8v-48c0 -4.41504 3.58496 -8 8 -8h80c4.41504 0 8 3.58496 8 8zM192 104v48c0 4.41504 -3.58496 8 -8 8
h-80c-4.41504 0 -8 -3.58496 -8 -8v-48c0 -4.41504 3.58496 -8 8 -8h80c4.41504 0 8 3.58496 8 8zM320 8v48c0 4.41504 -3.58496 8 -8 8h-80c-4.41504 0 -8 -3.58496 -8 -8v-48c0 -4.41504 3.58496 -8 8 -8h80c4.41504 0 8 3.58496 8 8zM320 104v48
c0 4.41504 -3.58496 8 -8 8h-80c-4.41504 0 -8 -3.58496 -8 -8v-48c0 -4.41504 3.58496 -8 8 -8h80c4.41504 0 8 3.58496 8 8zM352 232v48c0 4.41504 -3.58496 8 -8 8h-272c-4.41504 0 -8 -3.58496 -8 -8v-48c0 -4.41504 3.58496 -8 8 -8h272c4.41504 0 8 3.58496 8 8z" />
    <glyph glyph-name="shipping-fast-secondary" unicode="&#x10f48b;" 
d="M248 288c4.41504 0 8 -3.58496 8 -8v-16c0 -4.41504 -3.58496 -8 -8 -8h-208c-4.41504 0 -8 3.58496 -8 8v16c0 4.41504 3.58496 8 8 8h208zM224 200c0 -4.41504 -3.58496 -8 -8 -8h-208c-4.41504 0 -8 3.58496 -8 8v16c0 4.41504 3.58496 8 8 8h208
c4.41504 0 8 -3.58496 8 -8v-16zM176 96c44.1533 0 80 -35.8467 80 -80s-35.8467 -80 -80 -80s-80 35.8467 -80 80s35.8467 80 80 80zM464 96c44.1533 0 80 -35.8467 80 -80s-35.8467 -80 -80 -80s-80 35.8467 -80 80s35.8467 80 80 80zM280 352c4.41504 0 8 -3.58496 8 -8
v-16c0 -4.41504 -3.58496 -8 -8 -8h-272c-4.41504 0 -8 3.58496 -8 8v16c0 4.41504 3.58496 8 8 8h272z" />
    <glyph glyph-name="shipping-timed-secondary" unicode="&#x10f48c;" 
d="M464 96c44.1533 0 80 -35.8467 80 -80s-35.8467 -80 -80 -80s-80 35.8467 -80 80s35.8467 80 80 80zM176 96c44.1533 0 80 -35.8467 80 -80s-35.8467 -80 -80 -80s-80 35.8467 -80 80s35.8467 80 80 80zM248 304c4.41504 0 8 -3.58496 8 -8v-16
c0 -4.41504 -3.58496 -8 -8 -8h-48c-4.41504 0 -8 3.58496 -8 8v80c0 4.41504 3.58496 8 8 8h16c4.41504 0 8 -3.58496 8 -8v-56h24z" />
    <glyph glyph-name="smoking-secondary" unicode="&#x10f48d;" 
d="M553.3 360.9c52.3789 -35.04 86.7002 -94.6123 86.7002 -162.306v-0.294922v-30.2998c0 -4.41504 -3.58496 -8 -8 -8h-48c-4.41504 0 -8 3.58496 -8 8v30.2998c0 0.0878906 0.15332 0.0800781 0.15332 0.167969c0 51.9189 -26.9209 97.5996 -67.5537 123.832
c-18.3994 12 -28.5996 33.4004 -28.5996 55.4004v62.2998c0 4.41504 3.58496 8 8 8h48c4.41504 0 8 -3.58496 8 -8v-62.2998c0.0888672 -7.05078 3.76172 -13.2324 9.2998 -16.7998zM487.7 306.4c34.0986 -23.7891 56.2998 -63.2285 56.2998 -107.92v-0.180664v-30.2998
c0 -4.41504 -3.58496 -8 -8 -8h-48c-4.41504 0 -8 3.58496 -8 8v30.2998c0 0.0253906 0.0800781 0.00195312 0.0800781 0.0263672c0 28.3662 -14.1553 53.4521 -35.7803 68.5742c-35.7002 25.0996 -60.2998 63 -60.2998 106.699v66.4004c0 4.41504 3.58496 8 8 8h48
c4.41504 0 8 -3.58496 8 -8v-62.2998c0 -29 15.7998 -54.7002 39.7002 -71.2998z" />
    <glyph glyph-name="syringe-secondary" unicode="&#x10f48e;" horiz-adv-x="512" 
d="M266.43 338.17l135.69 -135.689l-181.89 -181.91c-14.4365 -14.5186 -34.4229 -23.5117 -56.4941 -23.5117c-3.03906 0 -5.96582 0.179688 -8.91602 0.511719l-63.5898 7.10938l-66.3008 -66.2998c-1.44727 -1.44727 -3.44727 -2.3418 -5.65332 -2.3418
c-2.20703 0 -4.20801 0.894531 -5.65625 2.3418l-11.2998 11.2998c-1.44434 1.44824 -2.33789 3.44531 -2.33789 5.64941s0.893555 4.20312 2.33789 5.65137l66.4102 66.3994l-7.11035 63.6201c-0.324219 2.9209 -0.490234 5.88867 -0.490234 8.89551
c0 22.0938 8.97656 42.0332 23.4902 56.5049l26.3799 26.3594l55.8096 -55.8799c1.44824 -1.44434 3.44531 -2.33691 5.64941 -2.33691s4.20312 0.892578 5.65137 2.33691l11.3096 11.29c1.43262 1.45508 2.31738 3.45215 2.31738 5.65332
c0 2.20215 -0.884766 4.20117 -2.31738 5.65723l-55.8604 55.8496l45.29 45.2803l55.7607 -55.8408c1.44727 -1.44629 3.44727 -2.3418 5.65332 -2.3418c2.20703 0 4.20801 0.895508 5.65625 2.3418l11.2998 11.3105c1.44434 1.44727 2.33789 3.44434 2.33789 5.64844
s-0.893555 4.2041 -2.33789 5.65137l-55.7695 55.8301z" />
    <glyph glyph-name="tablet-rugged-secondary" unicode="&#x10f48f;" horiz-adv-x="448" 
d="M439.2 283.6l-23.2002 -11.5996v-16l23.2002 -11.5996c5.22461 -2.6123 8.7998 -8.00391 8.7998 -14.2383v-0.0625v-76.1992c0 -0.0214844 0.015625 -0.03125 0.015625 -0.0517578c0 -6.23438 -3.59082 -11.6367 -8.81543 -14.249l-23.2002 -11.5996v-16
l23.2002 -11.5996c5.22461 -2.6123 8.7998 -8.00391 8.7998 -14.2383v-0.0625v-76.1992c0 -0.0214844 0.015625 -0.03125 0.015625 -0.0517578c0 -6.23438 -3.59082 -11.6367 -8.81543 -14.249l-23.2002 -11.5996c0 -26.4922 -21.5078 -48 -48 -48h-288
c-26.4922 0 -48 21.5078 -48 48l-23.2002 11.5996c-5.22461 2.6123 -8.7998 8.00391 -8.7998 14.2383v0.0625v76.1992c0 0.0214844 -0.015625 0.03125 -0.015625 0.0517578c0 6.23438 3.59082 11.6367 8.81543 14.249l23.2002 11.5996v16l-23.2002 11.5996
c-5.22461 2.6123 -8.7998 8.00391 -8.7998 14.2383v0.0625v76.1992c0 0.0214844 -0.015625 0.03125 -0.015625 0.0517578c0 6.23438 3.59082 11.6367 8.81543 14.249l23.2002 11.5996v16l-23.2002 11.5996c-5.22461 2.6123 -8.7998 8.00391 -8.7998 14.2383v0.0625v76.1992
c0 0.0214844 -0.015625 0.03125 -0.015625 0.0517578c0 6.23438 3.59082 11.6367 8.81543 14.249l23.2002 11.5996c0 26.4922 21.5078 48 48 48h288c26.4922 0 48 -21.5078 48 -48l23.2002 -11.5996c5.22461 -2.6123 8.7998 -8.00391 8.7998 -14.2383v-0.0625v-76.1992
c0 -0.0214844 0.015625 -0.03125 0.015625 -0.0517578c0 -6.23438 -3.59082 -11.6367 -8.81543 -14.249zM352 16v352c0 8.83105 -7.16895 16 -16 16h-224c-8.83105 0 -16 -7.16895 -16 -16v-352c0 -8.83105 7.16895 -16 16 -16h224c8.83105 0 16 7.16895 16 16z" />
    <glyph glyph-name="tablets-secondary" unicode="&#x10f490;" 
d="M363 382.29l211.3 -211.3c1.5 -1.47852 2.43555 -3.53027 2.43555 -5.80078c0 -2.65234 -1.27051 -5.01074 -3.23535 -6.49902c-62.7002 -45.5 -150.5 -40.6006 -206.9 15.8994c-56.3994 56.5 -61.2998 144.2 -15.8994 206.9c2.7998 4 8.7998 4.2998 12.2998 0.799805z
M593.4 401.39c56.5 -56.5 61.3994 -144.199 15.8994 -206.899c-2.7998 -4 -8.7998 -4.2998 -12.2998 -0.799805l-211.3 211.399c-1.5 1.47852 -2.43555 3.53027 -2.43555 5.7998c0 2.65332 1.27051 5.01172 3.23535 6.5c62.7002 45.4004 150.4 40.5 206.9 -16z" />
    <glyph glyph-name="thermometer-secondary" unicode="&#x10f491;" horiz-adv-x="512" 
d="M484.05 285.4l-254.2 -253.301h-99.8496l-89 -89c-4.29688 -4.04492 -10.084 -6.52637 -16.4453 -6.52637c-13.2461 0 -24 10.7549 -24 24c0 6.34961 2.46387 12.1328 6.49512 16.4268l89 89v100.9l45.3398 45.6396l50.0605 -50.1396
c1.44727 -1.44434 3.44434 -2.33789 5.64844 -2.33789s4.2041 0.893555 5.65137 2.33789l11.2998 11.2998c1.44434 1.44727 2.33789 3.44434 2.33789 5.64844s-0.893555 4.2041 -2.33789 5.65137l-50.1299 50.21l45.1299 45.4199l50.2998 -50.2295
c1.44824 -1.44434 3.44531 -2.33789 5.64941 -2.33789s4.20312 0.893555 5.65137 2.33789l11.3496 11.2998c1.44434 1.44727 2.33691 3.44434 2.33691 5.64844s-0.892578 4.2041 -2.33691 5.65137l-50.2998 50.3701l45.0996 45.3994l50.4004 -50.4697
c1.44727 -1.44336 3.44434 -2.33691 5.64844 -2.33691s4.2041 0.893555 5.65137 2.33691l11.2998 11.2998c1.44434 1.44824 2.33789 3.44531 2.33789 5.64941s-0.893555 4.20312 -2.33789 5.65137l-50.5 50.5098l45.7002 46c36.4004 36.5 94.4004 40.8994 131.9 10.2002
c49.3496 -40.71 42.0996 -107.311 7.14941 -142.21z" />
    <glyph glyph-name="vial-secondary" unicode="&#x10f492;" horiz-adv-x="480" 
d="M318 192l-179.39 -179.44c-10.04 -10.0439 -23.9082 -16.2598 -39.2178 -16.2598c-15.2783 0 -29.1377 6.19141 -39.1729 16.2002c-10.0674 10.043 -16.3008 23.9277 -16.3008 39.2578c0 15.2832 6.19629 29.1465 16.2109 39.1826l100.87 101.06h157z" />
    <glyph glyph-name="vials-secondary" unicode="&#x10f493;" 
d="M128 144v144h96v-144c0 -26.4922 -21.5078 -48 -48 -48s-48 21.5078 -48 48zM416 288h96v-144c0 -26.4922 -21.5078 -48 -48 -48s-48 21.5078 -48 48v144z" />
    <glyph glyph-name="warehouse-secondary" unicode="&#x10f494;" 
d="M504 0c4.41504 0 8 -3.58496 8 -8v-48c0 -4.41504 -3.58496 -8 -8 -8h-368c-4.41504 0 -8 3.58496 -8 8l0.0996094 48c0 4.41504 3.58496 8 8 8h367.9zM504 192c4.41504 0 8 -3.58496 8 -8v-48c0 -4.41504 -3.58496 -8 -8 -8h-367.5c-4.41504 0 -8 3.58496 -8 8
l0.0996094 48c0 4.41504 3.58496 8 8 8h367.4zM504 96c4.41504 0 8 -3.58496 8 -8v-48c0 -4.41504 -3.58496 -8 -8 -8h-367.7c-4.41504 0 -8 3.58496 -8 8l0.100586 48c0 4.41504 3.58398 8 8 8h367.6z" />
    <glyph glyph-name="warehouse-alt-secondary" unicode="&#x10f495;" 
d="M304 32c8.83105 0 16 -7.16895 16 -16v-64c0 -8.83105 -7.16895 -16 -16 -16h-160c-8.83105 0 -16 7.16895 -16 16v64c0 8.83105 7.16895 16 16 16h160zM304 160c8.83105 0 16 -7.16895 16 -16v-64c0 -8.83105 -7.16895 -16 -16 -16h-160c-8.83105 0 -16 7.16895 -16 16
v64c0 8.83105 7.16895 16 16 16h160zM496 32c8.83105 0 16 -7.16895 16 -16v-64c0 -8.83105 -7.16895 -16 -16 -16h-128c-8.83105 0 -16 7.16895 -16 16v64c0 8.83105 7.16895 16 16 16h128z" />
    <glyph glyph-name="weight-secondary" unicode="&#x10f496;" horiz-adv-x="512" 
d="M256 128c-88.3066 0 -160 71.6934 -160 160s71.6934 160 160 160s160 -71.6934 160 -160s-71.6934 -160 -160 -160zM255.72 280c-21.9551 -0.141602 -39.7422 -17.998 -39.7422 -39.9873c0 -22.0762 17.9238 -40 40 -40c22.0771 0 40 17.9238 40 40
c0 10.582 -4.11816 20.21 -10.8379 27.3672l33.5801 78.3301c0.825195 1.92969 1.29688 4.07715 1.29688 6.30664c0 8.83594 -7.17285 16.0098 -16.0088 16.0098c-6.60645 0 -12.2832 -4.00977 -14.7275 -9.72656z" />
  </font>
</defs>
</svg>
