<?xml version="1.0" standalone="no"?>
<!DOCTYPE svg PUBLIC "-//W3C//DTD SVG 1.1//EN" "http://www.w3.org/Graphics/SVG/1.1/DTD/svg11.dtd" >
<svg xmlns="http://www.w3.org/2000/svg" xmlns:xlink="http://www.w3.org/1999/xlink" version="1.1">
<metadata>
Created by FontForge 20201107 at Tue Mar 16 10:17:02 2021
 By Robert Madole
Copyright (c) Font Awesome
</metadata>
<!-- Font Awesome Pro 5.15.3 by @fontawesome - https://fontawesome.com License - https://fontawesome.com/license (Commercial License) --><defs>
<font id="FontAwesome5Duotone-Solid" horiz-adv-x="640" >
  <font-face 
    font-family="Font Awesome 5 Duotone Solid"
    font-weight="900"
    font-stretch="normal"
    units-per-em="512"
    panose-1="2 0 5 3 0 0 0 0 0 0"
    ascent="448"
    descent="-64"
    bbox="-0.942383 -64.4609 640.017 448.2"
    underline-thickness="25"
    underline-position="-50"
    unicode-range="U+0020-10F8FF"
  />
    <missing-glyph />
    <glyph glyph-name="glass-martini-primary" unicode="&#xf000;" horiz-adv-x="512" 
d="M502 390.4l-214 -214.04v-192.36h56c22.0762 0 40 -17.9238 40 -40c0 -4.41504 -3.58496 -8 -8 -8h-240c-4.41504 0 -8 3.58496 -8 8c0 22.0762 17.9238 40 40 40h56v192.4l-214 214c-21.3203 21.2598 -6.26953 57.5996 23.7803 57.5996h444.399
c30.0508 0 45.1006 -36.3398 23.8203 -57.5996zM256 234.87l149.12 149.13h-298.28z" />
    <glyph glyph-name="signal-primary" unicode="&#xf012;" 
d="M216 160c8.83105 0 16 -7.16895 16 -16v-192c0 -8.83105 -7.16895 -16 -16 -16h-48c-8.83105 0 -16 7.16895 -16 16v192c0 8.83105 7.16895 16 16 16h48zM88 64c8.83105 0 16 -7.16895 16 -16v-96c0 -8.83105 -7.16895 -16 -16 -16h-48c-8.83105 0 -16 7.16895 -16 16v96
c0 8.83105 7.16895 16 16 16h48zM344 256c8.83105 0 16 -7.16895 16 -16v-288c0 -8.83105 -7.16895 -16 -16 -16h-48c-8.83105 0 -16 7.16895 -16 16v288c0 8.83105 7.16895 16 16 16h48zM600 448c8.83105 0 16 -7.16895 16 -16v-480c0 -8.83105 -7.16895 -16 -16 -16h-48
c-8.83105 0 -16 7.16895 -16 16v480c0 8.83105 7.16895 16 16 16h48zM472 352c8.83105 0 16 -7.16895 16 -16v-384c0 -8.83105 -7.16895 -16 -16 -16h-48c-8.83105 0 -16 7.16895 -16 16v384c0 8.83105 7.16895 16 16 16h48z" />
    <glyph glyph-name="qrcode-primary" unicode="&#xf029;" horiz-adv-x="448" 
d="M416 -32v32h32v-32h-32zM352 -32v32h32v-32h-32zM416 160h32v-128h-96v32h-32v-96h-64v192h96v-32h64v32z" />
    <glyph glyph-name="image-primary" unicode="&#xf03e;" horiz-adv-x="512" 
d="M464 384c26.4922 0 48 -21.5078 48 -48v-288c0 -26.4922 -21.5078 -48 -48 -48h-416c-26.4922 0 -48 21.5078 -48 48v288c0 26.4922 21.5078 48 48 48h416zM112 328c-30.9072 0 -56 -25.0928 -56 -56s25.0928 -56 56 -56s56 25.0928 56 56s-25.0928 56 -56 56zM448 64
v112l-87.4902 87.5195c-2.17285 2.18164 -5.18262 3.53125 -8.50098 3.53125c-3.31934 0 -6.3252 -1.34961 -8.49902 -3.53125l-135.51 -135.52l-55.4902 55.5195c-2.17285 2.18164 -5.18262 3.53125 -8.50098 3.53125c-3.31934 0 -6.3252 -1.34961 -8.49902 -3.53125
l-71.5098 -71.5195v-48h384z" />
    <glyph glyph-name="fire-primary" unicode="&#xf06d;" horiz-adv-x="384" 
d="M265.86 239.54c10.8096 -11 20.6201 -22.2803 28.6094 -34.6797c14.6904 -22.7803 21.5303 -47.2002 21.5303 -76.8604v-0.0644531c0 -68.4043 -55.5352 -123.939 -123.94 -123.939c-34.3047 0 -65.3896 13.9502 -87.8398 36.5039l2.62988 -1.20996
c15.6963 -6.99121 33.1602 -11.0244 51.3906 -11.2305h1.7793c72.248 0.00488281 131.015 58.21 131.98 130.23v1.70996c0 27.8301 -8.69043 54.4404 -25.8398 79.1104z" />
    <glyph glyph-name="comment-primary" unicode="&#xf075;" horiz-adv-x="512" 
 />
    <glyph glyph-name="folder-primary" unicode="&#xf07b;" horiz-adv-x="512" 
 />
    <glyph glyph-name="camera-retro-primary" unicode="&#xf083;" horiz-adv-x="512" 
d="M176 400v-32h-128v32c0 8.83105 7.16895 16 16 16h96c8.83105 0 16 -7.16895 16 -16zM0 288h512v-272c0 -26.4922 -21.5078 -48 -48 -48h-416c-26.4922 0 -48 21.5078 -48 48v272zM256 8c66.2295 0 120 53.7705 120 120s-53.7705 120 -120 120s-120 -53.7705 -120 -120
s53.7705 -120 120 -120z" />
    <glyph glyph-name="key-primary" unicode="&#xf084;" horiz-adv-x="512" 
d="M336 448c97.1367 0 176 -78.8633 176 -176s-78.8633 -176 -176 -176s-176 78.8633 -176 176s78.8633 176 176 176zM384 272c26.4922 0 48 21.5078 48 48s-21.5078 48 -48 48s-48 -21.5078 -48 -48s21.5078 -48 48 -48z" />
    <glyph glyph-name="hdd-primary" unicode="&#xf0a0;" horiz-adv-x="576" 
d="M528 192c26.4922 0 48 -21.5078 48 -48v-96c0 -26.4922 -21.5078 -48 -48 -48h-480c-26.4922 0 -48 21.5078 -48 48v96c0 26.4922 21.5078 48 48 48h480zM384 64c17.6611 0 32 14.3389 32 32s-14.3389 32 -32 32s-32 -14.3389 -32 -32s14.3389 -32 32 -32zM480 64
c17.6611 0 32 14.3389 32 32s-14.3389 32 -32 32s-32 -14.3389 -32 -32s14.3389 -32 32 -32z" />
    <glyph glyph-name="flag-checkered-primary" unicode="&#xf11e;" horiz-adv-x="512" 
d="M210.4 274.4c10.1748 -0.0683594 20.0234 -1.19238 29.5996 -3.26074v-103c-9.57617 2.06836 -19.4248 3.19238 -29.5996 3.26074c-50.8008 0 -86.1006 -10 -114.4 -22.1006v-191.3c0 -12.1426 -9.85742 -22 -22 -22h-20c-12.1426 0 -22 9.85742 -22 22v388
c-14.5342 10.1201 -23.9463 26.9512 -23.9463 45.9883c0 30.9072 25.0928 56 56 56s56 -25.0928 56 -56c0 -19.0371 -9.51953 -35.8682 -24.0537 -45.9883v-93.7002c28.2998 12.1006 63.5996 22.1006 114.4 22.1006zM240 73.1797v95
c39.5801 -8.25 77.2402 -29.3799 128 -31.3799v-95c-50.7598 1.98047 -88.4199 23.1299 -128 31.3799zM368 350.24v-110.44c-50.7598 1.98047 -88.4199 23.1299 -128 31.3799v105.23c39.3301 -10.25 72.1797 -27.1699 109.5 -27.1699
c0.0429688 0 -0.0908203 -0.00683594 -0.046875 -0.00683594c6.2666 0 12.4551 0.341797 18.5469 1.00684zM511.9 203.94c0.00976562 -0.620117 0.0400391 -1.20996 0.0996094 -1.78027v-17.1602c-35.7998 -24.5996 -88.2002 -48.3604 -136.4 -48.3604
c-2.59961 0 -5.08984 0.0703125 -7.59961 0.160156v103c2.50977 -0.0898438 5.03027 -0.160156 7.59961 -0.160156c48.1602 0 100.511 23.7207 136.301 48.3008v-84z" />
    <glyph glyph-name="bullseye-primary" unicode="&#xf140;" horiz-adv-x="496" 
 />
    <glyph glyph-name="graduation-cap-primary" unicode="&#xf19d;" 
d="M622.33 249.2l-279 -85.7002c-7.40234 -2.26367 -15.2588 -3.48145 -23.3975 -3.48145s-15.9902 1.21777 -23.3926 3.48145l-196.87 60.5c5.55859 4.08203 12.1104 7.0166 19.1299 8.38965l204.271 39.9004c7.49805 1.3252 13.2021 7.87988 13.2021 15.7559
c0 8.83008 -7.16992 16 -16 16c-1.15527 0 -2.25684 -0.123047 -3.34277 -0.355469l-204.26 -39.8809c-19.1914 -3.75684 -35.9619 -14.3359 -47.5703 -29.1797l-47.4395 14.5801c-23.54 7.23047 -23.54 38.3604 0 45.5898l278.939 85.7002
c7.40332 2.2666 15.2617 3.48633 23.4023 3.48633c8.1416 0 15.9951 -1.21973 23.3984 -3.48633l278.93 -85.7002c23.5498 -7.24023 23.5498 -38.3594 0 -45.5996zM352.79 132.91l145.02 44.5596l14.1904 -113.47c0 -35.3496 -86 -64 -192 -64s-192 28.6504 -192 64
l14.2002 113.46l145 -44.5498c10.374 -3.17871 21.3818 -4.88965 32.792 -4.88965s22.4238 1.71094 32.7979 4.88965z" />
    <glyph glyph-name="closed-captioning-primary" unicode="&#xf20a;" horiz-adv-x="512" 
d="M227.3 159.4l19.5 -27.7002c0.730469 -0.994141 1.16504 -2.22754 1.16504 -3.55371c0 -1.6084 -0.633789 -3.06836 -1.66504 -4.14648c-53.5996 -56.7998 -172.8 -32.0996 -172.8 67.9004c0 97.2998 121.7 119.5 172.5 70.0996c2.09961 -2 2.5 -3.2002 1 -5.7002
l-17.5 -30.5c-0.110352 -0.179688 -0.240234 -0.359375 -0.370117 -0.540039c-1.13867 -1.48633 -2.93457 -2.43848 -4.9502 -2.43848c-1.4209 0 -2.73145 0.476562 -3.7793 1.27832c-40.8008 32 -94.6006 14.9004 -94.6006 -31.1992
c0.100586 -48 51.1006 -70.5 92.2998 -32.6006c0.182617 0.167969 0.370117 0.323242 0.570312 0.469727c1.01855 0.737305 2.27246 1.18066 3.62402 1.18066c2.05664 0 3.87988 -1.00488 5.00586 -2.5498zM417.7 159.4l19.5 -27.7002
c0.729492 -0.994141 1.16406 -2.22754 1.16406 -3.55371c0 -1.6084 -0.632812 -3.06836 -1.66406 -4.14648c-53.5 -56.9004 -172.7 -32.0996 -172.7 67.9004c0 97.2998 121.7 119.5 172.5 70.0996c2.09961 -2 2.5 -3.2002 1 -5.7002l-17.5 -30.5
c-0.110352 -0.179688 -0.240234 -0.359375 -0.370117 -0.540039c-1.13867 -1.48633 -2.93457 -2.43848 -4.9502 -2.43848c-1.4209 0 -2.73145 0.476562 -3.7793 1.27832c-40.8008 32 -94.6006 14.9004 -94.6006 -31.1992c0 -48 51 -70.5 92.2002 -32.6006
c0.181641 0.167969 0.370117 0.323242 0.570312 0.469727c1.01855 0.737305 2.27246 1.18066 3.62402 1.18066c2.05664 0 3.87988 -1.00488 5.00586 -2.5498z" />
    <glyph glyph-name="object-group-primary" unicode="&#xf247;" horiz-adv-x="512" 
d="M288 308v-136c0 -6.62305 -5.37695 -12 -12 -12h-168c-6.62305 0 -12 5.37695 -12 12v136c0 6.62305 5.37695 12 12 12h168c6.62305 0 12 -5.37695 12 -12z" />
    <glyph glyph-name="object-ungroup-primary" unicode="&#xf248;" horiz-adv-x="576" 
d="M384 352v-192h26c3.31152 0 6 -2.68848 6 -6v-52c0 -3.31152 -2.68848 -6 -6 -6h-52c-3.31152 0 -6 2.68848 -6 6v26h-288v-26c0 -3.31152 -2.68848 -6 -6 -6h-52c-3.31152 0 -6 2.68848 -6 6v52c0 3.31152 2.68848 6 6 6h26v192h-26c-3.31152 0 -6 2.68848 -6 6v52
c0 3.31152 2.68848 6 6 6h52c3.31152 0 6 -2.68848 6 -6v-26h288v26c0 3.31152 2.68848 6 6 6h52c3.31152 0 6 -2.68848 6 -6v-52c0 -3.31152 -2.68848 -6 -6 -6h-26z" />
    <glyph glyph-name="hourglass-start-primary" unicode="&#xf251;" horiz-adv-x="384" 
d="M360 384c0 -91 -51 -167.73 -120.84 -192c69.8398 -24.2695 120.84 -101 120.84 -192c13.2461 0 24 -10.7539 24 -24v-16c0 -13.2461 -10.7539 -24 -24 -24h-336c-13.2461 0 -24 10.7539 -24 24v16c0 13.2461 10.7539 24 24 24c0 91 51 167.73 120.84 192
c-69.8398 24.2695 -120.84 101 -120.84 192c-13.2461 0 -24 10.7539 -24 24v16c0 13.2461 10.7539 24 24 24h336c13.2461 0 24 -10.7539 24 -24v-16c0 -13.2461 -10.7539 -24 -24 -24zM296 0c0 77.4805 -46.2002 144 -104 144s-104 -66.54 -104 -144h208zM192 240
c57.7998 0 104 66.54 104 144h-208c0 -77.4805 46.21 -144 104 -144z" />
    <glyph glyph-name="hourglass-half-primary" unicode="&#xf252;" horiz-adv-x="384" 
d="M360 384c0 -91 -51 -167.73 -120.84 -192c69.8398 -24.2695 120.84 -101 120.84 -192c13.2461 0 24 -10.7539 24 -24v-16c0 -13.2461 -10.7539 -24 -24 -24h-336c-13.2461 0 -24 10.7539 -24 24v16c0 13.2461 10.7539 24 24 24c0 91 51 167.73 120.84 192
c-69.8398 24.2695 -120.84 101 -120.84 192c-13.2461 0 -24 10.7539 -24 24v16c0 13.2461 10.7539 24 24 24h336c13.2461 0 24 -10.7539 24 -24v-16c0 -13.2461 -10.7539 -24 -24 -24zM296 0c0 77.4805 -46.2002 144 -104 144s-104 -66.54 -104 -144h208zM192 240
c57.7998 0 104 66.54 104 144h-208c0 -77.4805 46.21 -144 104 -144z" />
    <glyph glyph-name="hourglass-end-primary" unicode="&#xf253;" horiz-adv-x="384" 
d="M24 0c0 91 51 167.73 120.84 192c-69.8398 24.2695 -120.84 101 -120.84 192c-13.2461 0 -24 10.7539 -24 24v16c0 13.2461 10.7539 24 24 24h336c13.2461 0 24 -10.7539 24 -24v-16c0 -13.2461 -10.7539 -24 -24 -24c0 -91 -51 -167.73 -120.84 -192
c69.8398 -24.2695 120.84 -101 120.84 -192c13.2461 0 24 -10.7539 24 -24v-16c0 -13.2461 -10.7539 -24 -24 -24h-336c-13.2461 0 -24 10.7539 -24 24v16c0 13.2461 10.7539 24 24 24zM88 384c0 -77.4805 46.2002 -144 104 -144s104 66.54 104 144h-208zM192 144
c-57.7998 0 -104 -66.54 -104 -144h208c0 77.4805 -46.21 144 -104 144z" />
    <glyph glyph-name="hourglass-primary" unicode="&#xf254;" horiz-adv-x="384" 
d="M360 384c0 -91 -51 -167.73 -120.84 -192c69.8398 -24.2695 120.84 -101 120.84 -192c13.2461 0 24 -10.7539 24 -24v-16c0 -13.2461 -10.7539 -24 -24 -24h-336c-13.2461 0 -24 10.7539 -24 24v16c0 13.2461 10.7539 24 24 24c0 91 51 167.73 120.84 192
c-69.8398 24.2695 -120.84 101 -120.84 192c-13.2461 0 -24 10.7539 -24 24v16c0 13.2461 10.7539 24 24 24h336c13.2461 0 24 -10.7539 24 -24v-16c0 -13.2461 -10.7539 -24 -24 -24zM296 0c0 77.4805 -46.2002 144 -104 144s-104 -66.54 -104 -144h208zM192 240
c57.7998 0 104 66.54 104 144h-208c0 -77.4805 46.21 -144 104 -144z" />
    <glyph glyph-name="registered-primary" unicode="&#xf25d;" horiz-adv-x="512" 
d="M363.41 87.5898c1.89258 -3.43066 2.96387 -7.39844 2.96387 -11.5898c0 -13.2402 -10.7451 -23.9912 -23.9844 -24h-24.46c-9.18359 0 -17.1553 5.14453 -21.1895 12.7305l-44.1299 82.9297h-25.5508v-71.6602c0 -13.2461 -10.7539 -24 -24 -24h-22.5693
c-13.2461 0 -24 10.7539 -24 24v232.32c0 13.2461 10.7539 24 24 24h70.6699c73.9902 0 105.49 -35 105.49 -89.25c0 -31.4805 -14.5107 -59.3105 -37.9404 -74.4805c1.40039 -2.37012 -2.03027 3.82031 44.7002 -81zM256.93 212.09
c18.6006 0 28.4307 9.83008 28.4307 28.4404c0 18.9297 -6.26074 27.7002 -34.9307 27.7002h-23.3701v-56.1406h29.8701z" />
    <glyph glyph-name="industry-primary" unicode="&#xf275;" horiz-adv-x="512" 
d="M136 -32h-112c-13.2461 0 -24 10.7539 -24 24v400c0 13.2461 10.7539 24 24 24h112c13.2461 0 24 -10.7539 24 -24v-400c0 -13.2461 -10.7539 -24 -24 -24z" />
    <glyph glyph-name="comment-alt-primary" unicode="&#xf27a;" horiz-adv-x="512" 
 />
    <glyph glyph-name="id-card-primary" unicode="&#xf2c2;" horiz-adv-x="576" 
d="M224 96c28.4219 -0.0117188 52.5283 -18.5557 60.9004 -44.2002c3.19922 -9.89941 -5.2002 -19.7998 -15.6006 -19.7998h-186.6c-10.4004 0 -18.7998 10 -15.6006 19.7998c8.37207 25.6445 32.4785 44.1885 60.9004 44.2002h8.2002
c12.2285 -5.12305 25.791 -7.9541 39.8701 -7.9541c14.0781 0 27.501 2.83105 39.7295 7.9541h8.2002zM528 416c26.4922 0 48 -21.5078 48 -48v-48h-576v48c0 26.4922 21.5078 48 48 48h480zM176 128c-35.3223 0 -64 28.6777 -64 64s28.6777 64 64 64s64 -28.6777 64 -64
s-28.6777 -64 -64 -64z" />
    <glyph glyph-name="window-minimize-primary" unicode="&#xf2d1;" horiz-adv-x="512" 
 />
    <glyph glyph-name="images-primary" unicode="&#xf302;" horiz-adv-x="576" 
d="M528 416c26.4922 0 48 -21.5078 48 -48v-256c0 -26.4922 -21.5078 -48 -48 -48h-384c-26.4922 0 -48 21.5078 -48 48v256c0 26.4922 21.5078 48 48 48h384zM208 368c-26.4922 0 -48 -21.5078 -48 -48s21.5078 -48 48 -48s48 21.5078 48 48s-21.5078 48 -48 48zM512 128
v112l-87.4805 87.5195c-2.17285 2.18164 -5.18164 3.53125 -8.50098 3.53125s-6.3252 -1.34961 -8.49902 -3.53125l-135.52 -135.52l-39.4805 39.5195c-2.17285 2.18164 -5.18164 3.53125 -8.50098 3.53125s-6.3252 -1.34961 -8.49902 -3.53125l-55.5195 -55.5195v-48h352z
" />
    <glyph glyph-name="inbox-in-primary" unicode="&#xf310;" horiz-adv-x="576" 
d="M171.5 288h61.9004v142.9c0.0322266 9.42188 7.67676 17.0664 17.0996 17.0996h68.5996h0.0107422c9.43164 0 17.0898 -7.6582 17.0898 -17.0898v-0.00976562v-142.9h68.2998c17.7998 0 26.7002 -21.5 14.0996 -34.0996l-119.399 -120
c-3.62109 -3.62695 -8.62598 -5.87207 -14.1504 -5.87207c-5.67676 0 -10.8076 2.36816 -14.4502 6.17188l-113.6 120c-12.0996 12.7002 -3.09961 33.7998 14.5 33.7998z" />
    <glyph glyph-name="inbox-out-primary" unicode="&#xf311;" horiz-adv-x="576" 
d="M239.7 145.11v142.89h-68.2998c-17.8008 0 -26.7002 21.5 -14.1006 34.0996l119.4 120c3.62109 3.62695 8.62598 5.87207 14.1504 5.87207c5.67676 0 10.8076 -2.36816 14.4492 -6.17188l113.7 -120c12.0996 -12.7002 3.09961 -33.7998 -14.5 -33.7998h-61.9004v-142.9
c-0.0439453 -9.44434 -7.72461 -17.0977 -17.1797 -17.0977c-0.00683594 0 -0.0126953 -0.00195312 -0.0195312 -0.00195312h-68.6006h-0.00976562c-9.43262 0 -17.0898 7.6582 -17.0898 17.0898v0.0205078z" />
    <glyph glyph-name="arrow-alt-to-top-primary" unicode="&#xf34d;" horiz-adv-x="384" 
d="M232.11 -32h-80.1104c-13.2461 0 -24 10.7539 -24 24v136h-88c-17.8203 0 -26.7305 21.5098 -14.1201 34.1104l152.45 152.26c3.50781 3.4834 8.33789 5.63672 13.667 5.63672s10.165 -2.15332 13.6729 -5.63672l152.42 -152.23
c12.6104 -12.5996 3.7002 -34.1396 -14.0898 -34.1396h-87.8301v-136c0 -13.2461 -10.7539 -24 -24 -24h-0.0595703z" />
    <glyph glyph-name="gem-primary" unicode="&#xf3a5;" horiz-adv-x="576" 
d="M90.5 448h79.7998l-69.2002 -160h-101.1zM485.5 448l90.5 -160h-101.1l-69.2002 160h79.7998zM218.5 448h139l69.2002 -160h-277.4z" />
    <glyph glyph-name="basketball-hoop-primary" unicode="&#xf435;" 
d="M445.27 128.1l2.51074 31.9004h32.2197l-18.2695 -224l-75.6807 71.5996l-66.0498 -71.5996l-66 71.5996l-75.7305 -71.5996l-18.2695 224h32.2197l2.51074 -31.9004l36.6396 31.9004h47.0703l41.5596 -41.4004l41.5596 41.4004h47.0703zM204.77 3.7998l25.6807 25.6006
l-30 27.8994zM253.15 52l44.1592 44l-42.25 42.0996l-48.79 -42.5zM320 -10.0996l43.3604 40.2998l-43.3604 43.2002l-43.3604 -43.2002zM342.69 96l44.1592 -44l46.8809 43.5996l-48.79 42.5zM435.23 3.7998l4.30957 53.5l-30 -27.8994zM536 240c4.41504 0 8 -3.58496 8 -8
v-32c0 -4.41504 -3.58496 -8 -8 -8h-432c-4.41504 0 -8 3.58496 -8 8v32c0 4.41504 3.58496 8 8 8h432z" />
    <glyph glyph-name="hockey-sticks-primary" unicode="&#xf454;" 
d="M485.13 417.71c5.26465 -2.65137 8.85547 -8.11133 8.85547 -14.4043c0 -2.5459 -0.591797 -4.9541 -1.64551 -7.0957l-212.729 -424.81c-10.6377 -21.0312 -32.4141 -35.4004 -57.5742 -35.4004h-0.0361328h-126v160h128
c6.05957 -0.0195312 12.3496 3.38965 15.0596 8.7998l167.32 334.271v0.0800781c2.62305 5.25781 8.0625 8.84766 14.333 8.84766c2.57227 0 5.00293 -0.607422 7.15723 -1.68848zM0 80c0 8.83105 7.16895 16 16 16h48v-160h-48c-8.83105 0 -16 7.16895 -16 16v128zM544 96
h32v-160h-32v160z" />
    <glyph glyph-name="pennant-primary" unicode="&#xf456;" horiz-adv-x="576" 
d="M0 392v0.200195c0 30.9072 25.0928 56 56 56s56 -25.0928 56 -56c0 -22.3408 -13.0605 -41.6162 -32 -50.6006v-397.6c0 -4.41504 -3.58496 -8 -8 -8h-32c-4.41504 0 -8 3.58496 -8 8v397.6c-18.8838 8.95801 -31.9219 28.1445 -32 50.4004z" />
    <glyph glyph-name="dolly-flatbed-empty-primary" unicode="&#xf476;" 
d="M640 48v-32c0 -8.83105 -7.16895 -16 -16 -16h-544c-8.83105 0 -16 7.16895 -16 16v368h-48c-8.83105 0 -16 7.16895 -16 16v32c0 8.83105 7.16895 16 16 16h96c8.83105 0 16 -7.16895 16 -16v-368h496c8.83105 0 16 -7.16895 16 -16z" />
    <glyph glyph-name="id-card-alt-primary" unicode="&#xf47f;" horiz-adv-x="576" 
d="M352 416v-96h-128v96c0 17.6611 14.3389 32 32 32h64c17.6611 0 32 -14.3389 32 -32zM288 96c-35.3223 0 -64 28.6777 -64 64s28.6777 64 64 64s64 -28.6777 64 -64s-28.6777 -64 -64 -64zM396.9 19.7998c3.19922 -9.7998 -5.2002 -19.7998 -15.6006 -19.7998h-186.6
c-10.4004 0 -18.7998 10 -15.6006 19.7998c8.34473 25.6484 32.4434 44.2002 60.8594 44.2002h0.0410156h8.2002c12.2285 -5.12305 25.791 -7.9541 39.8701 -7.9541c14.0781 0 27.501 2.83105 39.7295 7.9541h8.2002c28.4219 -0.0117188 52.5283 -18.5557 60.9004 -44.2002z
" />
    <glyph glyph-name="inventory-primary" unicode="&#xf480;" 
d="M208 192c8.83105 0 16 -7.16895 16 -16v-96c0 -8.83105 -7.16895 -16 -16 -16h-96c-8.83105 0 -16 7.16895 -16 16v96c0 8.83105 7.16895 16 16 16h96zM464 448c8.83105 0 16 -7.16895 16 -16v-96c0 -8.83105 -7.16895 -16 -16 -16h-96c-8.83105 0 -16 7.16895 -16 16v96
c0 8.83105 7.16895 16 16 16h96zM368 192c8.83105 0 16 -7.16895 16 -16v-96c0 -8.83105 -7.16895 -16 -16 -16h-96c-8.83105 0 -16 7.16895 -16 16v96c0 8.83105 7.16895 16 16 16h96z" />
    <glyph glyph-name="gas-pump-primary" unicode="&#xf52f;" horiz-adv-x="512" 
d="M256 384v-128h-160v128h160zM336 0c8.83105 0 16 -7.16895 16 -16v-32c0 -8.83105 -7.16895 -16 -16 -16h-320c-8.83105 0 -16 7.16895 -16 16v32c0 8.83105 7.16895 16 16 16h320zM493.2 340.7c11.6025 -11.5967 18.7803 -27.6211 18.7998 -45.2998v-223.4
c-0.0712891 -39.7871 -32.3223 -72.0723 -72.126 -72.0723c-2.48926 0 -4.94922 0.125977 -7.37402 0.37207c-37.5 3.90039 -64.5 38.2002 -64.5 75.9004v27.7998c0 22.0762 -17.9238 40 -40 40h-8v48h8c48.5684 0 88 -39.4316 88 -88v-32c0 -13.2461 10.7539 -24 24 -24
s24 10.7539 24 24v160.8c-27.0439 3.86035 -47.9297 27.1123 -48 55.2002v62.0996l-37.7002 37.7002c-2.87402 2.90234 -4.64941 6.89941 -4.64941 11.3027s1.77539 8.39551 4.64941 11.2979l11.2998 11.2998c2.90234 2.87402 6.89941 4.64941 11.3027 4.64941
s8.39551 -1.77539 11.2979 -4.64941z" />
    <glyph glyph-name="infinity-primary" unicode="&#xf534;" 
 />
    <glyph glyph-name="cocktail-primary" unicode="&#xf561;" horiz-adv-x="576" 
d="M408.75 277.95l-168.75 -168.73v-125.22h56c22.0762 0 40 -17.9238 40 -40c0 -4.41504 -3.58496 -8 -8 -8h-240c-4.41504 0 -8 3.58496 -8 8c0 22.0762 17.9238 40 40 40h56v125.22l-168.73 168.73c-15.5195 15.5195 -4.5791 42.0498 17.4209 42.0498h366.64
c21.9502 0 32.9395 -26.5303 17.4199 -42.0498zM208 167.73l88.2803 88.2695h-176.55z" />
    <glyph glyph-name="fish-primary" unicode="&#xf578;" horiz-adv-x="576" 
d="M446.53 192c0 -17.6611 -14.3389 -32 -32 -32s-32 14.3389 -32 32s14.3389 32 32 32s32 -14.3389 32 -32z" />
    <glyph glyph-name="highlighter-primary" unicode="&#xf591;" horiz-adv-x="544" 
d="M75.9404 76.1602l50.9297 50.9395l-13.0498 42.8301c-1.02344 3.36816 -1.57324 6.94043 -1.57324 10.6406c0 10.9199 4.76855 20.7217 12.3633 27.4297l41.5195 35.4404l173.34 -173.311l-35.5498 -41.6396c-6.70703 -7.60254 -16.5195 -12.4004 -27.4443 -12.4004
c-3.72656 0 -7.31641 0.583008 -10.7061 1.62012l-42.7695 13.0801l-50.8604 -50.8604z" />
    <glyph glyph-name="books-primary" unicode="&#xf5db;" horiz-adv-x="576" 
d="M0 32v32h128v-32h-128zM0 320v32h128v-32h-128zM575.17 2.34961c0.527344 -1.97656 0.804688 -4.04297 0.804688 -6.18555c0 -11.0674 -7.50781 -20.3955 -17.7051 -23.1641l-15.3799 -4.21973h-0.0898438c-1.94434 -0.512695 -3.97559 -0.779297 -6.08008 -0.779297
c-11.0732 0 -20.3975 7.5498 -23.0996 17.7793l-114.79 427.859c-0.529297 1.98047 -0.807617 4.0498 -0.807617 6.19531c0 11.0684 7.50977 20.3975 17.708 23.165l15.3896 4.21973h0.0898438c1.94434 0.512695 3.97559 0.779297 6.08008 0.779297
c11.0732 0 20.3975 -7.5498 23.0996 -17.7793zM160 32v32h128v-32h-128zM338.39 398.22l114.78 -427.89c0.524414 -1.97168 0.799805 -4.03125 0.799805 -6.16699c0 -11.0664 -7.50586 -20.3926 -17.7002 -23.1631l-15.3799 -4.21973h-0.0898438
c-1.94434 -0.512695 -3.97559 -0.779297 -6.08008 -0.779297c-11.0732 0 -20.3975 7.5498 -23.0996 17.7793l-103.62 386.22v-20.0098h-128v32h124.83l-8 29.6494c-0.529297 1.98047 -0.807617 4.0498 -0.807617 6.19531c0 11.0684 7.50977 20.3975 17.708 23.165
l15.3896 4.21973h0.0898438c1.94434 0.512695 3.97559 0.779297 6.08008 0.779297c11.0732 0 20.3975 -7.5498 23.0996 -17.7793z" />
    <glyph glyph-name="charging-station-primary" unicode="&#xf5e7;" horiz-adv-x="576" 
d="M336 0c8.83105 0 16 -7.16895 16 -16v-32c0 -8.83105 -7.16895 -16 -16 -16h-320c-8.83105 0 -16 7.16895 -16 16v32c0 8.83105 7.16895 16 16 16h320zM108 224c-7.25 0 -12.8496 5.58984 -11.8896 11.8896l16 107c0.790039 5.20996 5.88965 9.11035 11.8896 9.11035h68
c7.87988 0 13.5996 -6.54004 11.5996 -13.21l-11.5996 -50.79h57.7002c9.24023 0 15.0098 -8.75977 10.3896 -15.7598l-93.7002 -139c-2.24805 -3.17773 -5.94043 -5.24316 -10.126 -5.24316c-0.0878906 0 -0.175781 0.000976562 -0.263672 0.00292969
c-7.66992 0 -13.4697 6.28027 -11.6699 12.9199l23 83.0801h-59.3301zM560 320c8.83105 0 16 -7.16895 16 -16v-32c0 -35.7598 -23.6201 -65.6904 -56 -75.9297v-120.07c0 -2.48047 -0.129883 -4.95996 -0.370117 -7.42969
c-3.82031 -38.4248 -36.2061 -68.5547 -75.6299 -68.5547c-2.56152 0 -5.09277 0.126953 -7.58984 0.374023c-39.4902 3.84082 -68.4102 39.3301 -68.4102 79v24.6104c0 22.0762 -17.9238 40 -40 40h-8v48h8c48.5684 0 88 -39.4316 88 -88v-28
c0 -0.00488281 -0.0253906 -0.00976562 -0.0253906 -0.0146484c0 -15.4541 12.5459 -28 28 -28c1.62402 0 3.2168 0.138672 4.76562 0.404297c13.7598 2.27051 23.2598 15.2402 23.2598 29.1904v118.49c-32.3799 10.2393 -56 40.1699 -56 75.9297v32
c0 8.83105 7.16895 16 16 16h16v48c0 8.83105 7.16895 16 16 16s16 -7.16895 16 -16v-48h32v48c0 8.83105 7.16895 16 16 16s16 -7.16895 16 -16v-48h16z" />
    <glyph glyph-name="globe-stand-primary" unicode="&#xf5f6;" horiz-adv-x="448" 
d="M4.69043 70.6201l59.5 59.5c2.81934 -3.23047 5 -6.81055 8.06934 -9.87988c34.7705 -34.7578 82.7852 -56.2666 135.783 -56.2666c52.999 0 101.067 21.5088 135.837 56.2666c74.8896 74.8594 74.8896 196.67 0 271.529c-3 3 -6.22949 5.74023 -9.41016 8.53027l43 43
c2.89648 2.90039 6.89941 4.69531 11.3184 4.69531c4.41797 0 8.4248 -1.79492 11.3223 -4.69531l11.3398 -11.2998c2.89648 -2.89648 4.68945 -6.89648 4.68945 -11.3125s-1.79297 -8.4209 -4.68945 -11.3174l-10.7002 -10.7002
c69.8203 -93.9395 62.3398 -227.16 -22.9102 -312.38c-32.585 -32.6416 -74.7891 -55.8584 -121.75 -65.29v-37h92c19.8691 0 36 -16.1309 36 -36c0 -6.62305 -5.37695 -12 -12 -12h-296.09c-6.62305 0 -12 5.37695 -12 12c0 19.8691 16.1309 36 36 36h92v32.75
c-47.1016 3.16602 -90.9023 20.1035 -126.65 46.6396l-26.71 -26.6992c-2.89648 -2.90039 -6.89941 -4.69531 -11.3174 -4.69531c-4.41895 0 -8.42578 1.79492 -11.3223 4.69531l-11.3096 11.3096c-2.89453 2.89551 -4.68555 6.89453 -4.68555 11.3076
s1.79102 8.41699 4.68555 11.3125z" />
    <glyph glyph-name="monitor-heart-rate-primary" unicode="&#xf611;" horiz-adv-x="576" 
d="M528 448c26.4922 0 48 -21.5078 48 -48v-416c0 -26.4922 -21.5078 -48 -48 -48h-480c-26.4922 0 -48 21.5078 -48 48v416c0 26.4922 21.5078 48 48 48h480zM512 0v384h-448v-384h448z" />
    <glyph glyph-name="oil-can-primary" unicode="&#xf613;" 
d="M592 160c0 0 42.6699 -61.7598 42.6699 -85.3301c0 -23.5498 -19.1201 -42.6699 -42.6699 -42.6699s-42.6699 19.1201 -42.6699 42.6699c0 23.5605 42.6699 85.3301 42.6699 85.3301zM336 352c8.83105 0 16 -7.16895 16 -16v-16c0 -8.83105 -7.16895 -16 -16 -16h-56v-48
h-48v48h-56c-8.83105 0 -16 7.16895 -16 16v16c0 8.83105 7.16895 16 16 16h160z" />
    <glyph glyph-name="cross-primary" unicode="&#xf654;" horiz-adv-x="384" 
 />
    <glyph glyph-name="poll-primary" unicode="&#xf681;" horiz-adv-x="448" 
d="M160 80c0 -8.83105 -7.16895 -16 -16 -16h-32c-8.83105 0 -16 7.16895 -16 16v128c0 8.83105 7.16895 16 16 16h32c8.83105 0 16 -7.16895 16 -16v-128zM288 144c0 8.83105 7.16895 16 16 16h32c8.83105 0 16 -7.16895 16 -16v-64c0 -8.83105 -7.16895 -16 -16 -16h-32
c-8.83105 0 -16 7.16895 -16 16v64zM192 304c0 8.83105 7.16895 16 16 16h32c8.83105 0 16 -7.16895 16 -16v-224c0 -8.83105 -7.16895 -16 -16 -16h-32c-8.83105 0 -16 7.16895 -16 16v224z" />
    <glyph glyph-name="poll-h-primary" unicode="&#xf682;" horiz-adv-x="448" 
d="M112 256c-8.83105 0 -16 7.16895 -16 16v32c0 8.83105 7.16895 16 16 16h128c8.83105 0 16 -7.16895 16 -16v-32c0 -8.83105 -7.16895 -16 -16 -16h-128zM176 128c8.83105 0 16 -7.16895 16 -16v-32c0 -8.83105 -7.16895 -16 -16 -16h-64c-8.83105 0 -16 7.16895 -16 16
v32c0 8.83105 7.16895 16 16 16h64zM336 224c8.83105 0 16 -7.16895 16 -16v-32c0 -8.83105 -7.16895 -16 -16 -16h-224c-8.83105 0 -16 7.16895 -16 16v32c0 8.83105 7.16895 16 16 16h224z" />
    <glyph glyph-name="signal-1-primary" unicode="&#xf68c;" 
d="M104 48v-96c0 -8.83105 -7.16895 -16 -16 -16h-48c-8.83105 0 -16 7.16895 -16 16v96c0 8.83105 7.16895 16 16 16h48c8.83105 0 16 -7.16895 16 -16z" />
    <glyph glyph-name="signal-2-primary" unicode="&#xf68d;" 
d="M88 64c8.83105 0 16 -7.16895 16 -16v-96c0 -8.83105 -7.16895 -16 -16 -16h-48c-8.83105 0 -16 7.16895 -16 16v96c0 8.83105 7.16895 16 16 16h48zM216 160c8.83105 0 16 -7.16895 16 -16v-192c0 -8.83105 -7.16895 -16 -16 -16h-48c-8.83105 0 -16 7.16895 -16 16v192
c0 8.83105 7.16895 16 16 16h48z" />
    <glyph glyph-name="signal-3-primary" unicode="&#xf68e;" 
d="M88 64c8.83105 0 16 -7.16895 16 -16v-96c0 -8.83105 -7.16895 -16 -16 -16h-48c-8.83105 0 -16 7.16895 -16 16v96c0 8.83105 7.16895 16 16 16h48zM344 256c8.83105 0 16 -7.16895 16 -16v-288c0 -8.83105 -7.16895 -16 -16 -16h-48c-8.83105 0 -16 7.16895 -16 16v288
c0 8.83105 7.16895 16 16 16h48zM216 160c8.83105 0 16 -7.16895 16 -16v-192c0 -8.83105 -7.16895 -16 -16 -16h-48c-8.83105 0 -16 7.16895 -16 16v192c0 8.83105 7.16895 16 16 16h48z" />
    <glyph glyph-name="signal-4-primary" unicode="&#xf68f;" 
d="M216 160c8.83105 0 16 -7.16895 16 -16v-192c0 -8.83105 -7.16895 -16 -16 -16h-48c-8.83105 0 -16 7.16895 -16 16v192c0 8.83105 7.16895 16 16 16h48zM88 64c8.83105 0 16 -7.16895 16 -16v-96c0 -8.83105 -7.16895 -16 -16 -16h-48c-8.83105 0 -16 7.16895 -16 16v96
c0 8.83105 7.16895 16 16 16h48zM344 256c8.83105 0 16 -7.16895 16 -16v-288c0 -8.83105 -7.16895 -16 -16 -16h-48c-8.83105 0 -16 7.16895 -16 16v288c0 8.83105 7.16895 16 16 16h48zM472 352c8.83105 0 16 -7.16895 16 -16v-384c0 -8.83105 -7.16895 -16 -16 -16h-48
c-8.83105 0 -16 7.16895 -16 16v384c0 8.83105 7.16895 16 16 16h48z" />
    <glyph glyph-name="signal-alt-primary" unicode="&#xf690;" 
d="M96 64c17.6611 0 32 -14.3389 32 -32v-64c0 -17.6611 -14.3389 -32 -32 -32h-32c-17.6611 0 -32 14.3389 -32 32v64c0 17.6611 14.3389 32 32 32h32zM256 192c17.6611 0 32 -14.3389 32 -32v-192c0 -17.6611 -14.3389 -32 -32 -32h-32c-17.6611 0 -32 14.3389 -32 32v192
c0 17.6611 14.3389 32 32 32h32zM416 320c17.6611 0 32 -14.3389 32 -32v-320c0 -17.6611 -14.3389 -32 -32 -32h-32c-17.6611 0 -32 14.3389 -32 32v320c0 17.6611 14.3389 32 32 32h32zM576 448c17.6611 0 32 -14.3389 32 -32v-448c0 -17.6611 -14.3389 -32 -32 -32h-32
c-17.6611 0 -32 14.3389 -32 32v448c0 17.6611 14.3389 32 32 32h32z" />
    <glyph glyph-name="signal-alt-1-primary" unicode="&#xf691;" 
d="M128 32v-64c0 -17.6611 -14.3389 -32 -32 -32h-32c-17.6611 0 -32 14.3389 -32 32v64c0 17.6611 14.3389 32 32 32h32c17.6611 0 32 -14.3389 32 -32z" />
    <glyph glyph-name="signal-alt-2-primary" unicode="&#xf692;" 
d="M96 64c17.6611 0 32 -14.3389 32 -32v-64c0 -17.6611 -14.3389 -32 -32 -32h-32c-17.6611 0 -32 14.3389 -32 32v64c0 17.6611 14.3389 32 32 32h32zM256 192c17.6611 0 32 -14.3389 32 -32v-192c0 -17.6611 -14.3389 -32 -32 -32h-32c-17.6611 0 -32 14.3389 -32 32v192
c0 17.6611 14.3389 32 32 32h32z" />
    <glyph glyph-name="signal-alt-3-primary" unicode="&#xf693;" 
d="M96 64c17.6611 0 32 -14.3389 32 -32v-64c0 -17.6611 -14.3389 -32 -32 -32h-32c-17.6611 0 -32 14.3389 -32 32v64c0 17.6611 14.3389 32 32 32h32zM256 192c17.6611 0 32 -14.3389 32 -32v-192c0 -17.6611 -14.3389 -32 -32 -32h-32c-17.6611 0 -32 14.3389 -32 32v192
c0 17.6611 14.3389 32 32 32h32zM416 320c17.6611 0 32 -14.3389 32 -32v-320c0 -17.6611 -14.3389 -32 -32 -32h-32c-17.6611 0 -32 14.3389 -32 32v320c0 17.6611 14.3389 32 32 32h32z" />
    <glyph glyph-name="cat-primary" unicode="&#xf6be;" horiz-adv-x="512" 
d="M376 304c8.83105 0 16 -7.16895 16 -16s-7.16895 -16 -16 -16s-16 7.16895 -16 16s7.16895 16 16 16zM456 304c8.83105 0 16 -7.16895 16 -16s-7.16895 -16 -16 -16s-16 7.16895 -16 16s7.16895 16 16 16zM131.06 174.47
c10.5645 15.1885 23.0215 28.5273 37.4209 40.0898l23.5195 -70.5596zM256 176l-43.1504 64.7305c13.5869 5.62598 28.2461 9.87988 43.1504 12.3799v-77.1104z" />
    <glyph glyph-name="elephant-primary" unicode="&#xf6da;" 
d="M528 320c8.83105 0 16 -7.16895 16 -16s-7.16895 -16 -16 -16s-16 7.16895 -16 16s7.16895 16 16 16zM352 255.84c0 -16.5635 12.6436 -30.208 28.7803 -31.8398h27.2197c4.41504 0 8 -3.58496 8 -8v-16c0 -4.41504 -3.58496 -8 -8 -8h-28.2598
c-33.291 2.25488 -59.6963 29.9912 -59.7402 63.8398v56.7998c-19.5771 17.5098 -31.8955 42.9189 -32 71.2002c0.110352 11.2197 2.20605 22.0322 5.90039 32l34.6396 0.160156c-5.4082 -9.37793 -8.61133 -20.2822 -8.61133 -31.876
c0 -23.6797 12.9111 -44.3682 32.0713 -55.4043v-72.8799z" />
    <glyph glyph-name="hammer-war-primary" unicode="&#xf6e4;" horiz-adv-x="384" 
d="M160 395.1v36.9004c0 8.83105 7.16895 16 16 16h32c8.83105 0 16 -7.16895 16 -16v-36.9004l-32 -5.33008zM160 148.46l32 5.33008l32 -5.33008v-196.46c0 -8.83105 -7.16895 -16 -16 -16h-32c-8.83105 0 -16 7.16895 -16 16v196.46z" />
    <glyph glyph-name="hippo-primary" unicode="&#xf6ed;" 
d="M544 160h64v-16c0 -8.83105 -7.16895 -16 -16 -16h-32c-8.83105 0 -16 7.16895 -16 16v16zM448 304c8.83105 0 16 -7.16895 16 -16s-7.16895 -16 -16 -16s-16 7.16895 -16 16s7.16895 16 16 16z" />
    <glyph glyph-name="hood-cloak-primary" unicode="&#xf6ef;" horiz-adv-x="576" 
d="M416.27 128v-192h-256v192c0 70.6455 57.3555 128 128 128c70.6455 0 128 -57.3545 128 -128z" />
    <glyph glyph-name="horse-primary" unicode="&#xf6f0;" horiz-adv-x="576" 
d="M0 200c0 48.5684 39.4316 88 88 88h0.450195c-13.4707 -15.0234 -22.2783 -34.459 -24.0898 -55.7402c-9.93652 -7.26562 -16.3604 -18.9893 -16.3604 -32.2305v-0.0292969v-56c0 -8.83105 -7.16895 -16 -16 -16h-16c-8.83105 0 -16 7.16895 -16 16v56zM511.93 384
c8.83105 0 16 -7.16895 16 -16s-7.16895 -16 -16 -16c-8.83008 0 -16 7.16895 -16 16s7.16992 16 16 16z" />
    <glyph glyph-name="kite-primary" unicode="&#xf6f4;" 
d="M154.69 220c15.9492 10.5098 37.3096 -0.830078 37.3096 -19.8398v-80.3604c0 -19.0098 -21.3604 -30.3496 -37.3096 -19.7998l-58.6904 38.8398l-58.6904 -38.7598c-15.9492 -10.5498 -37.3096 0.799805 -37.3096 19.7998v80.3203
c0 19.0098 21.3096 30.3496 37.3096 19.7998l58.6904 -38.8398zM630.63 438.63l-155.53 -155.53l153.82 -153.8c-3.85742 -3.36035 -8.56641 -5.81055 -13.7197 -7l-353.78 -81.6602c-1.73633 -0.399414 -3.5332 -0.615234 -5.38965 -0.615234
c-6.625 0 -12.626 2.68945 -16.9707 7.03516l235.94 235.94l-153.73 153.89c5.875 6.80176 14.5498 11.0957 24.2305 11.1104h262.5c0.015625 0 0.0351562 0.00488281 0.0507812 0.00488281c8.81641 0 16.8027 -3.58496 22.5791 -9.375z" />
    <glyph glyph-name="mask-primary" unicode="&#xf6fa;" 
d="M184 244.37c41.0801 0 67.7598 -25.6602 80.0801 -41.0498c2.45215 -3.11133 3.91504 -7.06445 3.91504 -11.3291s-1.46289 -8.19043 -3.91504 -11.3008c-12.3203 -15.4004 -39 -41.0508 -80.0801 -41.0508s-67.7598 25.6602 -80.0801 41.0508
c-2.45215 3.11035 -3.91504 7.06348 -3.91504 11.3281s1.46289 8.19043 3.91504 11.3018c12.3203 15.3994 39 41.0498 80.0801 41.0498zM536.08 203.32c2.45215 -3.11133 3.91504 -7.06445 3.91504 -11.3291s-1.46289 -8.19043 -3.91504 -11.3008
c-12.3203 -15.4004 -39 -41.0508 -80.0801 -41.0508s-67.7598 25.6602 -80.0801 41.0508c-2.45215 3.11035 -3.91504 7.06348 -3.91504 11.3281s1.46289 8.19043 3.91504 11.3018c12.3203 15.3994 39 41.0498 80.0801 41.0498s67.7598 -25.6602 80.0801 -41.0498z" />
    <glyph glyph-name="monkey-primary" unicode="&#xf6fb;" 
d="M512 384c26.4922 0 48 -21.5078 48 -48c0 -20.8887 -13.3574 -38.6689 -32 -45.2598v-18.7402c0 -26.4922 -21.5078 -48 -48 -48s-48 21.5078 -48 48v18.7402c-18.6426 6.59082 -32 24.3711 -32 45.2598c0 26.4922 21.5078 48 48 48h64zM440 328
c8.83105 0 16 7.16895 16 16s-7.16895 16 -16 16s-16 -7.16895 -16 -16s7.16895 -16 16 -16zM520 328c8.83105 0 16 7.16895 16 16s-7.16895 16 -16 16s-16 -7.16895 -16 -16s7.16895 -16 16 -16z" />
    <glyph glyph-name="narwhal-primary" unicode="&#xf6fe;" 
d="M634.6 414.68c3.22656 -1.79004 5.40039 -5.21875 5.40039 -9.16602c0 -0.816406 -0.09375 -1.61133 -0.269531 -2.37402l-38.8301 -165.87c-15.8711 11.7393 -35.5811 18.7305 -56.8184 18.7305h-0.0820312c-2.90039 0 -5.78027 0 -8.62988 -0.0996094
l-0.370117 0.0996094l85.3496 154.61c1.79004 3.21875 5.23047 5.38184 9.17188 5.38184c1.8418 0 3.57324 -0.476562 5.07812 -1.3125zM432 136c13.2461 0 24 -10.7539 24 -24s-10.7539 -24 -24 -24s-24 10.7539 -24 24s10.7539 24 24 24z" />
    <glyph glyph-name="whale-primary" unicode="&#xf72c;" 
d="M432 136c13.2461 0 24 -10.7539 24 -24s-10.7539 -24 -24 -24s-24 10.7539 -24 24s10.7539 24 24 24z" />
    <glyph glyph-name="hurricane-primary" unicode="&#xf751;" horiz-adv-x="384" 
d="M236 192c0 -24.2842 -19.7158 -44 -44 -44s-44 19.7158 -44 44s19.7158 44 44 44s44 -19.7158 44 -44z" />
    <glyph glyph-name="poll-people-primary" unicode="&#xf759;" 
d="M96 32c35.3076 -0.0332031 63.9668 -28.6924 64 -64v-16c0 -8.83105 -7.16895 -16 -16 -16h-128c-8.83105 0 -16 7.16895 -16 16v16c0.0332031 35.3076 28.6924 63.9668 64 64h32zM80 352c-26.4922 0 -48 21.5078 -48 48s21.5078 48 48 48s48 -21.5078 48 -48
s-21.5078 -48 -48 -48zM128 112c0 -26.4922 -21.5078 -48 -48 -48s-48 21.5078 -48 48s21.5078 48 48 48s48 -21.5078 48 -48zM288 352h224v-32h-224v32zM288 32v32h128v-32h-128zM96 320c35.3076 -0.0332031 63.9668 -28.6924 64 -64v-16c0 -8.83105 -7.16895 -16 -16 -16
h-128c-8.83105 0 -16 7.16895 -16 16v16c0.0332031 35.3076 28.6924 63.9668 64 64h32z" />
    <glyph glyph-name="rainbow-primary" unicode="&#xf75b;" horiz-adv-x="576" 
d="M480 128v-144c0 -8.83105 -7.16895 -16 -16 -16h-32c-8.83105 0 -16 7.16895 -16 16v138.31c0 66.8906 -48.7002 126.58 -115.2 133.08c-76.2998 7.40039 -140.8 -52.5898 -140.8 -127.39v-144c0 -8.83105 -7.16895 -16 -16 -16h-32c-8.83105 0 -16 7.16895 -16 16
v137.31c0 97.5801 70 184.69 166.7 197.07c117.1 15 217.3 -76.1895 217.3 -190.38z" />
    <glyph glyph-name="angel-primary" unicode="&#xf779;" horiz-adv-x="576" 
d="M288 224c-44.1533 0 -80 35.8467 -80 80s35.8467 80 80 80s80 -35.8467 80 -80s-35.8467 -80 -80 -80zM381.4 134.46l98.5996 -198.46h-384l98.5996 198.46c17.2129 34.1719 52.4961 57.6357 93.3389 57.6357s76.249 -23.4639 93.4619 -57.6357z" />
    <glyph glyph-name="baby-primary" unicode="&#xf77c;" horiz-adv-x="384" 
d="M192 288c-44.1533 0 -80 35.8467 -80 80s35.8467 80 80 80s80 -35.8467 80 -80s-35.8467 -80 -80 -80zM139.54 29l24.6904 -24.6797c7.5332 -7.27637 12.209 -17.4912 12.209 -28.7812c0 -22.0762 -17.9229 -40 -40 -40c-11.29 0 -21.4932 4.6875 -28.7695 12.2207
l-56 56c-7.22754 7.23926 -11.7207 17.2227 -11.7207 28.249c0 12.4922 5.73828 23.6533 14.7207 30.9912l57.3301 49l0.0703125 0.0595703v-0.0595703l55.9297 -64zM376 304.81c5.02637 -6.69629 8.05762 -15.0312 8.05762 -24.04
c0 -13.0547 -6.25488 -24.6592 -15.9277 -31.9795c-0.693359 -0.520508 -1.40332 -1.02051 -2.12988 -1.5l-40.5098 -28.5c-16.3613 -11.4707 -34.4062 -20.9277 -53.4902 -27.8896v-30.9004h-160v30.9004c-19.084 6.96191 -37.1289 16.4189 -53.4902 27.8896l-40.4902 28.5
c-0.75293 0.479492 -1.46289 0.979492 -2.12988 1.5c-8.91016 7.33887 -14.5303 18.4189 -14.5303 30.8525c0 22.0771 17.9229 40 40 40c8.35352 0 16.1123 -2.56641 22.5303 -6.95215l40.4707 -28.3906c24.7637 -17.4229 55.2324 -27.6562 87.7832 -27.6562
c32.5518 0 62.7324 10.2334 87.4961 27.6562l40.5 28.3906c6.6709 5.04199 14.9893 8.08496 23.9873 8.08496c13.0312 0 24.6094 -6.27441 31.873 -15.9658zM328.33 63l-0.0400391 -0.0703125c8.98242 -7.33691 14.6992 -18.4912 14.6992 -30.9824
c0 -11.0273 -4.47168 -21.0186 -11.6992 -28.2568l-56 -56c-7.26465 -7.43066 -17.4082 -12.0342 -28.6094 -12.0342c-22.0771 0 -40 17.9238 -40 40c0 11.1992 4.6123 21.3301 12.0391 28.5938l24.7402 24.75l-27.46 19l56 64z" />
    <glyph glyph-name="candy-cane-primary" unicode="&#xf786;" horiz-adv-x="512" 
d="M336.27 315.5l-8.58984 -5.12012l-41.1299 123.38c9.56543 4.34473 19.8604 7.8457 30.3203 10.2402l41.5 -124.52c-1.8584 0.338867 -3.74512 0.517578 -5.7002 0.519531c-0.0625 0 -0.15625 -0.0195312 -0.21875 -0.0195312
c-5.91602 0 -11.4521 -1.63574 -16.1816 -4.48047zM55.7598 74.2803l30.9502 18.3896l122.12 -76.3203l-30.9404 -18.3994zM380.17 304.4c-4.32227 7.20215 -11.3916 12.5312 -19.7598 14.5996l93.1094 93.1504c8.35938 -6.78809 15.8594 -14.248 22.6904 -22.5703
l-92.7402 -92.7305c-0.770508 2.66504 -1.89648 5.22461 -3.2998 7.55078zM162.39 137.64l30.9502 18.3604l122.09 -76.2695l-30.9395 -18.4004zM269 201l31 18.3799l122 -76.2803l-30.9404 -18.3799zM384.11 294.17l123.239 -41.0801
c-2.56348 -10.4092 -6.17773 -20.6572 -10.5898 -30.2002l-123 41c6.71094 5.90332 10.9336 14.5205 10.9336 24.1523c0 2.09473 -0.200195 4.14355 -0.583008 6.12793z" />
    <glyph glyph-name="carrot-primary" unicode="&#xf787;" horiz-adv-x="512" 
d="M390.25 326.3c40.7002 19.5 88.7998 9.40039 121.7 -30.2998c-41.6006 -50.2998 -107.5 -52.5 -151.9 -7.90039l-8 8c-44.5996 44.4004 -42.3994 110.2 7.9502 151.9c39.7002 -32.9004 49.7998 -81 30.2998 -121.7h-0.0498047z" />
    <glyph glyph-name="horse-head-primary" unicode="&#xf7ab;" horiz-adv-x="512" 
d="M178.3 153.37c14.6826 -33.7402 48.2578 -57.2998 87.3604 -57.3701h1l-10.6602 -32v0.769531c-45.6084 3.45117 -84.6035 30.7705 -104.3 69.6006c-0.540039 1.07129 -0.850586 2.28906 -0.850586 3.56934c0 2.25195 0.94043 4.28613 2.4502 5.73047l12.1006 12.0996
c1.44434 1.42285 3.42285 2.30664 5.6084 2.30664c3.24121 0 6.03516 -1.93164 7.29102 -4.70605zM328.12 271.95c13.2129 0 23.9395 -10.7275 23.9395 -23.9404s-10.7266 -23.9395 -23.9395 -23.9395h-0.120117c-13.1846 0.0332031 -23.8809 10.7471 -23.8809 23.9395
c0 13.2129 10.7266 23.9404 23.9395 23.9404h0.0615234z" />
    <glyph glyph-name="lights-holiday-primary" unicode="&#xf7b2;" 
d="M632.59 326.25c-38.0898 -22.4004 -81.0898 -40 -127 -53l20.3506 -56.1396c-1.21582 0.0527344 -2.43848 0.0791016 -3.66699 0.0791016c-21.8623 0 -41.7285 -8.49609 -56.5332 -22.3594l-23.1504 63.8203c-29.5977 -5.16797 -59.6562 -8.47363 -90.3994 -9.80078
v-63.3691c-9.83203 4.12012 -20.624 6.39746 -31.9443 6.39746s-22.2246 -2.27734 -32.0557 -6.39746v63.3691c-30.7451 1.32227 -60.8037 4.62793 -90.4004 9.80078l-23.1396 -63.8203c-7.9248 7.32812 -17.2188 13.1562 -27.4707 17.0996
c-9.16895 3.3916 -19.0811 5.24414 -29.4229 5.24414c-1.11328 0 -2.2041 0.00878906 -3.30664 -0.0341797l20.3496 56.1406c-45.8896 13 -88.8896 30.5996 -127 53c-7.89941 4.59961 -10.0996 15.0996 -5.2002 22.8994l17.5 27.4004
c2.83984 4.46777 7.83301 7.43555 13.5146 7.43555c3.0293 0 5.87012 -0.871094 8.28613 -2.33594c76.0996 -44.4297 174.1 -68.75 278.1 -68.75s202 24.3008 278.1 68.7002c2.41504 1.46191 5.24609 2.30469 8.27148 2.30469c5.67969 0 10.6787 -2.93848 13.5186 -7.4043
l17.5 -27.4004c4.90039 -7.78027 2.7002 -18.2803 -4.7998 -22.8799z" />
    <glyph glyph-name="mug-marshmallows-primary" unicode="&#xf7b7;" horiz-adv-x="512" 
d="M400 288c61.8145 0 112 -50.1855 112 -112s-50.1855 -112 -112 -112h-16v-0.120117c-0.0332031 -52.9229 -43.0088 -95.8799 -95.9385 -95.8799h-0.0615234h-192h-0.0595703c-52.9443 0 -95.9297 42.9785 -95.9404 95.9199v191.811c0 17.6611 14.3389 32 32 32h64v-63.5
c0 -17.6621 14.3389 -32 32 -32s32 14.3379 32 32v63.5h64v0.269531h176zM400 128c26.4922 0 48 21.5078 48 48s-21.5078 48 -48 48h-16v-96h16z" />
    <glyph glyph-name="books-medical-primary" unicode="&#xf7e8;" 
d="M128 321c70.6455 0 128 -57.3545 128 -128s-57.3545 -128 -128 -128s-128 57.3545 -128 128s57.3545 128 128 128zM192 177v32c0 2.94141 -2.38867 5.33008 -5.33008 5.33008h-37.3398v37.3398c0 2.94141 -2.38867 5.33008 -5.33008 5.33008h-32
c-2.94141 0 -5.33008 -2.3877 -5.33008 -5.33008v-0.00976562v-37.3301h-37.3398c-2.94141 0 -5.33008 -2.38867 -5.33008 -5.33008v-32v-0.00976562c0 -2.94238 2.38867 -5.33008 5.33008 -5.33008h37.3398v-37.3301c0 -2.94141 2.38867 -5.33008 5.33008 -5.33008h32
c2.94141 0 5.33008 2.38867 5.33008 5.33008v37.3398h37.3398c2.94141 0 5.33008 2.38867 5.33008 5.33008zM402.39 398.22l114.78 -427.89c0.524414 -1.97168 0.799805 -4.03125 0.799805 -6.16699c0 -11.0664 -7.50586 -20.3926 -17.7002 -23.1631l-15.3799 -4.21973
h-0.0898438c-1.94434 -0.512695 -3.97559 -0.779297 -6.08008 -0.779297c-11.0732 0 -20.3975 7.5498 -23.0996 17.7793l-103.62 386.22v-20.0098h-128v32h124.83l-8 29.6494c-0.529297 1.98047 -0.807617 4.0498 -0.807617 6.19531
c0 11.0684 7.50977 20.3975 17.708 23.165l15.3896 4.21973h0.0898438c1.94434 0.512695 3.97559 0.779297 6.08008 0.779297c11.0732 0 20.3975 -7.5498 23.0996 -17.7793zM639.17 2.34961c0.527344 -1.97656 0.804688 -4.04297 0.804688 -6.18555
c0 -11.0674 -7.50781 -20.3955 -17.7051 -23.1641l-15.3799 -4.21973h-0.0898438c-1.94434 -0.512695 -3.97559 -0.779297 -6.08008 -0.779297c-11.0732 0 -20.3975 7.5498 -23.0996 17.7793l-114.79 427.859c-0.529297 1.98047 -0.807617 4.0498 -0.807617 6.19531
c0 11.0684 7.50977 20.3975 17.708 23.165l15.3896 4.21973h0.0898438c1.94434 0.512695 3.97559 0.779297 6.08008 0.779297c11.0732 0 20.3975 -7.5498 23.0996 -17.7793zM224 32v32h128v-32h-128z" />
    <glyph glyph-name="mailbox-primary" unicode="&#xf813;" horiz-adv-x="576" 
d="M143.93 384h0.0703125c79.4756 0 144 -64.5244 144 -144v-208c0 -17.6611 -14.3389 -32 -32 -32h-224c-17.6611 0 -32 14.3389 -32 32v206.62c0 79.7295 64.2002 145.38 143.93 145.38zM224 208v32c0 8.83105 -7.16895 16 -16 16h-128c-8.83105 0 -16 -7.16895 -16 -16
v-32c0 -8.83105 7.16895 -16 16 -16h128c8.83105 0 16 7.16895 16 16zM496 256c8.83105 0 16 -7.16895 16 -16v-64c0 -8.83105 -7.16895 -16 -16 -16h-32c-8.83105 0 -16 7.16895 -16 16v48h-56c-4.41504 0 -8 3.58496 -8 8v16c0 4.41504 3.58496 8 8 8h104z" />
    <glyph glyph-name="drone-primary" unicode="&#xf85f;" horiz-adv-x="512" 
d="M432 48.8096c0.00878906 -0.305664 0.0126953 -0.612305 0.0126953 -0.919922c0 -17.6133 -14.2998 -31.9121 -31.9121 -31.9121c-17.3057 0 -31.4131 13.834 -31.9004 31.0225l-67.8604 49h-88.6797l-67.8604 -49
c-0.486328 -17.1875 -14.5918 -30.9922 -31.8965 -30.9922c-17.6123 0 -31.9102 14.2988 -31.9102 31.9102c0 17.3047 13.8193 31.3955 31.0068 31.8818l49 67.8604v88.6797l-49 67.8604c-17.1875 0.486328 -30.9922 14.5918 -30.9922 31.8965
c0 17.6123 14.2988 31.9102 31.9102 31.9102c17.3047 0 31.3955 -13.8193 31.8818 -31.0068l67.8604 -49h88.6797l67.8604 49c0.486328 17.1875 14.5918 30.9922 31.8965 30.9922c17.6123 0 31.9102 -14.2988 31.9102 -31.9102
c0 -17.3047 -13.8193 -31.3955 -31.0068 -31.8818l-49 -67.8604v-88.6797l49 -67.8604c16.8867 -0.469727 30.5244 -14.1045 31 -30.9902z" />
    <glyph glyph-name="fan-primary" unicode="&#xf863;" horiz-adv-x="512" 
d="M256 156c-19.8691 0 -36 16.1309 -36 36s16.1309 36 36 36s36 -16.1309 36 -36s-16.1309 -36 -36 -36z" />
    <glyph glyph-name="phone-square-alt-primary" unicode="&#xf87b;" horiz-adv-x="448" 
d="M383.62 108.63l-15 -65c-1.53418 -6.6543 -7.5 -11.6211 -14.6172 -11.6211l-0.00292969 -0.00878906c-160.06 0 -290 129.71 -290 290c0.00292969 7.11426 4.97852 13.0762 11.6299 14.6104l65 15c1.08789 0.250977 2.2207 0.383789 3.38477 0.383789
c6.18262 0 11.4805 -3.7373 13.7754 -9.08398l30 -70c0.776367 -1.81055 1.20605 -3.80469 1.20605 -5.89844c0 -4.68066 -2.13184 -8.87012 -5.49609 -11.6221l-37.8896 -31c22.9775 -48.6992 62.0801 -87.8018 110.779 -110.779l31 37.8896
c2.75195 3.36426 6.93555 5.5127 11.6162 5.5127c2.09375 0 4.09375 -0.446289 5.9043 -1.22266l70 -30c5.35156 -2.29199 9.10449 -7.60938 9.10449 -13.7949c0 -1.16309 -0.143555 -2.27832 -0.394531 -3.36523z" />
    <glyph glyph-name="border-center-h-primary" unicode="&#xf89c;" horiz-adv-x="448" 
d="M448 208v-32c0 -8.83105 -7.16895 -16 -16 -16h-416c-8.83105 0 -16 7.16895 -16 16v32c0 8.83105 7.16895 16 16 16h416c8.83105 0 16 -7.16895 16 -16z" />
    <glyph glyph-name="border-center-v-primary" unicode="&#xf89d;" horiz-adv-x="448" 
d="M256 400v-416c0 -8.83105 -7.16895 -16 -16 -16h-32c-8.83105 0 -16 7.16895 -16 16v416c0 8.83105 7.16895 16 16 16h32c8.83105 0 16 -7.16895 16 -16z" />
    <glyph glyph-name="glass-martini-secondary" unicode="&#x10f000;" horiz-adv-x="512" 
d="M405.12 384l-149.12 -149.13l-149.16 149.13h298.28z" />
    <glyph glyph-name="signal-secondary" unicode="&#x10f012;" 
 />
    <glyph glyph-name="qrcode-secondary" unicode="&#x10f029;" horiz-adv-x="448" 
d="M0 -32v192h192v-192h-192zM64 96v-64h64v64h-64zM256 416h192v-192h-192v192zM384 288v64h-64v-64h64zM0 224v192h192v-192h-192zM64 352v-64h64v64h-64z" />
    <glyph glyph-name="image-secondary" unicode="&#x10f03e;" horiz-adv-x="512" 
d="M448 64h-384v48l71.5098 71.5195c2.17383 2.18164 5.17969 3.53125 8.49902 3.53125c3.31836 0 6.32812 -1.34961 8.50098 -3.53125l55.4902 -55.5195l135.51 135.52c2.17383 2.18164 5.17969 3.53125 8.49902 3.53125c3.31836 0 6.32812 -1.34961 8.50098 -3.53125
l87.4902 -87.5195v-112z" />
    <glyph glyph-name="fire-secondary" unicode="&#x10f06d;" horiz-adv-x="384" 
d="M216 424.14c0 -103.14 168 -125.85 168 -296.14c0 -105.87 -86.1299 -192 -192 -192s-192 86.1299 -192 192c0 58.6699 27.7998 106.84 54.5703 135c4.31348 4.61816 10.4561 7.5 17.2676 7.5h0.0117188c12.3203 0 24.1504 -9.48047 24.1504 -24v-85.5
c0 -35.1797 28 -64.5 63.1299 -65h0.870117c35.0469 0 63.5576 28.2471 64 63.1904v0.80957c0 88 -176 96.1504 -52.0996 277.18c4.29004 6.53027 11.666 10.8203 20.0557 10.8203h0.0439453c12.1504 0 24 -9.05957 24 -23.8604zM192 4
c68.3994 0.0830078 123.917 55.6006 124 124c0 29.6602 -6.83984 54.0801 -21.5303 76.8604c-7.98926 12.3994 -17.7998 23.6797 -28.6094 34.6797l0.299805 -0.429688c17.1494 -24.6699 25.8398 -51.2803 25.8398 -79.1104v-1.70996
c-0.96582 -72.0205 -59.7324 -130.226 -131.98 -130.23h-1.7793c-18.2305 0.206055 -35.6943 4.23926 -51.3906 11.2305l-2.62988 1.20996c22.3984 -22.5498 53.4365 -36.5 87.6982 -36.5h0.0820312z" />
    <glyph glyph-name="comment-secondary" unicode="&#x10f075;" horiz-adv-x="512" 
d="M256 416c141.4 0 256 -93.0996 256 -208s-114.6 -208 -256 -208c-38.4004 0 -74.7002 7.09961 -107.4 19.4004c-24.5996 -19.6006 -74.2998 -51.4004 -140.6 -51.4004c-3.2002 0 -6 1.7998 -7.2998 4.7998s-0.700195 6.40039 1.5 8.7002
c0.5 0.5 42.2998 45.4004 54.7998 95.7998c-35.5996 35.7002 -57 81.1006 -57 130.7c0 114.9 114.6 208 256 208z" />
    <glyph glyph-name="folder-secondary" unicode="&#x10f07b;" horiz-adv-x="512" 
d="M464 320c26.5098 0 48 -21.4902 48 -48v-224c0 -26.5098 -21.4902 -48 -48 -48h-416c-26.5098 0 -48 21.4902 -48 48v288c0 26.5098 21.4902 48 48 48h160l64 -64h192z" />
    <glyph glyph-name="camera-retro-secondary" unicode="&#x10f083;" horiz-adv-x="512" 
d="M256 216c48.5684 0 88 -39.4316 88 -88s-39.4316 -88 -88 -88s-88 39.4316 -88 88s39.4316 88 88 88zM256 160c8.83105 0 16 7.16895 16 16s-7.16895 16 -16 16c-35.3076 -0.0332031 -63.9668 -28.6924 -64 -64c0 -8.83105 7.16895 -16 16 -16s16 7.16895 16 16
c0.0498047 17.6387 14.3613 31.9502 32 32zM480 416c17.6387 -0.0498047 31.9502 -14.3613 32 -32v-96h-512v64c0 8.83105 7.16895 16 16 16h176l64 48h224z" />
    <glyph glyph-name="key-secondary" unicode="&#x10f084;" horiz-adv-x="512" 
d="M303.06 99.0898l0.100586 -0.0898438l-24 -27c-4.39648 -4.91504 -10.7852 -8.01074 -17.8926 -8.01074c-0.0166016 0 -0.0302734 0.0107422 -0.0478516 0.0107422h-37.2197v-40c0 -13.2461 -10.7539 -24 -24 -24h-40v-40c0 -13.2461 -10.7539 -24 -24 -24h-112
c-13.2461 0 -24 10.7539 -24 24v78v0.0595703c0 6.6084 2.67285 12.5986 7 16.9404l161.83 161.83l-0.110352 0.349609c19.7588 -60.1338 71.1299 -106.006 134.34 -118.09z" />
    <glyph glyph-name="hdd-secondary" unicode="&#x10f0a0;" horiz-adv-x="576" 
d="M384 128c17.6611 0 32 -14.3389 32 -32s-14.3389 -32 -32 -32s-32 14.3389 -32 32s14.3389 32 32 32zM559.88 216.18c10.1465 -15.2217 16.1201 -33.6006 16.1201 -53.25v-18.9297c0 26.4922 -21.5078 48 -48 48h-480c-26.4922 0 -48 -21.5078 -48 -48v18.9297
c0 19.6494 5.97363 38.0283 16.1201 53.25l97.6299 146.45c8.60742 12.9082 23.2754 21.3701 39.9404 21.3701h268.619c16.665 0 31.333 -8.46191 39.9404 -21.3701z" />
    <glyph glyph-name="flag-checkered-secondary" unicode="&#x10f11e;" horiz-adv-x="512" 
d="M96 149.34c28.2998 12.1006 63.5996 22.1006 114.4 22.1006c10.1748 -0.0683594 20.0234 -1.19238 29.5996 -3.26074v-95c-9.57617 2.06836 -19.4248 3.19238 -29.5996 3.26074c-50.8008 0 -86.1006 -10 -114.4 -22.1006v95zM184.3 384
c20.3906 0 38.7002 -3.2002 55.7002 -7.63965v-105.181c-9.57617 2.06836 -19.4248 3.19238 -29.5996 3.26074c-50.8008 0 -86.1006 -10 -114.4 -22.1006v93.6602c9.05664 6.3291 16.0879 15.1973 20.1602 25.6396c25.8398 12.3604 48.8398 12.3604 68.1396 12.3604z
M375.6 41.6396c-2.59961 0 -5.08984 0.0703125 -7.59961 0.160156v95c2.50977 -0.0898438 5.03027 -0.160156 7.59961 -0.160156c48.1602 0 100.511 23.7207 136.301 48.3008v-76c0 -0.0488281 0.03125 -0.0761719 0.03125 -0.125
c0 -10.8975 -5.47949 -20.5244 -13.832 -26.2754c-35.7998 -24.5996 -74.2998 -40.9004 -122.5 -40.9004zM511.9 287.94c-35.79 -24.5801 -88.1406 -48.3008 -136.301 -48.3008c-2.59961 0 -5.08984 0.0703125 -7.59961 0.160156v110.44
c34.6104 3.75977 69.4004 17.3594 98.5 30.7598c21.2002 9.84961 45.5 -5.65039 45.4004 -29v-64.0596zM240 271.18c39.5801 -8.25 77.2402 -29.3994 128 -31.3799v-103c-50.7598 1.98047 -88.4199 23.1299 -128 31.3799v103z" />
    <glyph glyph-name="bullseye-secondary" unicode="&#x10f140;" horiz-adv-x="496" 
d="M248 440c136.97 0 248 -111.03 248 -248s-111.03 -248 -248 -248s-248 111.03 -248 248s111.03 248 248 248zM248 8c101.71 0 184 82.3096 184 184c0 101.71 -82.3096 184 -184 184c-101.71 0 -184 -82.3096 -184 -184c0 -101.71 82.3096 -184 184 -184zM248 320
c70.6904 0 128 -57.3096 128 -128s-57.3096 -128 -128 -128s-128 57.3096 -128 128s57.3096 128 128 128zM248 128c35.29 0 64 28.71 64 64s-28.71 64 -64 64s-64 -28.71 -64 -64s28.71 -64 64 -64z" />
    <glyph glyph-name="graduation-cap-secondary" unicode="&#x10f19d;" 
d="M323.07 272.3l-204.271 -39.8994c-21.293 -4.19531 -37.5996 -22.4961 -38.7402 -44.7305c9.54395 -5.54102 15.9668 -15.873 15.9668 -27.6943c0 -10.8809 -5.44629 -20.4629 -13.7568 -26.2451l25.4004 -114.261
c0.249023 -1.12012 0.379883 -2.28516 0.379883 -3.47949c0 -8.83105 -7.16895 -16 -16 -16c-0.0166016 0 -0.0322266 0.00976562 -0.0498047 0.00976562h-56.0596c-8.82715 0.00488281 -15.9912 7.17285 -15.9912 16c0 1.19531 0.131836 2.34961 0.380859 3.46973
l25.3896 114.271c-8.30566 5.7832 -13.7451 15.4004 -13.7451 26.2793c0 11.8672 6.46973 22.1953 16.0752 27.7207c1.21484 37.748 28.6445 68.9805 64.6201 76.0693l204.26 39.8906c1.08594 0.232422 2.21289 0.355469 3.36719 0.355469c8.83105 0 16 -7.16992 16 -16
c0 -7.87598 -5.72852 -14.4307 -13.2266 -15.7559z" />
    <glyph glyph-name="closed-captioning-secondary" unicode="&#x10f20a;" horiz-adv-x="512" 
d="M464 384c26.4922 0 48 -21.5078 48 -48v-288c0 -26.4922 -21.5078 -48 -48 -48h-416c-26.4922 0 -48 21.5078 -48 48v288c0 26.4922 21.5078 48 48 48h416zM246.3 124c1.03125 1.07812 1.66211 2.54492 1.66211 4.15332c0 1.32617 -0.431641 2.55273 -1.16211 3.54688
l-19.5 27.7002c-1.12598 1.54492 -2.95117 2.54102 -5.00781 2.54102c-1.35254 0 -2.60352 -0.43457 -3.62207 -1.17188c-0.200195 -0.146484 -0.387695 -0.301758 -0.570312 -0.469727c-41.1992 -37.8994 -92.1992 -15.3994 -92.2998 32.6006
c0 46.0996 53.7998 63.1992 94.6006 31.1992c1.04785 -0.801758 2.36035 -1.28613 3.78125 -1.28613c2.01562 0 3.80957 0.959961 4.94824 2.44629c0.129883 0.180664 0.259766 0.360352 0.370117 0.540039l17.5 30.5c1.5 2.5 1.09961 3.7002 -1 5.7002
c-50.7998 49.4004 -172.5 27.2002 -172.5 -70.0996c0 -100 119.2 -124.7 172.8 -67.9004zM408.5 160.3c-41.2002 -37.8994 -92.2002 -15.3994 -92.2002 32.6006c0 46.0996 53.7998 63.1992 94.6006 31.1992c1.04785 -0.801758 2.36035 -1.28613 3.78125 -1.28613
c2.01562 0 3.80957 0.959961 4.94824 2.44629c0.129883 0.180664 0.259766 0.360352 0.370117 0.540039l17.5 30.5c1.5 2.5 1.09961 3.7002 -1 5.7002c-50.7998 49.4004 -172.5 27.2002 -172.5 -70.0996c0 -100 119.2 -124.801 172.7 -67.9004
c1.03125 1.07812 1.66113 2.54492 1.66113 4.15332c0 1.32617 -0.431641 2.55273 -1.16113 3.54688l-19.5 27.7002c-1.12598 1.54492 -2.95215 2.54102 -5.00781 2.54102c-1.35254 0 -2.60352 -0.43457 -3.62207 -1.17188
c-0.200195 -0.146484 -0.388672 -0.301758 -0.570312 -0.469727z" />
    <glyph glyph-name="object-group-secondary" unicode="&#x10f247;" horiz-adv-x="512" 
d="M500 352h-20v-320h20c6.62305 0 12 -5.37695 12 -12v-40c0 -6.62305 -5.37695 -12 -12 -12h-40c-6.62305 0 -12 5.37695 -12 12v20h-384v-20c0 -6.62305 -5.37695 -12 -12 -12h-40c-6.62305 0 -12 5.37695 -12 12v40c0 6.62305 5.37695 12 12 12h20v320h-20
c-6.62305 0 -12 5.37695 -12 12v40c0 6.62305 5.37695 12 12 12h40c6.62305 0 12 -5.37695 12 -12v-20h384v20c0 6.62305 5.37695 12 12 12h40c6.62305 0 12 -5.37695 12 -12v-40c0 -6.62305 -5.37695 -12 -12 -12zM416 76v136c0 6.62305 -5.37695 12 -12 12h-116v84
c0 6.62305 -5.37695 12 -12 12h-168c-6.62305 0 -12 -5.37695 -12 -12v-136c0 -6.62305 5.37695 -12 12 -12h116v-84c0 -6.62305 5.37695 -12 12 -12h168c6.62305 0 12 5.37695 12 12z" />
    <glyph glyph-name="object-ungroup-secondary" unicode="&#x10f248;" horiz-adv-x="576" 
d="M544 224v-192h26c3.31152 0 6 -2.68848 6 -6v-52c0 -3.31152 -2.68848 -6 -6 -6h-52c-3.31152 0 -6 2.68848 -6 6v26h-288v-26c0 -3.31152 -2.68848 -6 -6 -6h-52c-3.31152 0 -6 2.68848 -6 6v52c0 3.31152 2.68848 6 6 6h26v96h32v-96h288v192h-128v32h128v26
c0 3.31152 2.68848 6 6 6h52c3.31152 0 6 -2.68848 6 -6v-52c0 -3.31152 -2.68848 -6 -6 -6h-26z" />
    <glyph glyph-name="hourglass-start-secondary" unicode="&#x10f251;" horiz-adv-x="384" 
d="M296 384c0 -77.46 -46.2002 -144 -104 -144s-104 66.5195 -104 144h208z" />
    <glyph glyph-name="hourglass-half-secondary" unicode="&#x10f252;" horiz-adv-x="384" 
d="M284.92 64c7.13281 -19.8223 11.0811 -41.2432 11.0811 -63.5098c0 -0.163086 -0.000976562 -0.327148 -0.000976562 -0.490234h-208c-0.000976562 0.176758 0.0595703 0.407227 0.0595703 0.584961c0 22.251 3.87988 43.6025 11 63.415h185.86zM192 240
c-40.8203 0 -75.8604 33.2002 -92.9199 80h185.84c-17.0596 -46.7998 -52.0898 -80 -92.9199 -80z" />
    <glyph glyph-name="hourglass-end-secondary" unicode="&#x10f253;" horiz-adv-x="384" 
d="M296 0h-208c0 77.46 46.2002 144 104 144s104 -66.5195 104 -144z" />
    <glyph glyph-name="hourglass-secondary" unicode="&#x10f254;" horiz-adv-x="384" 
d="M192 144c57.79 0 104 -66.5195 104 -144h-208c0 77.46 46.2002 144 104 144zM192 240c-57.79 0 -104 66.5195 -104 144h208c0 -77.46 -46.2002 -144 -104 -144z" />
    <glyph glyph-name="registered-secondary" unicode="&#x10f25d;" horiz-adv-x="512" 
d="M250.43 268.23c28.6699 0 34.9307 -8.77051 34.9307 -27.7002c0 -18.6104 -9.83008 -28.4404 -28.4307 -28.4404h-29.8701v56.1406h23.3701zM256 440c137 0 248 -111 248 -248s-111 -248 -248 -248s-248 111 -248 248s111 248 248 248zM342.39 52
c13.2383 0.00878906 23.9893 10.7852 23.9893 24.0254c0 4.19141 -1.07715 8.13379 -2.96875 11.5645c-46.7002 84.8203 -43.2998 78.6299 -44.7002 81c23.4297 15.1699 37.9404 43 37.9404 74.4805c0 54.25 -31.4902 89.25 -105.49 89.25h-70.6699
c-13.2461 0 -24 -10.7539 -24 -24v-232.32c0 -13.2461 10.7539 -24 24 -24h22.5693c13.2461 0 24 10.7539 24 24v71.6602h25.5508l44.1299 -82.9297c4.03418 -7.58594 12.0059 -12.7305 21.1895 -12.7305h24.46z" />
    <glyph glyph-name="industry-secondary" unicode="&#x10f275;" horiz-adv-x="512" 
d="M512 264v-272c0 -13.2461 -10.7539 -24 -24 -24h-352c13.2461 0 24 10.7539 24 24v203.69l139.12 88.5293c3.7168 2.36426 8.12695 3.73438 12.8545 3.73438c13.2354 0 24.0078 -10.7227 24.0254 -23.9541v-68.2803l139.12 88.5303
c3.7168 2.36426 8.12695 3.73438 12.8545 3.73438c13.2461 0 24.0244 -10.7393 24.0254 -23.9844z" />
    <glyph glyph-name="comment-alt-secondary" unicode="&#x10f27a;" horiz-adv-x="512" 
d="M448 448c35.2998 0 64 -28.7002 64 -64v-288c0 -35.2998 -28.7002 -64 -64 -64h-144l-124.9 -93.7002c-7.89941 -5.7998 -19.0996 -0.0996094 -19.0996 9.7002v84h-96c-35.2998 0 -64 28.7002 -64 64v288c0 35.2998 28.7002 64 64 64h384z" />
    <glyph glyph-name="id-card-secondary" unicode="&#x10f2c2;" horiz-adv-x="576" 
d="M0 320h576v-304c0 -26.4922 -21.5078 -48 -48 -48h-480c-26.4922 0 -48 21.5078 -48 48v304zM176 256c-35.3223 0 -64 -28.6777 -64 -64s28.6777 -64 64 -64s64 28.6777 64 64s-28.6777 64 -64 64zM269.3 32c10.4004 0 18.7998 9.90039 15.6006 19.7998
c-8.37207 25.6445 -32.4785 44.1885 -60.9004 44.2002h-8.2002c-12.2285 -5.12305 -25.791 -7.9541 -39.8701 -7.9541c-14.0781 0 -27.501 2.83105 -39.7295 7.9541h-8.2002c-28.4219 -0.0117188 -52.5283 -18.5557 -60.9004 -44.2002
c-3.19922 -9.7998 5.2002 -19.7998 15.6006 -19.7998h186.6zM512 104v16c0 4.41504 -3.58496 8 -8 8h-144c-4.41504 0 -8 -3.58496 -8 -8v-16c0 -4.41504 3.58496 -8 8 -8h144c4.41504 0 8 3.58496 8 8zM512 168v16c0 4.41504 -3.58496 8 -8 8h-144
c-4.41504 0 -8 -3.58496 -8 -8v-16c0 -4.41504 3.58496 -8 8 -8h144c4.41504 0 8 3.58496 8 8zM512 232v16c0 4.41504 -3.58496 8 -8 8h-144c-4.41504 0 -8 -3.58496 -8 -8v-16c0 -4.41504 3.58496 -8 8 -8h144c4.41504 0 8 3.58496 8 8z" />
    <glyph glyph-name="window-minimize-secondary" unicode="&#x10f2d1;" horiz-adv-x="512" 
d="M464 96c26.5 0 48 -21.5 48 -48v-32c0 -26.5 -21.5 -48 -48 -48h-416c-26.5 0 -48 21.5 -48 48v32c0 26.5 21.5 48 48 48h416z" />
    <glyph glyph-name="images-secondary" unicode="&#x10f302;" horiz-adv-x="576" 
d="M424.49 327.52l87.5098 -87.5195v-112h-352v48l55.4902 55.5195c2.17285 2.18164 5.18262 3.53125 8.50098 3.53125c3.31934 0 6.3252 -1.34961 8.49902 -3.53125l39.5098 -39.5195l135.49 135.52c2.17285 2.18164 5.18262 3.53125 8.50098 3.53125
c3.31934 0 6.3252 -1.34961 8.49902 -3.53125zM64 112c0.0498047 -44.1299 35.8701 -79.9502 80 -80h336v-16c0 -26.4922 -21.5078 -48 -48 -48h-384c-26.4922 0 -48 21.5078 -48 48v256c0 26.4922 21.5078 48 48 48h16v-208z" />
    <glyph glyph-name="inbox-in-secondary" unicode="&#x10f310;" horiz-adv-x="576" 
d="M528 -64h-480c-26.4922 0 -48 21.5078 -48 48v95.2002v0.0419922c0 11.3506 4.02344 21.8037 10.7002 29.958l94.3994 118c2.2002 2.73828 5.57617 4.49121 9.35938 4.49121c3.44629 0 6.55176 -1.46094 8.74121 -3.79102l27.5996 -29.5
c2.00684 -2.14551 3.23535 -5.02734 3.23535 -8.19336c0 -2.83398 -0.989258 -5.45312 -2.63477 -7.50684l-43.8008 -54.7002h92.4004l32 -64h112l32 64h92.2998l-44.2998 55.4004c-1.6123 2.0625 -2.57422 4.65918 -2.57422 7.47852
c0 3.26074 1.28125 6.23633 3.37402 8.4209l28.1006 28.9004c2.19531 2.20898 5.23633 3.57715 8.59375 3.57715c3.79492 0 7.18262 -1.74219 9.40625 -4.47754l94.5996 -118.2c6.55762 -8.17871 10.4824 -18.5586 10.4824 -29.8477
c0 -0.00585938 0.0175781 -0.0458984 0.0175781 -0.0517578v-95.2002c0 -26.4922 -21.5078 -48 -48 -48z" />
    <glyph glyph-name="inbox-out-secondary" unicode="&#x10f311;" horiz-adv-x="576" 
d="M565.6 109.11c6.49414 -8.21582 10.3936 -18.627 10.4004 -29.9004v-95.21c0 -26.4922 -21.5078 -48 -48 -48h-480c-26.4922 0 -48 21.5078 -48 48v95.2002v0.0205078c0 11.3193 3.94043 21.7637 10.5 29.9795l94.4004 118
c2.2002 2.73828 5.57617 4.49121 9.3584 4.49121c3.44727 0 6.55176 -1.46094 8.74121 -3.79102l27.5996 -29.5c2.00684 -2.14551 3.23535 -5.02734 3.23535 -8.19336c0 -2.83398 -0.989258 -5.45312 -2.63477 -7.50684l-43.6006 -54.7002h92.4004l32 -64h112l32 64h92.4004
l-44.3008 55.4004c-1.65527 2.04883 -2.64746 4.65723 -2.64746 7.49414c0 3.27148 1.31348 6.24805 3.44824 8.40527l28.0996 28.9004c2.18066 2.24316 5.23047 3.6377 8.60352 3.6377c3.80664 0 7.19727 -1.76953 9.39648 -4.53809z" />
    <glyph glyph-name="arrow-alt-to-top-secondary" unicode="&#x10f34d;" horiz-adv-x="384" 
d="M24 416h336h0.0615234c13.1924 0 23.9053 -10.6953 23.9385 -23.8799v-16.1201v-0.0615234c0 -13.1924 -10.6953 -23.9053 -23.8799 -23.9385h-336.12h-0.0615234c-13.1924 0 -23.9053 10.6953 -23.9385 23.8799v16.1201v0.0615234
c0 13.1924 10.6953 23.9053 23.8799 23.9385h0.120117z" />
    <glyph glyph-name="gem-secondary" unicode="&#x10f3a5;" horiz-adv-x="576" 
d="M100.7 256l123 -251.7c0.258789 -0.443359 0.410156 -0.963867 0.410156 -1.51367c0 -1.65625 -1.34473 -3 -3 -3c-0.987305 0 -1.86328 0.477539 -2.41016 1.21387l-218.7 255h100.7zM475.3 256h100.7l-218.7 -254.9
c-0.549805 -0.632812 -1.35938 -1.03027 -2.26367 -1.03027c-1.65527 0 -3 1.34473 -3 3c0 0.438477 0.0947266 0.855469 0.263672 1.23047zM148.2 256h279.6l-137 -318.2c-0.461914 -1.06055 -1.51758 -1.80273 -2.74805 -1.80273s-2.28906 0.742188 -2.75195 1.80273z" />
    <glyph glyph-name="basketball-hoop-secondary" unicode="&#x10f435;" 
d="M192 272v48h256v-48h-256zM638.83 245.24c1.59961 -10.3906 1.09961 8.66016 1.08984 -132.351c0 -23.2295 -13.5996 -44.0195 -34.71 -52.7793l-104.21 -43.71l8.84961 143.6h26.1504c22.0762 0 40 17.9238 40 40v32c0 22.0762 -17.9238 40 -40 40h-56v80h-320v-80h-56
c-22.0762 0 -40 -17.9238 -40 -40v-32c0 -22.0762 17.9238 -40 40 -40h26.1504l8.84961 -143.6l-104.22 43.71c-21.1104 8.7793 -34.71 29.5498 -34.71 52.7793c0 141.011 -0.5 121.96 1.09961 132.351c0.700195 2.04004 67.5098 202.76 318.83 202.76
s318.13 -200.72 318.83 -202.76z" />
    <glyph glyph-name="hockey-sticks-secondary" unicode="&#x10f454;" 
d="M233.65 439.07l86.3496 -172.54l-53.6504 -107.32l-118.659 237c-1.05371 2.1416 -1.6709 4.55566 -1.6709 7.10156c0 6.29297 3.61523 11.7471 8.88086 14.3984l57.2598 28.5996c2.1543 1.08105 4.59082 1.71387 7.16309 1.71387
c6.27051 0 11.7041 -3.61523 14.3271 -8.87305v-0.0800781zM624 96c8.83105 0 16 -7.16895 16 -16v-128c0 -8.83105 -7.16895 -16 -16 -16h-48v160h48zM401 104.8h-0.0595703c2.70996 -5.41016 9 -8.7998 15.0596 -8.7998h128v-160h-126
c-0.0117188 0 0.0146484 -0.0634766 0.00292969 -0.0634766c-25.1602 0 -46.9756 14.4326 -57.6133 35.4639l-40.3896 80.6592l53.7402 107.2zM64 -64v160h32v-160h-32z" />
    <glyph glyph-name="pennant-secondary" unicode="&#x10f456;" horiz-adv-x="576" 
d="M128 87.2002v248.3c-0.000976562 0.0703125 -0.000976562 0.140625 -0.000976562 0.211914c0 8.71973 7.0791 15.7998 15.7998 15.7998c0.169922 0 0.332031 -0.00585938 0.500977 -0.0117188c43.2002 -2 95.2998 -13.2002 155.2 -42.4004
c140.6 -68.5 223.7 -62.8994 252.9 -57.1992c18 3.7998 31.2998 -18.1006 18.5996 -32.4004c-78.0996 -88.2002 -179.8 -108.8 -184.1 -109.6c-134.801 -26.1006 -153.301 -7.5 -237.101 -37.5c-10.5996 -3.80078 -21.7998 3.59961 -21.7998 14.7998z" />
    <glyph glyph-name="dolly-flatbed-empty-secondary" unicode="&#x10f476;" 
d="M162.74 0h90.5195c1.76562 -4.99707 2.75488 -10.373 2.75488 -15.9707c0 -26.4922 -21.5078 -48 -48 -48s-48 21.5078 -48 48c0 5.59766 0.959961 10.9736 2.72559 15.9707zM541.26 0c1.76562 -4.99707 2.75488 -10.373 2.75488 -15.9707
c0 -26.4922 -21.5078 -48 -48 -48s-48 21.5078 -48 48c0 5.59766 0.959961 10.9736 2.72559 15.9707h90.5195z" />
    <glyph glyph-name="id-card-alt-secondary" unicode="&#x10f47f;" horiz-adv-x="576" 
d="M528 384c26.4922 0 48 -21.5078 48 -48v-352c0 -26.4922 -21.5078 -48 -48 -48h-480c-26.4922 0 -48 21.5078 -48 48v352c0 26.4922 21.5078 48 48 48h176v-64h-16c-8.83105 0 -16 -7.16895 -16 -16s7.16895 -16 16 -16h160c8.83105 0 16 7.16895 16 16
s-7.16895 16 -16 16h-16v64h176zM288 224c-35.3223 0 -64 -28.6777 -64 -64s28.6777 -64 64 -64s64 28.6777 64 64s-28.6777 64 -64 64zM381.3 0c10.4004 0 18.7998 10 15.6006 19.7998c-8.37207 25.6445 -32.4785 44.1885 -60.9004 44.2002h-8.2002
c-12.2285 -5.12305 -25.791 -7.9541 -39.8701 -7.9541c-14.0781 0 -27.501 2.83105 -39.7295 7.9541h-8.2002c-0.0136719 0 -0.0107422 0.00683594 -0.0244141 0.00683594c-28.416 0 -52.5312 -18.5586 -60.876 -44.207c-3.19922 -9.7998 5.2002 -19.7998 15.6006 -19.7998
h186.6z" />
    <glyph glyph-name="inventory-secondary" unicode="&#x10f480;" 
d="M624 448c8.83105 0 16 -7.16895 16 -16v-496h-64v32h-512v-32h-64v496c0 8.83105 7.16895 16 16 16h32c8.83105 0 16 -7.16895 16 -16v-144h512v144c0 8.83105 7.16895 16 16 16h32zM576 32v192h-512v-192h512z" />
    <glyph glyph-name="gas-pump-secondary" unicode="&#x10f52f;" horiz-adv-x="512" 
d="M256 448c35.3076 -0.0332031 63.9668 -28.6924 64 -64v-384h-288v384c0.0332031 35.3076 28.6924 63.9668 64 64h160zM256 256v128h-160v-128h160z" />
    <glyph glyph-name="infinity-secondary" unicode="&#x10f534;" 
d="M471.1 352c93.1006 0 168.9 -71.7998 168.9 -160s-75.7998 -160 -168.9 -160c-66.0996 0 -117.8 41.2998 -151.1 78.5996c-33.2998 -37.2998 -85 -78.5996 -151.1 -78.5996c-93.1006 0 -168.9 71.7998 -168.9 160s75.7998 160 168.9 160
c66.0996 0 117.8 -41.2998 151.1 -78.5996c33.2998 37.2998 85 78.5996 151.1 78.5996zM168.9 128c38.0996 0 73.5996 36.4004 94 64c-20.6006 27.9004 -55.8008 64 -94 64c-40.2002 0 -72.9004 -28.7002 -72.9004 -64s32.7002 -64 72.9004 -64zM471.1 128
c40.2002 0 72.9004 28.7002 72.9004 64s-32.7002 64 -72.9004 64c-38.0996 0 -73.5996 -36.4004 -94 -64c20.6006 -27.9004 55.8008 -64 94 -64z" />
    <glyph glyph-name="cocktail-secondary" unicode="&#x10f561;" horiz-adv-x="576" 
d="M208 167.73l-56.2803 56.2695h112.561zM432 448c0.310547 0.00195312 0.451172 0.09375 0.762695 0.09375c79.4756 0 144 -64.5244 144 -144s-64.5244 -144 -144 -144c-27.6123 0 -53.4189 7.78809 -75.3428 21.2861l35.2598 35.2598
c11.9561 -5.47949 25.3271 -8.60059 39.3203 -8.63965c52.9834 0 96 43.0166 96 96s-43.0166 96 -96 96c-35.3701 0 -66 -19.4502 -82.6396 -48h-52.5303c19.8301 55.7998 72.5703 96 135.17 96z" />
    <glyph glyph-name="fish-secondary" unicode="&#x10f578;" horiz-adv-x="576" 
d="M327.1 352c137.46 0 248.9 -128 248.9 -160s-111.44 -160 -248.9 -160c-89.9697 0 -168.55 54.7695 -212.279 101.62l-87.3301 -66.0498c-12.1406 -9.16992 -30.2402 0.599609 -27.1406 14.6602l24.1904 109.77l-24.1797 109.71
c-3.10059 14.0596 15.0098 23.8398 27.1396 14.6602l87.3301 -66c43.7295 46.8604 122.27 101.63 212.27 101.63zM414.53 160c17.6611 0 32 14.3389 32 32s-14.3389 32 -32 32s-32 -14.3389 -32 -32s14.3389 -32 32 -32z" />
    <glyph glyph-name="highlighter-secondary" unicode="&#x10f591;" horiz-adv-x="544" 
d="M0 -32l68.3701 70.4502l67 -67l-35.4502 -35.4502zM527.92 368.73c9.95508 -9.9375 16.1006 -23.7051 16.1006 -38.8682c0 -13.8945 -5.1748 -26.5898 -13.7002 -36.2627l-170 -199.06l-169.721 169.74l199 170c9.67676 8.53418 22.4131 13.7324 36.3174 13.7324
c15.1455 0 28.8672 -6.14844 38.8027 -16.083z" />
    <glyph glyph-name="books-secondary" unicode="&#x10f5db;" horiz-adv-x="576" 
d="M96 448c17.6611 0 32 -14.3389 32 -32v-64h-128v64c0 17.6611 14.3389 32 32 32h64zM0 64v256h128v-256h-128zM0 -32v64h128v-64c0 -17.6611 -14.3389 -32 -32 -32h-64c-17.6611 0 -32 14.3389 -32 32zM513.62 -14.2197
c0.0400391 -0.160156 0.0898438 -0.310547 0.129883 -0.459961l-60.29 -16.1504c-0.0898438 0.389648 -0.179688 0.790039 -0.290039 1.17969l-112.35 418.801l60.2598 16.1396zM160 -32v64h128v-64c0 -17.6611 -14.3389 -32 -32 -32h-64c-17.6611 0 -32 14.3389 -32 32z
M256 448c17.6426 -0.0224609 31.96 -14.3525 31.96 -32v-7.34961c-7.18457 -4.13379 -11.9971 -11.8672 -11.9971 -20.7432c0 -2.16504 0.288086 -4.2627 0.827148 -6.25684l8 -29.6504h-124.79v64c0 17.6611 14.3389 32 32 32h64zM160 64v256h128v-256h-128z" />
    <glyph glyph-name="charging-station-secondary" unicode="&#x10f5e7;" horiz-adv-x="576" 
d="M256 448c35.3223 0 64 -28.6777 64 -64v-384h-288v384c0 35.3223 28.6777 64 64 64h160zM260.09 272.24c4.62012 6.97949 -1.14941 15.7598 -10.3896 15.7598h-57.7002l11.5996 50.79c2.02051 6.66992 -3.71973 13.21 -11.5996 13.21h-68
c-6 0 -11.0996 -3.90039 -11.8896 -9.11035l-16 -107c-0.959961 -6.2998 4.63965 -11.8896 11.8896 -11.8896h59.3301l-23 -83.0801c-1.7998 -6.63965 4 -12.9199 11.6699 -12.9199c0.0878906 -0.00195312 0.164062 -0.0146484 0.251953 -0.0146484
c4.18555 0 7.88965 2.07715 10.1377 5.25488z" />
    <glyph glyph-name="globe-stand-secondary" unicode="&#x10f5f6;" horiz-adv-x="448" 
d="M94.8701 142.86c-28.9629 28.9619 -46.8877 68.9619 -46.8877 113.116c0 88.3066 71.6943 160 160 160c88.3066 0 160 -71.6934 160 -160c0 -44.1543 -17.8799 -84.1543 -46.8428 -113.116c-28.9609 -28.9609 -68.96 -46.8838 -113.112 -46.8838
s-84.1963 17.9229 -113.157 46.8838z" />
    <glyph glyph-name="monitor-heart-rate-secondary" unicode="&#x10f611;" horiz-adv-x="576" 
d="M512 384v-384h-448v160h118.11l27.5801 -55.1602c2.625 -5.25 8.05371 -8.8584 14.3193 -8.8584c6.26465 0 11.6748 3.6084 14.2998 8.8584l49.6904 99.3799l22.1104 -44.2197h89.8896c8.83105 0 16 7.16895 16 16s-7.16895 16 -16 16h-70.1104l-27.5801 55.1602
c-2.625 5.25 -8.05371 8.8584 -14.3193 8.8584c-6.26465 0 -11.6748 -3.6084 -14.2998 -8.8584l-49.6904 -99.3799l-19.9004 39.7998c-1.30469 2.6084 -3.99121 4.39844 -7.09961 4.41992h-133v192h448z" />
    <glyph glyph-name="oil-can-secondary" unicode="&#x10f613;" 
d="M629.81 287.69c0.697266 0.198242 1.43066 0.304688 2.19043 0.304688c4.41406 0 7.99805 -3.58203 8 -7.99512v-18.0801c0 -0.00195312 0.000976562 -0.00488281 0.000976562 -0.0078125c0 -2.20605 -0.894531 -4.2041 -2.34082 -5.65234l-212.26 -214.75
c-5.80273 -5.87207 -13.8613 -9.50879 -22.7607 -9.50977h-274.64c-17.6611 0 -32 14.3389 -32 32v46.54l-69.7197 12.6396c-14.9209 2.71094 -26.2783 15.7832 -26.2803 31.4805v95c0 0.0263672 -0.0273438 0.0527344 -0.0273438 0.0791016
c0 17.623 14.3076 31.9307 31.9297 31.9307c1.98633 0 3.93066 -0.181641 5.81738 -0.530273l138.28 -25.1396h160.9c10.2539 -0.0107422 20.0107 -2.46777 28.6094 -6.75977l50.4902 -25.2402zM96 159.33v62.4297l-48 8.73047v-62.4307z" />
    <glyph glyph-name="cross-secondary" unicode="&#x10f654;" horiz-adv-x="384" 
d="M384 288v-64c0 -17.6611 -14.3389 -32 -32 -32h-96v-224c0 -17.6611 -14.3389 -32 -32 -32h-64c-17.6611 0 -32 14.3389 -32 32v224h-96c-17.6611 0 -32 14.3389 -32 32v64c0 17.6611 14.3389 32 32 32h96v96c0 17.6611 14.3389 32 32 32h64
c17.6611 0 32 -14.3389 32 -32v-96h96c17.6611 0 32 -14.3389 32 -32z" />
    <glyph glyph-name="poll-secondary" unicode="&#x10f681;" horiz-adv-x="448" 
d="M0 368c0 26.4922 21.5078 48 48 48h352c26.4922 0 48 -21.5078 48 -48v-352c0 -26.4922 -21.5078 -48 -48 -48h-352c-26.4922 0 -48 21.5078 -48 48v352zM112 64h32c8.83105 0 16 7.16895 16 16v128c0 8.83105 -7.16895 16 -16 16h-32c-8.83105 0 -16 -7.16895 -16 -16
v-128c0 -8.83105 7.16895 -16 16 -16zM336 160h-32c-8.83105 0 -16 -7.16895 -16 -16v-64c0 -8.83105 7.16895 -16 16 -16h32c8.83105 0 16 7.16895 16 16v64c0 8.83105 -7.16895 16 -16 16zM240 320h-32c-8.83105 0 -16 -7.16895 -16 -16v-224
c0 -8.83105 7.16895 -16 16 -16h32c8.83105 0 16 7.16895 16 16v224c0 8.83105 -7.16895 16 -16 16z" />
    <glyph glyph-name="poll-h-secondary" unicode="&#x10f682;" horiz-adv-x="448" 
d="M400 416c26.4922 0 48 -21.5078 48 -48v-352c0 -26.4922 -21.5078 -48 -48 -48h-352c-26.4922 0 -48 21.5078 -48 48v352c0 26.4922 21.5078 48 48 48h352zM96 304v-32c0 -8.83105 7.16895 -16 16 -16h128c8.83105 0 16 7.16895 16 16v32c0 8.83105 -7.16895 16 -16 16
h-128c-8.83105 0 -16 -7.16895 -16 -16zM192 80v32c0 8.83105 -7.16895 16 -16 16h-64c-8.83105 0 -16 -7.16895 -16 -16v-32c0 -8.83105 7.16895 -16 16 -16h64c8.83105 0 16 7.16895 16 16zM352 176v32c0 8.83105 -7.16895 16 -16 16h-224
c-8.83105 0 -16 -7.16895 -16 -16v-32c0 -8.83105 7.16895 -16 16 -16h224c8.83105 0 16 7.16895 16 16z" />
    <glyph glyph-name="signal-1-secondary" unicode="&#x10f68c;" 
d="M216 160c8.83105 0 16 -7.16895 16 -16v-192c0 -8.83105 -7.16895 -16 -16 -16h-48c-8.83105 0 -16 7.16895 -16 16v192c0 8.83105 7.16895 16 16 16h48zM344 256c8.83105 0 16 -7.16895 16 -16v-288c0 -8.83105 -7.16895 -16 -16 -16h-48c-8.83105 0 -16 7.16895 -16 16
v288c0 8.83105 7.16895 16 16 16h48zM600 448c8.83105 0 16 -7.16895 16 -16v-480c0 -8.83105 -7.16895 -16 -16 -16h-48c-8.83105 0 -16 7.16895 -16 16v480c0 8.83105 7.16895 16 16 16h48zM472 352c8.83105 0 16 -7.16895 16 -16v-384c0 -8.83105 -7.16895 -16 -16 -16
h-48c-8.83105 0 -16 7.16895 -16 16v384c0 8.83105 7.16895 16 16 16h48z" />
    <glyph glyph-name="signal-2-secondary" unicode="&#x10f68d;" 
d="M344 256c8.83105 0 16 -7.16895 16 -16v-288c0 -8.83105 -7.16895 -16 -16 -16h-48c-8.83105 0 -16 7.16895 -16 16v288c0 8.83105 7.16895 16 16 16h48zM472 352c8.83105 0 16 -7.16895 16 -16v-384c0 -8.83105 -7.16895 -16 -16 -16h-48c-8.83105 0 -16 7.16895 -16 16
v384c0 8.83105 7.16895 16 16 16h48zM600 448c8.83105 0 16 -7.16895 16 -16v-480c0 -8.83105 -7.16895 -16 -16 -16h-48c-8.83105 0 -16 7.16895 -16 16v480c0 8.83105 7.16895 16 16 16h48z" />
    <glyph glyph-name="signal-3-secondary" unicode="&#x10f68e;" 
d="M472 352c8.83105 0 16 -7.16895 16 -16v-384c0 -8.83105 -7.16895 -16 -16 -16h-48c-8.83105 0 -16 7.16895 -16 16v384c0 8.83105 7.16895 16 16 16h48zM600 448c8.83105 0 16 -7.16895 16 -16v-480c0 -8.83105 -7.16895 -16 -16 -16h-48c-8.83105 0 -16 7.16895 -16 16
v480c0 8.83105 7.16895 16 16 16h48z" />
    <glyph glyph-name="signal-4-secondary" unicode="&#x10f68f;" 
d="M616 432v-480c0 -8.83105 -7.16895 -16 -16 -16h-48c-8.83105 0 -16 7.16895 -16 16v480c0 8.83105 7.16895 16 16 16h48c8.83105 0 16 -7.16895 16 -16z" />
    <glyph glyph-name="signal-alt-secondary" unicode="&#x10f690;" 
 />
    <glyph glyph-name="signal-alt-1-secondary" unicode="&#x10f691;" 
d="M576 448c17.6611 0 32 -14.3389 32 -32v-448c0 -17.6611 -14.3389 -32 -32 -32h-32c-17.6611 0 -32 14.3389 -32 32v448c0 17.6611 14.3389 32 32 32h32zM416 320c17.6611 0 32 -14.3389 32 -32v-320c0 -17.6611 -14.3389 -32 -32 -32h-32c-17.6611 0 -32 14.3389 -32 32
v320c0 17.6611 14.3389 32 32 32h32zM256 192c17.6611 0 32 -14.3389 32 -32v-192c0 -17.6611 -14.3389 -32 -32 -32h-32c-17.6611 0 -32 14.3389 -32 32v192c0 17.6611 14.3389 32 32 32h32z" />
    <glyph glyph-name="signal-alt-2-secondary" unicode="&#x10f692;" 
d="M576 448c17.6611 0 32 -14.3389 32 -32v-448c0 -17.6611 -14.3389 -32 -32 -32h-32c-17.6611 0 -32 14.3389 -32 32v448c0 17.6611 14.3389 32 32 32h32zM416 320c17.6611 0 32 -14.3389 32 -32v-320c0 -17.6611 -14.3389 -32 -32 -32h-32c-17.6611 0 -32 14.3389 -32 32
v320c0 17.6611 14.3389 32 32 32h32z" />
    <glyph glyph-name="signal-alt-3-secondary" unicode="&#x10f693;" 
d="M608 416v-448c0 -17.6611 -14.3389 -32 -32 -32h-32c-17.6611 0 -32 14.3389 -32 32v448c0 17.6611 14.3389 32 32 32h32c17.6611 0 32 -14.3389 32 -32z" />
    <glyph glyph-name="cat-secondary" unicode="&#x10f6be;" horiz-adv-x="512" 
d="M448 352l64 64v-134.4c0 -52.9834 -43.0166 -96 -96 -96s-96 43.0166 -96 96v134.4l64 -64h64zM376 272c8.83105 0 16 7.16895 16 16s-7.16895 16 -16 16s-16 -7.16895 -16 -16s7.16895 -16 16 -16zM456 272c8.83105 0 16 7.16895 16 16s-7.16895 16 -16 16
s-16 -7.16895 -16 -16s7.16895 -16 16 -16zM290.59 256c11.8906 -58.3496 63.6006 -102.4 125.41 -102.4c11.0654 0.145508 21.7891 1.72852 32 4.54004v-206.14c0 -8.83105 -7.16895 -16 -16 -16h-32c-8.83105 0 -16 7.16895 -16 16v144l-128 -96h32
c17.6611 0 32 -14.3389 32 -32v-16c0 -8.83105 -7.16895 -16 -16 -16h-176c-35.3076 0.0332031 -63.9668 28.6924 -64 64v256c0 17.6611 -14.3389 32 -32 32s-32 14.3389 -32 32s14.3389 32 32 32c52.958 -0.0546875 95.9453 -43.042 96 -96v-80l3.05957 -1.53027
l60.9404 -30.4697l-23.5195 70.5596c13.3906 10.6836 28.3145 19.5254 44.3691 26.1709l43.1504 -64.7305v77.1104c11.1885 1.90332 22.4902 2.88965 34.2168 2.88965h0.373047z" />
    <glyph glyph-name="elephant-secondary" unicode="&#x10f6da;" 
d="M512 415.85c70.6318 0 127.978 -57.333 128 -127.96v-203.21c0 -41.8193 -30 -80.0195 -71.6396 -84.2695c-2.75195 -0.286133 -5.46289 -0.428711 -8.29004 -0.428711c-44.1582 0 -80.0156 35.8232 -80.0703 79.9688c0 8.83008 7.16895 16 16 16h31.5801
c8.78027 0 16.4199 -7.21973 16.4199 -16v-0.140625c0.103516 -8.74121 7.22949 -15.8105 15.9961 -15.8105c0.0478516 0 0.0957031 0.000976562 0.143555 0.000976562c8.78711 0.21582 15.8604 7.41504 15.8604 16.2529v0.107422v97.3096
c-18.8896 -10.9795 -40.5596 -17.7402 -64 -17.7402h-64v-207.93c0 -8.83105 -7.16895 -16 -16 -16h-64c-8.83105 0 -16 7.16895 -16 16v107.84c-32.3496 -17.54 -70.7197 -27.8398 -112 -27.8398s-79.6504 10.2695 -112 27.8096v-107.81c0 -8.83105 -7.16895 -16 -16 -16
h-64c-8.83105 0 -16 7.16895 -16 16v143.92h-16c-8.83105 0 -16 7.16992 -16 16v112c0 105.94 86 191.94 192 191.94h101.9c-3.69531 -9.96777 -5.79199 -20.7803 -5.90039 -32c0.110352 -28.2734 12.4277 -53.6748 32 -71.1807v-56.7295
c0.0332031 -35.3076 28.6924 -63.9668 64 -64l24 0.120117c4.41504 0 8 3.58398 8 8v16c0 4.41504 -3.58496 8 -8 8h-27.2197c-16.1338 1.63184 -28.7764 15.2695 -28.7803 31.8301v72.8594c-19.1758 11.0342 -32.0703 31.7607 -32.0703 55.4531
c0 35.2676 28.6328 63.9004 63.9004 63.9004c23.7607 0 44.5098 -12.9971 55.5195 -32.2637h72.6504zM528 287.85c8.81738 0 15.9775 7.18848 16 16c0 8.83105 -7.16895 16 -16 16s-16 -7.16895 -16 -16c0 -8.83008 7.16895 -16 16 -16z" />
    <glyph glyph-name="hammer-war-secondary" unicode="&#x10f6e4;" horiz-adv-x="384" 
d="M384 384v-192c-0.00292969 -17.6592 -14.3398 -31.9951 -32 -31.9951c-1.80176 0 -3.53906 0.148438 -5.25977 0.435547l-154.74 25.79l-154.74 -25.7803c-1.7207 -0.287109 -3.48828 -0.436523 -5.29004 -0.436523c-17.6562 0 -31.9619 14.332 -31.9697 31.9863v192
c0.00292969 17.6592 14.3398 31.9951 32 31.9951c1.80176 0 3.53906 -0.148438 5.25977 -0.435547l154.74 -25.79l154.74 25.7803c1.7207 0.287109 3.48828 0.436523 5.29004 0.436523c17.6562 0 31.9619 -14.332 31.9697 -31.9863z" />
    <glyph glyph-name="hippo-secondary" unicode="&#x10f6ed;" 
d="M581.12 351.8c34.0898 -0.189453 58.8799 -33.6895 58.8799 -67.7998v-92c0 -17.6611 -14.3389 -32 -32 -32h-192v-176c0 -8.83105 -7.16895 -16 -16 -16h-64c-8.83105 0 -16 7.16895 -16 16v70.79c-32.3496 -14.3604 -70.7197 -22.79 -112 -22.79
s-79.6504 8.42969 -112 22.79v-70.79c0 -8.83105 -7.16895 -16 -16 -16h-64c-8.83105 0 -16 7.16895 -16 16v240c0 88.3604 86 160 192 160c49.2402 0 94 -15.5996 128 -41v49c0 13.2461 10.7539 24 24 24h16c13.2461 0 24 -10.7539 24 -24v-13.8799
c9.9707 3.68262 20.7822 5.77148 32 5.87988c39.8291 0 73.9951 -24.2422 88.5195 -58.8203c24.1006 9.04004 48.9307 26.7705 76.6006 26.6201zM448 272c8.83105 0 16 7.16895 16 16s-7.16895 16 -16 16s-16 -7.16895 -16 -16s7.16895 -16 16 -16z" />
    <glyph glyph-name="hood-cloak-secondary" unicode="&#x10f6ef;" horiz-adv-x="576" 
d="M576 -32c-0.19043 -16.5195 -13.46 -32 -32.3301 -32h-127.4v192c0 70.6455 -57.3545 128 -128 128c-70.6445 0 -128 -57.3545 -128 -128v-192h-127.939c-18.8701 0 -32.1396 15.4805 -32.3301 32c-0.000976562 0.106445 -0.00195312 0.211914 -0.00195312 0.318359
c0 7.07227 2.37988 13.6152 6.3623 18.8418c57.6396 76.9697 57.6396 140.84 57.6396 140.84v64c0 146.55 128 256 223.6 256h149.11c17.5098 0 26.29 -21.1699 13.8896 -33.5498l-39.75 -39.75c54.8105 -59.7002 101.15 -98.7002 101.15 -182.7v-64
s0 -63.8701 57.6699 -140.84c3.96387 -5.22168 6.31738 -11.7314 6.31738 -18.7861c0 -0.119141 0.0136719 -0.255859 0.0126953 -0.374023z" />
    <glyph glyph-name="horse-secondary" unicode="&#x10f6f0;" horiz-adv-x="576" 
d="M575.94 371.4l0.0595703 -77.71c0 -0.0146484 0.0185547 -0.015625 0.0185547 -0.0302734c0 -13.4756 -8.34766 -25.0166 -20.1484 -29.7305l-32.5498 -13c-3.66992 -1.46777 -7.67383 -2.31934 -11.8652 -2.31934c-12.5186 0 -23.3682 7.2041 -28.625 17.6895
l-18.9004 37.7002l-15.9297 7.11035h-0.0800781v-55.5205c0.0498047 0.126953 0.0791016 0.265625 0.0800781 0.410156l-0.0800781 -32v-15.3604c0.00976562 -0.219727 0.0800781 -0.419922 0.0800781 -0.639648c0 -0.015625 0.0107422 -0.0498047 0.0107422 -0.0654297
c0 -30.4297 -12.2178 -58.0283 -32.0107 -78.1543v-177.78c0 -8.83105 -7.16895 -16 -16 -16h-64c-8.83105 0 -16 7.16895 -16 16v150.42l-134 22.3105l-23.8096 -63.5908l26.3291 -105.26c0.311523 -1.24414 0.477539 -2.53906 0.477539 -3.87988
c0 -8.83008 -7.16797 -15.999 -15.9971 -16h-66c-7.47363 0.0136719 -13.75 5.16992 -15.4902 12.1104l-24.8496 99.4092c-1.24609 4.98242 -1.89062 10.1953 -1.89062 15.5605c0 7.89355 1.43164 15.4561 4.05078 22.4395l25.6201 68.3604
c-18.7422 17.5244 -30.4316 42.4629 -30.4316 70.1201c0 52.9814 43.0107 95.9951 95.9912 96h159.91c0 70.6455 57.3545 128 128 128h120c0.52832 0 1.03906 -0.0517578 1.54004 -0.150391c3.72168 -0.72168 6.54102 -3.99414 6.54102 -7.92578
c0 -0.535156 -0.0517578 -1.05762 -0.151367 -1.56348c-2.67969 -13.1699 -11.1201 -23.8203 -22.1797 -30.6602c5.10938 -5.37988 9.91016 -10.5 13.6895 -14.5c5.32617 -5.67969 8.59082 -13.3242 8.59082 -21.7168v-0.0830078zM511.94 352v0c8.83008 0 16 7.16895 16 16
s-7.16992 16 -16 16c-8.83105 0 -16 -7.16895 -16 -16s7.16895 -16 16 -16z" />
    <glyph glyph-name="kite-secondary" unicode="&#x10f6f4;" 
d="M72 197v27c0 22.0762 -17.9238 40 -40 40h-16c-8.83105 0 -16 7.16895 -16 16v16c0 8.83105 7.16895 16 16 16h16c48.5684 0 88 -39.4316 88 -88v-27l-24 -15.8701zM630.63 438.63c5.79004 -5.77637 9.37012 -13.7656 9.37012 -22.582v-0.0478516v-262.5
l0.0166016 0.00195312c0 -9.6748 -4.30273 -18.3525 -11.0967 -24.2217l-153.82 153.819zM321.27 436.89l153.73 -153.89l-235.94 -235.94c4.34473 -4.3457 10.3359 -7.03027 16.96 -7.03027c1.85645 0 3.66406 0.210938 5.40039 0.610352l6.7002 1.55078l-87.5498 -87.5508
c-23.8701 -23.9199 -66.3906 -27.1895 -92.8701 4.34082c-10.7002 12.71 -15.7002 29.1592 -15.7002 45.71v118.31l24 15.8398l24.0098 -15.8398v-123.43c0.0175781 -8.5957 7.00293 -15.5703 15.6025 -15.5703c4.30469 0 8.2041 1.74707 11.0273 4.57031l87.54 87.54
l80.0898 347.09c1.2041 5.1377 3.65137 9.83496 7 13.6895z" />
    <glyph glyph-name="mask-secondary" unicode="&#x10f6fa;" 
d="M320.67 384c449.09 0 348.33 -384 158.46 -384c-39.8994 0 -77.4697 20.6904 -101.41 55.8604l-25.7295 37.79c-15.6299 23 -46.9707 23 -62.6299 0l-25.7305 -37.79c-23.9502 -35.1699 -61.5195 -55.8604 -101.42 -55.8604c-199.11 0 -284.14 384 158.46 384z
M264.08 180.69c2.45215 3.11035 3.91504 7.06348 3.91504 11.3281s-1.46289 8.19043 -3.91504 11.3018c-12.3203 15.3896 -39 41.0498 -80.0801 41.0498s-67.7598 -25.6504 -80.0801 -41.0498c-2.45215 -3.11133 -3.91504 -7.06445 -3.91504 -11.3291
s1.46289 -8.19043 3.91504 -11.3008c12.3203 -15.3906 39 -41.0508 80.0801 -41.0508s67.7598 25.6504 80.0801 41.0508zM536.08 180.69c2.45215 3.11035 3.91504 7.06348 3.91504 11.3281s-1.46289 8.19043 -3.91504 11.3018
c-12.3203 15.3896 -39 41.0498 -80.0801 41.0498s-67.7598 -25.6504 -80.0801 -41.0498c-2.45215 -3.11133 -3.91504 -7.06445 -3.91504 -11.3291s1.46289 -8.19043 3.91504 -11.3008c12.3203 -15.3906 39 -41.0508 80.0801 -41.0508s67.7598 25.6504 80.0801 41.0508z" />
    <glyph glyph-name="monkey-secondary" unicode="&#x10f6fb;" 
d="M549.47 180.78l53.5898 -160.78c3.1875 -9.54785 4.93945 -19.7773 4.94043 -30.3896v-37.6104c0 -8.83105 -7.16895 -16 -16 -16h-32c-8.83105 0 -16 7.16895 -16 16v37.6602l-1.63965 10.1299l-34.6807 104l-155.68 -103.79h64c17.6611 0 32 -14.3389 32 -32v-16
c0 -8.83105 -7.16895 -16 -16 -16h-240c-52.958 0.0546875 -95.9453 43.042 -96 96v240c0 8.83105 -7.16895 16 -16 16s-16 -7.16895 -16 -16v-48c0 -17.6611 -14.3389 -32 -32 -32s-32 14.3389 -32 32v48c0 44.1533 35.8467 80 80 80s80 -35.8467 80 -80v-240
c0 -17.6611 14.3389 -32 32 -32v32c0 103.95 70.9102 191.1 166.92 216.38c16.79 -51.1201 64.4102 -88.3799 121.08 -88.3799c25.583 0.0292969 49.5381 7.7168 69.4697 20.7803zM592 384c26.4922 0 48 -21.5078 48 -48s-21.5078 -48 -48 -48h-16
c0 -52.9834 -43.0166 -96 -96 -96s-96 43.0166 -96 96h-16c-26.4922 0 -48 21.5078 -48 48s21.5078 48 48 48h21.8799c13.2197 37.2002 48.3799 64 90.1201 64s76.9004 -26.7998 90.1201 -64h21.8799zM560 336c0 26.4922 -21.5078 48 -48 48h-64
c-26.4922 0 -48 -21.5078 -48 -48c0 -20.8887 13.3574 -38.6689 32 -45.2598v-18.7402c0 -26.4922 21.5078 -48 48 -48s48 21.5078 48 48v18.7402c18.6426 6.59082 32 24.3711 32 45.2598z" />
    <glyph glyph-name="narwhal-secondary" unicode="&#x10f6fe;" 
d="M544 256c52.9561 -0.0605469 95.9395 -43.0439 96 -96v-128c0 -35.3223 -28.6777 -64 -64 -64h-412.12c-55.0947 0.0664062 -99.8135 44.7852 -99.8799 99.8799v98l-49.75 30.5205c-8.60059 5.7334 -14.2412 15.499 -14.25 26.5996v81
c0 8.83105 7.18555 15.9912 16.0166 15.9912c3.27637 0 6.3252 -0.988281 8.86328 -2.68164l71.1201 -47.4199l71.1201 47.4199c2.53809 1.69336 5.60254 2.69043 8.87988 2.69043c8.83105 0 16 -7.16895 16 -16v-81
c-0.00878906 -11.1006 -5.64941 -20.8662 -14.25 -26.5996l-49.75 -30.5107v-98c0.0166016 -19.7969 16.084 -35.8672 35.8799 -35.8896c64.8301 0 137.12 224 380.12 224zM432 88c13.2461 0 24 10.7539 24 24s-10.7539 24 -24 24s-24 -10.7539 -24 -24s10.7539 -24 24 -24z
" />
    <glyph glyph-name="whale-secondary" unicode="&#x10f72c;" 
d="M544 256c52.9561 -0.0605469 95.9395 -43.0439 96 -96v-128c0 -35.3223 -28.6777 -64 -64 -64h-412.12c-55.0947 0.0664062 -99.8135 44.7852 -99.8799 99.8799v98l-49.75 30.5205c-8.60059 5.7334 -14.2412 15.499 -14.25 26.5996v81
c0 8.83105 7.18555 15.9912 16.0166 15.9912c3.27637 0 6.3252 -0.988281 8.86328 -2.68164l71.1201 -47.4199l71.1201 47.4199c2.53809 1.69336 5.60254 2.69043 8.87988 2.69043c8.83105 0 16 -7.16895 16 -16v-81
c-0.00878906 -11.1006 -5.64941 -20.8662 -14.25 -26.5996l-49.75 -30.5107v-98c0.0166016 -19.7969 16.084 -35.8672 35.8799 -35.8896c64.8301 0 137.12 224 380.12 224zM432 88c13.2461 0 24 10.7539 24 24s-10.7539 24 -24 24s-24 -10.7539 -24 -24s10.7539 -24 24 -24z
" />
    <glyph glyph-name="hurricane-secondary" unicode="&#x10f751;" horiz-adv-x="384" 
d="M176 352c114.9 0 208 -93.0996 208 -208c0 -106.39 -80 -195.58 -183.1 -207.89c-0.642578 -0.078125 -1.27539 -0.115234 -1.9375 -0.115234c-8.96387 0 -16.2402 7.27637 -16.2402 16.2402c0 1.73438 0.272461 3.40625 0.777344 4.97461l24.5 74.79
c-114.9 0 -208 93.0996 -208 208c0 106.39 80 195.58 183.1 207.88c0.650391 0.0791016 1.29199 0.118164 1.96289 0.118164c8.95215 0 16.2207 -7.26758 16.2207 -16.2197c0 -1.74023 -0.275391 -3.41699 -0.783203 -4.98828zM192 96c52.9834 0 96 43.0166 96 96
s-43.0166 96 -96 96s-96 -43.0166 -96 -96s43.0166 -96 96 -96z" />
    <glyph glyph-name="poll-people-secondary" unicode="&#x10f759;" 
d="M616.12 416c13.1846 -0.0332031 23.8799 -10.7461 23.8799 -23.9385v-0.0615234v-112.12c-0.0332031 -13.1846 -10.7461 -23.8799 -23.9385 -23.8799h-0.0615234h-368.12c-13.1846 0.0332031 -23.8799 10.7461 -23.8799 23.9385v0.0615234v112.12
c0.0332031 13.1846 10.7461 23.8799 23.9385 23.8799h0.0615234h368.12zM576 320v32h-288v-32h288zM616.12 128c13.1846 -0.0332031 23.8799 -10.7461 23.8799 -23.9385v-0.0615234v-112.12c-0.0332031 -13.1846 -10.7461 -23.8799 -23.9385 -23.8799h-0.0615234h-368.12
c-13.1846 0.0332031 -23.8799 10.7461 -23.8799 23.9385v0.0615234v112.12c0.0332031 13.1846 10.7461 23.8799 23.9385 23.8799h0.0615234h368.12zM576 32v32h-288v-32h288z" />
    <glyph glyph-name="rainbow-secondary" unicode="&#x10f75b;" horiz-adv-x="576" 
d="M287.83 224c0.0205078 0 0.0400391 -0.00195312 0.0595703 -0.00195312c53.0078 0 96.0498 -43.0049 96.1104 -95.998v-144c0 -8.83105 -7.16895 -16 -16 -16h-32c-8.83105 0 -16 7.16895 -16 16v144c0 17.6611 -14.3389 32 -32 32s-32 -14.3389 -32 -32v-144
c0 -8.83105 -7.16895 -16 -16 -16h-32c-8.83105 0 -16 7.16895 -16 16v140.2c0 46.3994 31.2998 89 76.9004 97.8994c6.14258 1.23926 12.4258 1.89355 18.9297 1.90039zM268.3 415.33c167.7 11.2998 307.7 -122 307.7 -287.33v-144c0 -8.83105 -7.16895 -16 -16 -16h-32
c-8.83105 0 -16 7.16895 -16 16v136.23c0 113.77 -81.5996 215.399 -194.5 229.869c-136.6 17.6006 -253.5 -88.8994 -253.5 -222.1v-144c0 -8.83105 -7.16895 -16 -16 -16h-32c-8.83105 0 -16 7.16895 -16 16v133.83c0 153.3 115.4 287.3 268.3 297.5z" />
    <glyph glyph-name="angel-secondary" unicode="&#x10f779;" horiz-adv-x="576" 
d="M384 384c0 8 -34 32 -96 32s-96 -24 -96 -32c0 -2.40039 3.2998 -6.2002 9.09961 -10.2998c-6.78613 -8.12012 -12.3916 -17.2305 -16.5996 -27.1006c-15.2002 10.5 -24.5 23.4004 -24.5 37.4004c0 35.2998 57.2998 64 128 64s128 -28.7002 128 -64
c0 -14 -9.25977 -26.9004 -24.5 -37.4004c-4.30859 9.81152 -9.90332 18.9092 -16.5996 27.1006c5.7998 4.2002 9.09961 8 9.09961 10.2998zM571.77 -5.09961c2.69238 -5.46875 4.20215 -11.7021 4.20215 -18.2031c0 -7.96191 -2.26758 -15.3975 -6.19141 -21.6973
c-7.10938 -11.4219 -19.75 -18.9912 -34.1807 -19h-55.5996l-99.1504 198.5c-12.1943 24.4971 -33.7256 43.3721 -60 52.1299l72.54 73.2705c16.8203 17.2637 40.3008 28.002 66.2607 28.0996c53.4795 0 100.35 -44.9004 100.35 -96
c0 -26.7998 -5 -36.7002 -14.5098 -53.2998c-3.2002 -5.40039 -7.10059 -12.2998 -11.8906 -22.1006c-3.15332 -6.50195 -4.92188 -13.8896 -4.92188 -21.5957s1.76855 -15.002 4.92188 -21.5039zM116.34 288c25.96 -0.0976562 49.4404 -10.8359 66.2598 -28.0996
l72.6201 -73.2705c-26.2734 -8.75781 -47.8047 -27.6328 -60 -52.1299l-99.2197 -198.5h-55.5996c-14.4258 0.0126953 -27.0625 7.58105 -34.1699 19c-3.92773 6.30176 -6.19922 13.8232 -6.19922 21.7881c0 6.49805 1.50977 12.6465 4.19922 18.1123l38.1797 78.5996
c3.15332 6.50195 4.92285 13.8896 4.92285 21.5957s-1.76953 15.002 -4.92285 21.5039c-4.79004 9.80078 -8.69043 16.7002 -11.8906 22.1006c-9.51953 16.5996 -14.5195 26.5 -14.5195 53.2998c0 51.0996 46.8604 96 100.34 96z" />
    <glyph glyph-name="baby-secondary" unicode="&#x10f77c;" horiz-adv-x="384" 
d="M272.07 160v-48l-56.0703 -64h-48l-55.9297 64l-0.0703125 48h160.07z" />
    <glyph glyph-name="candy-cane-secondary" unicode="&#x10f786;" horiz-adv-x="512" 
d="M86.71 92.6699l75.6797 44.9902l122.101 -76.3105l-75.6602 -45zM15.5703 50.4004l40.1895 23.8799l122.13 -76.3301l-96.6201 -57.4502c-4.80664 -2.82227 -10.4346 -4.47168 -16.3994 -4.5c-11.6885 0.00195312 -21.9023 6.24023 -27.5 15.5996l-32.7998 54.9004
c-2.87793 4.80078 -4.58691 10.4307 -4.58691 16.4307c0 11.6621 6.25293 21.877 15.5869 27.4697zM264.87 310.2l-32.7998 54.8994c-2.87793 4.80078 -4.58691 10.4316 -4.58691 16.4307c0 11.6631 6.25293 21.877 15.5869 27.4697l27.4795 16.4004
c5.1416 3.06348 10.5088 5.86719 16 8.34961l41.1299 -123.38l-18.9102 -11.2705c-4.80664 -2.82129 -10.4346 -4.47168 -16.3994 -4.5c-11.6885 0.00292969 -21.9023 6.24121 -27.5 15.6006zM360.41 319c-0.669922 0.209961 -1.35059 0.349609 -2.04004 0.490234
l-41.5 124.51c11.4736 2.6123 23.4268 3.94434 35.6875 3.94434c38.2539 0 73.3965 -13.4326 100.962 -35.834zM497.47 356c15.6807 -33.1602 18.1299 -69.2402 9.86035 -102.91l-123.2 41.0703c-0.179688 0.899414 -0.399414 1.7998 -0.660156 2.68945l92.7402 92.7305
c8.40039 -10.2383 15.5381 -21.4795 21.2598 -33.5801zM193.34 156l75.6602 45l122.08 -76.2998l-75.6504 -45zM369.17 260.5c1.625 1 3.13379 2.125 4.5498 3.38965l123 -41c-14.6562 -31.7402 -38.3721 -58.042 -68.1699 -75.8896l-6.5498 -3.90039l-122 76.2803z" />
    <glyph glyph-name="carrot-secondary" unicode="&#x10f787;" horiz-adv-x="512" 
d="M298.15 291.4c41.3809 -20.167 69.9229 -62.5088 69.9229 -111.604c0 -49.0557 -28.4951 -91.5098 -69.8232 -111.696l-102 -49.7998l-57 57c-2.90234 2.87402 -6.89941 4.65039 -11.3027 4.65039s-8.39453 -1.77637 -11.2969 -4.65039
c-2.91992 -2.87891 -4.73047 -6.88184 -4.73047 -11.3018c0 -4.41895 1.81055 -8.41895 4.73047 -11.2979l49.1992 -49.2002l-133.6 -65.2002c-2.96387 -1.44043 -6.29883 -2.28223 -9.81348 -2.28223c-8.85645 0 -16.5234 5.13184 -20.1865 12.582
c-1.43359 2.97461 -2.23828 6.35059 -2.23828 9.87109s0.804688 6.85547 2.23828 9.8291l128.1 262.7l50.2002 -50.2002c2.92871 -3.23145 7.16309 -5.25879 11.8633 -5.25879c8.83105 0 16 7.16992 16 16c0 4.70117 -2.03125 8.93066 -5.2627 11.8594l-55.2002 55.1992
c35.7002 43.3008 97.5 58.5 150.2 32.8008z" />
    <glyph glyph-name="horse-head-secondary" unicode="&#x10f7ab;" horiz-adv-x="512" 
d="M509.8 115.57c1.39258 -3.61621 2.1709 -7.56543 2.1709 -11.6699c0 -8.83301 -3.53711 -16.8467 -9.27051 -22.7002l-45.2998 -39.7998c-5.77637 -5.80566 -13.7734 -9.39648 -22.6006 -9.40039h-50.2998c-0.0332031 0 -0.0488281 -0.0292969 -0.0820312 -0.0292969
c-10.6758 0 -20.1328 5.26074 -25.918 13.3291l-46 63.9004c-13.7998 -8.10059 -29.5996 -13.2002 -46.7998 -13.2002c-39.1201 0.0537109 -72.7129 23.6182 -87.4004 57.3701c-0.395508 0.863281 -0.932617 1.64062 -1.58984 2.30957
c-1.45117 1.47461 -3.47168 2.3877 -5.70117 2.3877c-2.18359 0 -4.16504 -0.876953 -5.6084 -2.29785l-12.1006 -12.0996c-1.50977 -1.44434 -2.44434 -3.48633 -2.44434 -5.73828c0 -1.28027 0.304688 -2.49023 0.844727 -3.56152
c19.6963 -38.8301 58.6914 -66.1494 104.3 -69.6006v-0.699219l40.7998 -81.7002c2.14648 -4.29688 3.37305 -9.17383 3.37305 -14.2998c0 -17.6523 -14.3242 -31.9854 -31.9727 -32h-236.2c-17.6611 0 -32 14.3389 -32 32v81.1992c0 159.9 35.9004 275.4 166.9 322.5
l202.199 75.7002l0.44043 0.140625c0.842773 0.250977 1.7334 0.387695 2.65723 0.387695c4.20312 0 7.75684 -2.7959 8.90234 -6.62793c12.1006 -46.4004 -16.1992 -71.7002 -34.1992 -82.2998c43.083 -8.21191 78.3252 -38.7832 93 -79.2002zM328 224.07h0.120117
c13.1846 0.0332031 23.8809 10.7471 23.8809 23.9395c0 13.2129 -10.7266 23.9404 -23.9395 23.9404s-23.9404 -10.7275 -23.9404 -23.9404c0 -13.1924 10.6943 -23.9062 23.8789 -23.9395z" />
    <glyph glyph-name="lights-holiday-secondary" unicode="&#x10f7b2;" 
d="M147 211.93c7 -2.66992 67.2305 -26.3398 41.0596 -96.1299c-18.6494 -49.71 -94.7695 -88.7695 -108.3 -83.71c-13.5293 5.06055 -45.1396 84.6602 -26.5293 134.28c24.5996 65.5596 79.1094 51.0596 93.7695 45.5596zM320 191.93c7.53027 0 72.21 -1 72.2002 -75.5898
c0 -53.1094 -57.6006 -116.41 -72 -116.41c-14.4004 0 -72 63.4102 -72 116.41c0 70.0498 56.1299 75.5898 71.7998 75.5898zM586.8 166.34c18.6104 -49.6201 -13.0693 -129.189 -26.5596 -134.25c-13.4902 -5.05957 -89.6504 33.9805 -108.3 83.71
c-26.1807 69.8203 34.0596 93.4902 41.0596 96.1299c14.6904 5.4707 69.2002 20 93.7998 -45.5898z" />
    <glyph glyph-name="mug-marshmallows-secondary" unicode="&#x10f7b7;" horiz-adv-x="512" 
d="M200.9 403.21l-22.4004 -22.4004c-11.4541 -11.4746 -18.5244 -27.2988 -18.5244 -44.7764c0 -5.64258 0.738281 -11.1143 2.12402 -16.3232h-130.1v63.8896c0 17.6621 14.3389 32 32 32h112.3c10.1006 0 18.7002 -5.09961 24.6006 -12.3896zM96 224v64h64v-64
c0 -17.6611 -14.3389 -32 -32 -32s-32 14.3389 -32 32zM343.3 358.21c10.5 -10.5 11.6006 -26.3096 4.40039 -38.6104h-151c-7.2002 12.3008 -6.10059 28.1104 4.2998 38.6104l48.54 48.3896c5.79297 5.79395 13.8027 9.37988 22.6348 9.37988
s16.833 -3.58594 22.625 -9.37988z" />
    <glyph glyph-name="books-medical-secondary" unicode="&#x10f7e8;" 
d="M160 448c17.6611 0 32 -14.3389 32 -32v-76.3301c-19.5752 8.52734 -41.4209 13.2578 -64.1211 13.2578s-44.3037 -4.73047 -63.8789 -13.2578v76.3301c0 17.6611 14.3389 32 32 32h64zM224 -32v64h128v-64c0 -17.6611 -14.3389 -32 -32 -32h-64
c-17.6611 0 -32 14.3389 -32 32zM577.62 -14.2197c0.0400391 -0.160156 0.0898438 -0.310547 0.129883 -0.459961l-60.29 -16.1504c-0.0898438 0.389648 -0.179688 0.790039 -0.290039 1.17969l-112.35 418.801l60.2598 16.1396zM64 46.3203
c19.5762 -8.52344 41.4219 -13.251 64.1211 -13.251s44.3027 4.72754 63.8789 13.251v-78.3203c0 -17.6611 -14.3389 -32 -32 -32h-64c-17.6611 0 -32 14.3389 -32 32v78.3203zM255 95.6797c20.6475 26.9492 33.1211 60.7002 33.1211 97.2393
c0 51.7695 -24.6396 97.8291 -62.8213 127.081l126.7 0.160156v-256.16h-128v1c11.7568 8.82324 22.0576 19.0186 31 30.6797zM320 448c17.6426 -0.0224609 31.96 -14.3525 31.96 -32v-7.34961c-7.18457 -4.13379 -11.9971 -11.8672 -11.9971 -20.7432
c0 -2.16504 0.288086 -4.2627 0.827148 -6.25684l8 -29.6504h-124.79v64c0 17.6611 14.3389 32 32 32h64z" />
    <glyph glyph-name="mailbox-secondary" unicode="&#x10f813;" horiz-adv-x="576" 
d="M432 384c79.4756 0 144 -64.5244 144 -144v-208c0 -17.6611 -14.3389 -32 -32 -32h-288c17.6611 0 32 14.3389 32 32v208c0 79.4756 -64.5244 144 -144 144h288zM512 176v64c0 8.83105 -7.16895 16 -16 16h-104c-4.41504 0 -8 -3.58496 -8 -8v-16
c0 -4.41504 3.58496 -8 8 -8h56v-48c0 -8.83105 7.16895 -16 16 -16h32c8.83105 0 16 7.16895 16 16z" />
    <glyph glyph-name="drone-secondary" unicode="&#x10f85f;" horiz-adv-x="512" 
d="M300.34 288h-1.55957c-6.87402 14.5059 -10.8818 30.8838 -10.8818 47.9902c0 61.7764 50.1543 111.93 111.93 111.93c61.7764 0 111.931 -50.1533 111.931 -111.93c0 -61.7754 -50.1543 -111.93 -111.931 -111.93c-17.1064 0 -33.3223 3.8457 -47.8281 10.7197v1.55957
l28.0596 38.8604c6.28906 -2.06641 13.0303 -3.20801 20.0068 -3.20801c35.3496 0 64.0498 28.6992 64.0498 64.0498s-28.7002 64.0498 -64.0498 64.0498c-35.3506 0 -64.0498 -28.6992 -64.0498 -64.0498c0 -6.97656 1.11719 -13.6934 3.18359 -19.9824zM211.66 96h0.55957
c6.87402 -14.5059 10.8857 -30.8857 10.8857 -47.9922c0 -61.7764 -50.1543 -111.931 -111.93 -111.931c-61.7764 0 -111.93 50.1543 -111.93 111.931c0 61.7754 50.1533 111.93 111.93 111.93c17.499 0 34.0654 -4.02441 48.8242 -11.1973v-1.08008l-28.25 -39.1299
c-6.51758 2.23633 -13.5371 3.47266 -20.8096 3.47266c-35.3555 0 -64.0596 -28.7041 -64.0596 -64.0596c0 -35.3564 28.7041 -64.0605 64.0596 -64.0605s64.0596 28.7041 64.0596 64.0605c0 6.76758 -1.05078 13.291 -3 19.417zM111 448
c0.00878906 0 -0.0439453 -0.100586 -0.0341797 -0.100586c61.8145 0 112 -50.1855 112 -112c0 -17.1338 -3.85547 -33.374 -10.7461 -47.8994h-0.55957l-39.6602 28.6396c1.94141 6.1123 3.01758 12.6416 3.01758 19.3926c0 35.3223 -28.6777 64 -64 64
s-64 -28.6777 -64 -64c0 -35.3232 28.6777 -64 64 -64c7.25488 0 14.2295 1.20898 20.7324 3.4375l28.25 -39.1299v-1.08008c-14.7637 -7.17285 -31.4385 -11.2598 -48.9424 -11.2598c-61.8145 0 -112 50.1855 -112 112c0 61.7949 50.1543 111.969 111.942 112zM400 160
c61.8018 -0.0146484 112.034 -50.0938 112.034 -111.899c0 -61.8145 -50.1855 -112 -112 -112s-112 50.1855 -112 112c0 17.1338 3.85547 33.374 10.7461 47.8994h1.55957l38.8604 -28.0596c-2.06641 -6.28906 -3.20801 -13.0303 -3.20801 -20.0068
c0 -35.3496 28.6992 -64.0498 64.0498 -64.0498s64.0498 28.7002 64.0498 64.0498c0 35.3506 -28.6992 64.0498 -64.0498 64.0498c-6.97656 0 -13.6934 -1.11719 -19.9824 -3.18359l-28.0596 38.8604v1.55957c14.4785 6.87305 30.7656 10.7803 47.8457 10.7803h0.154297z
" />
    <glyph glyph-name="fan-secondary" unicode="&#x10f863;" horiz-adv-x="512" 
d="M352.57 320c81.79 0 149.3 -61.6299 159.3 -141.33c1.30957 -10.4795 -7.17969 -19.6396 -17.6201 -18.5898l-123.11 12.4102c8.34082 -22.9707 12.8604 -48.9707 12.8604 -77.0605c0 -81.79 -61.6299 -149.3 -141.33 -159.3
c-10.4795 -1.30957 -19.6396 7.19043 -18.5898 17.6201l12.4102 123.11c-22.9707 -8.34082 -48.9707 -12.8604 -77.0605 -12.8604c-81.79 0 -149.3 61.6299 -159.3 141.33c-1.30957 10.4795 7.17969 19.6699 17.6201 18.5898l123.11 -12.4102
c-8.34082 22.9707 -12.8604 48.9707 -12.8604 77.0605c0 81.79 61.6299 149.3 141.33 159.3c10.4795 1.30957 19.6699 -7.17969 18.5898 -17.6201l-12.4102 -123.11c22.9707 8.34082 48.9707 12.8604 77.0605 12.8604zM256 156c19.8691 0 36 16.1309 36 36
s-16.1309 36 -36 36s-36 -16.1309 -36 -36s16.1309 -36 36 -36z" />
    <glyph glyph-name="phone-square-alt-secondary" unicode="&#x10f87b;" horiz-adv-x="448" 
d="M400 416c26.4922 0 48 -21.5078 48 -48v-352c0 -26.4922 -21.5078 -48 -48 -48h-352c-26.4922 0 -48 21.5078 -48 48v352c0 26.4922 21.5078 48 48 48h352zM383.62 108.63c0.250977 1.08789 0.395508 2.20508 0.395508 3.36914
c0 6.18262 -3.74902 11.4961 -9.0957 13.791l-70 30c-1.81055 0.776367 -3.81055 1.22266 -5.9043 1.22266c-4.68066 0 -8.86426 -2.14844 -11.6152 -5.5127l-31 -37.8896c-48.7031 22.9775 -87.8086 62.0791 -110.79 110.779l37.8896 31
c3.36426 2.75195 5.49609 6.94141 5.49609 11.6221c0 2.09375 -0.429688 4.08789 -1.20605 5.89844l-30 70c-2.29492 5.34668 -7.59277 9.08398 -13.7754 9.08398c-1.16406 0 -2.29688 -0.132812 -3.38477 -0.383789l-65 -15
c-6.65137 -1.53418 -11.627 -7.49609 -11.6299 -14.6104c0 -160.29 130 -290 290 -290l0.00292969 0.00878906c7.11719 0 13.083 4.9668 14.6172 11.6211z" />
    </font>
</defs>
</svg>
