<?xml version="1.0" standalone="no"?>
<!DOCTYPE svg PUBLIC "-//W3C//DTD SVG 1.1//EN" "http://www.w3.org/Graphics/SVG/1.1/DTD/svg11.dtd" >
<svg xmlns="http://www.w3.org/2000/svg" xmlns:xlink="http://www.w3.org/1999/xlink" version="1.1">
<metadata>
Created by FontForge 20201107 at Tue Mar 16 10:17:03 2021
 By Robert Madole
Copyright (c) Font Awesome
</metadata>
<!-- Font Awesome Pro 5.15.3 by @fontawesome - https://fontawesome.com License - https://fontawesome.com/license (Commercial License) --><defs>
<font id="FontAwesome5Duotone-Solid" horiz-adv-x="512" >
  <font-face 
    font-family="Font Awesome 5 Duotone Solid"
    font-weight="900"
    font-stretch="normal"
    units-per-em="512"
    panose-1="2 0 5 3 0 0 0 0 0 0"
    ascent="448"
    descent="-64"
    bbox="-2.41992 -64.1035 640.023 448.472"
    underline-thickness="25"
    underline-position="-50"
    unicode-range="U+0020-10F8FF"
  />
    <missing-glyph />
    <glyph glyph-name="heart-primary" unicode="&#xf004;" 
d="M244.72 56.5195l-140 140.78c-28.3701 28.5205 -33.7793 75 -8.35938 106.23c14.0146 17.3906 35.4863 28.5244 59.5381 28.5244c21.1963 0 40.3711 -8.68848 54.2217 -22.6445l45.4902 -45.7002l42.3701 42.5801c28.3799 28.5098 74.6494 34 105.71 8.4502
c17.3291 -14.1904 28.3955 -35.749 28.3955 -59.8721c0 -21.2529 -8.63184 -40.502 -22.5264 -54.4883l-143.149 -143.86c-2.76953 -2.78906 -6.60645 -4.51758 -10.8438 -4.51758s-8.07715 1.72852 -10.8467 4.51758z" />
    <glyph glyph-name="star-primary" unicode="&#xf005;" horiz-adv-x="576" 
d="M437.64 205.54l-66.0498 -64.2305l15.6299 -90.8594c0.114258 -0.664062 0.173828 -1.34766 0.173828 -2.04395c0 -6.62305 -5.37695 -12 -12 -12c-2.00586 0 -3.91113 0.511719 -5.57324 1.38379l-81.8203 42.9404l-81.8203 -42.9404
c-1.66211 -0.87207 -3.55469 -1.36523 -5.56055 -1.36523c-6.62305 0 -12 5.37695 -12 12c0 0.696289 0.046875 1.36133 0.161133 2.02539l15.6299 90.8594l-66 64.2305c-2.2373 2.17969 -3.62695 5.22559 -3.62695 8.59277c0 6.01172 4.44531 10.999 10.2168 11.8672
l91.3398 13.2803l40.9004 82.8096c1.95898 3.96777 6.0459 6.69922 10.7666 6.69922s8.79395 -2.73145 10.7529 -6.69922l40.9004 -82.8096l91.3398 -13.2803c5.79297 -0.849609 10.2461 -5.8457 10.2461 -11.8721c0 -3.36426 -1.37305 -6.4082 -3.60645 -8.58789z" />
    <glyph glyph-name="tags-primary" unicode="&#xf02c;" horiz-adv-x="640" 
d="M625.94 154.18l-204.12 -204.12c-8.68848 -8.6875 -20.6885 -14.0645 -33.9336 -14.0645s-25.2578 5.37695 -33.9463 14.0645l-0.360352 0.360352l174.06 174.061c16.292 16.29 26.374 38.791 26.374 63.627c0 24.8369 -10.082 47.3613 -26.374 63.6523l-196.239 196.24
h48.7197c13.2451 -0.000976562 25.252 -5.37109 33.9395 -14.0596l211.881 -211.881c8.6875 -8.68848 14.0645 -20.6875 14.0645 -33.9326c0 -13.2461 -5.37695 -25.2588 -14.0645 -33.9473z" />
    <glyph glyph-name="bookmark-primary" unicode="&#xf02e;" horiz-adv-x="384" 
d="M304 448v-326.11c0 -8.83008 -7.16895 -16 -16 -16c-2.56738 0 -5.00879 0.614258 -7.16016 1.69043l-88.8398 44.4199l-88.8398 -44.4199c-2.15137 -1.07617 -4.57812 -1.68262 -7.14453 -1.68262c-8.83105 0 -16.0156 7.16211 -16.0156 15.9922v326.11h224z" />
    <glyph glyph-name="font-primary" unicode="&#xf031;" horiz-adv-x="448" 
d="M147.72 96l-23.3096 -64h-85l130.71 362.31c4.07031 11.9707 17.6602 21.6904 30.29 21.6904h47.1797c12.6299 0 26.2197 -9.71973 30.2803 -21.6904l130.72 -362.31h-85l-23.3096 64h-152.561zM224 305.48l-47.1602 -129.48h94.3203z" />
    <glyph glyph-name="bold-primary" unicode="&#xf032;" horiz-adv-x="384" 
d="M332.53 210.22c31.3984 -24.7959 51.4668 -63.1445 51.4697 -106.22c0 -75.1104 -61.0596 -136 -136.38 -136h-183.62v448h168c74.8096 0 134.85 -64.4805 127.46 -140.78c-2.03027 -20.1895 -14.0703 -49.2002 -26.9297 -65zM144 336v-96h88c26.4922 0 48 21.5078 48 48
s-21.5078 48 -48 48h-88zM232 48c30.9072 0 56 25.0928 56 56s-25.0928 56 -56 56h-88v-112h88z" />
    <glyph glyph-name="italic-primary" unicode="&#xf033;" horiz-adv-x="320" 
d="M158.75 352h82.5l-80 -320h-82.5z" />
    <glyph glyph-name="text-height-primary" unicode="&#xf034;" horiz-adv-x="576" 
d="M571.31 52.6904l-80 -80c-2.89551 -2.89453 -6.89355 -4.68555 -11.3076 -4.68555c-4.41309 0 -8.41602 1.79102 -11.3115 4.68555l-80 80c-10 10 -3 27.3096 11.3096 27.3096h48v224h-48c-15.6396 0 -20.6396 18 -11.3096 27.3096l80 80
c2.89551 2.89453 6.89355 4.68555 11.3076 4.68555c4.41309 0 8.41602 -1.79102 11.3115 -4.68555l80 -80c10 -10 3 -27.3096 -11.3096 -27.3096h-48v-224h48c15.6396 0 20.6396 -18 11.3096 -27.3096z" />
    <glyph glyph-name="text-width-primary" unicode="&#xf035;" horiz-adv-x="448" 
d="M443.31 75.3096c2.89453 -2.89551 4.68555 -6.89355 4.68555 -11.3076c0 -4.41309 -1.79102 -8.41602 -4.68555 -11.3115l-80 -80c-10 -10 -27.3096 -3 -27.3096 11.3096v48h-224v-48c0 -15.6396 -18 -20.6396 -27.3096 -11.3096l-80 80
c-2.89453 2.89551 -4.68555 6.89355 -4.68555 11.3076c0 4.41309 1.79102 8.41602 4.68555 11.3115l80 80c10 10 27.3096 3 27.3096 -11.3096v-48h224v48c0 15.6396 18 20.6396 27.3096 11.3096z" />
    <glyph glyph-name="play-primary" unicode="&#xf04b;" horiz-adv-x="448" 
d="M112.28 343.52l209.609 -123.93c9.42285 -5.57129 15.7471 -15.835 15.7471 -27.5654c0 -11.7295 -6.32422 -21.9531 -15.7471 -27.5244l-209.609 -123.85c-21.2803 -12.6504 -48.2803 2.76953 -48.2803 27.5498v247.8c0 24.7598 27 40.1396 48.2803 27.5195z" />
    <glyph glyph-name="pause-primary" unicode="&#xf04c;" horiz-adv-x="448" 
d="M112 353c8.83105 0 16 -7.16895 16 -16v-288c0 -8.83105 -7.16895 -16 -16 -16h-32c-8.83105 0 -16 7.16895 -16 16v288c0 8.83105 7.16895 16 16 16h32zM368 353c8.83105 0 16 -7.16895 16 -16v-288c0 -8.83105 -7.16895 -16 -16 -16h-32c-8.83105 0 -16 7.16895 -16 16
v288c0 8.83105 7.16895 16 16 16h32z" />
    <glyph glyph-name="stop-primary" unicode="&#xf04d;" horiz-adv-x="448" 
d="M64 64v256c0 17.6611 14.3389 32 32 32h256c17.6611 0 32 -14.3389 32 -32v-256c0 -17.6611 -14.3389 -32 -32 -32h-256c-17.6611 0 -32 14.3389 -32 32z" />
    <glyph glyph-name="minus-circle-primary" unicode="&#xf056;" 
d="M400 164c0 -6.62305 -5.37695 -12 -12 -12h-264c-6.62305 0 -12 5.37695 -12 12v56c0 6.62305 5.37695 12 12 12h264c6.62305 0 12 -5.37695 12 -12v-56z" />
    <glyph glyph-name="calendar-alt-primary" unicode="&#xf073;" horiz-adv-x="448" 
d="M448 336v-80h-448v80c0 26.4922 21.5078 48 48 48h48v-48c0 -8.83105 7.16895 -16 16 -16h32c8.83105 0 16 7.16895 16 16v48h128v-48c0 -8.83105 7.16895 -16 16 -16h32c8.83105 0 16 7.16895 16 16v48h48c26.4922 0 48 -21.5078 48 -48z" />
    <glyph glyph-name="thumbtack-primary" unicode="&#xf08d;" horiz-adv-x="384" 
d="M224 240v-248v-0.00195312c0 -1.27832 -0.305664 -2.49512 -0.839844 -3.56836l-24 -48c-1.31152 -2.62988 -4.02832 -4.43848 -7.16504 -4.43848c-3.13574 0 -5.84375 1.80859 -7.15527 4.43848l-24 48c-0.53418 1.07324 -0.834961 2.28223 -0.834961 3.56152
l-0.00488281 0.00878906v248c0 8.83105 7.16895 16 16 16h32c8.83105 0 16 -7.16895 16 -16z" />
    <glyph glyph-name="phone-primary" unicode="&#xf095;" 
d="M406 443.57l31.6602 -7.31055l-75.6602 -176.49l-25.7695 21.1104zM4.41016 42.0996l162.81 69.7705l21.1006 -25.7705l-176.601 -75.6895z" />
    <glyph glyph-name="certificate-primary" unicode="&#xf0a3;" 
d="M418.79 159.29c2.22461 -2.17871 3.60547 -5.21484 3.60547 -8.57129c0 -5.59766 -3.84766 -10.3047 -9.03516 -11.6289l-45.9502 -11.7295l12.71 -44.6299c0.297852 -1.04688 0.458008 -2.15137 0.458008 -3.29199c0 -6.62305 -5.37695 -12 -12 -12
c-1.1416 0 -2.24219 0.163086 -3.28809 0.461914l-44.5801 12.71l-11.7402 -46c-1.32324 -5.1875 -6.03125 -9.02832 -11.6279 -9.02832c-3.35645 0 -6.39258 1.37402 -8.57227 3.59766l-32.7695 33.4805l-32.75 -33.4697
c-2.18164 -2.24902 -5.23438 -3.64648 -8.61133 -3.64648c-5.6123 0 -10.3291 3.86816 -11.6387 9.07617l-11.7402 46l-44.5293 -12.7197c-1.04688 -0.298828 -2.15137 -0.458008 -3.29199 -0.458008c-6.62305 0 -12 5.37695 -12 12
c0 1.14062 0.163086 2.24121 0.461914 3.28809l12.7393 44.6299l-46 11.7295c-5.1875 1.32422 -9.02734 6.03125 -9.02734 11.6289c0 3.35645 1.37305 6.39258 3.59766 8.57129l33.46 32.71l-33.4697 32.79c-2.22949 2.17969 -3.61328 5.21875 -3.61328 8.5791
c0 5.60059 3.85156 10.3096 9.04297 11.6309l46 11.7305l-12.7295 44.6699c-0.298828 1.0459 -0.458008 2.15039 -0.458008 3.29199c0 6.62207 5.37695 12 12 12c1.14062 0 2.24121 -0.164062 3.28809 -0.461914l44.6094 -12.7109l11.6602 45.4805
c1.32031 5.19141 6.03027 9.03711 11.6309 9.03711c3.37598 0 6.42773 -1.38965 8.60938 -3.63672l32.7598 -33.79l32.8203 33.8096c2.18066 2.24512 5.23145 3.64062 8.60547 3.64062c5.60547 0 10.3193 -3.86035 11.6338 -9.06055l11.6104 -45.5l44.5801 12.7002
c1.0459 0.297852 2.15039 0.458008 3.29199 0.458008c6.62305 0 12 -5.37695 12 -12c0 -1.1416 -0.164062 -2.24219 -0.461914 -3.28809l-12.71 -44.6299l46 -11.7402c5.1875 -1.32422 9.02832 -6.03125 9.02832 -11.6289c0 -3.35645 -1.37402 -6.39258 -3.59863 -8.57129
l-33.46 -32.7998z" />
    <glyph glyph-name="copy-primary" unicode="&#xf0c5;" horiz-adv-x="448" 
d="M96 56c0.0332031 -30.8916 25.1084 -55.9668 56 -56h168v-40c0 -13.2461 -10.7539 -24 -24 -24h-272c-13.2461 0 -24 10.7539 -24 24v368c0 13.2461 10.7539 24 24 24h72v-296zM441 375c4.32617 -4.3418 7 -10.333 7 -16.9404v-6.05957h-96v96h6
c0.0195312 0 0.0419922 0.00292969 0.0625 0.00292969c6.60742 0 12.5957 -2.67578 16.9375 -7.00293z" />
    <glyph glyph-name="save-primary" unicode="&#xf0c7;" horiz-adv-x="448" 
d="M433.94 318.06c8.68848 -8.6875 14.0586 -20.6943 14.0596 -33.9395v-268.12c0 -26.4922 -21.5078 -48 -48 -48h-352c-26.4922 0 -48 21.5078 -48 48v352c0 26.4922 21.5078 48 48 48h268.12c13.2451 -0.000976562 25.252 -5.37109 33.9395 -14.0596zM224 32
c35.3223 0 64 28.6777 64 64s-28.6777 64 -64 64s-64 -28.6777 -64 -64s28.6777 -64 64 -64zM320 236v100.52c-0.00292969 3.31055 -1.34668 6.31055 -3.51953 8.48047l-3.48047 3.48047c-2.16992 2.17285 -5.16992 3.5166 -8.48047 3.51953h-228.52
c-6.62305 0 -12 -5.37695 -12 -12v-104c0 -6.62305 5.37695 -12 12 -12h232c6.62305 0 12 5.37695 12 12z" />
    <glyph glyph-name="square-primary" unicode="&#xf0c8;" horiz-adv-x="448" 
d="M64 48v288c0 8.83105 7.16895 16 16 16h288c8.83105 0 16 -7.16895 16 -16v-288c0 -8.83105 -7.16895 -16 -16 -16h-288c-8.83105 0 -16 7.16895 -16 16z" />
    <glyph glyph-name="sort-primary" unicode="&#xf0dc;" horiz-adv-x="320" 
 />
    <glyph glyph-name="sort-down-primary" unicode="&#xf0dd;" horiz-adv-x="320" 
d="M296.07 118.95l-119.07 -119c-4.33008 -4.35645 -10.3262 -7.05469 -16.9473 -7.05469c-6.56934 0 -12.5303 2.6582 -16.8525 6.9541l-0.100586 0.100586l-119 119c-15.0996 15.0996 -4.39941 41 17 41h238c21.3701 0 32.04 -25.9502 16.9707 -41z" />
    <glyph glyph-name="sort-up-primary" unicode="&#xf0de;" horiz-adv-x="320" 
d="M24.0498 264.95l119.101 119c4.33008 4.35547 10.3252 7.05371 16.9463 7.05371c6.5957 0 12.5771 -2.67773 16.9033 -7.00391c0.0361328 -0.03125 0.0693359 -0.0634766 0.0996094 -0.0996094l119 -119c15.1006 -15.1006 4.40039 -41 -17 -41h-238
c-21.4492 0.0498047 -32.0996 25.9492 -17.0498 41.0498z" />
    <glyph glyph-name="envelope-primary" unicode="&#xf0e0;" 
d="M512 317v-52.3604c-24.46 -19.1699 -169.4 -125.34 -173 -128.12c-22.1201 -17.0996 -52.4297 -40.5195 -82.5303 -40.5195h-0.939453c-30.1006 0 -60.4102 23.4199 -82.54 40.5195c-3.60059 2.78027 -148.221 108.78 -172.99 128.15v52.3301
c0.0107422 -7.66992 3.59668 -14.4961 9.2002 -18.9004c30.5996 -23.8994 40.7002 -32.3994 173.399 -128.699c16.6904 -12.1201 49.75 -41.4004 72.9307 -41.4004h0.939453c23.1807 0 56.2402 29.2803 72.9307 41.4004c132.699 96.2998 142.8 104.699 173.399 128.699
c5.60938 4.38184 9.21875 11.207 9.21875 18.8691c0 0.0146484 -0.0185547 0.0175781 -0.0185547 0.03125z" />
    <glyph glyph-name="spinner-primary" unicode="&#xf110;" 
d="M108.92 387.08c26.4922 0 48 -21.5078 48 -48s-21.5078 -48 -48 -48s-48 21.5078 -48 48s21.5078 48 48 48zM48 240c26.4922 0 48 -21.5078 48 -48s-21.5078 -48 -48 -48s-48 21.5078 -48 48s21.5078 48 48 48zM256 448c26.4922 0 48 -21.5078 48 -48
s-21.5078 -48 -48 -48s-48 21.5078 -48 48s21.5078 48 48 48z" />
    <glyph glyph-name="circle-primary" unicode="&#xf111;" 
d="M256 16c-97.0596 0 -176 79 -176 176s78.9404 176 176 176s176 -79 176 -176s-78.9404 -176 -176 -176z" />
    <glyph glyph-name="info-primary" unicode="&#xf129;" horiz-adv-x="192" 
d="M96 320c-35.3223 0 -64 28.6777 -64 64s28.6777 64 64 64s64 -28.6777 64 -64s-28.6777 -64 -64 -64zM124 256c11.0381 0 20 -8.96191 20 -20v-236h-96v192h-28c-11.0381 0 -20 8.96191 -20 20v24c0 11.0381 8.96191 20 20 20h104z" />
    <glyph glyph-name="exclamation-primary" unicode="&#xf12a;" horiz-adv-x="192" 
d="M49.2197 448h93.5605h0.0302734c13.2461 0 24 -10.7539 24 -24c0 -0.408203 -0.0107422 -0.796875 -0.0302734 -1.2002l-13.6299 -272c-0.634766 -12.6807 -11.1318 -22.7822 -23.9697 -22.7822c-0.0107422 0 -0.0205078 -0.0175781 -0.0302734 -0.0175781h-66.3105
h-0.0302734c-12.8379 0 -23.335 10.1191 -23.9697 22.7998l-13.5898 272c-0.0205078 0.40332 -0.0302734 0.80957 -0.0302734 1.21777c0 13.2461 10.7539 23.9824 24 23.9824z" />
    <glyph glyph-name="superscript-primary" unicode="&#xf12b;" 
d="M496 256c8.83105 0 16 -7.16895 16 -16v-32c0 -8.83105 -7.16895 -16 -16 -16h-96c-8.83105 0 -16 7.16895 -16 16v32c0 8.83105 7.16895 16 16 16h16v96h-16c-8.82422 0.0078125 -15.9775 7.18945 -15.9775 16.0156c0 2.57129 0.608398 5.00098 1.6875 7.1543l16 32
c2.62598 5.23926 8.03613 8.8252 14.29 8.83008h48c8.83105 0 16 -7.16895 16 -16v-144h16z" />
    <glyph glyph-name="subscript-primary" unicode="&#xf12c;" 
d="M496 32c8.83105 0 16 -7.16895 16 -16v-32c0 -8.83105 -7.16895 -16 -16 -16h-96c-8.83105 0 -16 7.16895 -16 16v32c0 8.83105 7.16895 16 16 16h16v96h-16c-8.82422 0.0078125 -15.9775 7.18945 -15.9775 16.0156c0 2.57129 0.608398 5.00098 1.6875 7.1543l16 32
c2.62598 5.23926 8.03613 8.8252 14.29 8.83008h48c8.83105 0 16 -7.16895 16 -16v-144h16z" />
    <glyph glyph-name="shield-primary" unicode="&#xf132;" 
d="M237.5 -60.3203c-88.7305 36.9805 -182.39 137.801 -211.87 284.32h230.37v-288c-0.0234375 0 -0.0771484 0.0214844 -0.0996094 0.0214844c-6.51758 0 -12.7324 1.30176 -18.4004 3.6582zM466.5 364.32c17.3359 -7.24121 29.5 -24.3428 29.5 -44.291v-0.0292969
c-0.0117188 -32.9824 -3.28223 -64.832 -9.5 -96h-230.5v224h0.0595703c6.45312 -0.208008 12.6943 -1.50586 18.4404 -3.67969z" />
    <glyph glyph-name="calendar-primary" unicode="&#xf133;" horiz-adv-x="448" 
d="M448 336v-80h-448v80c0 26.4922 21.5078 48 48 48h48v-48c0 -8.83105 7.16895 -16 16 -16h32c8.83105 0 16 7.16895 16 16v48h128v-48c0 -8.83105 7.16895 -16 16 -16h32c8.83105 0 16 7.16895 16 16v48h48c26.4922 0 48 -21.5078 48 -48z" />
    <glyph glyph-name="play-circle-primary" unicode="&#xf144;" 
d="M371.7 168l-176 -101c-15.7998 -8.7998 -35.7002 2.5 -35.7002 21v208c0 18.4004 19.7998 29.7998 35.7002 21l176 -107c16.3994 -9.2002 16.3994 -32.9004 0 -42z" />
    <glyph glyph-name="ticket-primary" unicode="&#xf145;" horiz-adv-x="576" 
d="M400 144c8.83105 0 16 -7.16895 16 -16s-7.16895 -16 -16 -16s-16 7.16895 -16 16s7.16895 16 16 16zM400 80c8.83105 0 16 -7.16895 16 -16s-7.16895 -16 -16 -16s-16 7.16895 -16 16s7.16895 16 16 16zM400 304c-8.83105 0 -16 7.16895 -16 16s7.16895 16 16 16
s16 -7.16895 16 -16s-7.16895 -16 -16 -16zM400 208c8.83105 0 16 -7.16895 16 -16s-7.16895 -16 -16 -16s-16 7.16895 -16 16s7.16895 16 16 16zM400 272c8.83105 0 16 -7.16895 16 -16s-7.16895 -16 -16 -16s-16 7.16895 -16 16s7.16895 16 16 16z" />
    <glyph glyph-name="file-primary" unicode="&#xf15b;" horiz-adv-x="384" 
d="M384 326.1v-6.09961h-112c-8.83105 0 -16 7.16895 -16 16v112h6.09961h0.0605469c6.60742 0 12.5977 -2.67285 16.9395 -7l97.9004 -98c4.32617 -4.32617 7 -10.3047 7 -16.9004z" />
    <glyph glyph-name="file-alt-primary" unicode="&#xf15c;" horiz-adv-x="384" 
d="M377 343c4.32617 -4.32617 7 -10.3047 7 -16.9004v-6.09961h-112c-8.83105 0 -16 7.16895 -16 16v112h6.09961c0.0205078 0 0.0429688 0.00292969 0.0625 0.00292969c6.6084 0 12.5957 -2.67578 16.9375 -7.00293zM276 96c6.62305 0 12 -5.37695 12 -12v-8
c0 -6.62305 -5.37695 -12 -12 -12h-168c-6.62305 0 -12 5.37695 -12 12v8c0 6.62305 5.37695 12 12 12h168zM276 160c6.62305 0 12 -5.37695 12 -12v-8c0 -6.62305 -5.37695 -12 -12 -12h-168c-6.62305 0 -12 5.37695 -12 12v8c0 6.62305 5.37695 12 12 12h168zM276 224
c6.62305 0 12 -5.37695 12 -12v-8c0 -6.62305 -5.37695 -12 -12 -12h-168c-6.62305 0 -12 5.37695 -12 12v8c0 6.62305 5.37695 12 12 12h168z" />
    <glyph glyph-name="thumbs-up-primary" unicode="&#xf164;" 
d="M104 224c13.2461 0 24 -10.7539 24 -24v-240c0 -13.2461 -10.7539 -24 -24 -24h-80c-13.2461 0 -24 10.7539 -24 24v240c0 13.2461 10.7539 24 24 24h80zM64 -24c13.2461 0 24 10.7539 24 24s-10.7539 24 -24 24s-24 -10.7539 -24 -24s10.7539 -24 24 -24z" />
    <glyph glyph-name="thumbs-down-primary" unicode="&#xf165;" 
d="M104 416c13.2461 0 24 -10.7539 24 -24v-240c0 -13.2461 -10.7539 -24 -24 -24h-80c-13.2461 0 -24 10.7539 -24 24v240c0 13.2461 10.7539 24 24 24h80zM64 168c13.2461 0 24 10.7539 24 24s-10.7539 24 -24 24s-24 -10.7539 -24 -24s10.7539 -24 24 -24z" />
    <glyph glyph-name="wheelchair-primary" unicode="&#xf193;" 
d="M503.12 12.2197l-65.46 -32.8799c-4.2793 -2.12402 -9.10059 -3.31934 -14.1982 -3.31934c-12.5625 0 -23.4561 7.20508 -28.6924 17.749l-0.299805 0.620117l-62.79 133.61h-139.68c-16.1162 0 -29.4668 11.9717 -31.6797 27.4805
c-33.8906 237.21 -31.9404 222.52 -32.3203 228.52c0 35.3223 28.6777 64 64 64s64 -28.6777 64 -64c0 -32.1182 -23.7734 -58.7432 -54.6299 -63.3096l4.62988 -32.6904h130c8.83105 0 16 -7.16895 16 -16v-32c0 -8.83105 -7.16895 -16 -16 -16h-120.82l4.57031 -32h132.25
h0.0390625c12.8066 0 23.8486 -7.51074 28.9609 -18.3896l57.4805 -122.41l36.1797 18.3496c2.1377 1.06055 4.54688 1.65723 7.09277 1.65723c6.28223 0 11.7295 -3.60352 14.3467 -8.87695l14.2305 -28.6602c1.06445 -2.14062 1.66211 -4.55371 1.66211 -7.10547
c0 -6.28027 -3.60156 -11.7256 -8.87207 -14.3447z" />
    <glyph glyph-name="space-shuttle-primary" unicode="&#xf197;" horiz-adv-x="640" 
d="M592.6 239.76c29.6807 -13.9199 47.4004 -31.7598 47.4004 -47.7598s-17.7197 -33.8398 -47.4004 -47.7598c-32.8691 -15.4004 -76.8193 -24.2402 -120.6 -24.2402h-285.46c-7.70215 -14.3105 -22.7939 -24 -40.1709 -24h-0.0292969h-114.34c-23.1797 0 -32 10 -32 24
v144c0 14 8.7998 24 32 24h114.34c0.00976562 0 -0.00976562 0.0478516 0 0.0478516c17.377 0 32.498 -9.7373 40.2002 -24.0479h285.46c43.7803 0 87.7305 -8.83984 120.6 -24.2402zM488 152c31.9404 0 31.9102 80 0 80c-4.41504 0 -8 -3.58496 -8 -8v-64
c0 -4.41504 3.58496 -8 8 -8z" />
    <glyph glyph-name="language-primary" unicode="&#xf1ab;" horiz-adv-x="640" 
d="M616.12 352c13.1846 -0.0332031 23.8799 -10.7461 23.8799 -23.9385v-0.0615234v-272.12c-0.0332031 -13.1846 -10.7461 -23.8799 -23.9385 -23.8799h-0.0615234h-296v320h296.12zM576 232v16c0 6.62305 -5.37695 12 -12 12h-64v16c0 6.62305 -5.37695 12 -12 12h-16
c-6.62305 0 -12 -5.37695 -12 -12v-16h-64c-6.62305 0 -12 -5.37695 -12 -12v-15.9199c0 -6.62305 5.37695 -12 12 -12h114.3c-6.2002 -14.2998 -16.5 -28.9902 -30 -43.1904c-6.31934 6.57324 -12.0654 13.4688 -17.3994 20.8906
c-2.19238 3.08008 -5.79883 5.07227 -9.86426 5.07227c-2.23926 0 -4.33691 -0.609375 -6.13574 -1.67285l-7.30078 -4.2998l-6.5 -3.88965l-0.639648 -0.410156c-3.13672 -2.16602 -5.17578 -5.79004 -5.17578 -9.88672c0 -2.52539 0.78125 -4.86914 2.11621 -6.80371
c6.42285 -9.11816 13.3604 -17.6025 21 -25.6895c-8.36914 -6.48926 -17.0264 -12.4619 -26.1006 -18c-3.46777 -2.10449 -5.7666 -5.92188 -5.7666 -10.2715c0 -2.15625 0.570312 -4.17969 1.56641 -5.92871l7.90039 -13.9297l0.200195 -0.339844
c2.10645 -3.45898 5.91895 -5.75 10.2607 -5.75c2.28418 0 4.4209 0.639648 6.23926 1.75c12.3662 7.60547 24.1035 15.8623 35.3994 24.8896c11.2891 -9.03613 23.0273 -17.2939 35.4004 -24.8896c0.109375 -0.0732422 0.222656 -0.139648 0.339844 -0.200195
c1.74707 -0.993164 3.77148 -1.58008 5.92188 -1.58008c4.4707 0 8.37402 2.4502 10.4385 6.08008l7.89941 13.8896c1.01367 1.75977 1.61328 3.80469 1.61328 5.97949c0 4.31836 -2.28613 8.10645 -5.71289 10.2207c-9.0459 5.5791 -17.7002 11.5508 -26.0996 18
c21 22.4902 35.7998 46.2803 42.6992 69.8799h11.4004c6.62305 0 12 5.37695 12 12zM187.71 279.95l57.6396 -168.141c0.419922 -1.20312 0.650391 -2.49805 0.650391 -3.84473v-0.0849609c-0.0654297 -6.56641 -5.41797 -11.8799 -12 -11.8799h-23
c-0.0292969 0 -0.0546875 0.000976562 -0.0839844 0.000976562c-5.42383 0 -10.0127 3.60547 -11.4961 8.54883l-9.41992 31.7197h-60.2998l-9.12012 -31.6191c-1.4834 -4.97656 -6.08203 -8.61621 -11.5303 -8.65039h-23
c-6.63965 0.0253906 -12.0205 5.4248 -12.0205 12.0713c0 1.30469 0.207031 2.56152 0.59082 3.73828l57.6494 168.141c1.63379 4.68652 6.08887 8.0498 11.3301 8.0498h0.100586h32.5801c5.25586 -0.0273438 9.72852 -3.37305 11.4297 -8.0498zM140.9 174.3h38.0996
l-10.9004 37.5c-3.5 12.1006 -7.7998 33.2002 -7.7998 33.2002h-0.5s-4.2998 -21.0996 -7.7998 -33.2002z" />
    <glyph glyph-name="file-pdf-primary" unicode="&#xf1c1;" horiz-adv-x="384" 
d="M377 343c4.32617 -4.32617 7 -10.3047 7 -16.9004v-6.09961h-112c-8.83105 0 -16 7.16895 -16 16v112h6.09961c0.0205078 0 0.0429688 0.00292969 0.0625 0.00292969c6.6084 0 12.5957 -2.67578 16.9375 -7.00293zM240 116.2
c19.2998 2.5 59.7002 6.39941 73.5996 -7.2002c11.5 -11.4004 9.5 -43.4004 -19.6992 -43.4004c-16.9004 0 -42.3008 7.7002 -64 19.5c-24.9004 -4.09961 -53.2002 -14.6992 -79 -23.1992c-25.4004 -43.8008 -43.2002 -61.8008 -61.1006 -61.8008
c-5.5 0 -15.8994 3.10059 -21.5 10c-19.0996 23.5 27.4004 54.1006 54.5 68c0.100586 0 0.100586 0.100586 0.200195 0.100586c12.0996 21.2002 29.2002 58.2002 40.7998 85.7998c-8.5 32.9004 -13.0996 58.7002 -8.09961 77
c5.39941 19.7002 43.0996 22.5996 47.7998 -6.7998c5.40039 -17.6006 -1.7002 -45.7002 -6.2002 -64.2002c9.40039 -24.7998 22.7002 -41.5996 42.7002 -53.7998zM86.0996 19.9004c0 -0.800781 13.2002 5.39941 34.9004 40.1992
c-6.7002 -6.2998 -29.0996 -24.5 -34.9004 -40.1992zM179.9 238.8c-2.90039 0 -3 -30.8994 2 -46.8994c5.59961 10 6.39941 46.8994 -2 46.8994zM151.8 82c18.2998 7 39 17.2002 62.9004 21.9004c-12.7002 9.59961 -24.9004 23.3994 -34.5 40.7998
c-7.7002 -20.2002 -17.2998 -43.2998 -28.4004 -62.7002zM302.9 87.7002c4.09961 2.7002 -2.5 11.8994 -42.8008 9c37.1006 -15.7998 42.8008 -9 42.8008 -9z" />
    <glyph glyph-name="file-word-primary" unicode="&#xf1c2;" horiz-adv-x="384" 
d="M377 343c4.32617 -4.32617 7 -10.3047 7 -16.9004v-6.09961h-112c-8.83105 0 -16 7.16895 -16 16v112h6.09961c0.0205078 0 0.0429688 0.00292969 0.0625 0.00292969c6.6084 0 12.5957 -2.67578 16.9375 -7.00293zM305 192c6.62305 0 12 -5.37695 12 -12v-0.0488281
c0 -0.911133 -0.103516 -1.79883 -0.299805 -2.65137l-38 -168c-1.19043 -5.31543 -5.93848 -9.2998 -11.6113 -9.2998h-0.0888672h-38c-5.60156 0.0205078 -10.3027 3.89258 -11.5996 9.09961c-25.8008 103.5 -20.8008 81.2002 -25.6006 110.5h-0.5
c-1.09961 -14.2998 -2.39941 -17.3994 -25.5996 -110.5c-1.29688 -5.20703 -5.99902 -9.0791 -11.6006 -9.09961h-37.0996c-5.7207 0.00683594 -10.5088 4.03418 -11.7002 9.40039l-37.7998 168c-0.186523 0.838867 -0.285156 1.7041 -0.285156 2.59961
c0 6.61816 5.36914 11.9922 11.9854 12h24.5c0.0078125 0 0.0146484 -0.00976562 0.0224609 -0.00976562c5.83301 0 10.6992 -4.1709 11.7773 -9.69043c15.5996 -78 20.0996 -109.5 21 -122.2c1.59961 10.2002 7.2998 32.7002 29.4004 122.7
c1.26172 5.21582 5.96191 9.10059 11.5635 9.10059h0.135742h29.1006c0.0107422 0 0.0195312 -0.00683594 0.0302734 -0.00683594c5.65723 0 10.4043 -3.92188 11.6699 -9.19336c24 -100.4 28.7998 -124 29.5996 -129.4c-0.200195 11.2002 -2.59961 17.7998 21.5996 129.2
c0.989258 5.39551 5.71875 9.5 11.3984 9.5h0.101562h23.9004z" />
    <glyph glyph-name="file-excel-primary" unicode="&#xf1c3;" horiz-adv-x="384" 
d="M377 343c4.32617 -4.32617 7 -10.3047 7 -16.9004v-6.09961h-112c-8.83105 0 -16 7.16895 -16 16v112h6.09961c0.0205078 0 0.0429688 0.00292969 0.0625 0.00292969c6.6084 0 12.5957 -2.67578 16.9375 -7.00293zM224 112l60.0996 -93.5
c1.20605 -1.87109 1.91309 -4.11035 1.91309 -6.5c0 -6.62305 -5.37695 -12 -12 -12h-0.0126953h-34.9004c-0.0136719 0 -0.0185547 -0.0126953 -0.0322266 -0.0126953c-4.56543 0 -8.53906 2.55566 -10.5674 6.3125c-19.5996 36.2002 -36.5 68.7002 -36.5 68.7002
c-6.40039 -14.7998 -10 -20 -36.5996 -68.7998c-2 -3.75488 -5.94727 -6.2998 -10.4941 -6.2998h-0.00585938h-34.9004c-0.00390625 0 -0.000976562 0.0117188 -0.00585938 0.0117188c-6.62305 0 -12 5.37695 -12 12c0 2.38965 0.700195 4.61719 1.90625 6.48828
l60.2998 93.5l-60.2998 93.5c-1.20605 1.87109 -1.91309 4.11035 -1.91309 6.5c0 6.62305 5.37695 12 12 12h0.0126953h34.7998c0.0136719 0 0.0195312 0.0117188 0.0332031 0.0117188c4.56543 0 8.53906 -2.55469 10.5674 -6.3125
c26.0996 -48.7998 20 -33.5996 36.5996 -68.5c0 0 6.09961 11.7002 36.5996 68.5c2.02832 3.75781 5.99414 6.30078 10.5596 6.30078h0.0410156h34.7998c0.0263672 0 0.0439453 -0.0126953 0.0693359 -0.0126953c6.58496 0 11.9307 -5.3457 11.9307 -11.9297
c0 -2.37891 -0.698242 -4.59668 -1.90039 -6.45801z" />
    <glyph glyph-name="file-powerpoint-primary" unicode="&#xf1c4;" horiz-adv-x="384" 
d="M377 343c4.32617 -4.32617 7 -10.3047 7 -16.9004v-6.09961h-112c-8.83105 0 -16 7.16895 -16 16v112h6.09961c0.0205078 0 0.0429688 0.00292969 0.0625 0.00292969c6.6084 0 12.5957 -2.67578 16.9375 -7.00293zM204.1 223.8c44.5 0 72.9004 -32.7998 72.9004 -77
c0 -90.2998 -88.7998 -77.5996 -111.1 -77.5996v-57.2002c0 -6.62305 -5.37695 -12 -12 -12h-30.8008c-6.62305 0 -12 5.37695 -12 12v199.8c0 6.62305 5.37695 12 12 12h81zM213.8 124.6c10 11.4004 9.7998 33.2002 0.200195 44.1006
c-4.7998 5.39941 -11.5 8.09961 -20.2998 8.09961h-27.9004v-60.7002h26.9004c9.2002 0 16.2002 2.90039 21.0996 8.5z" />
    <glyph glyph-name="file-image-primary" unicode="&#xf1c5;" horiz-adv-x="384" 
d="M377 343c4.32617 -4.32617 7 -10.3047 7 -16.9004v-6.09961h-112c-8.83105 0 -16 7.16895 -16 16v112h6.09961c0.0205078 0 0.0429688 0.00292969 0.0625 0.00292969c6.6084 0 12.5957 -2.67578 16.9375 -7.00293zM112.54 176c-26.4922 0 -48 21.5078 -48 48
s21.5078 48 48 48s48 -21.5078 48 -48s-21.5078 -48 -48 -48zM264 183.55c2.17188 2.17188 5.1748 3.5166 8.48633 3.5166c3.32715 0 6.33887 -1.35645 8.51367 -3.54688l39.54 -39.5195v-112h-256l0.459961 48.4805l39.5098 39.5195
c4.69043 4.69043 11.7998 4.2002 16.4902 -0.480469l39.54 -39.5195z" />
    <glyph glyph-name="file-archive-primary" unicode="&#xf1c6;" horiz-adv-x="384" 
d="M377 343c4.32617 -4.32617 7 -10.3047 7 -16.9004v-6.09961h-112c-8.83105 0 -16 7.16895 -16 16v112h6.09961c0.0205078 0 0.0429688 0.00292969 0.0625 0.00292969c6.6084 0 12.5957 -2.67578 16.9375 -7.00293zM127.9 416v-32h-32v32h32zM96 288h32v-32h-32v32z
M160 448v-32h-32v32h32zM96 352h32v-32h-32v32zM179.43 94.5996c0.65625 -3.30859 1.00098 -6.72852 1.00098 -10.2295c0 -28.9365 -23.4932 -52.4297 -52.4307 -52.4297c-28.9365 0 -52.4297 23.4932 -52.4297 52.4297c0 3.60645 0.365234 7.12793 1.05957 10.5303
l19.3701 97.0996v32h32v-32h22.3301c5.83008 -0.0205078 10.6924 -4.18945 11.7998 -9.7002zM128.33 58c17.9004 0 32.4004 12.0996 32.4004 27s-14.6006 27 -32.5 27c-17.9004 0 -32.4004 -12 -32.4004 -27s14.5996 -27 32.5 -27zM160 256v-32h-32v32h32zM160 320v-32h-32
v32h32zM160 384v-32h-32v32h32z" />
    <glyph glyph-name="file-audio-primary" unicode="&#xf1c7;" horiz-adv-x="384" 
d="M377 343c4.32617 -4.32617 7 -10.3047 7 -16.9004v-6.09961h-112c-8.83105 0 -16 7.16895 -16 16v112h6.09961c0.0205078 0 0.0429688 0.00292969 0.0625 0.00292969c6.6084 0 12.5957 -2.67578 16.9375 -7.00293zM148 192c6.62305 0 12 -5.37695 12 -12v-136
c0 -0.00292969 -0.00195312 -0.0078125 -0.00195312 -0.0117188c0 -6.62207 -5.37695 -12 -12 -12c-3.31836 0 -6.3252 1.35059 -8.49805 3.53125l-35.5 36.4805h-28c-6.62305 0 -12 5.37695 -12 12v56c0 6.62305 5.37695 12 12 12h28l35.4697 36.4697
c2.17383 2.18164 5.18066 3.53027 8.5 3.53027h0.0302734zM227.59 162.39c12.6074 -13.0674 20.3965 -30.877 20.3965 -50.4512c0 -19.5889 -7.77148 -37.3779 -20.3965 -50.4482c-21.7803 -22.4102 -56.8594 10.4502 -34.3799 33.6699
c4.22363 4.33398 6.82812 10.2656 6.82812 16.79s-2.60449 12.4453 -6.82812 16.7803c-22.0801 22.9092 12.2002 56.4795 34.3799 33.6592zM279.41 212.39c54.0801 -55.8799 54.0801 -144.97 0 -200.88c-21.6699 -22.3994 -56.6602 10.3105 -34.1904 33.5205
c16.7295 17.3398 27.0254 40.9736 27.0254 66.9473s-10.2959 49.5625 -27.0254 66.9023c-21.9697 22.8105 12.1904 56.3203 34.1904 33.5098z" />
    <glyph glyph-name="file-video-primary" unicode="&#xf1c8;" horiz-adv-x="384" 
d="M377 343c4.32617 -4.32617 7 -10.3047 7 -16.9004v-6.09961h-112c-8.83105 0 -16 7.16895 -16 16v112h6.09961c0.0205078 0 0.0429688 0.00292969 0.0625 0.00292969c6.6084 0 12.5957 -2.67578 16.9375 -7.00293zM279 184.94c15 15.0596 41 4.5 41 -16.9404v-112
c0 -21.4404 -25.9404 -32 -41 -17l-55 55v-38c0 -13.2461 -10.7539 -24 -24 -24h-112c-13.2461 0 -24 10.7539 -24 24v112c0 13.2461 10.7539 24 24 24h112c13.2461 0 24 -10.7539 24 -24v-38.0596z" />
    <glyph glyph-name="file-code-primary" unicode="&#xf1c9;" horiz-adv-x="384" 
d="M377 343c4.32617 -4.32617 7 -10.3047 7 -16.9004v-6.09961h-112c-8.83105 0 -16 7.16895 -16 16v112h6.09961c0.0205078 0 0.0429688 0.00292969 0.0625 0.00292969c6.6084 0 12.5957 -2.67578 16.9375 -7.00293zM141.41 76.2002
c1.11914 -0.990234 1.82227 -2.43848 1.82227 -4.04883c0 -1.36426 -0.506836 -2.61035 -1.34277 -3.56152l-0.109375 -0.120117l-19.5801 -20.8398c-0.987305 -1.04883 -2.38965 -1.70215 -3.94238 -1.70215c-1.42969 0 -2.73047 0.555664 -3.69824 1.46191
l-64.8594 60.6904c-1.04688 0.980469 -1.69922 2.37598 -1.69922 3.9209c0 1.42285 0.554688 2.71777 1.45898 3.67871l0.25 0.25l64.8604 60.7002c0.96875 0.904297 2.27051 1.46094 3.69922 1.46094c1.55176 0 2.95215 -0.654297 3.94043 -1.70117l19.5801 -20.8496
c0.900391 -0.964844 1.4541 -2.26172 1.4541 -3.68457c0 -1.55078 -0.655273 -2.9502 -1.7041 -3.93555l-0.129883 -0.120117l-40.7598 -35.7998zM241.63 212.13l-0.0595703 -0.0302734l-61.4404 -211.22c-0.65332 -2.24609 -2.72754 -3.88965 -5.18359 -3.88965
c-0.519531 0 -1.02148 0.0732422 -1.49609 0.209961l-27.4502 8c-2.22363 0.661133 -3.84668 2.71973 -3.84668 5.15625c0 0.525391 0.0761719 1.0332 0.216797 1.51367l61.5 211.29c0.657227 2.22949 2.71875 3.8584 5.16016 3.8584
c0.527344 0 1.03809 -0.0761719 1.51953 -0.21875l27.4502 -8c2.22168 -0.668945 3.8418 -2.73047 3.8418 -5.16992c0 -0.520508 -0.0742188 -1.02344 -0.211914 -1.5zM334.29 115.93c1.05176 -0.979492 1.69922 -2.35645 1.69922 -3.90527
c0 -1.42188 -0.554688 -2.71484 -1.45898 -3.6748l-0.25 -0.25l-64.8604 -60.6895c-0.96875 -0.907227 -2.27344 -1.46484 -3.7041 -1.46484c-1.5498 0 -2.94727 0.651367 -3.93555 1.69434l-19.5801 20.8408c-0.899414 0.959961 -1.45215 2.25195 -1.45215 3.66992
c0 1.55078 0.65918 2.94922 1.71191 3.92969l0.129883 0.120117l40.7598 35.7998l-40.7598 35.7998c-1.12598 0.990234 -1.83301 2.44238 -1.83301 4.05762c0 1.36426 0.506836 2.61133 1.34277 3.5625l0.110352 0.120117l19.5801 20.8496
c0.988281 1.04688 2.39062 1.69922 3.94238 1.69922c1.42871 0 2.72852 -0.554688 3.69727 -1.45898z" />
    <glyph glyph-name="circle-notch-primary" unicode="&#xf1ce;" 
d="M256 8.07031v-64c-136.44 -0.310547 -247.42 109.93 -248 246.42v0.229492c-0.610352 116.12 78.5996 213.851 186 241.5c1.9209 0.496094 3.93457 0.759766 6.00879 0.759766c13.2402 0 23.9814 -10.7422 23.9912 -23.9795v-16.6602
c-0.0390625 -11.0215 -7.53125 -20.3018 -17.6904 -23.0703c-97.8398 -27.4395 -154.909 -129 -127.47 -226.85c21.7227 -77.4287 92.8398 -134.319 177.16 -134.35z" />
    <glyph glyph-name="heading-primary" unicode="&#xf1dc;" 
d="M352 352h96v-320h-96v128h-192v-128h-96v320h96v-128h192v128z" />
    <glyph glyph-name="trash-primary" unicode="&#xf1f8;" horiz-adv-x="448" 
d="M0 368v32c0 8.83105 7.16895 16 16 16h120l9.40039 18.7002c3.85547 7.88574 11.959 13.3223 21.3223 13.3223c0.0302734 0 0.0458984 -0.0224609 0.0771484 -0.0224609h114.3h0.0175781c9.41211 0 17.5508 -5.40527 21.4824 -13.2998l9.40039 -18.7002h120
c8.83105 0 16 -7.16895 16 -16v-32c0 -8.83105 -7.16895 -16 -16 -16h-416c-8.83105 0 -16 7.16895 -16 16z" />
    <glyph glyph-name="copyright-primary" unicode="&#xf1f9;" 
d="M373.13 93.25c-1.58984 -1.87012 -39.7695 -45.7305 -109.85 -45.7305c-84.6904 0 -144.48 63.2607 -144.48 145.561c0 81.3096 62 143.4 143.76 143.4c67 0 102 -37.3105 103.421 -38.9004c1.9502 -2.13477 3.14062 -4.97461 3.14062 -8.0918
c0 -2.38184 -0.702148 -4.62012 -1.90137 -6.48828l-22.3799 -34.7002c-2.1377 -3.30859 -5.8584 -5.50195 -10.0869 -5.50195c-2.39355 0 -4.62988 0.722656 -6.50293 1.93262c-0.586914 0.376953 -1.12988 0.797852 -1.63965 1.26953
c-0.240234 0.209961 -26.5303 23.8799 -61.8799 23.8799c-46.1201 0 -73.9209 -33.5801 -73.9209 -76.0801c0 -39.6094 25.5205 -79.7002 74.2803 -79.7002c38.7002 0 65.2803 28.3408 65.54 28.6309c2.19434 2.38965 5.34375 3.88867 8.84082 3.88867
c3.12402 0 5.97363 -1.20117 8.10938 -3.15918h0.0498047c0.574219 -0.532227 1.08691 -1.10742 1.5498 -1.74023l24.5508 -33.5801c1.43262 -1.97656 2.27832 -4.40723 2.27832 -7.0332c0 -2.97656 -1.08203 -5.71875 -2.87891 -7.81641v-0.0400391z" />
    <glyph glyph-name="diamond-primary" unicode="&#xf219;" horiz-adv-x="448" 
d="M348.09 202.38c2.43066 -2.77051 3.90527 -6.40039 3.90527 -10.3721s-1.47461 -7.61719 -3.90527 -10.3877l-111.899 -128.11c-2.97559 -3.38477 -7.33691 -5.52246 -12.1934 -5.52246s-9.21191 2.1377 -12.1875 5.52246l-111.899 128.11
c-2.43066 2.77051 -3.90527 6.40039 -3.90527 10.3721s1.47461 7.61719 3.90527 10.3877l111.899 128.11c2.97559 3.38477 7.33691 5.52246 12.1934 5.52246s9.21191 -2.1377 12.1875 -5.52246z" />
    <glyph glyph-name="sticky-note-primary" unicode="&#xf249;" horiz-adv-x="448" 
d="M320 -32v112c0 8.83105 7.16895 16 16 16h112v-6.09961c0 -6.5957 -2.67383 -12.5742 -7 -16.9004l-98 -98c-4.3418 -4.32715 -10.3301 -7.00293 -16.9375 -7.00293c-0.0205078 0 -0.0429688 0.00292969 -0.0625 0.00292969h-6z" />
    <glyph glyph-name="calendar-plus-primary" unicode="&#xf271;" horiz-adv-x="448" 
d="M316 128c6.62305 0 12 -5.37695 12 -12v-40c0 -6.62305 -5.37695 -12 -12 -12h-60v-60c0 -6.62305 -5.37695 -12 -12 -12h-40c-6.62305 0 -12 5.37695 -12 12v60h-60c-6.62305 0 -12 5.37695 -12 12v40c0 6.62305 5.37695 12 12 12h60v60c0 6.62305 5.37695 12 12 12h40
c6.62305 0 12 -5.37695 12 -12v-60h60zM400 384c26.4922 0 48 -21.5078 48 -48v-80h-448v80c0 26.4922 21.5078 48 48 48h48v-48c0 -8.83105 7.16895 -16 16 -16h32c8.83105 0 16 7.16895 16 16v48h128v-48c0 -8.83105 7.16895 -16 16 -16h32c8.83105 0 16 7.16895 16 16v48
h48z" />
    <glyph glyph-name="calendar-minus-primary" unicode="&#xf272;" horiz-adv-x="448" 
d="M316 128c6.62305 0 12 -5.37695 12 -12v-40c0 -6.62305 -5.37695 -12 -12 -12h-184c-6.62305 0 -12 5.37695 -12 12v40c0 6.62305 5.37695 12 12 12h184zM400 384c26.4922 0 48 -21.5078 48 -48v-80h-448v80c0 26.4922 21.5078 48 48 48h48v-48
c0 -8.83105 7.16895 -16 16 -16h32c8.83105 0 16 7.16895 16 16v48h128v-48c0 -8.83105 7.16895 -16 16 -16h32c8.83105 0 16 7.16895 16 16v48h48z" />
    <glyph glyph-name="calendar-times-primary" unicode="&#xf273;" horiz-adv-x="448" 
d="M317.43 161.07c2.16309 -2.1709 3.50195 -5.16797 3.50195 -8.47168c0 -3.31934 -1.35059 -6.3252 -3.53125 -8.49902l-48.1006 -48.0996l48.1006 -48.0996c2.18066 -2.17383 3.53125 -5.18262 3.53125 -8.50195s-1.35059 -6.3252 -3.53125 -8.49805l-28.3008 -28.3008
c-2.17285 -2.18066 -5.18262 -3.53125 -8.50098 -3.53125c-3.31934 0 -6.3252 1.35059 -8.49902 3.53125l-48.0996 48.1006l-48.0996 -48.1006c-2.17383 -2.18066 -5.18262 -3.53125 -8.50195 -3.53125s-6.3252 1.35059 -8.49805 3.53125l-28.3008 28.3008
c-2.18066 2.17285 -3.53125 5.18262 -3.53125 8.50098c0 3.31934 1.35059 6.3252 3.53125 8.49902l48.1006 48.0996l-48.1006 48.0996c-2.18066 2.17383 -3.53125 5.18262 -3.53125 8.50195s1.35059 6.3252 3.53125 8.49805l28.3008 28.3008
c2.17285 2.18066 5.18262 3.53125 8.50098 3.53125c3.31934 0 6.3252 -1.35059 8.49902 -3.53125l48.0996 -48.1006l48.1299 48.0703c2.17383 2.18066 5.18262 3.53125 8.50195 3.53125c3.31836 0 6.3252 -1.35059 8.49805 -3.53125zM400 384c26.4922 0 48 -21.5078 48 -48
v-80h-448v80c0 26.4922 21.5078 48 48 48h48v-48c0 -8.83105 7.16895 -16 16 -16h32c8.83105 0 16 7.16895 16 16v48h128v-48c0 -8.83105 7.16895 -16 16 -16h32c8.83105 0 16 7.16895 16 16v48h48z" />
    <glyph glyph-name="calendar-check-primary" unicode="&#xf274;" horiz-adv-x="448" 
d="M345.33 160c2.15137 -2.16992 3.48145 -5.12793 3.48145 -8.4209c0 -3.34473 -1.37109 -6.37207 -3.58105 -8.54883l-143 -141.8c-2.16992 -2.15234 -5.1582 -3.48242 -8.45215 -3.48242c-3.34473 0 -6.37109 1.37109 -8.54785 3.58203l-82.6006 83.2598
c-2.15137 2.16895 -3.48145 5.1582 -3.48145 8.45117c0 3.34473 1.37109 6.37207 3.58203 8.54883l28.3994 28.1699c2.16992 2.1543 5.16016 3.4873 8.45605 3.4873c3.34277 0 6.36719 -1.36914 8.54395 -3.57715l46 -46.3604l106 105.19
c2.16895 2.15137 5.1582 3.48145 8.45117 3.48145c3.34473 0 6.37207 -1.37109 8.54883 -3.58105zM400 384c26.4922 0 48 -21.5078 48 -48v-80h-448v80c0 26.4922 21.5078 48 48 48h48v-48c0 -8.83105 7.16895 -16 16 -16h32c8.83105 0 16 7.16895 16 16v48h128v-48
c0 -8.83105 7.16895 -16 16 -16h32c8.83105 0 16 7.16895 16 16v48h48z" />
    <glyph glyph-name="universal-access-primary" unicode="&#xf29a;" 
d="M256 268c-19.8691 0 -36 16.1309 -36 36s16.1309 36 36 36s36 -16.1309 36 -36s-16.1309 -36 -36 -36zM366.39 273.12l0.100586 0.0195312l0.509766 0.120117c1.02051 0.204102 2.05371 0.3125 3.13379 0.3125c8.83105 0 16 -7.16895 16 -16
c0 -7.56152 -5.25781 -13.9062 -12.3135 -15.5723c-28.71 -6.80957 -55.5107 -12.75 -82.1406 -15.8096c0.810547 -101.021 12.2705 -123.051 25 -155.62c0.791992 -2.02832 1.24121 -4.25293 1.24121 -6.55957c0 -9.93652 -8.06738 -18.0039 -18.0039 -18.0039
c-7.62988 0 -14.1572 4.75586 -16.7773 11.4629c-8.69922 22.3105 -17.0801 40.6406 -22.2598 78.5498h-9.67969c-5.16992 -37.8496 -13.54 -56.21 -22.2598 -78.5498c-2.62012 -6.70703 -9.13379 -11.4443 -16.7637 -11.4443c-9.93652 0 -18.0039 8.06738 -18.0039 18.0039
c0 2.30664 0.435547 4.5127 1.22754 6.54102c12.6797 32.54 24.1494 54.54 25 155.62c-26.6309 3.05957 -53.4307 9.0293 -82.1406 15.8096c-6.75586 1.87305 -11.7373 8.06934 -11.7373 15.418c0 8.83105 7.16992 16 16 16c1.05664 0 2.08887 -0.102539 3.08789 -0.297852
c96.6895 -22.8301 124.29 -22.7803 220.779 0zM256 440c137 0 248 -111 248 -248s-111 -248 -248 -248s-248 111 -248 248s111 248 248 248zM256 0h0.200195c105.99 0.0595703 191.8 86 191.8 192s-86 192 -192 192s-192 -86 -192 -192s86 -192 192 -192z" />
    <glyph glyph-name="audio-description-primary" unicode="&#xf29e;" 
d="M188.36 279.86l57.0996 -168c0.411133 -1.21094 0.637695 -2.51074 0.637695 -3.86035c0 -6.62207 -5.37598 -11.999 -11.998 -12h-29.1699c-0.00683594 0 -0.0117188 0.000976562 -0.0195312 0.000976562c-5.44141 0 -10.042 3.62988 -11.5098 8.59863l-8.79004 30
h-51.3701l-8.57031 -29.9092c-1.43848 -5.01465 -6.05957 -8.69043 -11.5342 -8.69043h-0.00585938h-29.1299c-6.61719 0.00683594 -11.9844 5.38379 -11.9844 12.0029c0 1.34863 0.222656 2.64648 0.634766 3.85742l57.0898 168
c1.60742 4.73242 6.08789 8.13965 11.3623 8.13965h0.0078125h35.8896c5.27246 -0.000976562 9.75195 -3.40723 11.3604 -8.13965zM146.14 178.64h25.5703l-8.83008 30.6504c-1.26953 4.41992 -2.64941 9.99023 -3.87012 15.2402
c-1.21973 -5.24023 -2.58984 -10.8203 -3.87012 -15.2402zM331.2 288c61.04 0 98.96 -36.6396 99 -95.6104c0 -59.46 -38 -96.3896 -99 -96.3896h-57.3701c-6.62305 0 -12 5.37695 -12 12v168c0 6.62305 5.37695 12 12 12h57.3701zM329.4 142.61
c29.7695 0 46.1699 17.5498 46.1699 49.7793c0 32.2305 -17.4902 49 -46.1699 49h-14.5205v-98.7793h14.5205z" />
    <glyph glyph-name="sign-language-primary" unicode="&#xf2a7;" horiz-adv-x="448" 
d="M365.71 133v-141.07c0 -16.2119 -11.2979 -29.8096 -26.4297 -33.3701l-80.4707 -18.9297c-10.0762 -2.36914 -20.5811 -3.62207 -31.377 -3.62207c-0.0361328 0 0.00390625 -0.0078125 -0.0322266 -0.0078125h-107.4h-0.00585938
c-15.5742 0 -28.2549 12.499 -28.5645 28c-0.30957 16 13.1104 29.1299 29.1299 29.1299h62.3008v5.71973h-125.86c-16 -0.00976562 -29.4404 13.1504 -29.1396 29.1504c0.308594 15.501 12.9893 27.9902 28.5635 27.9902l0.00585938 0.00976562h126.431v5.70996h-153.721
c-16 0 -29.4395 13.1201 -29.1299 29.1299c0.304688 15.5 12.9824 27.9902 28.5547 27.9902l0.00585938 0.00976562h154.29v5.70996h-125.15c-16 0 -29.4404 13.1104 -29.1299 29.1299c0.303711 15.5 12.9824 27.9902 28.5547 27.9902l0.00488281 0.00976562h168.57
l-31.0898 22.6104c-7.14355 5.19531 -11.791 13.6191 -11.791 23.1201c0 15.7676 12.8018 28.5693 28.5703 28.5693c6.26758 0 12.1182 -2.05176 16.8311 -5.47949l123.359 -89.71c8.57324 -6.23535 14.1504 -16.3457 14.1504 -27.748
c0 -0.0205078 -0.0302734 -0.0214844 -0.0302734 -0.0419922z" />
    <glyph glyph-name="envelope-open-primary" unicode="&#xf2b6;" 
d="M455.81 162.88c-0.139648 -2.58594 -1.36719 -4.88672 -3.23926 -6.43945c-22.8906 -16.9004 -55.46 -40.6904 -105.311 -76.8701c-20.2598 -14.8008 -56.54 -47.8105 -92.2598 -47.5703c-35.7402 -0.240234 -72 32.79 -92.2598 47.5703
c-49.8506 36.1797 -82.4199 60 -105.311 76.8701c-1.87207 1.55273 -3.09961 3.85352 -3.23926 6.43945c0.0751953 1.65039 0.582031 3.20703 1.39941 4.53027l9.08008 13.2002c1.44336 2.09277 3.8584 3.46582 6.59082 3.46582
c1.77148 0 3.41309 -0.588867 4.73926 -1.56641c22.8496 -16.8701 55.4697 -40.71 105.59 -77.0801c16.8506 -12.2793 50.2002 -41.7695 73.4102 -41.4297c23.2002 -0.349609 56.5898 29.1699 73.4102 41.4297c50.1201 36.3799 82.7402 60.21 105.59 77.0801
c1.32617 0.977539 2.96484 1.55469 4.7373 1.55469c2.73242 0 5.14941 -1.36133 6.59277 -3.4541l9.08008 -13.2002c0.817383 -1.32324 1.32422 -2.87988 1.39941 -4.53027z" />
    <glyph glyph-name="watch-primary" unicode="&#xf2e1;" horiz-adv-x="384" 
d="M208 300c6.62305 0 12 -5.37695 12 -12v-93l41.2002 -30c2.97852 -2.19922 4.89453 -5.73828 4.89453 -9.72168c0 -2.64355 -0.851562 -5.08887 -2.29492 -7.07812l-18.7998 -25.9004c-2.16211 -3.01172 -5.69922 -4.95801 -9.68555 -4.95801
c-2.58594 0 -4.98047 0.826172 -6.93457 2.22852l-0.179688 0.129883l-59.2998 43.2002c-2.97754 2.18457 -4.90039 5.70117 -4.90039 9.67285v0.0263672v115.4c0 6.62305 5.37695 12 12 12h32zM192 16c0.0712891 0 0.134766 -0.0527344 0.206055 -0.0527344
c50.3506 0 95.7773 21.25 127.794 55.2627v-111.33c-0.0332031 -13.1846 -10.7461 -23.8799 -23.9385 -23.8799h-0.0615234h-208.12c-13.1846 0.0332031 -23.8799 10.7461 -23.8799 23.9385v0.0615234v111.21c32.0166 -34.0127 77.4365 -55.21 127.787 -55.21h0.212891z
M296.12 448c13.1846 -0.0332031 23.8799 -10.7461 23.8799 -23.9385v-0.0615234v-111.21c-32.0986 34.0127 -77.5859 55.2539 -127.998 55.2539s-95.9033 -21.2412 -128.002 -55.2539v111.33c0.0332031 13.1846 10.7461 23.8799 23.9385 23.8799h0.0615234h208.12z" />
    <glyph glyph-name="utensil-fork-primary" unicode="&#xf2e3;" 
d="M98.8398 -55c-4.9873 -5.53418 -12.209 -9.01465 -20.2383 -9.01465c-7.00488 0 -13.4033 2.66406 -18.2314 7.01465c-0.339844 0.30957 -0.679688 0.620117 -1 0.950195l-51.3701 51.2998c-4.95605 4.9248 -8.02637 11.7451 -8.02637 19.2764
c0 7.4707 3.02148 14.249 7.90625 19.1641c0.360352 0.359375 0.740234 0.719727 1.12012 1.05957l201.11 180.69l69.21 -69.2002h0.0595703z" />
    <glyph glyph-name="utensil-knife-primary" unicode="&#xf2e4;" 
d="M113 -53.5498c-5.42969 -6.39062 -13.5234 -10.4482 -22.5576 -10.4482c-7.26465 0 -13.9307 2.64746 -19.082 6.99805c-0.640625 0.530273 -1.24023 1.08984 -1.82031 1.66992l-48.8896 48.7705c-5.34473 5.35254 -8.65234 12.7412 -8.65234 20.8955
s3.30762 15.5508 8.65234 20.9043l160.279 160l77.5 -77.4805z" />
    <glyph glyph-name="utensil-spoon-primary" unicode="&#xf2e5;" 
d="M293.78 162.11l-194.98 -217.11c-4.99121 -5.53809 -12.2188 -9.02148 -20.2529 -9.02148c-7.01074 0 -13.415 2.66699 -18.2471 7.02148c-0.339844 0.30957 -0.669922 0.620117 -1 0.950195l-51.2998 51.2695c-4.95605 4.9248 -8.02637 11.7451 -8.02637 19.2773
c0 7.46973 3.02148 14.248 7.90625 19.1631c0.360352 0.359375 0.740234 0.719727 1.12012 1.05957l217.14 195c13.6738 -29.9775 37.6807 -53.9805 67.6602 -67.6494z" />
    <glyph glyph-name="triangle-primary" unicode="&#xf2ec;" horiz-adv-x="576" 
d="M103.43 48l156.82 272c5.5293 9.58789 15.8867 16.0469 27.7402 16.0469s22.1699 -6.45898 27.7002 -16.0469l156.89 -272c2.71387 -4.7002 4.2666 -10.1533 4.2666 -15.9658c0 -17.6602 -14.3164 -32.0322 -31.9766 -32.0342h-313.72
c-24.6201 0 -40.0205 26.6504 -27.7207 48z" />
    <glyph glyph-name="trash-alt-primary" unicode="&#xf2ed;" horiz-adv-x="448" 
d="M432 416c8.83105 0 16 -7.16895 16 -16v-32c0 -8.83105 -7.16895 -16 -16 -16h-416c-8.83105 0 -16 7.16895 -16 16v32c0 8.83105 7.16895 16 16 16h120l9.40039 18.7002c3.85547 7.88574 11.9434 13.2998 21.3066 13.2998h0.0927734h114.3
c0.00585938 0 -0.00195312 0.0234375 0.00390625 0.0234375c9.41113 0 17.5645 -5.42871 21.4961 -13.3232l9.40039 -18.7002h120zM128 288c8.83105 0 16 -7.16895 16 -16v-224c0 -8.83105 -7.16895 -16 -16 -16s-16 7.16895 -16 16v224c0 8.83105 7.16895 16 16 16z
M224 288c8.83105 0 16 -7.16895 16 -16v-224c0 -8.83105 -7.16895 -16 -16 -16s-16 7.16895 -16 16v224c0 8.83105 7.16895 16 16 16zM320 288c8.83105 0 16 -7.16895 16 -16v-224c0 -8.83105 -7.16895 -16 -16 -16s-16 7.16895 -16 16v224c0 8.83105 7.16895 16 16 16z" />
    <glyph glyph-name="stopwatch-primary" unicode="&#xf2f2;" horiz-adv-x="448" 
d="M240 255.5c8.83105 0 16 -7.16895 16 -16v-127.5c0 -8.83105 -7.16895 -16 -16 -16h-32c-8.83105 0 -16 7.16895 -16 16v127.5c0 8.83105 7.16895 16 16 16h32zM428.53 304.07c2.18066 -2.17383 3.53125 -5.18262 3.53125 -8.50195s-1.35059 -6.3252 -3.53125 -8.49805
l-29.4004 -29.4004l-0.549805 -0.549805c-11.8076 18.1689 -26.0938 34.1094 -42.7998 47.7998l27.4502 27.4502c2.17285 2.18066 5.18164 3.53125 8.50098 3.53125s6.3252 -1.35059 8.49902 -3.53125zM280 448c8.83105 0 16 -7.16895 16 -16v-32
c0 -8.83105 -7.16895 -16 -16 -16h-24v-34.4502c-10.5 1.61914 -20.8438 2.45898 -31.7939 2.45898s-21.7061 -0.839844 -32.2061 -2.45898v34.4502h-24c-8.83105 0 -16 7.16895 -16 16v32c0 8.83105 7.16895 16 16 16h112z" />
    <glyph glyph-name="spade-primary" unicode="&#xf2f4;" 
d="M367.31 -38.5996c-3.05371 -14.4873 -15.9189 -25.3994 -31.3096 -25.4004h-160h-0.115234c-17.6611 0 -32 14.3389 -32 32c0 13.0869 7.85059 24.334 19.1152 29.29c52.1904 23.21 60.9102 38.9102 61 75.6104v103.1c0 8.83105 7.16895 16 16 16h32
c8.83105 0 16 -7.16895 16 -16v-103.1c0.19043 -37.5 9.41016 -52.6104 61 -75.6104c11.2051 -5.00488 19.0215 -16.25 19.0215 -29.3066c0 -2.27051 -0.262695 -4.44629 -0.711914 -6.58301z" />
    <glyph glyph-name="rectangle-landscape-primary" unicode="&#xf2fa;" 
d="M64 80v224c0 8.83105 7.16895 16 16 16h352c8.83105 0 16 -7.16895 16 -16v-224c0 -8.83105 -7.16895 -16 -16 -16h-352c-8.83105 0 -16 7.16895 -16 16z" />
    <glyph glyph-name="rectangle-portrait-primary" unicode="&#xf2fb;" horiz-adv-x="384" 
d="M64 16v352c0 8.83105 7.16895 16 16 16h224c8.83105 0 16 -7.16895 16 -16v-352c0 -8.83105 -7.16895 -16 -16 -16h-224c-8.83105 0 -16 7.16895 -16 16z" />
    <glyph glyph-name="rectangle-wide-primary" unicode="&#xf2fc;" horiz-adv-x="640" 
d="M64 112v160c0 8.83105 7.16895 16 16 16h480c8.83105 0 16 -7.16895 16 -16v-160c0 -8.83105 -7.16895 -16 -16 -16h-480c-8.83105 0 -16 7.16895 -16 16z" />
    <glyph glyph-name="octagon-primary" unicode="&#xf306;" 
d="M432 240.62v-97.2402c0 -7.17188 -2.90723 -13.6738 -7.61035 -18.3799l-101.39 -101.38c-4.69824 -4.7002 -11.1885 -7.60938 -18.3496 -7.62012h-97.3008c-7.16113 0.0107422 -13.6514 2.91992 -18.3496 7.62012l-101.39 101.38
c-4.70312 4.70605 -7.61035 11.208 -7.61035 18.3799v97.3301c0 7.17773 2.91113 13.6836 7.62012 18.3896l101.38 101.29c4.69922 4.69727 11.1895 7.60254 18.3496 7.61035h97.3008c7.16113 -0.0107422 13.6514 -2.91992 18.3496 -7.62012l101.39 -101.38
c4.70312 -4.70605 7.61035 -11.208 7.61035 -18.3799z" />
    <glyph glyph-name="hexagon-primary" unicode="&#xf312;" horiz-adv-x="576" 
d="M466.29 177.34l-76.3799 -130.91c-5.04688 -8.64551 -14.4053 -14.4287 -25.1299 -14.4297h-153.561c-10.7246 0.000976562 -20.083 5.78418 -25.1299 14.4297l-76.3799 130.91c-2.50488 4.2998 -3.94043 9.29785 -3.94043 14.6289s1.43555 10.3916 3.94043 14.6914
l76.3799 130.91c5.04199 8.64551 14.417 14.4609 25.1387 14.4609c0.00390625 0 -0.0117188 -0.03125 -0.00878906 -0.03125h153.561h0.00976562c10.7217 0 20.0781 -5.78418 25.1201 -14.4297l76.3799 -130.91c2.50488 -4.2998 3.94043 -9.29785 3.94043 -14.6289
s-1.43555 -10.3916 -3.94043 -14.6914z" />
    <glyph glyph-name="file-check-primary" unicode="&#xf316;" horiz-adv-x="384" 
d="M285.17 206.7l28.0996 -28.4902c2.18164 -2.17285 3.53125 -5.18262 3.53125 -8.50195c0 -3.31836 -1.34961 -6.3252 -3.53125 -8.49805l-143 -141.81c-2.17285 -2.18164 -5.18164 -3.53125 -8.50098 -3.53125s-6.3252 1.34961 -8.49902 3.53125l-82.5693 83.2695
c-2.16016 2.1709 -3.49707 5.16504 -3.49707 8.4668c0 3.33691 1.36523 6.35742 3.56641 8.5332l28.4004 28.2002c2.17383 2.18066 5.18262 3.53125 8.50195 3.53125c3.31836 0 6.3252 -1.35059 8.49805 -3.53125l46 -46.3506l106 105.181
c2.17383 2.18066 5.18262 3.53125 8.50195 3.53125c3.31836 0 6.3252 -1.35059 8.49805 -3.53125zM377 343c4.32617 -4.32617 7 -10.3047 7 -16.9004v-6.09961h-112c-8.83105 0 -16 7.16895 -16 16v112h6.09961c0.0205078 0 0.0429688 0.00292969 0.0625 0.00292969
c6.6084 0 12.5957 -2.67578 16.9375 -7.00293z" />
    <glyph glyph-name="file-exclamation-primary" unicode="&#xf31a;" horiz-adv-x="384" 
d="M377 343c4.32617 -4.32617 7 -10.3047 7 -16.9004v-6.09961h-112c-8.83105 0 -16 7.16895 -16 16v112h6.09961c0.0205078 0 0.0429688 0.00292969 0.0625 0.00292969c6.6084 0 12.5957 -2.67578 16.9375 -7.00293zM160 115.2l-7.2002 111.97v0.830078
c0 6.62305 5.37695 12 12 12h55.2002c6.25879 -0.40332 11.2285 -5.60449 11.2285 -11.9648c0 -0.280273 -0.00976562 -0.55957 -0.0283203 -0.834961l-7.2002 -112c-0.416992 -6.24609 -5.62207 -11.2002 -11.9727 -11.2002h-0.0273438h-40
c-0.00878906 0 -0.0175781 0.0107422 -0.0273438 0.0107422c-6.35059 0 -11.5557 4.94336 -11.9727 11.1895zM192 88c22.0762 0 40 -17.9238 40 -40s-17.9238 -40 -40 -40s-40 17.9238 -40 40s17.9238 40 40 40z" />
    <glyph glyph-name="file-edit-primary" unicode="&#xf31c;" horiz-adv-x="384" 
d="M377 343c4.32617 -4.32617 7 -10.3047 7 -16.9004v-6.09961h-112c-8.83105 0 -16 7.16895 -16 16v112h6.09961c0.0205078 0 0.0429688 0.00292969 0.0625 0.00292969c6.6084 0 12.5957 -2.67578 16.9375 -7.00293zM242.4 131.6
c0.917969 -0.917969 1.46484 -2.21582 1.46484 -3.61523s-0.567383 -2.66699 -1.48535 -3.58398l-95 -95l-48.2002 -5.40039c-0.361328 -0.0400391 -0.708008 -0.0605469 -1.0791 -0.0605469c-0.37207 0 -0.739258 0.0205078 -1.10059 0.0605469
c-5.08594 0.55957 -9.05859 4.86523 -9.05859 10.0986c0 0.37207 0.0195312 0.739258 0.0585938 1.10156l5.42969 48.2002l95 95c0.917969 0.916992 2.18652 1.48535 3.58594 1.48535s2.66699 -0.568359 3.58398 -1.48535zM298.1 208.7
c3.66113 -3.66113 5.89746 -8.69238 5.89746 -14.2734s-2.26562 -10.6367 -5.92676 -14.2969l-26 -26c-0.917969 -0.917969 -2.18652 -1.48535 -3.58594 -1.48535s-2.66699 0.567383 -3.58398 1.48535l-46.8008 46.7998
c-0.916992 0.917969 -1.48535 2.18652 -1.48535 3.58594s0.568359 2.66699 1.48535 3.58398l26 26c3.66016 3.66211 8.72168 5.92773 14.3027 5.92773s10.6377 -2.26562 14.2979 -5.92773z" />
    <glyph glyph-name="club-primary" unicode="&#xf327;" 
d="M367.31 -38.5898c-3.0498 -14.4922 -15.917 -25.4082 -31.3096 -25.4102h-160h-0.138672c-17.6611 0 -32 14.3389 -32 32c0 13.0957 7.8623 24.3486 19.1387 29.2998c52.1904 23.2002 60.9102 38.9004 61 75.6104v103.09c0 8.83105 7.16895 16 16 16h32
c8.83105 0 16 -7.16895 16 -16v-103.09c0.19043 -37.5 9.41016 -52.6104 61 -75.6104c11.2051 -5.00781 19.0205 -16.2549 19.0205 -29.3125c0 -2.26758 -0.261719 -4.44238 -0.710938 -6.57715z" />
    <glyph glyph-name="calendar-edit-primary" unicode="&#xf333;" horiz-adv-x="448" 
d="M330.1 176.7c3.66113 -3.66113 5.89746 -8.69238 5.89746 -14.2734s-2.26562 -10.6367 -5.92676 -14.2969l-26 -26c-0.917969 -0.917969 -2.18652 -1.48535 -3.58594 -1.48535s-2.66699 0.567383 -3.58398 1.48535l-46.8008 46.7998
c-0.916992 0.917969 -1.48535 2.18652 -1.48535 3.58594s0.568359 2.66699 1.48535 3.58398l26 26c3.66016 3.66211 8.72168 5.92773 14.3027 5.92773s10.6377 -2.26562 14.2979 -5.92773zM274.4 99.5996c0.917969 -0.917969 1.46484 -2.21582 1.46484 -3.61523
s-0.567383 -2.66699 -1.48535 -3.58398l-95 -95l-48.2002 -5.40039c-0.361328 -0.0400391 -0.708008 -0.0605469 -1.0791 -0.0605469c-0.37207 0 -0.739258 0.0205078 -1.10059 0.0605469c-5.08594 0.55957 -9.05859 4.86523 -9.05859 10.0986
c0 0.37207 0.0195312 0.739258 0.0585938 1.10156l5.42969 48.2002l95 95c0.917969 0.916992 2.18652 1.48535 3.58594 1.48535s2.66699 -0.568359 3.58398 -1.48535zM400 384c26.4922 0 48 -21.5078 48 -48v-80h-448v80c0 26.4922 21.5078 48 48 48h48v-48
c0 -8.83105 7.16895 -16 16 -16h32c8.83105 0 16 7.16895 16 16v48h128v-48c0 -8.83105 7.16895 -16 16 -16h32c8.83105 0 16 7.16895 16 16v48h48z" />
    <glyph glyph-name="calendar-exclamation-primary" unicode="&#xf334;" horiz-adv-x="448" 
d="M224 56c22.0762 0 40 -17.9238 40 -40s-17.9238 -40 -40 -40s-40 17.9238 -40 40s17.9238 40 40 40zM204 72c-0.00878906 0 -0.0175781 0.0107422 -0.0273438 0.0107422c-6.35059 0 -11.5557 4.94336 -11.9727 11.1895l-7.2002 112v0.620117
c0 0.0273438 0.00195312 0.0527344 0.00195312 0.0800781c0 6.64453 5.36719 12.0449 11.998 12.0996h55.2002c6.25879 -0.40332 11.2285 -5.60449 11.2285 -11.9648c0 -0.280273 -0.00976562 -0.55957 -0.0283203 -0.834961l-7.2002 -112
c-0.416992 -6.24609 -5.62207 -11.2002 -11.9727 -11.2002h-0.0273438h-40zM400 384c26.4922 0 48 -21.5078 48 -48v-80h-448v80c0 26.4922 21.5078 48 48 48h48v-48c0 -8.83105 7.16895 -16 16 -16h32c8.83105 0 16 7.16895 16 16v48h128v-48
c0 -8.83105 7.16895 -16 16 -16h32c8.83105 0 16 7.16895 16 16v48h48z" />
    <glyph glyph-name="badge-primary" unicode="&#xf335;" 
d="M389.77 136.58c7.92773 -9.61914 12.6904 -21.9414 12.6904 -35.3672c0 -30.7256 -24.9453 -55.6699 -55.6699 -55.6699c-13.4238 0 -25.7617 4.74316 -35.3799 12.667c-2.78125 -28.1367 -26.5449 -50.1465 -55.4082 -50.1465s-52.6309 22.0098 -55.4121 50.1465
c-9.6084 -7.88574 -21.8994 -12.6221 -35.2881 -12.6221c-30.7305 0 -55.6797 24.9492 -55.6797 55.6807c0 13.3906 4.71875 25.7021 12.6084 35.3115c-28.1426 2.78125 -50.1572 26.5488 -50.1572 55.418s22.0146 52.6406 50.1572 55.4219
c-7.88965 9.60938 -12.627 21.9033 -12.627 35.2939c0 30.7305 24.9492 55.6797 55.6797 55.6797c13.3887 0 25.6982 -4.71777 35.3066 -12.6035c2.78125 28.1367 26.5449 50.1465 55.4082 50.1465s52.6309 -22.0098 55.4121 -50.1465
c9.6084 7.88574 21.8994 12.6221 35.2881 12.6221c30.7305 0 55.6797 -24.9492 55.6797 -55.6807c0 -13.3906 -4.71875 -25.7021 -12.6084 -35.3115c28.1426 -2.78125 50.1572 -26.5488 50.1572 -55.418s-22.0146 -52.6406 -50.1572 -55.4219z" />
    <glyph glyph-name="spinner-third-primary" unicode="&#xf3f4;" 
d="M271.23 375.38c-8.49023 0.69043 -15.2305 7.31055 -15.2305 15.8301v32.0596c0 9.11035 7.66992 16.7803 16.7695 16.1709c129.15 -8.62012 231.23 -116.11 231.23 -247.44v-0.192383c0 -38.6631 -9.07812 -75.4824 -25 -108.048
c-4 -8.16992 -14.3701 -11 -22.2598 -6.4502l-27.8398 15.9004c-7.41016 4.23047 -9.83008 13.3496 -6.2002 21.0703c11.0332 23.5039 17.2012 49.7393 17.2012 77.4033c0 0.0527344 0.0986328 0.263672 0.0986328 0.316406c0 96.4902 -74.2695 175.63 -168.77 183.38z" />
    <glyph glyph-name="ticket-alt-primary" unicode="&#xf3ff;" horiz-adv-x="576" 
d="M480 320v-256h-384v256h384z" />
    <glyph glyph-name="square-full-primary" unicode="&#xf45c;" 
d="M431 30.6699c0 -8.09668 -6.57324 -14.6699 -14.6699 -14.6699h-322.66c-8.09668 0 -14.6699 6.57324 -14.6699 14.6699v322.66c0 8.09668 6.57324 14.6699 14.6699 14.6699h322.66c8.09668 0 14.6699 -6.57324 14.6699 -14.6699v-322.66z" />
    <glyph glyph-name="whistle-primary" unicode="&#xf460;" horiz-adv-x="640" 
d="M208 288c52.9834 0 96 -43.0166 96 -96s-43.0166 -96 -96 -96s-96 43.0166 -96 96s43.0166 96 96 96zM208 144c26.4922 0 48 21.5078 48 48s-21.5078 48 -48 48s-48 -21.5078 -48 -48s21.5078 -48 48 -48z" />
    <glyph glyph-name="band-aid-primary" unicode="&#xf462;" horiz-adv-x="640" 
d="M160 32v320h32v-320h-32zM448 352h32v-320h-32v320z" />
    <glyph glyph-name="file-medical-primary" unicode="&#xf477;" horiz-adv-x="384" 
d="M377 343c4.32617 -4.32617 7 -10.3047 7 -16.9004v-6.09961h-112c-8.83105 0 -16 7.16895 -16 16v112h6.09961c0.0205078 0 0.0429688 0.00292969 0.0625 0.00292969c6.6084 0 12.5957 -2.67578 16.9375 -7.00293zM280 160c4.41504 0 8 -3.58496 8 -8v-48
c0 -4.41504 -3.58496 -8 -8 -8h-56v-56c0 -4.41504 -3.58496 -8 -8 -8h-48c-4.41504 0 -8 3.58496 -8 8v56h-56c-4.41504 0 -8 3.58496 -8 8v48c0 4.41504 3.58496 8 8 8h56v56c0 4.41504 3.58496 8 8 8h48c4.41504 0 8 -3.58496 8 -8v-56h56z" />
    <glyph glyph-name="file-medical-alt-primary" unicode="&#xf478;" horiz-adv-x="448" 
d="M441 343c4.32617 -4.32617 7 -10.3047 7 -16.9004v-6.09961h-112c-8.83105 0 -16 7.16895 -16 16v112h6.09961c0.0205078 0 0.0429688 0.00292969 0.0625 0.00292969c6.6084 0 12.5957 -2.67578 16.9375 -7.00293zM352 160c8.83105 0 16.0098 -7.16895 16.0098 -16
c-0.00292969 -0.682617 -0.046875 -1.33887 -0.129883 -2c-1.1123 -7.89941 -7.90332 -14.001 -16.1074 -14.001c-0.0644531 0 -0.12793 0 -0.192383 0.000976562h-89.4805l-22.0996 44.2002l-56.7998 -113.7c-1.31543 -2.62012 -4.0166 -4.41895 -7.14551 -4.41895
s-5.83984 1.79883 -7.1543 4.41895l-34.8008 69.5h-126.1c-4.41504 0 -8 3.58496 -8 8v16c0 4.41504 3.58496 8 8 8h140.9c3.13477 -0.0117188 5.84961 -1.79102 7.19922 -4.40039l19.9004 -39.7998l56.7998 113.7c1.31543 2.62012 4.0166 4.41895 7.14551 4.41895
s5.83984 -1.79883 7.1543 -4.41895l34.7002 -69.5h70.2002z" />
    <glyph glyph-name="x-ray-primary" unicode="&#xf497;" horiz-adv-x="640" 
d="M240 96c8.83105 0 16 -7.16895 16 -16s-7.16895 -16 -16 -16s-16 7.16895 -16 16s7.16895 16 16 16zM400 64c-8.83105 0 -16 7.16895 -16 16s7.16895 16 16 16s16 -7.16895 16 -16s-7.16895 -16 -16 -16zM64 384h512v-384h-512v384zM480 232v16
c0 4.41504 -3.58496 8 -8 8h-136v32h104c4.41504 0 8 3.58496 8 8v16c0 4.41504 -3.58496 8 -8 8h-104v24c0 4.41504 -3.58496 8 -8 8h-16c-4.41504 0 -8 -3.58496 -8 -8v-24h-104c-4.41504 0 -8 -3.58496 -8 -8v-16c0 -4.41504 3.58496 -8 8 -8h104v-32h-136
c-4.41504 0 -8 -3.58496 -8 -8v-16c0 -4.41504 3.58496 -8 8 -8h136v-32h-104c-4.41504 0 -8 -3.58496 -8 -8v-16c0 -4.41504 3.58496 -8 8 -8h104v-32h-64c-26.4922 0 -48 -21.5078 -48 -48s21.5078 -48 48 -48s48 21.5078 48 48v16h64v-16c0 -26.4922 21.5078 -48 48 -48
s48 21.5078 48 48s-21.5078 48 -48 48h-64v32h104c4.41504 0 8 3.58496 8 8v16c0 4.41504 -3.58496 8 -8 8h-104v32h136c4.41504 0 8 3.58496 8 8z" />
    <glyph glyph-name="dove-primary" unicode="&#xf4ba;" 
d="M320 271.31v-26.8096c-67.4922 3.87305 -128.682 32.4297 -174.12 76.79c1.12012 5.67969 2.44043 11.3398 4 17c10.9199 38.9971 30.4092 74.6328 56.2803 104.36c8.91016 10.29 25.7598 4.83984 27.6895 -8.65039c9.09766 -64.0381 40.4766 -121.16 86.1504 -162.69z
" />
    <glyph glyph-name="piggy-bank-primary" unicode="&#xf4d3;" horiz-adv-x="576" 
d="M51.2598 192.48c1.53711 -0.31543 3.11133 -0.480469 4.74023 -0.480469h43.3701c-2.19629 -10.3594 -3.35938 -20.9932 -3.37012 -32h-40c-30.9141 0.0439453 -56 25.1543 -56 56.0781v0.0722656c0 0.0263672 -0.00195312 -0.00488281 -0.00195312 0.0214844
c0 2.44336 0.160156 4.84961 0.47168 7.20801c3.62988 28.2197 29.0303 48.6201 57.5303 48.6201c3.31152 0 6 -2.68848 6 -6v-20c0 -3.31152 -2.68848 -6 -6 -6h-1c-11.5996 0 -22.2598 -7.82031 -24.4805 -19.2197
c-0.314453 -1.55078 -0.462891 -3.1377 -0.462891 -4.78027c0 -11.6035 8.25293 -21.2949 19.2031 -23.5195zM432 192c8.83105 0 16 -7.16895 16 -16s-7.16895 -16 -16 -16s-16 7.16895 -16 16s7.16895 16 16 16zM306.5 448
c52.9844 -0.0380859 95.959 -43.1016 95.959 -96.0957c0 -11.5107 -2.0293 -22.5518 -5.74902 -32.7842c-4.19434 0.548828 -8.375 0.844727 -12.71 0.879883h-128c-0.0927734 0 -0.0986328 -0.0107422 -0.191406 -0.0107422c-13.126 0 -25.8896 -1.55762 -38.1182 -4.49902
c-4.62305 11.2402 -7.21484 23.6104 -7.21484 36.5098c0 52.9834 43.0166 96 96 96h0.0244141z" />
    <glyph glyph-name="skull-primary" unicode="&#xf54c;" 
d="M160 256c35.3223 0 64 -28.6777 64 -64s-28.6777 -64 -64 -64s-64 28.6777 -64 64s28.6777 64 64 64zM352 256c35.3223 0 64 -28.6777 64 -64s-28.6777 -64 -64 -64s-64 28.6777 -64 64s28.6777 64 64 64z" />
    <glyph glyph-name="tshirt-primary" unicode="&#xf553;" horiz-adv-x="640" 
d="M320 400.8c51.9102 0 96.4102 19.4004 116.51 47.2002l31.3398 -15.5498c-4.24512 -4.67383 -8.62598 -9.03516 -13.3193 -13.2598c-36.1006 -32.4902 -83.9004 -50.3906 -134.53 -50.3906s-98.4102 17.9004 -134.51 50.3906
c-4.69336 4.22461 -9.07422 8.58594 -13.3203 13.2598l31.3398 15.5498c20.1006 -27.7998 64.6006 -47.2002 116.49 -47.2002zM26.0898 360l28.6699 14.25l71.6904 -143.4l-28.7402 -14.0693zM585.19 374.3l28.6699 -14.21l-71.6104 -143.24l-28.7402 14.0703z" />
    <glyph glyph-name="award-primary" unicode="&#xf559;" horiz-adv-x="384" 
d="M366.62 295.28c-7.48047 -28.4102 -7.46973 -24.4502 0.00976562 -52.8105c0.895508 -3.38867 1.38086 -6.94141 1.38086 -10.6094c0 -11.2666 -4.50098 -21.4902 -11.8008 -28.9707c-20.4102 -20.75 -18.4697 -17.3496 -25.9502 -45.75
c-3.61914 -14.0225 -14.5488 -25.1318 -28.4697 -29c-21.79 -5.92969 -23.5098 -4.58984 -38.79 -20.1396c-7.21777 -7.40527 -17.3447 -11.9746 -28.4932 -11.9746c-7.80762 0 -15.0928 2.25781 -21.2373 6.1543c-6.13867 3.89746 -13.5029 6.15527 -21.3066 6.15527
c-7.80273 0 -15.084 -2.25781 -21.2227 -6.15527c-6.14648 -3.89746 -13.4775 -6.1875 -21.2871 -6.1875c-11.1494 0 -21.2334 4.60156 -28.4531 12.0078c-14.7305 15 -16.4004 14 -38.7305 20.1201c-13.9209 3.86816 -24.8506 14.9775 -28.4697 29
c-7.53027 28.3994 -5.58984 24.9697 -26 45.75c-7.29688 7.4834 -11.7871 17.7031 -11.7871 28.9707c0 3.66309 0.475586 7.21484 1.36719 10.5996c7.48047 28.4199 7.46973 24.46 0 52.8193c-0.897461 3.3916 -1.38379 6.94727 -1.38379 10.6191
c0 11.2646 4.50195 21.4854 11.8037 28.9609c20.4102 20.75 18.4805 17.3604 25.9502 45.75c3.62305 14.0205 14.5508 25.1279 28.4697 29c27.9404 7.61035 24.5303 5.62988 44.9404 26.4102c7.22949 7.4043 17.3105 11.9912 28.4658 11.9912
c3.60645 0 7.10156 -0.480469 10.4238 -1.38086c27.9502 -7.60059 24.0303 -7.60059 51.9502 0c3.30273 0.888672 6.76562 1.375 10.3467 1.375c11.1357 0 21.208 -4.58301 28.4336 -11.9658c20.4795 -20.7891 17.1201 -18.7998 45 -26.4092
c13.9189 -3.87207 24.8467 -14.9795 28.4697 -29c7.48047 -28.3906 5.54004 -24.9707 25.9502 -45.7402c7.2998 -7.48242 11.792 -17.7041 11.792 -28.9727c0 -3.66895 -0.476562 -7.22852 -1.37207 -10.6172zM192 176c52.9834 0 96 43.0166 96 96s-43.0166 96 -96 96
s-96 -43.0166 -96 -96s43.0166 -96 96 -96z" />
    <glyph glyph-name="file-contract-primary" unicode="&#xf56c;" horiz-adv-x="384" 
d="M377 343c4.32617 -4.32617 7 -10.3047 7 -16.9004v-6.09961h-112c-8.83105 0 -16 7.16895 -16 16v112h6.09961c0.0205078 0 0.0429688 0.00292969 0.0625 0.00292969c6.6084 0 12.5957 -2.67578 16.9375 -7.00293zM304 64c8.83105 0 16 -7.16895 16 -16
s-7.16895 -16 -16 -16h-47.1904c-0.0449219 0 -0.0634766 -0.0419922 -0.109375 -0.0419922c-16.874 0 -31.4912 9.74121 -38.5303 23.9023c-1.7373 3.84766 -5.60352 6.51953 -10.0967 6.51953h-0.0732422c-0.0556641 0.000976562 -0.101562 0.0117188 -0.157227 0.0117188
c-4.33594 0 -8.08398 -2.53516 -9.84277 -6.20117l-7.66992 -15.3408c-2.625 -5.25391 -8.0459 -8.84961 -14.3135 -8.84961h-0.0166016c-0.0634766 -0.000976562 -0.114258 -0.00195312 -0.177734 -0.00195312c-0.325195 0 -0.646484 0.0175781 -0.961914 0.0517578
c-6.53906 0.482422 -12 4.89844 -14 10.8906l-16.8604 50.4697l-10.6104 -31.8799c-5.71191 -17.1543 -21.8945 -29.5303 -40.957 -29.5303h-0.0429688h-12.3896c-8.83105 0 -16 7.16895 -16 16s7.16895 16 16 16h12.3896c4.9375 0.00976562 9.12695 3.2168 10.6104 7.66016
l18.1904 54.6396c3.17188 9.54395 12.165 16.4346 22.7686 16.4346c10.6025 0 19.6094 -6.89062 22.7812 -16.4346l13.9102 -41.6396c19.7695 16.1895 54 9.7002 66 -14.1602c1.81152 -3.81152 5.67383 -6.4502 10.1592 -6.5h47.1904z" />
    <glyph glyph-name="file-download-primary" unicode="&#xf56d;" horiz-adv-x="384" 
d="M377 343c4.32617 -4.32617 7 -10.3047 7 -16.9004v-6.09961h-112c-8.83105 0 -16 7.16895 -16 16v112h6.09961c0.0205078 0 0.0429688 0.00292969 0.0625 0.00292969c6.6084 0 12.5957 -2.67578 16.9375 -7.00293zM289.18 128c14.2803 0 21.4004 -17.29 11.2705 -27.3604
l-96.4502 -95.6992c-3.08301 -3.05078 -7.32715 -4.93652 -12.0029 -4.93652s-8.91406 1.88574 -11.9971 4.93652l-96.4199 95.6992c-10.1602 10.0703 -3.04004 27.3604 11.2402 27.3604h65.1797v80c0 8.83105 7.16895 16 16 16h32c8.83105 0 16 -7.16895 16 -16v-80
h65.1797z" />
    <glyph glyph-name="file-export-primary" unicode="&#xf56e;" horiz-adv-x="576" 
d="M272 320c-8.83105 0 -16 7.16895 -16 16v112h6.09961c0.0205078 0 0.0429688 0.00292969 0.0625 0.00292969c6.6084 0 12.5957 -2.67578 16.9375 -7.00293l97.9004 -98c4.32617 -4.32617 7 -10.3047 7 -16.9004v-6.09961h-112zM571 139.95
c3.08008 -3.07812 4.98535 -7.33496 4.98535 -12.0283c0 -4.66797 -1.88477 -8.89844 -4.93555 -11.9717l-95.71 -96.4004c-10.0996 -10.0996 -27.4102 -3 -27.4102 11.2998v65.1006h-239.93c-8.83105 0 -16 7.16895 -16 16v32c0 8.83008 7.16895 16 16 16h239.98v65.2002
c0 14.2998 17.3096 21.3994 27.4092 11.2998z" />
    <glyph glyph-name="file-import-primary" unicode="&#xf56f;" 
d="M505 343c4.32617 -4.32617 7 -10.3047 7 -16.9004v-6.09961h-112c-8.83105 0 -16 7.16895 -16 16v112h6.09961c0.0205078 0 0.0429688 0.00292969 0.0625 0.00292969c6.6084 0 12.5957 -2.67578 16.9375 -7.00293zM283.07 236.18l95.4893 -96.25
c3.04492 -3.07227 4.92578 -7.30469 4.92578 -11.9678c0 -4.66211 -1.88086 -8.88965 -4.92578 -11.9619l-95.5596 -96.1699c-10.0898 -10.0703 -27.3701 -3 -27.3701 11.2695v64.9004h-239.63c-8.83105 0 -16 7.16895 -16 16v31.9102c0 8.83008 7.16895 16 16 16h239.7v65
c0 14.2695 17.2803 21.3398 27.3701 11.2695z" />
    <glyph glyph-name="file-invoice-primary" unicode="&#xf570;" horiz-adv-x="384" 
d="M377 343c4.32617 -4.32617 7 -10.3047 7 -16.9004v-6.09961h-112c-8.83105 0 -16 7.16895 -16 16v112h6.09961c0.0205078 0 0.0429688 0.00292969 0.0625 0.00292969c6.6084 0 12.5957 -2.67578 16.9375 -7.00293zM304 224c8.83105 0 16 -7.16895 16 -16v-96
c0 -8.83105 -7.16895 -16 -16 -16h-224c-8.83105 0 -16 7.16895 -16 16v96c0 8.83105 7.16895 16 16 16h224zM288 128v64h-192v-64h192zM312 32c4.41504 0 8 -3.58496 8 -8v-16c0 -4.41504 -3.58496 -8 -8 -8h-80c-4.41504 0 -8 3.58496 -8 8v16c0 4.41504 3.58496 8 8 8h80
z" />
    <glyph glyph-name="file-invoice-dollar-primary" unicode="&#xf571;" horiz-adv-x="384" 
d="M377 343c4.32617 -4.32617 7 -10.3047 7 -16.9004v-6.09961h-112c-8.83105 0 -16 7.16895 -16 16v112h6.09961c0.0205078 0 0.0429688 0.00292969 0.0625 0.00292969c6.6084 0 12.5957 -2.67578 16.9375 -7.00293zM219.09 120.58
c18.5898 -5.58008 31.5801 -23.4199 31.5801 -43.3896c0 -24.5303 -19 -44.4404 -42.6699 -45.0703v-24.1201c0 -4.41504 -3.58496 -8 -8 -8h-16c-4.41504 0 -8 3.58496 -8 8v24.29c-11.6943 0.607422 -22.5566 4.75488 -31.3701 11.3496
c-1.88184 1.46484 -3.08984 3.74707 -3.08984 6.31445c0 2.29492 0.96875 4.36621 2.51953 5.82617l11.75 11.2197c1.46094 1.32715 3.41113 2.13281 5.53809 2.13281c1.7002 0 3.28125 -0.516602 4.59277 -1.40234c3.7041 -2.34473 8.11719 -3.7207 12.8193 -3.73047
h28.1201c6.5 0 11.7998 5.91992 11.7998 13.1904c0 5.94922 -3.60938 11.1895 -8.76953 12.7295l-45 13.5c-18.5801 5.58008 -31.5801 23.3896 -31.5801 43.3896c0 24.5205 19.0498 44.4404 42.6699 45.0703v24.1201c0 4.41504 3.58496 8 8 8h16c4.41504 0 8 -3.58496 8 -8
v-24.29c11.6973 -0.597656 22.5615 -4.74707 31.3701 -11.3496c1.88184 -1.46484 3.08984 -3.74707 3.08984 -6.31445c0 -2.29492 -0.96875 -4.36621 -2.51953 -5.82617l-11.7607 -11.2197c-1.45996 -1.32715 -3.41016 -2.13281 -5.53711 -2.13281
c-1.7002 0 -3.28125 0.516602 -4.59277 1.40234c-3.70215 2.34766 -8.11621 3.72461 -12.8193 3.73047h-28.1104c-6.5 0 -11.7998 -5.91992 -11.7998 -13.1904c0 -5.94922 3.60938 -11.1895 8.76953 -12.7295z" />
    <glyph glyph-name="file-prescription-primary" unicode="&#xf572;" horiz-adv-x="384" 
d="M377 343c4.32617 -4.32617 7 -10.3047 7 -16.9004v-6.09961h-112c-8.83105 0 -16 7.16895 -16 16v112h6.09961c0.0205078 0 0.0429688 0.00292969 0.0625 0.00292969c6.6084 0 12.5957 -2.67578 16.9375 -7.00293zM273.94 68.6797l30.0596 -30.0596
c2.89355 -2.89551 4.68457 -6.89941 4.68457 -11.3125s-1.79102 -8.41211 -4.68457 -11.3076l-11.3096 -11.3203c-2.89648 -2.89648 -6.90137 -4.68945 -11.3174 -4.68945s-8.41699 1.79297 -11.3135 4.68945l-30.0596 30.0703l-30.0596 -30.0596
c-2.89648 -2.89746 -6.90137 -4.69043 -11.3174 -4.69043s-8.41699 1.79297 -11.3135 4.69043l-11.3096 11.3096c-2.89648 2.89648 -4.68945 6.90137 -4.68945 11.3174s1.79297 8.41602 4.68945 11.3125l30.0596 30.0605l-59.3193 59.3096h-18.7402v-48
c0 -8.83105 -7.16895 -16 -16 -16h-16c-8.83105 0 -16 7.16895 -16 16v160c0 8.83105 7.16895 16 16 16h80c0.0654297 0 0.194336 0.0400391 0.259766 0.0400391c35.2119 0 63.7998 -28.5879 63.7998 -63.7998c0 -24.2568 -13.5664 -45.3711 -33.5195 -56.1602l33.46 -33.46
l29.9004 29.8994c2.89551 2.89746 6.90039 4.69043 11.3164 4.69043s8.41699 -1.79297 11.3135 -4.69043l11.3096 -11.3096c2.89746 -2.89648 4.69043 -6.90137 4.69043 -11.3174s-1.79297 -8.41602 -4.69043 -11.3125zM176 176c8.83105 0 16 7.16895 16 16
s-7.16895 16 -16 16h-48v-32h48z" />
    <glyph glyph-name="file-signature-primary" unicode="&#xf573;" horiz-adv-x="576" 
d="M384 326.1v-6.09961h-112c-8.83105 0 -16 7.16895 -16 16v112h6.09961c0.0205078 0 0.0429688 0.00292969 0.0625 0.00292969c6.6084 0 12.5957 -2.67578 16.9375 -7.00293l97.9004 -98c4.32617 -4.32617 7 -10.3047 7 -16.9004zM288 101l162.79 161.66l67.8799 -67.8799
l-161.67 -162.78h-69v69zM568.56 280.65c4.61523 -4.6084 7.47266 -10.9834 7.47266 -18.0137c0 -7.02539 -2.85352 -13.3896 -7.46191 -17.9971l-27.25 -27.25l-67.8799 67.8799l27.25 27.25c4.61035 4.60254 10.9805 7.4502 18.0029 7.4502
c7.02344 0 13.3857 -2.84766 17.9971 -7.4502z" />
    <glyph glyph-name="file-upload-primary" unicode="&#xf574;" horiz-adv-x="384" 
d="M377 343c4.32617 -4.32617 7 -10.3047 7 -16.9004v-6.09961h-112c-8.83105 0 -16 7.16895 -16 16v112h6.09961c0.0205078 0 0.0429688 0.00292969 0.0625 0.00292969c6.6084 0 12.5957 -2.67578 16.9375 -7.00293zM204 219l96.4297 -95.6396
c10.1504 -10.0703 3 -27.3604 -11.25 -27.3604h-65.1797v-80c0 -8.83105 -7.16895 -16 -16 -16h-32c-8.83105 0 -16 7.16895 -16 16v80h-65.1797c-14.2803 0 -21.4102 17.29 -11.2705 27.3604l96.4502 95.6396c3.08301 3.05078 7.32715 4.93555 12.0029 4.93555
s8.91406 -1.88477 11.9971 -4.93555z" />
    <glyph glyph-name="stamp-primary" unicode="&#xf5bf;" 
d="M480 32v-96h-448v96h448z" />
    <glyph glyph-name="suitcase-rolling-primary" unicode="&#xf5c1;" horiz-adv-x="384" 
d="M336 288c26.4922 0 48 -21.5078 48 -48v-224c0 -26.4922 -21.5078 -48 -48 -48h-288c-26.4922 0 -48 21.5078 -48 48v224c0 26.4922 21.5078 48 48 48h288zM320 72v16c0 4.41504 -3.58496 8 -8 8h-240c-4.41504 0 -8 -3.58496 -8 -8v-16c0 -4.41504 3.58496 -8 8 -8h240
c4.41504 0 8 3.58496 8 8zM320 168v16c0 4.41504 -3.58496 8 -8 8h-240c-4.41504 0 -8 -3.58496 -8 -8v-16c0 -4.41504 3.58496 -8 8 -8h240c4.41504 0 8 3.58496 8 8z" />
    <glyph glyph-name="file-certificate-primary" unicode="&#xf5f3;" 
d="M505 343c4.32617 -4.32617 7 -10.3047 7 -16.9004v-6.09961h-112c-8.83105 0 -16 7.16895 -16 16v112h6.09961c0.0205078 0 0.0429688 0.00292969 0.0625 0.00292969c6.6084 0 12.5957 -2.67578 16.9375 -7.00293zM255 176.91
c-5.44043 -20.6797 -5.42969 -17.7705 0 -38.4199c0.654297 -2.46777 1.00879 -5.05469 1.00879 -7.72656c0 -8.19043 -3.27637 -15.6221 -8.58887 -21.0537c-14.8799 -15.1396 -13.4102 -12.5303 -18.8799 -33.2695c-2.63281 -10.1914 -10.5801 -18.2637 -20.7002 -21.0703
c-14.3203 -3.90039 -11.5303 -3 -15.8398 -5v-114.37l-64 32l-64 -32v114.38c-4.30957 2 -1.53027 1.10059 -15.8301 5c-10.125 2.80176 -18.0771 10.876 -20.71 21.0703c-5.45996 20.6602 -4.01953 18.1602 -18.8799 33.2695
c-5.3125 5.43262 -8.58301 12.8594 -8.58301 21.0498c0 2.67188 0.348633 5.26367 1.00293 7.73047c5.41992 20.6201 5.4502 17.7002 0 38.4102c-0.65625 2.47168 -1.01172 5.06348 -1.01172 7.74023c0 8.20117 3.28125 15.6416 8.60156 21.0801
c14.8701 15.1396 13.4102 12.5293 18.8701 33.2695c2.63184 10.1973 10.583 18.2744 20.71 21.0801c20.1797 5.50977 17.7705 4.03027 32.6797 19.21c5.25684 5.38184 12.5859 8.71582 20.6963 8.71582c2.62402 0 5.16602 -0.349609 7.58398 -1.00586
c20.29 -5.53027 17.4297 -5.54004 37.75 0c2.40137 0.646484 4.91797 1.00098 7.52246 1.00098c8.14062 0 15.5 -3.37012 20.7578 -8.79102c14.8496 -15.1104 12.4102 -13.6797 32.6895 -19.21c10.1055 -2.79883 18.0479 -10.8398 20.71 -21
c5.44043 -20.6904 4 -18.1797 18.8604 -33.2998c5.3125 -5.43555 8.58301 -12.8652 8.58301 -21.0576c0 -2.67285 -0.348633 -5.26465 -1.00293 -7.73242zM128 96c35.3223 0 64 28.6777 64 64s-28.6777 64 -64 64s-64 -28.6777 -64 -64s28.6777 -64 64 -64z" />
    <glyph glyph-name="theater-masks-primary" unicode="&#xf630;" horiz-adv-x="640" 
d="M606.8 326.95c24.2002 -13.4102 37.0801 -41.3906 32.2002 -69.4902l-31.7803 -179.46c-15.3701 -87 -156.67 -151.85 -219.63 -140.77c-62.96 11.0791 -173.51 120.27 -158.14 207.27l31.7197 179.44c4.94043 28.0898 26.6602 49.9795 53.9404 54.3398
c23.5 3.77148 47.6465 5.43457 72.2031 5.43457c79.6182 0 154.462 -20.6035 219.486 -56.7646zM333.85 230.19c-0.337891 -2.06641 -0.514648 -4.11035 -0.514648 -6.27148c0 -1.98438 0.148438 -3.93359 0.43457 -5.83887
c10.8008 5.57031 24.8105 7.74023 39.4404 5.16992s27.04 -9.41016 35.2803 -18.3096c3.10547 5.68457 4.89453 12.207 4.89453 19.1367c0 22.0762 -17.9229 40 -40 40c-19.998 0 -36.5879 -14.708 -39.5352 -33.8867zM404.21 31.5098
c55.6504 -9.79004 108.12 23.7705 122.29 75.6904c-28.0801 -16.9697 -68.5801 -24.21 -111.81 -16.6006c-43.2305 7.61035 -78.8008 28.2305 -99.3809 53.7607c-4.51953 -53.6104 33.2803 -103.07 88.9004 -112.851zM538.47 194.18
c0.212891 1.66797 0.322266 3.30176 0.322266 5.02637c0 22.0771 -17.9238 40 -40 40c-19.0449 0 -35 -13.3389 -39.0225 -31.1758c-0.34082 -2.07422 -0.518555 -4.12793 -0.518555 -6.29785c0 -1.97168 0.146484 -3.90918 0.428711 -5.80273
c10.79 5.57031 24.79 7.74023 39.4307 5.16992c14.6396 -2.56934 27.0596 -9.40918 35.2998 -18.3096c1.88965 3.48926 3.29297 7.36816 4.05957 11.3896z" />
    <glyph glyph-name="tire-primary" unicode="&#xf631;" 
d="M256 224c17.6611 0 32 -14.3389 32 -32s-14.3389 -32 -32 -32s-32 14.3389 -32 32s14.3389 32 32 32zM256 448c141.38 0 256 -114.62 256 -256s-114.62 -256 -256 -256s-256 114.62 -256 256s114.62 256 256 256zM256 0c105.87 0 192 86.1299 192 192
s-86.1299 192 -192 192s-192 -86.1299 -192 -192s86.1299 -192 192 -192z" />
    <glyph glyph-name="tire-flat-primary" unicode="&#xf632;" 
d="M480 32c17.6611 0 32 -14.3389 32 -32s-14.3389 -32 -32 -32h-448c-17.6611 0 -32 14.3389 -32 32s14.3389 32 32 32h2.61035c-21.8975 37.4883 -34.6104 81.3604 -34.6104 127.87v0.129883c0 141.38 114.62 256 256 256s256 -114.62 256 -256
c0 -0.0429688 -0.161133 -0.355469 -0.161133 -0.398438c0 -46.5107 -12.5518 -90.1133 -34.4492 -127.602h2.61035zM398.7 32c30.6055 33.8633 49.2812 78.8105 49.2998 128c0 105.87 -86.1299 192 -192 192s-192 -86.1299 -192 -192
c0.0185547 -49.1895 18.6943 -94.1367 49.2998 -128h285.4zM256 192c17.6611 0 32 -14.3389 32 -32s-14.3389 -32 -32 -32s-32 14.3389 -32 32s14.3389 32 32 32z" />
    <glyph glyph-name="tire-rugged-primary" unicode="&#xf634;" 
d="M480 256c17.6611 0 32 -14.3389 32 -32v-64c0 -17.6611 -14.3389 -32 -32 -32h-9.40039c-4.36816 -14.8027 -10.3398 -29.2188 -17.54 -42.5596l6.58008 -6.58008c5.79102 -5.79297 9.375 -13.8008 9.375 -22.6299s-3.58398 -16.8281 -9.375 -22.6201l-45.25 -45.2607
c-5.79199 -5.79004 -13.7998 -9.37402 -22.6289 -9.37402c-8.83008 0 -16.8281 3.58398 -22.6211 9.37402l-6.58008 6.58008c-13.3438 -7.19043 -27.7598 -13.1582 -42.5596 -17.5293v-9.40039c0 -17.6611 -14.3389 -32 -32 -32h-64c-17.6611 0 -32 14.3389 -32 32v9.38965
c-14.8057 4.36523 -29.2256 10.334 -42.5703 17.5303l-6.58008 -6.58008c-5.79199 -5.79102 -13.7998 -9.37402 -22.6289 -9.37402s-16.8281 3.58301 -22.6211 9.37402l-45.25 45.2705c-5.79004 5.79199 -9.37402 13.7998 -9.37402 22.6289
c0 8.83008 3.58398 16.8281 9.37402 22.6211l6.58008 6.58008c-7.19043 13.3438 -13.1582 27.7598 -17.5293 42.5596h-9.40039c-17.6611 0 -32 14.3389 -32 32v64c0 17.6611 14.3389 32 32 32h9.40039c4.37012 14.7998 10.3389 29.2158 17.5293 42.5596l-6.58008 6.58008
c-5.79004 5.79297 -9.37402 13.8008 -9.37402 22.6299s3.58398 16.8281 9.37402 22.6201l45.2607 45.2607c5.79199 5.79004 13.7998 9.37402 22.6289 9.37402c8.83008 0 16.8281 -3.58398 22.6211 -9.37402l6.58008 -6.58008
c13.3438 7.19043 27.7598 13.1582 42.5596 17.5293v9.40039c0 17.6611 14.3389 32 32 32h64c17.6611 0 32 -14.3389 32 -32v-9.40039c14.8057 -4.36426 29.2256 -10.333 42.5703 -17.5293l6.58008 6.58008c5.79199 5.79004 13.7998 9.37402 22.6289 9.37402
s16.8281 -3.58398 22.6211 -9.37402l45.25 -45.2607c5.79004 -5.79199 9.37402 -13.7998 9.37402 -22.6289c0 -8.83008 -3.58398 -16.8281 -9.37402 -22.6211l-6.58008 -6.58008c7.19043 -13.3438 13.1582 -27.7598 17.5293 -42.5596h9.40039zM256 64
c70.6455 0 128 57.3545 128 128s-57.3545 128 -128 128s-128 -57.3545 -128 -128s57.3545 -128 128 -128z" />
    <glyph glyph-name="watch-fitness-primary" unicode="&#xf63e;" horiz-adv-x="384" 
d="M182.26 100l-0.160156 0.151367l-84.6699 85.6396c-10.7803 10.9492 -17.4404 25.9873 -17.4404 42.5508c0 16.9072 6.93359 32.207 18.1104 43.209c1.16699 1.15332 2.38672 2.25977 3.66016 3.31934c24 20 59.6201 16.4199 81.6201 -5.81055l8.62012 -8.71973
l8.62012 8.73047c22 22.2295 57.6201 25.8096 81.6201 5.80957c13.3174 -11.127 21.7412 -27.877 21.7412 -46.5713c0 -14.7754 -5.2959 -28.3232 -14.0918 -38.8486c-1.05371 -1.25977 -2.16016 -2.47949 -3.31934 -3.66016l-84.6699 -85.6396
c-2.52051 -2.56152 -6.0293 -4.14844 -9.90332 -4.14844c-3.79102 0 -7.22949 1.52246 -9.7373 3.98828zM64 -31.999v48h256v-48c0 -17.6611 -14.3389 -32 -32 -32h-192c-17.6611 0 -32 14.3389 -32 32zM288 448.001c17.6611 0 32 -14.3389 32 -32v-48h-256v48
c0 17.6611 14.3389 32 32 32h192z" />
    <glyph glyph-name="ad-primary" unicode="&#xf641;" 
d="M212 271.87l53.6904 -154.62c0.570312 -1.64355 0.885742 -3.41309 0.885742 -5.25c0 -8.8291 -7.16699 -15.998 -15.9961 -16h-16.9404c-0.00195312 0 0.000976562 -0.00390625 -0.000976562 -0.00390625c-6.99316 0 -12.9453 4.49609 -15.1191 10.7539l-7.36914 21.25
h-70.29l-7.37988 -21.25c-2.17383 -6.25781 -8.12109 -10.75 -15.1143 -10.75h-0.00585938h-16.9404c-0.00195312 0 0.000976562 0.00390625 -0.000976562 0.00390625c-8.83105 0 -16 7.16992 -16 16c0 1.83691 0.310547 3.60254 0.880859 5.24609l53.7002 154.63
c3.26172 9.38379 12.1816 16.1201 22.6699 16.1201h26.6602c10.4912 -0.000976562 19.4111 -6.74219 22.6699 -16.1299zM157.52 176h36.9609l-18.4805 53.2197zM408 288c8.83105 0 16 -7.16895 16 -16v-160c0 -8.83105 -7.16895 -16 -16 -16h-16
c-4.82422 0.0322266 -9.13281 2.23047 -12 5.67969c-8.60352 -3.63574 -18.1094 -5.67969 -28.0303 -5.67969c-39.7373 0 -72 32.2617 -72 72s32.2627 72 72 72h0.0302734c8.41504 -0.0800781 16.5244 -1.65137 24 -4.41992v36.4199c0 8.83105 7.16895 16 16 16h16zM352 144
c13.2461 0 24 10.7539 24 24s-10.7539 24 -24 24s-24 -10.7539 -24 -24s10.7539 -24 24 -24z" />
    <glyph glyph-name="file-chart-line-primary" unicode="&#xf659;" horiz-adv-x="384" 
d="M377 343c4.32617 -4.32617 7 -10.3047 7 -16.9004v-6.09961h-112c-8.83105 0 -16 7.16895 -16 16v112h6.09961c0.0205078 0 0.0429688 0.00292969 0.0625 0.00292969c6.6084 0 12.5957 -2.67578 16.9375 -7.00293zM115.2 96c6.39941 0 12.7998 -6.40039 12.7998 -12.7998
v-70.4004c0 -6.39941 -6.40039 -12.7998 -12.7998 -12.7998h-38.4004c-6.39941 0 -12.7998 6.40039 -12.7998 12.7998v70.4004c0 6.39941 6.40039 12.7998 12.7998 12.7998h38.4004zM211.2 224c6.39941 0 12.7998 -6.40039 12.7998 -12.7998v-198.4
c0 -6.39941 -6.40039 -12.7998 -12.7998 -12.7998h-38.4004c-6.39941 0 -12.7998 6.40039 -12.7998 12.7998v198.4c0 6.39941 6.40039 12.7998 12.7998 12.7998h38.4004zM307.2 160c6.39941 0 12.7998 -6.40039 12.7998 -12.7998v-134.4
c0 -6.39941 -6.40039 -12.7998 -12.7998 -12.7998h-38.4004c-6.39941 0 -12.7998 6.40039 -12.7998 12.7998v134.4c0 6.39941 6.40039 12.7998 12.7998 12.7998h38.4004z" />
    <glyph glyph-name="file-chart-pie-primary" unicode="&#xf65a;" horiz-adv-x="384" 
d="M377 343c4.32617 -4.32617 7 -10.3047 7 -16.9004v-6.09961h-112c-8.83105 0 -16 7.16895 -16 16v112h6.09961c0.0205078 0 0.0429688 0.00292969 0.0625 0.00292969c6.6084 0 12.5957 -2.67578 16.9375 -7.00293zM160 237.34v-141.34h141.34
c-14.1396 -69.0898 -87.4795 -116.58 -164.87 -86.5c-28.8262 11.2949 -51.7041 34.1738 -63 63c-30.0498 77.3604 17.4404 150.7 86.5303 164.84z" />
    <glyph glyph-name="file-spreadsheet-primary" unicode="&#xf65b;" horiz-adv-x="384" 
d="M377 343c4.32617 -4.32617 7 -10.3047 7 -16.9004v-6.09961h-112c-8.83105 0 -16 7.16895 -16 16v112h6.09961c0.0205078 0 0.0429688 0.00292969 0.0625 0.00292969c6.6084 0 12.5957 -2.67578 16.9375 -7.00293zM312 224c8.83105 0 16 -7.16895 16 -16v-192
c0 -8.83105 -7.16895 -16 -16 -16h-240c-8.83105 0 -16 7.16895 -16 16v192c0 8.83105 7.16895 16 16 16h240zM136 32v48h-48v-48h48zM136 112v48h-48v-48h48zM216 32v48h-48v-48h48zM216 112v48h-48v-48h48zM296 32v48h-48v-48h48zM296 112v48h-48v-48h48z" />
    <glyph glyph-name="file-user-primary" unicode="&#xf65c;" horiz-adv-x="384" 
d="M377 343c4.32617 -4.32617 7 -10.3047 7 -16.9004v-6.09961h-112c-8.83105 0 -16 7.16895 -16 16v112h6.09961c0.0205078 0 0.0429688 0.00292969 0.0625 0.00292969c6.6084 0 12.5957 -2.67578 16.9375 -7.00293zM192 128c-35.3223 0 -64 28.6777 -64 64
s28.6777 64 64 64s64 -28.6777 64 -64s-28.6777 -64 -64 -64zM236.8 96c37.1104 0 67.2002 -25.79 67.2002 -57.5996v-19.2002c0 -10.6104 -10.0303 -19.2002 -22.4004 -19.2002h-179.199c-12.4004 0 -22.4004 8.59961 -22.4004 19.2002v19.2002
c0 31.8096 30.0996 57.5996 67.0996 57.5996h5c12.2451 -5.125 25.8242 -7.95605 39.9199 -7.95605s27.5352 2.83105 39.7803 7.95605h5z" />
    <glyph glyph-name="socks-primary" unicode="&#xf696;" 
d="M288 384v-32h-160v32h160zM288 320v-32h-160v32h160zM320 176v112h192v-144c-0.00683594 -41.8799 -20.0615 -79.0264 -51.2002 -102.38l-115.2 -86.4004c-3.17969 -2.37891 -6.4873 -4.55469 -9.94922 -6.54004c-14.0254 -8.02246 -30.3047 -12.7725 -47.6055 -12.7725
c-35.6855 0 -66.8496 19.5137 -83.3945 48.4424c-24.6504 42.6504 -10.1904 97.5 29.2197 127.051zM320 320v32h192v-32h-192zM480 448c17.6611 0 32 -14.3389 32 -32v-32h-192v32c0 17.6611 14.3389 32 32 32h128z" />
    <glyph glyph-name="torah-primary" unicode="&#xf6a0;" horiz-adv-x="640" 
d="M48 448c26.5098 0 48 -14.3301 48 -32v-448c0 -17.6699 -21.4902 -32 -48 -32s-48 14.3301 -48 32v448c0 17.6699 21.4902 32 48 32zM592 448c26.5098 0 48 -14.3301 48 -32v-448c0 -17.6699 -21.4902 -32 -48 -32s-48 14.3301 -48 32v448c0 17.6699 21.4902 32 48 32z
M415.63 192l29.3701 -49c1.90625 -3.13086 3.00488 -6.85156 3.00488 -10.7822c0 -3.77637 -1.01465 -7.31836 -2.78516 -10.3682c-3.65625 -6.41406 -10.5449 -10.7197 -18.4512 -10.7197h-0.0283203h-59.4502l-29.1299 -48.7002
c-3.67578 -6.21191 -10.4277 -10.3604 -18.1602 -10.3701c-0.0244141 0 -0.0332031 -0.0214844 -0.0576172 -0.0214844c-7.61426 0 -14.2764 4.10547 -17.8926 10.2217l-29.25 48.8799h-59.5693c-0.00585938 0 0.00292969 0.0234375 -0.00292969 0.0234375
c-11.6504 0 -21.1104 9.45898 -21.1104 21.1094c0 3.97363 1.10059 7.69238 3.0127 10.8672l29.21 48.8604l-29.3398 49c-1.90625 3.13379 -3.00488 6.85742 -3.00488 10.791c0 3.77246 1.00977 7.31055 2.77441 10.3594c3.64941 6.40723 10.5273 10.71 18.4219 10.71
h0.0585938h59.4502l29.1396 48.71c3.67285 6.21777 10.4287 10.3701 18.167 10.3701h0.0429688c0.0224609 0 0.0292969 0.0214844 0.0517578 0.0214844c7.62305 0 14.291 -4.11914 17.8984 -10.252l29.25 -48.8496h59.5195
c11.6562 -0.000976562 21.1055 -9.4873 21.1055 -21.1426c0 -3.96973 -1.09766 -7.68457 -3.00488 -10.8574zM419.26 247.5h-36.8496l18.4502 -30.8203zM320 302.5l-17.7695 -29.6201h35.4492zM220.73 247.5l18.4492 -30.7998l18.3701 30.7998h-36.8193zM220.73 136.5
h36.8594l-18.46 30.8203zM320.05 81.5l17.7197 29.6396h-35.46zM352.92 136.5l33.1699 55.5l-33.2295 55.5195h-65.79l-33.1602 -55.5195l33.2197 -55.5h65.79zM382.45 136.5h36.8594l-18.4492 30.7998z" />
    <glyph glyph-name="badger-honey-primary" unicode="&#xf6b4;" horiz-adv-x="640" 
d="M622.25 321.53c9.45996 -6.58984 15.3301 -18.4102 15.3096 -31.2705c0 -11.8301 -8.83984 -32.5098 -16.1592 -47.6201c-7.79004 -16.1797 -18.3906 -16.1797 -40.79 -19l-41.9404 -8.33984c-33.25 -9.18945 -88.4297 -32.5693 -152.43 -75.6699l27 -135
c0.198242 -1.00684 0.302734 -2.03516 0.302734 -3.09961c0 -8.82812 -7.16504 -15.9961 -15.9932 -16h-63.3701c-7.75098 0 -14.2236 5.53613 -15.6895 12.8594l-23 115.141h-105.69l-33 -66.8604l15.5498 -41.2598c0.311523 -1.24414 0.470703 -2.53711 0.470703 -3.87695
c0 -7.48926 -5.15723 -13.7842 -12.1104 -15.5234c-1.22559 -0.3125 -2.50293 -0.479492 -3.82422 -0.479492h-0.015625h-63.7705c-7.48926 0.000976562 -13.7812 5.16602 -15.5195 12.1201l-14.0898 35.4092c-1.24609 4.98242 -1.89062 10.1953 -1.89062 15.5605
c0 7.89355 1.43164 15.4561 4.05078 22.4395l21.4893 57.3008c-25.4795 16.9297 -45.7393 47.79 -53.5596 81.1699h-20c-8.83105 0 -16 7.16895 -16 16v16c0.00976562 52.2178 31.2549 97.1084 76.1396 117c5.62012 -20.7305 20.0605 -55 42.6201 -84.79
c30.1104 -39.8506 56.4502 -48.21 73.2402 -48.21h45.4697c10.7148 0.00878906 20.9316 2.48047 30 6.81934l102 61.7402l0.530273 0.25c29.7998 14.3301 59.1396 27.1904 90 27.1904h164.67zM493.58 267.53c13.2275 0.0214844 23.96 10.7676 23.96 24
c-0.000976562 1.7207 -0.1875 3.38379 -0.540039 5h-46.8799c-0.353516 -1.63672 -0.541992 -3.31836 -0.541992 -5.06055c0 -13.2129 10.7266 -23.9395 23.9395 -23.9395h0.0625z" />
    <glyph glyph-name="candy-corn-primary" unicode="&#xf6bd;" horiz-adv-x="640" 
d="M480.6 304.17c61.1006 0 106.851 -6.38965 137.851 -12.96c-12.5898 -48.3701 -27.71 -96.5303 -44.4404 -138c-23.9102 3.90039 -55.0098 7 -93.5 7c-39.04 0 -70.5 -3.19043 -94.5 -7.11035c-16.7197 41.4902 -31.8301 89.6309 -44.4102 137.92
c31 6.55078 77.1309 13.1504 139 13.1504zM187.09 140.86c43.21 43.2695 80.1299 71.0596 106.55 88.3096c25.2803 -43.1104 48.6504 -87.8496 66.1504 -129c-19.5898 -14.1797 -43.7803 -33.9697 -71 -61.1797c-27.5898 -27.5898 -47.5498 -52.0605 -61.79 -71.8203
c-41.1104 17.5205 -85.8496 40.8301 -128.91 66.1396c17.2998 26.5508 45.25 63.8105 89 107.551z" />
    <glyph glyph-name="file-csv-primary" unicode="&#xf6dd;" horiz-adv-x="384" 
d="M377 343c4.32617 -4.32617 7 -10.3047 7 -16.9004v-6.09961h-112c-8.83105 0 -16 7.16895 -16 16v112h6.09961c0.0205078 0 0.0429688 0.00292969 0.0625 0.00292969c6.6084 0 12.5957 -2.67578 16.9375 -7.00293zM120 192c4.41504 0 8 -3.58496 8 -8v-16
c0 -4.41504 -3.58496 -8 -8 -8h-8c-8.83105 0 -16 -7.16895 -16 -16v-32c0 -8.83105 7.16895 -16 16 -16h8c4.41504 0 8 -3.58496 8 -8v-16c0 -4.41504 -3.58496 -8 -8 -8h-8c-26.4922 0 -48 21.5078 -48 48v32c0 26.4922 21.5078 48 48 48h8zM312 192
c4.41504 0 8 -3.58496 8 -8v-20.7998c0 -35.4805 -12.8799 -68.8906 -36.2803 -94.0898c-0.269531 -0.290039 -0.540039 -0.560547 -0.830078 -0.830078c-2.85547 -2.65332 -6.68652 -4.2832 -10.8887 -4.2832c-4.62695 0 -8.79883 1.96875 -11.7207 5.11328
c-23.4004 25.1992 -36.2803 58.6094 -36.2803 94.0898v20.7998c0 4.41504 3.58496 8 8 8h16c4.41504 0 8 -3.58496 8 -8v-20.7998c0 -0.00976562 0.0693359 -0.135742 0.0693359 -0.145508c0 -20.7773 5.8252 -40.2041 15.9307 -56.7344
c10.1055 16.5303 16 36.0732 16 56.8496v0.0302734v20.7998c0 4.41504 3.58496 8 8 8h16zM201.33 130.76c8.07031 -6.7373 13.2188 -16.8311 13.3301 -28.1299c0.00976562 -21.29 -19 -38.6201 -42.3906 -38.6201h-12.2695c-4.41504 0 -8 3.58496 -8 8v16
c0 4.41602 3.58496 8 8 8h12.2695c5.9502 0 10.4102 3.5 10.4102 6.62012c-0.119141 1.57129 -0.923828 2.95312 -2.12012 3.83984l-21.8896 18.7705c-8.07422 6.73828 -13.2227 16.8359 -13.3301 28.1396c0 21.2998 19.0205 38.6201 42.4102 38.6201h12.25
c4.41504 0 8 -3.58496 8 -8v-16.0098c0 -4.41602 -3.58496 -8 -8 -8h-12.2695c-5.9502 0 -10.4102 -3.5 -10.4102 -6.62012c0.119141 -1.57129 0.923828 -2.95312 2.12012 -3.83984z" />
    <glyph glyph-name="pig-primary" unicode="&#xf706;" horiz-adv-x="576" 
d="M51.2598 224.48c1.53711 -0.31543 3.11133 -0.480469 4.74023 -0.480469h43.3701c-2.19629 -10.3594 -3.35938 -20.9932 -3.37012 -32h-40c-30.9141 0.0439453 -56 25.1543 -56 56.0781v0.0722656c0 0.0263672 -0.00195312 -0.00488281 -0.00195312 0.0214844
c0 2.44336 0.160156 4.84961 0.47168 7.20801c3.62988 28.2197 29.0303 48.6201 57.5303 48.6201c3.31152 0 6 -2.68848 6 -6v-20c0 -3.31152 -2.68848 -6 -6 -6h-1c-11.5996 0 -22.2598 -7.82031 -24.4805 -19.2197
c-0.314453 -1.55078 -0.462891 -3.1377 -0.462891 -4.78027c0 -11.6035 8.25293 -21.2949 19.2031 -23.5195zM432 224c8.83105 0 16 -7.16895 16 -16s-7.16895 -16 -16 -16s-16 7.16895 -16 16s7.16895 16 16 16z" />
    <glyph glyph-name="rabbit-primary" unicode="&#xf708;" horiz-adv-x="448" 
d="M64 14v-12c0 -0.0419922 0.0361328 -0.140625 0.0361328 -0.182617c0 -10.1152 2.2959 -19.6982 6.39355 -28.2578c-6.68555 -3.53418 -14.3057 -5.59473 -22.3887 -5.59473c-26.4922 0 -48 21.5088 -48 48c0 26.4922 21.5078 48 48 48
c7.78613 0 15.1426 -1.8584 21.6494 -5.15527c-3.70312 -14.2979 -5.69043 -29.2217 -5.69043 -44.6709v-0.138672zM336 272c8.83105 0 16 -7.16895 16 -16s-7.16895 -16 -16 -16s-16 7.16895 -16 16s7.16895 16 16 16z" />
    <glyph glyph-name="rabbit-fast-primary" unicode="&#xf709;" horiz-adv-x="576" 
d="M17.46 293.06c8.29395 6.83398 18.9326 10.9854 30.5068 10.9854c14.9014 0 28.2266 -6.80566 37.0332 -17.4746c1.74902 -2.10059 3.30371 -4.33398 4.66992 -6.7207c-3.49707 -5.4873 -6.58496 -11.3125 -9.17969 -17.3496
c-3.19727 -7.45801 -4.98242 -15.7227 -4.98242 -24.3457c0 -6.68457 1.06445 -13.123 3.03223 -19.1543c-8.2627 -6.72949 -18.8643 -10.7959 -30.3408 -10.7959c-26.4922 0 -48 21.5078 -48 48c0 14.8018 6.71387 28.0479 17.2607 36.8555zM496 240
c8.83105 0 16 -7.16895 16 -16s-7.16895 -16 -16 -16s-16 7.16895 -16 16s7.16895 16 16 16z" />
    <glyph glyph-name="scarecrow-primary" unicode="&#xf70d;" horiz-adv-x="448" 
d="M445.75 261.61c1.39453 -1.44043 2.25488 -3.4043 2.25488 -5.56543c0 -2.25391 -0.933594 -4.29004 -2.43457 -5.74512l-26.29 -26.2998l18.3496 -18.2998c1.43262 -1.4541 2.31543 -3.4502 2.31543 -5.65039c0 -4.42773 -3.58301 -8.02539 -8.00488 -8.0498h-106.061
l25.8105 -141.3c0.149414 -0.876953 0.211914 -1.75488 0.211914 -2.6748c0 -8.79199 -7.13867 -15.9297 -15.9307 -15.9297c-2.5791 0 -5.01562 0.614258 -7.17188 1.7041l-32.7002 24.2002c-2.66797 1.99219 -6.00684 3.1709 -9.58984 3.1709
c-2.71387 0 -5.26953 -0.676758 -7.50977 -1.87109l-47.9004 -25.5c-2.12305 -1.14258 -4.58203 -1.79102 -7.16016 -1.79102s-5.00586 0.648438 -7.12988 1.79102l-47.9092 25.5c-2.2373 1.19043 -4.81934 1.86719 -7.52832 1.86719
c-3.5791 0 -6.88574 -1.17773 -9.55176 -3.16699l-32.71 -24.2002c-2.1377 -1.05957 -4.56152 -1.67969 -7.10742 -1.67969c-8.83105 0 -16 7.16895 -16 16c0 0.87793 0.0703125 1.74023 0.207031 2.58008l26 141.3h-106.09h-0.0888672c-4.41504 0 -8 3.58496 -8 8
c0 2.23047 0.915039 4.24902 2.38867 5.7002l18.2998 18.2998l-26.3799 26.4004c-1.44434 1.44727 -2.33691 3.44629 -2.33691 5.65039s0.892578 4.20215 2.33691 5.64941l26.3799 26.2998l-18.4199 18.2998c-1.47363 1.45117 -2.38867 3.4707 -2.38867 5.7002
c0 4.41602 3.58496 8 8 8h0.0888672h117.48c13.1895 -37.2715 48.7031 -64.002 90.4697 -64.002s77.3398 26.7305 90.5303 64.002h117.39h0.0888672c4.41504 0 8 -3.58496 8 -8c0 -2.23047 -0.915039 -4.24902 -2.38867 -5.7002l-18.29 -18.2998l26.3896 -26.2998zM256 336
c-8.83105 0 -16 7.16895 -16 16s7.16895 16 16 16s16 -7.16895 16 -16s-7.16895 -16 -16 -16zM192 352c-8.83105 0 -16 7.16895 -16 16s7.16895 16 16 16s16 -7.16895 16 -16s-7.16895 -16 -16 -16z" />
    <glyph glyph-name="scroll-primary" unicode="&#xf70e;" horiz-adv-x="640" 
d="M64 448c35.4062 -0.544922 64 -29.4658 64 -65v-63h-112c-8.83105 0 -16 7.16895 -16 16v48c0 35.3223 28.6777 64 64 64zM192 -64h16c-2.58984 0 -5.13965 0.129883 -7.66016 0.370117c-2.75 -0.240234 -5.53027 -0.370117 -8.33984 -0.370117zM624 64
c8.81055 0 15.9668 -7.1377 16 -15.9404v-0.0595703c0 -61.8145 -50.1855 -112 -112 -112h-320c44.1533 0 80 35.8467 80 80v32c0 8.83105 7.16895 16 16 16h320z" />
    <glyph glyph-name="scroll-old-primary" unicode="&#xf70f;" horiz-adv-x="640" 
d="M192 -64h16c-2.58984 0 -5.13965 0.129883 -7.66016 0.370117c-2.75 -0.240234 -5.53027 -0.370117 -8.33984 -0.370117zM64 448c35.4062 -0.544922 64 -29.4658 64 -65v-63h-112c-8.83105 0 -16 7.16895 -16 16v48c0 35.3223 28.6777 64 64 64zM624 64
c8.81055 0 15.9668 -7.1377 16 -15.9404v-0.0595703c0 -61.8145 -50.1855 -112 -112 -112h-320c44.1533 0 80 35.8467 80 80v32c0 8.83105 7.16895 16 16 16h73.3701c4.41699 0 8.42383 -1.79199 11.3203 -4.69043l27.3096 -27.3096l27.3096 27.3096
c2.89648 2.89844 6.90332 4.69043 11.3203 4.69043h169.37z" />
    <glyph glyph-name="scythe-primary" unicode="&#xf710;" horiz-adv-x="640" 
d="M639.44 410l-96.2705 -461c-1.41113 -7.39258 -7.91504 -12.9873 -15.7158 -12.9873l-0.00390625 -0.0126953h-31.4502c-8.83105 0 -16 7.16895 -16 16c0 1.00879 0.0927734 1.98242 0.269531 2.94043l29.2607 141h-109.53c-8.83105 0 -16 7.16895 -16 16v32.0596
c0 8.83105 7.16895 16 16 16h122.81l59.7402 288h25.4502h0.0078125c17.6611 0 32 -14.3389 32 -32c0 -2.05957 -0.195312 -4.04785 -0.567383 -6z" />
    <glyph glyph-name="skull-crossbones-primary" unicode="&#xf714;" horiz-adv-x="448" 
d="M280 272c-17.6611 0 -32 14.3389 -32 32s14.3389 32 32 32s32 -14.3389 32 -32s-14.3389 -32 -32 -32zM439.15 -5.0498c5.26172 -2.62207 8.85645 -8.06348 8.85645 -14.3369c0 -2.5625 -0.604492 -4.98535 -1.67676 -7.13281l-14.3301 -28.6309
c-2.62402 -5.25293 -8.06152 -8.83984 -14.3291 -8.83984c-2.57324 0 -5.00586 0.608398 -7.16113 1.69043l-186.51 90.7197l-186.53 -90.7002c-2.15234 -1.0791 -4.58887 -1.71094 -7.15918 -1.71094c-6.25781 0 -11.6816 3.60059 -14.3105 8.84082l-14.2998 28.6309
c-1.07715 2.15039 -1.70703 4.58398 -1.70703 7.15039c0 6.26465 3.60742 11.6934 8.85645 14.3193l142 69.0596l-142 69.0605c-5.25098 2.625 -8.83594 8.06055 -8.83594 14.3262c0 2.5625 0.603516 4.98535 1.67676 7.13379l14.3096 28.6201
c2.62402 5.25293 8.06152 8.83984 14.3291 8.83984c2.56543 0 4.99121 -0.605469 7.14062 -1.68066l186.53 -90.71l186.54 90.7002c2.14941 1.07422 4.5791 1.70312 7.14355 1.70312c6.2627 0 11.6895 -3.60547 14.3164 -8.85254l14.2998 -28.6309
c1.07422 -2.14844 1.70312 -4.5791 1.70312 -7.14258c0 -6.2627 -3.60547 -11.6904 -8.85254 -14.3174l-142 -69.0596zM168 272c-17.6611 0 -32 14.3389 -32 32s14.3389 32 32 32s32 -14.3389 32 -32s-14.3389 -32 -32 -32z" />
    <glyph glyph-name="toilet-paper-primary" unicode="&#xf71e;" horiz-adv-x="576" 
d="M480 448c53 0 96 -86 96 -192s-43 -192 -96 -192s-96 86 -96 192s43 192 96 192zM480 192c17.6699 0 32 28.6504 32 64s-14.3301 64 -32 64s-32 -28.6504 -32 -64s14.3301 -64 32 -64zM112 256c8.83105 0 16 -7.16895 16 -16s-7.16895 -16 -16 -16s-16 7.16895 -16 16
s7.16895 16 16 16zM176 256c8.83105 0 16 -7.16895 16 -16s-7.16895 -16 -16 -16s-16 7.16895 -16 16s7.16895 16 16 16zM240 256c8.83105 0 16 -7.16895 16 -16s-7.16895 -16 -16 -16s-16 7.16895 -16 16s7.16895 16 16 16zM304 256c8.83105 0 16 -7.16895 16 -16
s-7.16895 -16 -16 -16s-16 7.16895 -16 16s7.16895 16 16 16z" />
    <glyph glyph-name="toilet-paper-alt-primary" unicode="&#xf71f;" horiz-adv-x="576" 
d="M480 448c53 0 96 -86 96 -192s-43 -192 -96 -192s-96 86 -96 192s43 192 96 192zM480 192c17.6602 0 32 28.6504 32 64s-14.3301 64 -32 64s-32 -28.6504 -32 -64s14.3301 -64 32 -64z" />
    <glyph glyph-name="calendar-star-primary" unicode="&#xf736;" horiz-adv-x="448" 
d="M314 127.7c5.79297 -0.849609 10.2617 -5.84668 10.2617 -11.874c0 -3.38477 -1.4043 -6.44336 -3.66211 -8.62598l-39.5996 -38.6006l9.40039 -54.5996c0.106445 -0.643555 0.149414 -1.28613 0.149414 -1.95996c0 -6.62305 -5.37695 -12 -12 -12
c-2.00195 0 -3.88965 0.491211 -5.5498 1.36035l-49 25.7998l-48.9004 -25.7998c-1.66016 -0.869141 -3.56055 -1.37891 -5.5625 -1.37891c-6.62305 0 -12 5.37695 -12 12c0 0.673828 0.0556641 1.33496 0.163086 1.97852l9.39941 54.5996l-39.5996 38.6006
c-2.25684 2.18262 -3.64648 5.24219 -3.64648 8.62695c0 6.02734 4.45312 11.0234 10.2461 11.873l54.7002 8l24.5 49.5996c1.96289 3.95703 6.03027 6.67871 10.7432 6.67871s8.79395 -2.72168 10.7568 -6.67871l24.5 -49.5996zM400 384c26.4922 0 48 -21.5078 48 -48v-80
h-448v80c0 26.4922 21.5078 48 48 48h48v-48c0 -8.83105 7.16895 -16 16 -16h32c8.83105 0 16 7.16895 16 16v48h128v-48c0 -8.83105 7.16895 -16 16 -16h32c8.83105 0 16 7.16895 16 16v48h48z" />
    <glyph glyph-name="tornado-primary" unicode="&#xf76f;" 
d="M405.88 384c-5.07617 -10.0957 -9.31836 -20.9404 -12.46 -32h-381.52c-2.91504 10.3799 -5.33887 21.2021 -7.14062 32h401.12zM404.39 266.7c6.98047 -11.4697 15.7803 -21.9697 25.3408 -32h-345.12c-10.9844 9.83105 -20.8877 20.3926 -30 32h349.779zM347.4 0
c2.91504 10.208 4.68457 20.9648 5.10938 32h125.49c-8.26074 -11.1836 -16.9209 -21.7344 -26.2598 -32h-104.34zM504.52 149.4c4.50488 -9.74707 7.18066 -20.6377 7.48047 -32h-213.03c-18.4502 11.5 -40.46 21.5801 -64.0596 32h269.609z" />
    <glyph glyph-name="volcano-primary" unicode="&#xf770;" 
d="M480 -64h-447.9c-26.3994 0 -41.5 30.0996 -25.5996 51.2002l120.5 153.8l-0.240234 -0.30957l13.2402 -16.4902c9.7998 -12.2002 30.2998 -12.2002 40.0996 0c10.3662 13.001 26.251 21.3643 44.1006 21.5996c17.2002 1.5 33.5996 -7 44.7998 -20.0996l31.5996 -36.7998
c9.80078 -11.4004 29.2002 -11.4004 39 0l45.1006 52.5996l120.8 -154.3c15.9004 -21.1299 0.799805 -51.2002 -25.5 -51.2002z" />
    <glyph glyph-name="windsock-primary" unicode="&#xf777;" 
d="M111.89 46.9004v274.18l80 -11.4004v-251.39zM498.3 266c7.74512 -1.16504 13.71 -7.84668 13.7305 -15.9102v-132.2c0 -0.00585938 -0.0166016 -0.0126953 -0.0166016 -0.0185547c0 -8.03125 -5.95312 -14.6836 -13.6836 -15.7812l-82.3301 -11.7998v187.4z
M255.93 67.3896v233.19l96 -13.7002v-205.79z" />
    <glyph glyph-name="calendar-day-primary" unicode="&#xf783;" horiz-adv-x="448" 
d="M448 336v-80h-448v80c0 26.4922 21.5078 48 48 48h48v-48c0 -8.83105 7.16895 -16 16 -16h32c8.83105 0 16 7.16895 16 16v48h128v-48c0 -8.83105 7.16895 -16 16 -16h32c8.83105 0 16 7.16895 16 16v48h48c26.4922 0 48 -21.5078 48 -48z" />
    <glyph glyph-name="calendar-week-primary" unicode="&#xf784;" horiz-adv-x="448" 
d="M448 336v-80h-448v80c0 26.4922 21.5078 48 48 48h48v-48c0 -8.83105 7.16895 -16 16 -16h32c8.83105 0 16 7.16895 16 16v48h128v-48c0 -8.83105 7.16895 -16 16 -16h32c8.83105 0 16 7.16895 16 16v48h48c26.4922 0 48 -21.5078 48 -48z" />
    <glyph glyph-name="heart-broken-primary" unicode="&#xf7a9;" 
d="M288 96l-144.001 144l96 64.0996l-28.5898 86.5205c11.1201 -9.43359 21.7871 -19.3701 32.001 -29.8105l12.5898 -12.8096l11.6699 12c10.8203 11.0928 22.1533 21.626 34 31.5996l34.3301 -103.47l-96 -64z" />
    <glyph glyph-name="sim-card-primary" unicode="&#xf7c4;" horiz-adv-x="384" 
d="M256 448l128 -128v-320c-0.0332031 -35.3076 -28.6924 -63.9668 -64 -64h-256c-35.3076 0.0332031 -63.9668 28.6924 -64 64v384c0.0332031 35.3076 28.6924 63.9668 64 64h192zM320 32v192c0 17.6611 -14.3389 32 -32 32h-192c-17.6611 0 -32 -14.3389 -32 -32v-192
c0 -17.6611 14.3389 -32 32 -32h192c17.6611 0 32 14.3389 32 32z" />
    <glyph glyph-name="stocking-primary" unicode="&#xf7d5;" horiz-adv-x="384" 
d="M259.42 -1.71973l-61.1299 -40.7803c-20.1514 -13.2383 -44.2578 -20.9424 -70.1484 -20.9424c-70.6455 0 -128 57.3555 -128 128c0 44.1328 22.125 82.9258 56.1484 105.942l39 26v155.5h255.9v-161c-4.95996 0.662109 -10.0205 1.00391 -15.1602 1.00391
c-0.0498047 0 0.0195312 -0.00390625 -0.0302734 -0.00390625c-61.8105 -0.00488281 -111.991 -50.1885 -111.991 -112c0 -32.2207 13.6006 -61.2793 35.4111 -81.7197z" />
    <glyph glyph-name="tools-primary" unicode="&#xf7d9;" 
d="M501.1 52.2998c6.72266 -6.75684 10.8799 -16.0693 10.8799 -26.3438c0 -10.2754 -4.15723 -19.5986 -10.8799 -26.3564l-52.6992 -52.6992c-6.73535 -6.76562 -16.0547 -10.9561 -26.3457 -10.9561c-10.2295 0 -19.5098 4.1416 -26.2344 10.8359l-0.120117 0.120117
l-117.101 117.1c-23.0996 23.0996 -27.5 57.5996 -13.8994 85.4004l-106.601 106.6h-62.0996l-96 128l64 64l128 -96v-62.0996l106.6 -106.601c9.92676 4.92676 21.1104 7.69629 32.9346 7.69629c20.4346 0 39.0342 -8.21973 52.4658 -21.5957z" />
    <glyph glyph-name="tree-large-primary" unicode="&#xf7dd;" horiz-adv-x="448" 
d="M287 180.42l-31 -52.4199v-192h-64v96l-31 52.4199c-3.13965 5.32031 1.42969 11.5801 8.45996 11.5801h22.54v208c0 8.83105 7.16895 16 16 16h32c8.83105 0 16 -7.16895 16 -16v-112h22.5303c7.04004 0 11.6094 -6.25977 8.46973 -11.5801z" />
    <glyph glyph-name="files-medical-primary" unicode="&#xf7fd;" horiz-adv-x="448" 
d="M96 56c0.0332031 -30.8916 25.1084 -55.9668 56 -56h168v-40c0 -13.2461 -10.7539 -24 -24 -24h-272c-13.2461 0 -24 10.7539 -24 24v368c0 13.2461 10.7539 24 24 24h72v-296zM376 224c4.41504 0 8 -3.58496 8 -8v-48c0 -4.41504 -3.58496 -8 -8 -8h-56v-56
c0 -4.41504 -3.58496 -8 -8 -8h-48c-4.41504 0 -8 3.58496 -8 8v56h-56c-4.41504 0 -8 3.58496 -8 8v48c0 4.41504 3.58496 8 8 8h56v56c0 4.41504 3.58496 8 8 8h48c4.41504 0 8 -3.58496 8 -8v-56h56zM441 375c4.32617 -4.3418 7 -10.333 7 -16.9404v-6.05957h-96v96h6
c0.0195312 0 0.0419922 0.00292969 0.0625 0.00292969c6.60742 0 12.5957 -2.67578 16.9375 -7.00293z" />
    <glyph glyph-name="sack-primary" unicode="&#xf81c;" 
d="M337 344v-16c0 -4.41504 -3.58496 -8 -8 -8h-146c-4.41504 0 -8 3.58496 -8 8v16c0 4.41504 3.58496 8 8 8h146c4.41504 0 8 -3.58496 8 -8z" />
    </font>
</defs>
</svg>
