<?xml version="1.0" standalone="no"?>
<!DOCTYPE svg PUBLIC "-//W3C//DTD SVG 1.1//EN" "http://www.w3.org/Graphics/SVG/1.1/DTD/svg11.dtd" >
<svg xmlns="http://www.w3.org/2000/svg" xmlns:xlink="http://www.w3.org/1999/xlink" version="1.1">
<metadata>
Created by FontForge 20201107 at Tue Mar 16 10:17:06 2021
 By Robert Madole
Copyright (c) Font Awesome
</metadata>
<!-- Font Awesome Pro 5.15.3 by @fontawesome - https://fontawesome.com License - https://fontawesome.com/license (Commercial License) --><defs>
<font id="FontAwesome5Duotone-Solid" horiz-adv-x="496" >
  <font-face 
    font-family="Font Awesome 5 Duotone Solid"
    font-weight="900"
    font-stretch="normal"
    units-per-em="512"
    panose-1="2 0 5 3 0 0 0 0 0 0"
    ascent="448"
    descent="-64"
    bbox="-0.265625 -64.0439 640.007 448.242"
    underline-thickness="25"
    underline-position="-50"
    unicode-range="U+0020-10F8FF"
  />
    <missing-glyph />
    <glyph glyph-name="times-primary" unicode="&#xf00d;" horiz-adv-x="352" 
d="M342.79 91.9297c5.69141 -5.69336 9.21289 -13.5566 9.21289 -22.2354s-3.52148 -16.5498 -9.21289 -22.2441l-22.2402 -22.2402c-5.69434 -5.69141 -13.5566 -9.21289 -22.2354 -9.21289s-16.5508 3.52148 -22.2441 9.21289l-266.86 266.86
c-5.69141 5.69336 -9.21289 13.5566 -9.21289 22.2354s3.52148 16.5498 9.21289 22.2441l22.2402 22.2402c5.69434 5.69141 13.5566 9.21289 22.2354 9.21289s16.5508 -3.52148 22.2441 -9.21289z" />
    <glyph glyph-name="step-backward-primary" unicode="&#xf048;" horiz-adv-x="448" 
d="M384 384v-384c0 -27.4004 -31.9004 -41.7002 -52.5 -24.5996l-187.5 174.26v84.6895l187.5 174.24c20.5996 17.1006 52.5 2.7998 52.5 -24.5898z" />
    <glyph glyph-name="step-forward-primary" unicode="&#xf051;" horiz-adv-x="448" 
d="M64 0v384c0 27.4004 31.9004 41.7002 52.5 24.5996l187.5 -174.26v-84.6895l-187.5 -174.24c-20.5996 -17.1006 -52.5 -2.7998 -52.5 24.5898z" />
    <glyph glyph-name="globe-primary" unicode="&#xf0ac;" 
d="M376 192c0 -0.0722656 0.0224609 0.481445 0.0224609 0.40918c0 -21.7559 -1.14941 -43.2441 -3.39258 -64.4092h115c-2.89941 -10.8994 -6.61426 -21.75 -10.9199 -32h-108.38c-9.86035 -59.5303 -28.6201 -109.68 -52.75 -142.68
c-21.4443 -6.04883 -44.0088 -9.32031 -67.377 -9.32031h-0.203125c8.94043 0 18.3799 4.48047 28.0498 13.4805c11.96 11.0596 23.4902 28.2891 33.3398 49.8291c10.71 23.4102 19.1299 50.9307 25.1299 81.7803c0.44043 2.29004 0.870117 4.60059 1.28027 6.91016h-175.6
c0.410156 -2.30957 0.839844 -4.62012 1.28027 -6.91016c5.96973 -30.8496 14.4199 -58.3701 25.1299 -81.7803c9.84961 -21.54 21.3398 -38.7695 33.3398 -49.8291c9.66992 -8.9502 19.1094 -13.4805 28.0498 -13.4805
c-0.0673828 0 -0.0800781 0.0361328 -0.148438 0.0361328c-23.3682 0 -45.9873 3.23535 -67.4316 9.28418c-24.1299 33 -42.8896 83.1494 -52.75 142.68h-108.38c-4.30566 10.25 -8.02051 21.1006 -10.9199 32h115c-2.22656 21.2412 -3.36816 41.5449 -3.36816 63.3711
s1.1416 43.3877 3.36816 64.6289h-115c2.89941 10.8994 6.61426 21.75 10.9199 32h108.38c9.86035 59.5303 28.6201 109.68 52.75 142.68c21.4443 6.04883 44.0088 9.32031 67.377 9.32031h0.203125c-8.94043 0 -18.3799 -4.53027 -28 -13.4805
c-12 -11.0596 -23.54 -28.2891 -33.3896 -49.8291c-10.71 -23.4102 -19.1299 -50.9307 -25.1299 -81.7803c-0.44043 -2.29004 -0.870117 -4.60059 -1.28027 -6.91016h175.6c-0.410156 2.30957 -0.839844 4.62012 -1.28027 6.91016
c-5.96973 30.8496 -14.4199 58.3701 -25.1299 81.7803c-9.84961 21.54 -21.3398 38.7695 -33.3398 49.8291c-9.66992 8.9502 -19.1094 13.4805 -28.0498 13.4805c0.0673828 0 0.0800781 -0.0361328 0.148438 -0.0361328c23.3682 0 45.9873 -3.23535 67.4316 -9.28418
c24.1299 -33 42.8896 -83.1494 52.75 -142.68h108.41c4.30566 -10.25 8.02051 -21.1006 10.9199 -32h-115c2.22266 -21.1201 3.33984 -41.9307 3.33984 -63.6357v-0.364258zM340.46 128c2.35938 21.1396 3.54004 42.0264 3.54004 63.792v0.208008
c0 0.0693359 0.0224609 -0.459961 0.0224609 -0.390625c0 21.7656 -1.21289 43.251 -3.57227 64.3906h-184.9c-2.3584 -21.21 -3.56934 -41.5674 -3.56934 -63.4023c0 -21.834 1.21094 -43.3877 3.56934 -64.5977h184.91z" />
    <glyph glyph-name="filter-primary" unicode="&#xf0b0;" horiz-adv-x="512" 
 />
    <glyph glyph-name="smile-primary" unicode="&#xf118;" 
d="M328 272c17.6611 0 32 -14.3389 32 -32s-14.3389 -32 -32 -32s-32 14.3389 -32 32s14.3389 32 32 32zM168 272c17.6611 0 32 -14.3389 32 -32s-14.3389 -32 -32 -32s-32 14.3389 -32 32s14.3389 32 32 32z" />
    <glyph glyph-name="frown-primary" unicode="&#xf119;" 
d="M168 272c17.6611 0 32 -14.3389 32 -32s-14.3389 -32 -32 -32s-32 14.3389 -32 32s14.3389 32 32 32zM328 272c17.6611 0 32 -14.3389 32 -32s-14.3389 -32 -32 -32s-32 14.3389 -32 32s14.3389 32 32 32z" />
    <glyph glyph-name="meh-primary" unicode="&#xf11a;" 
d="M328 272c17.6611 0 32 -14.3389 32 -32s-14.3389 -32 -32 -32s-32 14.3389 -32 32s14.3389 32 32 32zM168 272c17.6611 0 32 -14.3389 32 -32s-14.3389 -32 -32 -32s-32 14.3389 -32 32s14.3389 32 32 32z" />
    <glyph glyph-name="level-up-primary" unicode="&#xf148;" horiz-adv-x="352" 
d="M345 269.24l-22 -22.1699c-4.33594 -4.36719 -10.3428 -7.07227 -16.9775 -7.07227c-6.56738 0 -12.5264 2.65234 -16.8525 6.94238l-0.120117 0.129883c-0.209961 0.209961 -0.419922 0.429688 -0.620117 0.649414l-96.4297 104.2l-96.4697 -104.21
c-0.200195 -0.219727 -0.410156 -0.44043 -0.620117 -0.650391c-4.33594 -4.36621 -10.3438 -7.07129 -16.9775 -7.07129c-6.56738 0 -12.5264 2.65234 -16.8525 6.94141c-0.0361328 0.0507812 -0.0791016 0.0947266 -0.129883 0.129883l-21.9502 22.1807
c-4.30957 4.37305 -6.9707 10.376 -6.9707 16.9951c0 6.62012 2.66113 12.6309 6.9707 17.0049l135.91 137.63c0.0517578 0.0419922 0.0976562 0.0878906 0.139648 0.139648c4.35645 4.32031 10.3525 6.99121 16.9658 6.99121c6.62012 0 12.627 -2.6748 16.9844 -7.00098
l0.139648 -0.139648l135.86 -137.58c4.30957 -4.37402 6.9707 -10.377 6.9707 -16.9961s-2.66113 -12.6309 -6.9707 -17.0039v-0.0400391z" />
    <glyph glyph-name="compass-primary" unicode="&#xf14e;" 
d="M348 318.15c16.5996 7.59961 33.75 -9.55078 26.2002 -26.2002l-66 -144.351c-3.19141 -6.99219 -8.78418 -12.5957 -15.7705 -15.7998l-144.34 -66c-16.6494 -7.60938 -33.8096 9.5498 -26.2002 26.2002l66 144.38c3.19336 6.98438 8.78613 12.5771 15.7705 15.7705z
M270.63 169.38c5.79102 5.79199 9.375 13.7998 9.375 22.6299c0 8.8291 -3.58398 16.8281 -9.375 22.6201v0c-5.79199 5.79395 -13.793 9.37109 -22.625 9.37109c-17.6611 0 -32 -14.3389 -32 -32c0 -17.6621 14.3389 -32 32 -32c8.83203 0 16.833 3.58496 22.625 9.37891z
" />
    <glyph glyph-name="dollar-sign-primary" unicode="&#xf155;" horiz-adv-x="288" 
d="M281.72 72.9004c-15.3994 -44.1006 -59.1094 -71.8008 -105.72 -72.7002l-64 -0.200195c-32.5615 0.131836 -62.6592 11.3535 -86.5098 30c-7.90039 6.09961 -8.90039 17.5996 -1.7998 24.5l34.8096 34c2.82031 2.79883 6.70215 4.52832 10.9854 4.52832
c3.13281 0 6.06934 -0.936523 8.51465 -2.52832c9.74121 -6.60059 21.5488 -10.4941 34.1904 -10.5h66.3096h0.0419922c16.2764 0 29.4902 13.2139 29.4902 29.4902c0 13.4082 -8.97266 24.7334 -21.2324 28.3096l-102.52 30c-44.4004 13 -79.6104 50.5 -83.8105 96.6006
c-0.306641 3.33789 -0.463867 6.71973 -0.463867 10.1387c0 57.0547 43.8164 103.878 99.5439 109.001v0c3.2998 0.299805 6.61035 0.459961 9.91992 0.459961h66.5303c32.5645 -0.133789 62.6641 -11.3545 86.5195 -30c7.90039 -6.09961 8.90039 -17.5996 1.80078 -24.5
l-34.8105 -34c-2.82031 -2.79883 -6.70215 -4.52832 -10.9854 -4.52832c-3.13281 0 -6.06934 0.936523 -8.51465 2.52832c-9.74902 6.59863 -21.5635 10.4922 -34.21 10.5h-66.3096h-0.0429688c-16.2754 0 -29.4893 -13.2139 -29.4893 -29.4902
c0 -13.4082 8.97266 -24.7334 21.2324 -28.3096l108 -31.6006c57.9297 -16.8994 94.04 -80.0996 72.5293 -141.699z" />
    <glyph glyph-name="moon-primary" unicode="&#xf186;" horiz-adv-x="512" 
d="M32 192c0 141.49 112.29 256 250.64 256c15.7109 0 30.9014 -1.46875 45.8008 -4.28027c10.7695 -2 13.1592 -16.7197 3.66992 -22.2295c-61.5205 -35.7598 -99.3701 -102.17 -99.3701 -174.391c0 -125.38 111.67 -220.609 233.279 -197
c10.6904 2.08008 18.2402 -10.6396 11.3203 -19.3496c-46.7803 -58.8301 -117.34 -94.75 -194.7 -94.75c-138.529 0 -250.64 114.69 -250.64 256z" />
    <glyph glyph-name="university-primary" unicode="&#xf19c;" horiz-adv-x="512" 
d="M491.06 327.39c2.90137 -1.20117 4.93945 -4.05664 4.94043 -7.38965v-16c0 -4.41504 -3.58496 -8 -8 -8h-24v-12c0 -6.62305 -5.37695 -12 -12 -12h-392c-6.62305 0 -12 5.37695 -12 12v12h-24c-4.41504 0 -8 3.58496 -8 8v16
c0.000976562 3.33301 2.03906 6.18848 4.94043 7.38965l232 88c0.941406 0.389648 1.9834 0.605469 3.06445 0.605469c1.08203 0 2.11328 -0.21582 3.05469 -0.605469zM472 16c13.2461 0 24 -10.7539 24 -24v-16c0 -4.41504 -3.58496 -8 -8 -8h-464
c-4.41504 0 -8 3.58496 -8 8v16c0 13.2461 10.7539 24 24 24h432z" />
    <glyph glyph-name="wifi-primary" unicode="&#xf1eb;" horiz-adv-x="640" 
d="M320 96c35.2998 0 64 -28.7002 64 -64s-28.7002 -64 -64 -64s-64 28.7002 -64 64s28.7002 64 64 64zM522.7 179.6l0.700195 -0.699219c6.09961 -6.30078 5.89941 -16.3008 -0.300781 -22.4004l-34.3994 -34c-6 -6 -15.6006 -6.2998 -22 -0.799805
c-83.7998 72.3994 -209.5 72.5996 -293.5 0c-6.40039 -5.5 -16 -5.10059 -22 0.799805l-34.4004 34c-0.299805 0.200195 -0.5 0.5 -0.799805 0.799805c-5.7002 6.5 -5.09961 16.5 1.40039 22.2998c115.1 101.801 290 101.9 405.3 0zM635.4 292.6
c6.19922 -6.2998 6.09961 -16.2998 -0.300781 -22.5l-34.1992 -34c-6.2002 -6.09961 -16 -6.2998 -22.4004 -0.399414c-145.9 133.7 -371.3 133.7 -517.2 0c-6.39941 -5.7998 -16.2002 -5.7002 -22.3994 0.399414l-34.2002 34
c-0.200195 0.100586 -0.299805 0.300781 -0.5 0.5c-5.90039 6.5 -5.5 16.5 0.899414 22.5c177.101 163.801 452.601 163.9 629.801 0c0.0996094 -0.199219 0.299805 -0.299805 0.5 -0.5z" />
    <glyph glyph-name="ship-primary" unicode="&#xf21a;" horiz-adv-x="640" 
d="M574.56 158.18c-1.5791 -4.89258 -4.29004 -9.27539 -7.83984 -12.8301l-92.5 -89.25c-14.7891 -14.4639 -34.9785 -23.4561 -57.2197 -23.71h-0.5c-21.2305 0 -40.79 6.12012 -53.6396 16.7705c-11.123 9.25391 -25.418 14.8232 -41.0039 14.8232
c-0.179688 0 -0.387695 0.0185547 -0.566406 0.0166016c-17.1836 -0.125977 -33.0342 -6.18457 -45.5 -16.1904c-12.3799 -9.7998 -31.1201 -15.4199 -51.4404 -15.4199h-0.509766c-22.7295 0.25293 -43.3643 9.44043 -58.4795 24.2207l-92 88.7393
c-5.78906 5.79199 -9.37207 13.79 -9.37207 22.6182c0 14.251 9.33789 26.335 22.2217 30.4727l224 72c3.08496 0.993164 6.37402 1.5293 9.78711 1.5293s6.70801 -0.536133 9.79297 -1.5293l224 -72c12.8906 -4.13281 22.2324 -16.2246 22.2324 -30.4795
c0 -3.40918 -0.543945 -6.68945 -1.53223 -9.77051v0z" />
    <glyph glyph-name="venus-primary" unicode="&#xf221;" horiz-adv-x="288" 
d="M288 272c0 -68.4482 -47.9463 -125.801 -112 -140.4v-51.5996h36c6.62305 0 12 -5.37695 12 -12v-40c0 -6.62305 -5.37695 -12 -12 -12h-36v-36c0 -6.62305 -5.37695 -12 -12 -12h-40c-6.62305 0 -12 5.37695 -12 12v36h-36c-6.62305 0 -12 5.37695 -12 12v40
c0 6.62305 5.37695 12 12 12h36v51.5996c-64.0537 14.5996 -112 71.9512 -112 140.399c0 79.4766 64.5244 144 144 144s144 -64.5234 144 -143.999zM144 192c44.1533 0 80 35.8467 80 80s-35.8467 80 -80 80s-80 -35.8467 -80 -80s35.8467 -80 80 -80z" />
    <glyph glyph-name="genderless-primary" unicode="&#xf22d;" horiz-adv-x="288" 
d="M144 336c79.4756 0 144 -64.5244 144 -144s-64.5244 -144 -144 -144s-144 64.5244 -144 144s64.5244 144 144 144zM144 112c44.1533 0 80 35.8467 80 80s-35.8467 80 -80 80s-80 -35.8467 -80 -80s35.8467 -80 80 -80z" />
    <glyph glyph-name="user-circle-primary" unicode="&#xf2bd;" 
d="M248 168c-48.5684 0 -88 39.4316 -88 88s39.4316 88 88 88s88 -39.4316 88 -88s-39.4316 -88 -88 -88zM296 128c42.9004 0 79.7002 -24.4004 98.5 -59.7998c-7.12012 -8.45898 -14.791 -16.1299 -23.25 -23.25c-80.9102 -68.0703 -201.68 -57.6602 -269.75 23.25
c18.7998 35.3994 55.5996 59.7998 98.5 59.7998c2.46777 -0.0195312 4.85352 -0.407227 7.09961 -1.09961c12.8057 -4.44727 26.6221 -6.86426 40.9326 -6.86426c14.3115 0 28.0625 2.41699 40.8682 6.86426c2.24609 0.692383 4.63184 1.08008 7.09961 1.09961z" />
    <glyph glyph-name="usd-circle-primary" unicode="&#xf2e8;" 
d="M224 320v16c0 8.83105 7.16895 16 16 16h16c8.83105 0 16 -7.16895 16 -16v-16.2002c17.0898 -0.618164 33.0938 -6.13086 46.4004 -15.0996c8.69922 -5.90039 10 -18.1006 2.2998 -25.2002l-12 -11.2998c-5.40039 -5.10059 -13.2998 -5.40039 -19.7002 -1.60059
c-5.78711 3.41602 -12.5332 5.37598 -19.7344 5.37598c-0.0419922 0 -0.123047 0.0244141 -0.166016 0.0244141h-45c-11.2998 0 -20.5 -10.5 -20.5 -23.4004c0 -10.5996 6.30078 -19.8994 15.2002 -22.6992l72 -21.9004c29 -8.7998 49.2002 -37 49.2002 -68.5996
c0.200195 -39.3008 -30.4004 -71.2002 -68 -71.4004v-16c0 -8.83105 -7.16895 -16 -16 -16h-16c-8.83105 0 -16 7.16895 -16 16v16.2002c-17.0898 0.618164 -33.0938 6.13086 -46.4004 15.0996c-8.69922 5.90039 -10 18.1006 -2.2998 25.2002l12 11.2998
c5.40039 5.10059 13.2998 5.40039 19.7002 1.60059c5.78711 -3.41602 12.5332 -5.37598 19.7344 -5.37598c0.0419922 0 0.123047 -0.0244141 0.166016 -0.0244141h45c11.2998 0 20.5 10.5 20.5 23.4004c0 10.5996 -6.30078 19.8994 -15.2002 22.6992l-72.2002 21.9004
c-29 8.7998 -49.2002 37 -49.2002 68.5996c0 39.3008 30.6006 71.3008 68.2002 71.4004z" />
    <glyph glyph-name="scrubber-primary" unicode="&#xf2f8;" 
d="M248 128c-35.3223 0 -64 28.6777 -64 64s28.6777 64 64 64s64 -28.6777 64 -64s-28.6777 -64 -64 -64z" />
    <glyph glyph-name="arrow-alt-down-primary" unicode="&#xf354;" horiz-adv-x="448" 
d="M408.93 151l-167.93 -176c-4.35742 -4.34082 -10.3662 -7.02441 -16.9961 -7.02441c-6.63086 0 -12.6465 2.68359 -17.0039 7.02441l-167.93 176c-15.1104 15.0898 -4.40039 41 17 41h335.859c21.4199 0 32.0703 -25.7598 17 -41z" />
    <glyph glyph-name="arrow-alt-up-primary" unicode="&#xf357;" horiz-adv-x="448" 
d="M39.0498 233l167.95 176c4.35645 4.34277 10.3652 7.0293 16.9961 7.0293c6.63184 0 12.6475 -2.68652 17.0039 -7.0293l167.92 -176c15.1104 -15.0898 4.40039 -41 -17 -41h-335.87c-21.4199 0 -32.0498 25.7002 -17 41z" />
    <glyph glyph-name="baseball-ball-primary" unicode="&#xf433;" 
d="M98.1699 97.5498l0.110352 0.160156l28.7598 -14l-0.0898438 -0.19043c-12.8711 -26.3955 -30.126 -49.9248 -51.1299 -70c-7.7334 7.46973 -14.8359 15.2666 -21.5605 23.6709c18.0156 17.3525 32.8291 37.6357 43.9102 60.3594zM97.5098 287.1
c-11.0723 22.3379 -25.7666 42.2637 -43.5898 59.3301c6.70703 8.41895 13.7979 16.2295 21.5205 23.71c20.7695 -19.7383 37.873 -42.8486 50.7197 -68.79zM397.79 286.48l-0.129883 -0.19043l-28.75 14l0.0898438 0.19043
c12.8867 26.4336 30.1729 49.9912 51.2197 70.0791c7.73633 -7.46484 14.8428 -15.2588 21.5703 -23.6592c-18.0625 -17.3555 -32.9082 -37.6611 -44 -60.4199zM376 192.56h-0.110352c0.000976562 -24.4121 4.16211 -47.9287 11.71 -69.79l-30.2598 -10.3994
c-8.66113 25.0791 -13.3711 52.1016 -13.3711 80.1084c0 27.2822 4.46387 53.5293 12.7012 78.0518l30.3301 -10.2002c-7.09863 -21.1768 -11 -43.8711 -11 -67.4258v-0.344727zM398.5 96.9297c11.0664 -22.3691 25.7266 -42.3174 43.5801 -59.3896
c-6.70605 -8.41309 -13.793 -16.2207 -21.5098 -23.7002c-20.7949 19.748 -37.916 42.876 -50.7705 68.8398zM108.32 261.27l30.25 10.4307c8.65723 -25.0947 13.4297 -52.084 13.4297 -80.1045v-0.0859375c0 -0.0644531 -0.0654297 -0.172852 -0.0654297 -0.238281
c0 -27.1855 -4.46191 -53.3369 -12.6943 -77.7617l-30.3301 10.2002c7.15527 21.249 11.0898 44.0361 11.0898 67.6846v0.0859375c-0.00195312 24.4082 -4.15137 47.9229 -11.6797 69.7891z" />
    <glyph glyph-name="basketball-ball-primary" unicode="&#xf434;" 
d="M280 -54c-10.418 -1.32617 -21.0352 -2.00977 -31.8105 -2.00977c-0.152344 0 -0.0371094 0.00976562 -0.189453 0.00976562v2c-0.000976562 0.235352 -0.000976562 0.47168 -0.000976562 0.708008c0 61.875 23.1113 118.507 61.1113 161.552l-61.1104 61.1104
l-163.67 -163.67c-8.07812 7.10059 -15.5293 14.5518 -22.6299 22.6299l163.67 163.67l-61.1104 61.1104c-43.0449 -38 -99.5752 -61.0693 -161.451 -61.0693c-0.236328 0 -0.573242 -0.0419922 -0.808594 -0.0410156h-2v0.0585938
c0 10.9102 0.691406 21.3984 2.0498 31.9414c0.199219 -0.000976562 0.399414 -0.000976562 0.598633 -0.000976562c53.0625 0 101.705 19.5527 138.941 51.7812l-79.8896 79.8896c7.10059 8.07812 14.5518 15.5293 22.6299 22.6299l79.8896 -79.8896
c32.2285 37.2363 51.7354 85.7793 51.7354 138.843c0 0.199219 0.0458984 0.498047 0.0449219 0.697266c10.543 1.3584 21.291 2.05957 32.2012 2.05957c0.0195312 0 -0.220703 -0.00976562 -0.201172 -0.00976562v-2
c0.000976562 -0.235352 0.000976562 -0.47168 0.000976562 -0.708008c0 -61.875 -23.1113 -118.507 -61.1113 -161.552l61.1104 -61.1104l163.67 163.67c8.07812 -7.10059 15.5293 -14.5518 22.6299 -22.6299l-163.67 -163.67l61.1104 -61.1104
c43.0518 38 99.5879 61.0693 161.47 61.0693c0.229492 0 0.560547 0.0419922 0.790039 0.0410156h2v-0.456055c0 -10.7764 -0.673828 -21.126 -2 -31.5439c-0.199219 0.000976562 -0.398438 0.000976562 -0.598633 0.000976562
c-53.0625 0 -101.705 -19.5527 -138.941 -51.7812l79.8896 -79.8896c-7.10059 -8.07812 -14.5518 -15.5293 -22.6299 -22.6299l-79.8896 79.8896c-32.2578 -37.2529 -51.7852 -85.8252 -51.7852 -138.923c0 -0.189453 -0.0458984 -0.477539 -0.0449219 -0.666992z" />
    <glyph glyph-name="bowling-ball-primary" unicode="&#xf436;" 
d="M248 440c137 0 248 -111 248 -248s-111 -248 -248 -248s-248 111 -248 248s111 248 248 248zM120 256c17.6611 0 32 14.3389 32 32s-14.3389 32 -32 32s-32 -14.3389 -32 -32s14.3389 -32 32 -32zM184 352c0 -17.6611 14.3389 -32 32 -32s32 14.3389 32 32
s-14.3389 32 -32 32s-32 -14.3389 -32 -32zM232 208c17.6611 0 32 14.3389 32 32s-14.3389 32 -32 32s-32 -14.3389 -32 -32s14.3389 -32 32 -32z" />
    <glyph glyph-name="football-ball-primary" unicode="&#xf44e;" 
d="M14.5 -3.7002c-13.0303 49.4404 -14.5 88.1904 -14.5 121.76l174.06 -174.06c-33.7695 0 -72.96 1.7002 -122.26 14.9004c-18.1533 4.88574 -32.4609 19.2275 -37.2998 37.3994zM481.5 387.7c13.0303 -49.4404 14.5 -88.1904 14.5 -121.76l-174.06 174.06
c33.7695 -0.0498047 72.96 -1.7002 122.26 -14.9004c18.1533 -4.88574 32.4609 -19.2275 37.2998 -37.3994zM5.75 180.19c24.5703 128.35 125.71 229.489 254.06 254.06l230.44 -230.44c-24.5703 -128.35 -125.71 -229.489 -254.06 -254.06zM294.66 261.88l-29.21 29.2197
c-1.49902 1.48535 -3.5625 2.40234 -5.83691 2.40234c-2.27344 0 -4.33496 -0.916992 -5.83301 -2.40234l-11.6602 -11.6699c-1.48438 -1.49609 -2.40137 -3.55859 -2.40137 -5.83105s0.916992 -4.33203 2.40137 -5.8291l29.21 -29.2197l-23.3301 -23.3193l-29.21 29.21
c-1.49805 1.48438 -3.5625 2.40137 -5.83594 2.40137c-2.27441 0 -4.33594 -0.916992 -5.83398 -2.40137l-11.6602 -11.6709c-1.48438 -1.49609 -2.40137 -3.55859 -2.40137 -5.83105s0.916992 -4.33203 2.40137 -5.82812l29.21 -29.21l-23.3301 -23.3301l-29.21 29.21
c-1.49805 1.48438 -3.5625 2.40234 -5.83594 2.40234c-2.27441 0 -4.33594 -0.917969 -5.83398 -2.40234l-11.6602 -11.6602c-1.48438 -1.49805 -2.40234 -3.5625 -2.40234 -5.83691c0 -2.27344 0.917969 -4.33496 2.40234 -5.83301l29.2002 -29.1104l-29.2002 -29.21
c-1.48438 -1.49805 -2.40234 -3.5625 -2.40234 -5.83594c0 -2.27441 0.917969 -4.33594 2.40234 -5.83398l11.6602 -11.6602c1.49805 -1.48438 3.5625 -2.40234 5.83594 -2.40234c2.27441 0 4.33594 0.917969 5.83398 2.40234l29.21 29.2002l29.21 -29.2002
c1.49902 -1.48438 3.5625 -2.40234 5.83691 -2.40234c2.27344 0 4.33496 0.917969 5.83301 2.40234l11.6602 11.6602c1.48438 1.49805 2.40234 3.5625 2.40234 5.83594c0 2.27441 -0.917969 4.33594 -2.40234 5.83398l-29.21 29.21l23.3301 23.3301l29.21 -29.21
c1.49805 -1.48438 3.5625 -2.40234 5.83594 -2.40234c2.27441 0 4.33594 0.917969 5.83398 2.40234l11.6602 11.6602c1.48438 1.49805 2.40234 3.5625 2.40234 5.83594c0 2.27441 -0.917969 4.33594 -2.40234 5.83398l-29.21 29.21l23.3398 23.4297l29.21 -29.21
c1.49805 -1.48438 3.5625 -2.40234 5.83691 -2.40234c2.27344 0 4.33496 0.917969 5.83301 2.40234l11.6602 11.6602c1.48438 1.49805 2.40234 3.5625 2.40234 5.83691c0 2.27344 -0.917969 4.33496 -2.40234 5.83301l-29.21 29.21l29.2002 29.21
c1.48438 1.49902 2.40234 3.5625 2.40234 5.83691c0 2.27344 -0.917969 4.33496 -2.40234 5.83301l-11.6602 11.6602c-1.49805 1.48535 -3.5625 2.40234 -5.83594 2.40234c-2.27441 0 -4.33594 -0.916992 -5.83398 -2.40234z" />
    <glyph glyph-name="tennis-ball-primary" unicode="&#xf45e;" 
d="M424.9 163c27.8994 -0.900391 52.3994 5.59961 71 18.4004c-5.80078 -137.301 -116.4 -232.301 -237.4 -237.4c12.9004 18.7002 19.4004 43.2002 18.5 71.0996c-2.40039 77.5 76.4004 150.5 147.9 147.9zM71.0996 221.1c-28 1.2002 -52.3994 -5.5 -71.0996 -18.3994
c5.7998 134.7 113.8 232.1 237.4 237.3c-12.8008 -18.7002 -19.3008 -43.2002 -18.4004 -71.0996c2.2002 -71.2002 -69 -149.7 -147.9 -147.801zM287.7 152.3c-37.1006 -37.0996 -60.2002 -91.5996 -58.7002 -138.7c0.599609 -19.5996 -3.2002 -64.6992 -55 -58.6992
c-77.6826 24.1113 -138.988 85.417 -163.1 163.1c-6.2002 51.9004 39.0996 55.5 58.6992 55c47.4004 -1.7998 101.601 21.5 138.7 58.7998c37.1006 37.1006 60.2002 91.6006 58.7002 138.7c-0.599609 19.5 3.09961 64.7002 54.7998 58.7002
c77.7549 -24.1826 139.118 -85.5459 163.3 -163.3c6.10059 -51.7002 -39.2998 -55.2002 -58.6992 -54.8008c-46.8008 1.90039 -101.5 -21.5996 -138.7 -58.7998z" />
    <glyph glyph-name="heart-circle-primary" unicode="&#xf4c7;" 
d="M371.5 167.7l-110.6 -114.2c-3.25781 -3.42188 -7.85742 -5.55664 -12.9502 -5.55664c-4.77539 0 -9.12207 1.88184 -12.3301 4.93652v0c-0.209961 0.200195 -0.419922 0.410156 -0.620117 0.620117l-110.5 114.2c-32.0996 33.2002 -30.2002 88.2002 5.7002 118.8
c31.2998 26.7002 77.8994 21.9004 106.6 -7.7002l11.2998 -11.5996l11.3008 11.5996c28.6992 29.6006 75.2998 34.4004 106.6 7.7002c35.7998 -30.5996 37.7002 -85.5996 5.5 -118.8z" />
    <glyph glyph-name="smile-wink-primary" unicode="&#xf4da;" 
d="M388 225.8c1.7002 -11.0996 -11.4004 -18.2998 -19.7998 -10.7998l-9.7002 8.5c-14.7998 13.2002 -46.2002 13.2002 -61 0l-9.5 -8.5c-8.2998 -7.40039 -21.5996 -0.400391 -19.7998 10.7998c4 25.2002 34.2002 42.1006 59.8994 42.1006
c25.7002 0 55.9004 -16.9004 59.9004 -42.1006zM168 272c17.6611 0 32 -14.3389 32 -32s-14.3389 -32 -32 -32s-32 14.3389 -32 32s14.3389 32 32 32z" />
    <glyph glyph-name="wine-glass-primary" unicode="&#xf4e3;" horiz-adv-x="288" 
d="M211.63 384h-135.21l-12.0098 -134.36c-0.253906 -2.58594 -0.341797 -5.19727 -0.341797 -7.84961c0 -17.75 5.81055 -34.1533 15.6318 -47.4102c11.2539 -15.2822 27.75 -26.4014 46.8193 -30.8496c5.63867 -1.30762 11.4229 -1.99902 17.4561 -1.99902
s11.9062 0.691406 17.5439 1.99902c19.0742 4.44629 35.5732 15.5654 46.8301 30.8496c9.81836 13.2402 15.6689 29.6152 15.6689 47.3486c0 2.66992 -0.131836 5.30859 -0.388672 7.91113zM255.74 448c8.2373 -0.0761719 14.9844 -6.46484 15.6494 -14.5498l16 -178.101
c0.404297 -4.40332 0.524414 -8.71191 0.524414 -13.2207c0 -68.5811 -47.8242 -126.08 -111.914 -140.938v-117.19h40c22.0762 0 40 -17.9238 40 -40c0 -4.41504 -3.58496 -8 -8 -8h-208c-4.41504 0 -8 3.58496 -8 8c0 22.0762 17.9238 40 40 40h40v117.18
c-64.0898 14.8594 -112.001 72.208 -112.001 140.789c0 4.50781 0.207031 8.96777 0.611328 13.3711l16 178.11c0.666016 8.10156 7.43945 14.499 15.6992 14.5498h223.431z" />
    <glyph glyph-name="compact-disc-primary" unicode="&#xf51f;" 
d="M248 288c52.9834 0 96 -43.0166 96 -96s-43.0166 -96 -96 -96s-96 43.0166 -96 96s43.0166 96 96 96zM248 160c17.6611 0 32 14.3389 32 32s-14.3389 32 -32 32s-32 -14.3389 -32 -32s14.3389 -32 32 -32z" />
    <glyph glyph-name="store-primary" unicode="&#xf54e;" horiz-adv-x="616" 
d="M602 329.4c33.5996 -53.6006 3.7998 -128 -59 -136.4c-4.47754 -0.595703 -9.0459 -0.904297 -13.6865 -0.904297c-0.0400391 0 0.0273438 0.00390625 -0.0136719 0.00390625c-29.3311 0.03125 -55.6816 12.792 -73.8096 33.1006
c-18.1064 -20.3213 -44.4707 -33.126 -73.8027 -33.126c-25.1924 0 -48.2246 9.50488 -65.6875 25.0459c-2.87109 2.54883 -5.53027 5.20801 -8.08008 8.08008c-18.1182 -20.3164 -44.4893 -33.1172 -73.8252 -33.1172c-25.2393 0 -48.3125 9.5332 -65.7949 25.1172
c-2.83984 2.52734 -5.47266 5.16016 -8 8c-18.0928 -20.3301 -44.4531 -33.1445 -73.7822 -33.1445c-0.0146484 0 -0.0126953 0.0439453 -0.0273438 0.0439453c-4.67773 0 -9.18457 0.303711 -13.7002 0.900391c-62.6699 8.5 -92.3701 82.9004 -58.79 136.4l64.8301 103.6
c5.66016 9.02734 15.6992 15.0342 27.1309 15.0342c0.0205078 0 0.0185547 -0.0341797 0.0390625 -0.0341797h404c11.4141 -0.0146484 21.417 -5.98438 27.0703 -15z" />
    <glyph glyph-name="angry-primary" unicode="&#xf556;" 
d="M204.6 247.33c6.60059 -1.97266 11.4092 -8.0918 11.4092 -15.3301c0 -8.83105 -7.16992 -16 -16 -16h-0.00878906h-1c0.661133 -2.56055 1.00586 -5.23438 1.00586 -8.00098c0 -17.6611 -14.3389 -32 -32 -32c-17.6621 0 -32 14.3389 -32 32
c0 9.24902 3.93164 17.5869 10.2139 23.4307l-30.8193 9.24023v0c-6.59473 1.97852 -11.4072 8.09277 -11.4072 15.3271c0 8.83398 7.17188 16.0049 16.0059 16.0049c1.59863 0 3.14355 -0.234375 4.60059 -0.671875zM392.33 260.6l0.00976562 -0.0292969
c0.431641 -1.44824 0.665039 -2.97754 0.665039 -4.56543c0 -7.24023 -4.82031 -13.3643 -11.4248 -15.335l-31.5801 -9.46973c6.15039 -5.83301 9.98242 -14.0928 9.98242 -23.2305c0 -17.6611 -14.3389 -32 -32 -32s-32 14.3389 -32 32
c0 2.77246 0.353516 5.46387 1.01758 8.03027c-8.82324 0.0078125 -15.9844 7.17188 -15.9844 15.9971c0 7.22656 4.80078 13.3398 11.3848 15.3232l80 24v0c1.45898 0.438477 3.00195 0.675781 4.60254 0.675781c7.23145 0 13.3477 -4.80664 15.3271 -11.3965z" />
    <glyph glyph-name="dizzy-primary" unicode="&#xf567;" 
d="M395.3 227.3c15.2002 -15.2002 -7.89941 -37.3994 -22.5996 -22.5996l-28.7002 28.7002l-28.7002 -28.7002c-14.7998 -14.7998 -37.7998 7.5 -22.5996 22.5996l28.7002 28.7002l-28.7002 28.7002c-15 15 7.7002 37.5996 22.5996 22.5996l28.7002 -28.7002
l28.7002 28.7002c15 15 37.5996 -7.7002 22.5996 -22.5996l-28.7002 -28.7002zM174.6 256l28.7002 -28.7002c15.2002 -15.2002 -7.89941 -37.3994 -22.5996 -22.5996l-28.7002 28.7002l-28.7002 -28.7002c-14.7998 -14.7998 -37.7998 7.5 -22.5996 22.5996l28.7002 28.7002
l-28.7002 28.7002c-15 15 7.7002 37.5996 22.5996 22.5996l28.7002 -28.7002l28.7002 28.7002c15 15 37.5996 -7.7002 22.5996 -22.5996z" />
    <glyph glyph-name="flushed-primary" unicode="&#xf579;" 
d="M152 248h0.120117c13.1846 -0.0332031 23.8809 -10.7471 23.8809 -23.9395c0 -13.2129 -10.7266 -23.9404 -23.9395 -23.9404s-23.9404 10.7275 -23.9404 23.9404c0 13.1924 10.6943 23.9062 23.8789 23.9395zM344 248h0.120117
c13.1846 -0.0332031 23.8809 -10.7471 23.8809 -23.9395c0 -13.2129 -10.7266 -23.9404 -23.9395 -23.9404s-23.9404 10.7275 -23.9404 23.9404c0 13.1924 10.6943 23.9062 23.8789 23.9395z" />
    <glyph glyph-name="frown-open-primary" unicode="&#xf57a;" 
d="M168 272c17.6611 0 32 -14.3389 32 -32s-14.3389 -32 -32 -32s-32 14.3389 -32 32s14.3389 32 32 32zM328 272c17.6611 0 32 -14.3389 32 -32s-14.3389 -32 -32 -32s-32 14.3389 -32 32s14.3389 32 32 32z" />
    <glyph glyph-name="globe-africa-primary" unicode="&#xf57c;" 
d="M423.5 240c-8.55469 0 -15.5 -6.94531 -15.5 -15.5v0v-6.92969c0 -6.06934 -3.48242 -11.3203 -8.57031 -13.8604l-15.4297 -7.70996c-2.0752 -1.0332 -4.41504 -1.61523 -6.88965 -1.61523c-3.18457 0 -6.17773 0.963867 -8.64062 2.61523l-18.1699 12.1201
c-2.45996 1.63867 -5.41309 2.59375 -8.58691 2.59375c-1.70996 0 -3.37402 -0.272461 -4.91309 -0.78418l-2.64941 -0.879883c-6.16504 -2.03711 -10.6191 -7.84863 -10.6191 -14.6924c0 -1.70117 0.28125 -3.33594 0.789062 -4.86719
c0.445312 -1.33008 1.06738 -2.59375 1.83008 -3.74023l13.2393 -19.8604c2.77734 -4.16699 7.51074 -6.89941 12.8906 -6.89941h8.20996c8.55469 0 15.5 -6.94531 15.5 -15.5v-11.3398c-0.00195312 -3.48242 -1.15918 -6.71094 -3.10059 -9.30078l-18.7393 -25
c-1.39062 -1.85742 -2.38281 -4.0625 -2.83008 -6.42969l-4.32031 -22.8096c-0.633789 -3.35449 -2.3418 -6.34082 -4.75977 -8.56055c-9.51562 -8.71289 -17.8174 -18.3887 -25 -29.1602l-13 -19.5498c-4.9834 -7.44922 -13.4727 -12.3584 -23.0986 -12.3584
c-10.8662 0 -20.251 6.25586 -24.8115 15.3584c-5.30078 10.5947 -8.33008 22.627 -8.33008 35.2705v29.8896c0 8.55469 -6.94531 15.5 -15.5 15.5h-25.8799c-30.1465 0.00585938 -54.6201 24.4824 -54.6201 54.6299v14.0605
c0.00390625 17.874 8.5625 33.7285 21.8496 43.6992l27.5801 20.6904c9.12012 6.83984 20.4473 10.8936 32.7148 10.8936l0.0556641 0.0263672h0.889648h0.0205078c8.75195 0 17.0771 -2.09863 24.4092 -5.76953l14.7207 -7.36035
c2.08105 -1.04102 4.42969 -1.62695 6.91309 -1.62695c1.71191 0 3.37695 0.273438 4.91699 0.787109l47.3096 15.7695c6.15039 2.05664 10.5879 7.86621 10.5879 14.7041c0 8.5498 -6.94043 15.4873 -15.4873 15.4961h-10.0908h-0.0400391
c-4.27734 0 -8.1543 1.73438 -10.96 4.54004l-6.91992 6.91992c-2.80566 2.80566 -6.68066 4.54199 -10.958 4.54199c-0.0136719 0 -0.0283203 -0.00195312 -0.0419922 -0.00195312h-90c-8.54004 0.0166016 -15.4697 6.95508 -15.4697 15.5v4.40039
c0.0244141 7.23535 5.01855 13.3115 11.7402 15l14.4502 3.60938c3.79102 0.950195 7.02832 3.27832 9.13965 6.44043l8.08008 12.1094c2.7666 4.18555 7.50293 6.93457 12.8896 6.94043h24.21c8.5498 0.00585938 15.4902 6.94824 15.4902 15.5v0.00976562v70.4404
c106 -13.6504 191 -94.1904 211.34 -197.95h-67.8398z" />
    <glyph glyph-name="globe-americas-primary" unicode="&#xf57d;" 
d="M321.39 150.64l13.71 -13.6396c5.51953 -5.51855 8.93066 -13.1445 8.93066 -21.5586v-0.0410156c0 -0.0126953 0.00683594 -0.0292969 0.00683594 -0.0419922c0 -12.8779 -5.25098 -24.54 -13.7275 -32.958c-3.89941 -3.88086 -7.98926 -7.9502 -11.3096 -11.2803
c-2.9375 -2.91602 -5.11621 -6.59863 -6.23047 -10.71c-1.50977 -5.66016 -2.76953 -11.3799 -4.76953 -16.8701l-14.1104 -57.6299c-1.97168 -8.16406 -8.75977 -14.4766 -17.1699 -15.7598c-1.73926 -0.260742 -3.47949 -0.490234 -5.22949 -0.700195
c-0.824219 -0.0986328 -1.64062 -0.148438 -2.49023 -0.148438c-11.5898 0 -20.999 9.40918 -21 20.998v29.0703c1.69043 12.6201 -7.62988 36.25 -22.6299 51.25c-5.79102 5.79199 -9.37012 13.8008 -9.37012 22.6299v32
c0 0.0292969 0.0341797 0.0361328 0.0341797 0.0654297c0 12.0205 -6.66309 22.4971 -16.4941 27.9346c-14.3701 7.9502 -34.8096 19.0596 -48.8096 26.1104c-11.5566 5.84961 -22.1377 13.1406 -31.6504 21.75l-0.799805 0.719727
c-6.85938 6.19141 -12.8545 13.0713 -18.0605 20.7402c-7.29004 10.6992 -23.9502 35.3799 -35.6699 52.7695c-5.37695 7.9707 -8.54688 17.6221 -8.5498 27.9502v45.71c21.9531 26.8203 49.0605 48.6729 80.2598 64.46l40.5801 -38.6396
c4.73633 -4.50977 10.0938 -8.28516 16 -11.2402c2.15039 -1.07617 4.58887 -1.6875 7.15527 -1.6875c1.53125 0 3.0127 0.214844 4.41504 0.617188c6.70508 2.04004 11.5908 8.27051 11.5908 15.6387c0 0.0644531 0 0.12793 -0.000976562 0.191406
c0.00878906 6.41504 4.9082 11.6973 11.1602 12.3301c2.53027 0.270508 5.0498 0.480469 7.58008 0.650391c0.263672 0.0166016 0.520508 0.0263672 0.788086 0.0263672c3.4209 0 6.52051 -1.39062 8.76172 -3.63672l24.4004 -24.4004v0
c2.89648 -2.89551 4.68945 -6.90039 4.68945 -11.3164s-1.79297 -8.41699 -4.68945 -11.3135l-4.69043 -4.67969l-10.3301 -10.3496c-1.44727 -1.44824 -2.34277 -3.4502 -2.34277 -5.65625c0 -2.20703 0.895508 -4.20605 2.34277 -5.6543l4.69043 -4.68945
c1.44629 -1.44824 2.3418 -3.4502 2.3418 -5.65625c0 -2.20703 -0.895508 -4.20605 -2.3418 -5.6543l-8 -8c-1.44824 -1.44629 -3.44824 -2.33984 -5.6543 -2.33984h-0.00585938h-9c-2.17773 -0.0224609 -4.15039 -0.916016 -5.58008 -2.34961l-9.91992 -9.65039
c-1.49121 -1.45312 -2.41211 -3.49219 -2.41211 -5.73633c0 -1.27637 0.299805 -2.4834 0.832031 -3.55371l15.5898 -31.1904c0.538086 -1.0752 0.845703 -2.2959 0.845703 -3.5791c0 -4.41406 -3.58203 -7.99805 -7.99609 -8h-5.63965
c-2.00586 0.0126953 -3.8418 0.766602 -5.24023 2l-9.2793 8.05957c-2.80859 2.43652 -6.4834 3.91113 -10.4902 3.91113c-1.77148 0 -3.47656 -0.288086 -5.07031 -0.821289l-31.1699 -10.3896c-4.69141 -1.63086 -8.07227 -6.08301 -8.07227 -11.3281
c0 -4.64551 2.64648 -8.67871 6.5127 -10.6719l11.0801 -5.54004c9.10352 -4.55664 19.4443 -7.16016 30.3096 -7.16016c10.5195 0 22.5898 -27.29 32 -32h66.7598c0.00585938 0 0.0146484 0.00390625 0.0195312 0.00390625c8.82422 0 16.8193 -3.5791 22.6104 -9.36426z
M477.67 285.73c11.751 -28.9199 18.3174 -60.5498 18.3174 -93.668c0 -19.4209 -2.22656 -38.3252 -6.4375 -56.4727l-55.6396 29.2197l-20.5205 10.1006c-4.32422 1.85254 -7.96387 4.90332 -10.54 8.78027l-18 27c-2.53516 3.80469 -4.01465 8.42188 -4.01465 13.334
c0 4.91113 1.47949 9.48047 4.01465 13.2852l19.5908 29.3809c2.31934 3.47168 5.48047 6.26953 9.23926 8.14941c8.35645 4.1709 17.7305 6.89844 27.4805 7.74023z" />
    <glyph glyph-name="globe-asia-primary" unicode="&#xf57e;" 
d="M260.07 230.28c-0.655273 0.385742 -1.44238 0.624023 -2.25781 0.624023c-1.62402 0 -3.04395 -0.87793 -3.8125 -2.18457l-17.3398 -28.9502c-2.79688 -4.66309 -7.8916 -7.76953 -13.7197 -7.76953h-0.310547c-4.41699 0 -8.42383 -1.79199 -11.3203 -4.69043
l-5.65918 -5.65918c-1.44727 -1.44824 -2.34277 -3.4502 -2.34277 -5.65625c0 -2.20703 0.895508 -4.20605 2.34277 -5.6543l5.65918 -5.66016c2.89746 -2.89453 4.68848 -6.89551 4.69043 -11.3096v-9.37012c0 -8.83105 -7.16895 -16 -16 -16h-6.09961
c-6.25391 0.0126953 -11.6611 3.60547 -14.2803 8.84961l-22.6201 45.2305c-1.31055 2.63184 -4.02441 4.43555 -7.16211 4.43555c-2.21875 0 -4.22852 -0.904297 -5.67773 -2.36523l-19.4697 -19.46c-2.89551 -2.89746 -6.89648 -4.68848 -11.3105 -4.69043h-111.33
c-1.3584 10.543 -2.0498 21.0312 -2.0498 31.9414v0.0585938c0 137 111 248 248 248c0.0537109 0 0.0244141 -0.0273438 0.078125 -0.0273438c22.0977 0 43.5244 -2.89355 63.9219 -8.32227v-34.3809c0 -0.00292969 0.0234375 0.00683594 0.0234375 0.00292969
c0 -9.12695 -4.37695 -17.2393 -11.1436 -22.3525l-41.4102 -31.2695c-2.15039 -1.43457 -3.56836 -3.87402 -3.56836 -6.65137c0 -3.13184 1.80371 -5.8457 4.42871 -7.15918l10.8301 -5.41016c5.24805 -2.62598 8.83984 -8.0459 8.83984 -14.3096v-78.1201
c0 -4.41504 -3.58496 -8 -8 -8h-3.05957c-3.13086 0.00195312 -5.83789 1.79688 -7.15039 4.41992c-0.383789 0.776367 -0.979492 1.41895 -1.71973 1.86035zM403.31 125.48c2.89746 -2.89551 4.68848 -6.89648 4.69043 -11.3105v-24.5996
c-0.00195312 -4.41406 -1.79297 -8.41504 -4.69043 -11.3105l-9.56934 -9.56934c-2.89551 -2.89746 -6.89648 -4.68848 -11.3105 -4.69043h-15.1602c-4.43945 0.00195312 -8.46094 1.81348 -11.3594 4.74023l-13 13c-4.84473 4.8252 -11.5166 7.80371 -18.8877 7.80371
c-2.25293 0 -4.44141 -0.279297 -6.53223 -0.803711l-21.2705 -5.32031c-1.24121 -0.3125 -2.53418 -0.479492 -3.87207 -0.479492h-0.0078125h-10.3398c-4.38574 0.0205078 -8.36035 1.80859 -11.2402 4.68945l-11.9102 11.9102
c-1.44629 1.44824 -2.33984 3.44727 -2.33984 5.65332v0.00683594v10.2002c0 0.00390625 -0.00488281 0.00488281 -0.00488281 0.00976562c0 3.35645 2.07227 6.2334 5.00488 7.41992l39.3398 15.7402c1.99121 0.791016 3.87207 1.82129 5.59082 3.0498l23.71 16.8896
c1.30664 0.929688 2.91113 1.48047 4.63477 1.48047h0.00488281h12.1396l-0.000976562 0.00488281c3.33008 0 6.1875 -2.03906 7.3916 -4.93555l5.34961 -12.8496c0.602539 -1.44531 2.02734 -2.45898 3.69043 -2.45996h3.7998c1.81836 0 3.35449 1.2168 3.83984 2.87988
l4.16016 14.4902c0.485352 1.66309 2.02148 2.87988 3.83984 2.87988h6.05957c2.20801 0 4 -1.79199 4 -4v-12.9502c0 -0.00195312 -0.000976562 -0.00488281 -0.000976562 -0.00683594c0 -2.20605 0.895508 -4.20508 2.3418 -5.65332z" />
    <glyph glyph-name="grimace-primary" unicode="&#xf57f;" 
d="M168 272c17.6611 0 32 -14.3389 32 -32s-14.3389 -32 -32 -32s-32 14.3389 -32 32s14.3389 32 32 32zM328 272c17.6611 0 32 -14.3389 32 -32s-14.3389 -32 -32 -32s-32 14.3389 -32 32s14.3389 32 32 32z" />
    <glyph glyph-name="grin-primary" unicode="&#xf580;" 
d="M168 272c17.6611 0 32 -14.3389 32 -32s-14.3389 -32 -32 -32s-32 14.3389 -32 32s14.3389 32 32 32zM328 272c17.6611 0 32 -14.3389 32 -32s-14.3389 -32 -32 -32s-32 14.3389 -32 32s14.3389 32 32 32z" />
    <glyph glyph-name="grin-alt-primary" unicode="&#xf581;" 
d="M151.7 311.3c3.55469 5.23828 9.53613 8.68359 16.3379 8.68359c6.80273 0 12.8066 -3.44531 16.3623 -8.68359c12.3994 -18.3994 15.0996 -36.8994 15.6992 -55.2998c-0.5 -18.4004 -3.2998 -36.9004 -15.6992 -55.2998
c-3.55566 -5.23828 -9.53711 -8.68359 -16.3389 -8.68359s-12.8066 3.44531 -16.3613 8.68359c-12.4004 18.3994 -15.1006 36.8994 -15.7002 55.2998c0.5 18.4004 3.2998 36.9004 15.7002 55.2998zM344.4 311.3c12.3994 -18.3994 15.0996 -36.8994 15.6992 -55.2998
c-0.5 -18.4004 -3.2998 -36.9004 -15.6992 -55.2998c-3.55566 -5.23828 -9.53711 -8.68359 -16.3389 -8.68359s-12.8066 3.44531 -16.3613 8.68359c-12.4004 18.3994 -15.1006 36.8994 -15.7002 55.2998c0.5 18.4004 3.2998 36.9004 15.7002 55.2998
c3.55469 5.23828 9.53613 8.68359 16.3379 8.68359c6.80273 0 12.8066 -3.44531 16.3623 -8.68359z" />
    <glyph glyph-name="grin-beam-primary" unicode="&#xf582;" 
d="M168 296c23.7998 0 52.7002 -29.2998 56 -71.4004c0.700195 -8.59961 -10.7998 -11.8994 -14.9004 -4.5l-9.5 17c-7.69922 13.7002 -19.1992 21.6006 -31.5 21.6006c-12.2998 0 -23.7998 -7.90039 -31.5 -21.6006l-9.5 -17c-4.19922 -7.39941 -15.5996 -4 -14.8994 4.5
c3.09961 42.1006 32 71.4004 55.7998 71.4004zM384 224.6c0.700195 -8.59961 -10.7998 -11.8994 -14.9004 -4.5l-9.5 17c-7.69922 13.7002 -19.1992 21.6006 -31.5 21.6006c-12.2998 0 -23.7998 -7.90039 -31.5 -21.6006l-9.5 -17
c-4.09961 -7.2998 -15.5996 -4 -14.8994 4.5c3.09961 42.1006 32 71.4004 55.7998 71.4004s52.7002 -29.2998 56 -71.4004z" />
    <glyph glyph-name="grin-beam-sweat-primary" unicode="&#xf583;" horiz-adv-x="504" 
d="M462.4 444.8c13.0996 -17.3896 41.5996 -57.7998 41.5996 -77.7998c0 -26 -21.5 -47 -48 -47s-48 21 -48 47c0 20 28.5 60.4102 41.5996 77.7998c0.453125 0.614258 0.986328 1.14746 1.60059 1.60059v0c1.33594 1.00195 2.99902 1.60645 4.7959 1.60645
c2.61816 0 4.94434 -1.26074 6.4043 -3.20703zM168 296c23.7998 0 52.7002 -29.3301 56 -71.4004c0.700195 -8.59961 -10.7998 -12 -14.9004 -4.5l-9.5 17c-7.69922 13.6904 -19.1992 21.5908 -31.5 21.5908c-12.2998 0 -23.7998 -7.90039 -31.5 -21.5908l-9.5 -17
c-4.19922 -7.40918 -15.5996 -4 -14.8994 4.5c3.09961 42.0908 32 71.4004 55.7998 71.4004zM328 296c23.7998 0 52.7002 -29.3096 56 -71.4004c0.700195 -8.59961 -10.7998 -12 -14.9004 -4.5l-9.5 17c-7.69922 13.6904 -19.1992 21.5908 -31.5 21.5908
c-12.2998 0 -23.7998 -7.90039 -31.5 -21.5908l-9.5 -17c-4.09961 -7.40918 -15.5996 -4 -14.8994 4.5c3.09961 42.0908 32 71.4004 55.7998 71.4004z" />
    <glyph glyph-name="grin-hearts-primary" unicode="&#xf584;" 
d="M185.9 319.4c1.43359 -0.21875 2.88672 -0.527344 4.25977 -0.910156v0c14.8975 -4.16992 25.8398 -17.8428 25.8398 -34.0635c0 -3.2998 -0.453125 -6.49512 -1.2998 -9.52637l-19.4004 -69.9004c-1.00586 -3.62598 -4.3291 -6.29199 -8.27441 -6.29199
c-0.769531 0 -1.51562 0.101562 -2.22559 0.291992l-70.2002 18.2002c-1.33691 0.34668 -2.67676 0.77832 -3.94922 1.26953c-13.2607 5.14844 -22.6387 18.042 -22.6387 33.1123c0 4.51855 0.845703 8.84082 2.38867 12.8184
c6.69922 17.5996 26.6992 26.6992 44.8994 21.8994l7.10059 -1.89941l2 7.09961c5 18.0996 22.7998 30.9004 41.5 27.9004zM405.6 264.5c0.512695 -1.32129 0.960938 -2.73145 1.32031 -4.12012v0c0.720703 -2.81348 1.09277 -5.74414 1.09277 -8.78125
c0 -16.5049 -11.3193 -30.3867 -26.6123 -34.2988l-70.2002 -18.2002c-0.692383 -0.177734 -1.41211 -0.271484 -2.15918 -0.271484c-3.95508 0 -7.2959 2.65137 -8.34082 6.27148l-19.4004 69.9004c-0.382812 1.37305 -0.691406 2.80664 -0.910156 4.24023v0
c-0.260742 1.73242 -0.360352 3.47168 -0.360352 5.27637c0 17.7227 13.0586 32.4189 30.0703 34.9834c18.6006 3 36.4004 -9.7998 41.5 -27.9004l2 -7.09961l7.10059 1.90039c18.2002 4.69922 38.2002 -4.30078 44.8994 -21.9004z" />
    <glyph glyph-name="grin-squint-primary" unicode="&#xf585;" 
d="M214.2 250.3c3.50586 -2.0957 5.85547 -5.91406 5.85547 -10.292s-2.34961 -8.21191 -5.85547 -10.3076l-80 -48c-11.5 -6.7998 -24 7.59961 -15.4004 18l33.6006 40.2998l-33.6006 40.2998c-8.59961 10.2998 3.7998 24.9004 15.4004 18zM377.2 199.7
c8.7002 -10.4004 -3.90039 -24.7998 -15.4004 -18l-80 48c-3.47168 2.12012 -5.79004 5.92969 -5.79004 10.292s2.31836 8.1875 5.79004 10.3076l80 48c11.6006 6.90039 24 -7.7002 15.4004 -18l-33.6006 -40.2998z" />
    <glyph glyph-name="grin-stars-primary" unicode="&#xf587;" 
d="M209.3 279.1c3.72559 -0.577148 6.59082 -3.80273 6.59082 -7.68848c0 -2.15234 -0.875977 -4.10156 -2.29102 -5.51074l-25.3994 -24.6006l6 -34.8994c0.0830078 -0.446289 0.118164 -0.894531 0.118164 -1.36426c0 -4.12891 -3.35156 -7.48047 -7.47949 -7.48047
c-1.32031 0 -2.56152 0.342773 -3.63867 0.944336l-31.2002 16.2002l-31.2998 -16.2998c-1.07715 -0.601562 -2.32617 -0.956055 -3.64648 -0.956055c-4.12891 0 -7.48047 3.35254 -7.48047 7.48047c0 0.469727 0.0439453 0.929688 0.126953 1.375l6 34.9004
l-25.4004 24.5996c-1.4209 1.4209 -2.29102 3.38477 -2.29102 5.55078c0 3.9043 2.85645 7.14648 6.59082 7.74902l34.9004 5l15.5 31.6006c1.25391 2.57617 3.88965 4.35352 6.94531 4.35352c3.05664 0 5.7002 -1.77734 6.95508 -4.35352l15.5 -31.6006zM401.3 279
c3.77344 -0.484375 6.70312 -3.71387 6.70312 -7.61816c0 -2.14648 -0.881836 -4.08789 -2.30273 -5.48145l-25.4004 -24.6006l6 -34.8994c0.0830078 -0.446289 0.118164 -0.894531 0.118164 -1.36426c0 -4.12891 -3.35156 -7.48047 -7.47949 -7.48047
c-1.32031 0 -2.56152 0.342773 -3.63867 0.944336l-31.2998 16.2002l-31.3096 -16.3398c-1.07715 -0.601562 -2.32617 -0.956055 -3.64648 -0.956055c-4.12891 0 -7.48047 3.35254 -7.48047 7.48047c0 0.469727 0.0439453 0.929688 0.126953 1.375l6 34.9004
l-25.4004 24.5996c-1.1123 1.13281 -1.88672 2.60645 -2.16016 4.24023v0.0498047c-0.0654297 0.40625 -0.0917969 0.81543 -0.0917969 1.23926c0 3.88574 2.84375 7.1123 6.56152 7.71094l34.9004 5l15.5 31.5996c1.25391 2.57715 3.88965 4.35352 6.94531 4.35352
c3.05664 0 5.7002 -1.77637 6.95508 -4.35352l15.5 -31.5996z" />
    <glyph glyph-name="grin-tongue-primary" unicode="&#xf589;" 
d="M258.5 55.7197c3.5 15.3994 20.1904 24.0801 34.5898 17.5801c0.799805 -0.399414 -0.5 0.299805 19 -9.2998v-64.7695c-0.422852 -34.9609 -28.9189 -63.2266 -63.9785 -63.2266c-0.304688 0 -0.608398 0.00195312 -0.911133 0.00585938
c-35.1006 0.400391 -63.1006 29.7002 -63.1006 64.9102v63c19.2002 9.59961 18 9 18.9004 9.40039c14.4004 6.5 31.0996 -2.2002 34.5996 -17.6006l1.80078 -7.7998c2.09961 -9.20996 15.1992 -9.20996 17.2998 0zM200 240c0 -17.6611 -14.3389 -32 -32 -32
s-32 14.3389 -32 32s14.3389 32 32 32s32 -14.3389 32 -32zM328 272c17.6611 0 32 -14.3389 32 -32s-14.3389 -32 -32 -32s-32 14.3389 -32 32s14.3389 32 32 32z" />
    <glyph glyph-name="grin-tongue-squint-primary" unicode="&#xf58a;" 
d="M214.2 250.25c3.48145 -2.11328 5.80859 -5.88574 5.80859 -10.252c0 -4.36719 -2.32715 -8.19434 -5.80859 -10.3076l-80 -48c-11.5 -6.80078 -24 7.59961 -15.4004 18l33.6006 40.3096l-33.6006 40.25c-8.59961 10.2998 3.7998 24.9004 15.4004 18zM258.5 55.7197
c3.5 15.3994 20.2002 24.1104 34.5898 17.5801c0.799805 -0.399414 -0.5 0.299805 19 -9.2998v-64.7695c-0.422852 -34.9609 -28.9189 -63.2266 -63.9785 -63.2266c-0.304688 0 -0.608398 0.00195312 -0.911133 0.00585938
c-35.1006 0.400391 -63.1006 29.7002 -63.1006 64.9102v63c19.2002 9.59961 18 9 18.9004 9.40039c14.4004 6.5 31.0996 -2.2002 34.5996 -17.6006l1.80078 -7.7998c2.09961 -9.20996 15.1992 -9.20996 17.2998 0zM377.2 199.64v0.0800781
c8.7002 -10.3994 -3.90039 -24.7998 -15.4004 -18l-80 48c-3.50586 2.0957 -5.85547 5.91406 -5.85547 10.293c0 4.37793 2.34961 8.21191 5.85547 10.3076l80 48c11.7002 6.89941 23.9004 -7.7002 15.4004 -18l-33.6006 -40.3203z" />
    <glyph glyph-name="grin-wink-primary" unicode="&#xf58c;" 
d="M168 272c17.6611 0 32 -14.3389 32 -32s-14.3389 -32 -32 -32s-32 14.3389 -32 32s14.3389 32 32 32zM388 225.8c1.59961 -11 -11.5 -18.2002 -20 -10.7998l-9.5 8.5c-14.7998 13.2002 -46.2002 13.2002 -61 0l-9.5 -8.5
c-8.2998 -7.40039 -21.5996 -0.400391 -19.7998 10.7998c4 25.2002 34.2002 42.1006 59.8994 42.1006c25.7002 0 55.9004 -16.9004 59.9004 -42.1006z" />
    <glyph glyph-name="kiss-primary" unicode="&#xf596;" 
d="M328 272c17.6611 0 32 -14.3389 32 -32s-14.3389 -32 -32 -32s-32 14.3389 -32 32s14.3389 32 32 32zM168 272c17.6611 0 32 -14.3389 32 -32s-14.3389 -32 -32 -32s-32 14.3389 -32 32s14.3389 32 32 32z" />
    <glyph glyph-name="kiss-beam-primary" unicode="&#xf597;" 
d="M384.1 224.6c0.5 -8.5 -10.8994 -12 -15.0996 -4.5l-9.5 17c-7.7002 13.7002 -19.2002 21.6006 -31.5 21.6006s-23.7998 -7.90039 -31.5 -21.6006l-9.5 -17c-4.09961 -7.2998 -15.5996 -4 -14.9004 4.5c3.30078 42.1006 32.2002 71.4004 56 71.4004
c23.8008 0 52.7002 -29.2998 56 -71.4004zM168.1 296c23.8008 0 52.7002 -29.2998 56 -71.4004c0.5 -8.5 -10.8994 -12 -15.0996 -4.5l-9.5 17c-7.7002 13.7002 -19.2002 21.6006 -31.5 21.6006s-23.7998 -7.90039 -31.5 -21.6006l-9.5 -17
c-4.2002 -7.39941 -15.5996 -4 -14.9004 4.5c3.30078 42.1006 32.2002 71.4004 56 71.4004z" />
    <glyph glyph-name="kiss-wink-heart-primary" unicode="&#xf598;" horiz-adv-x="504" 
d="M501.09 45.5c1.85742 -4.72461 2.87793 -9.86914 2.87793 -15.251c0 -19.4619 -13.3457 -35.832 -31.3779 -40.4492l-83 -21.5c-0.820312 -0.211914 -1.67383 -0.324219 -2.56055 -0.324219c-4.67285 0 -8.61816 3.14062 -9.83887 7.4248l-22.9004 82.5996
c-0.993164 3.57227 -1.48828 7.32715 -1.48828 11.2139c0 20.9395 15.4043 38.3096 35.4883 41.3857c22 3.5 43.0996 -11.5996 49 -33l2.2998 -8.39941l8.40039 2.2002c21.5996 5.59961 45.0996 -5.10059 53.0996 -25.9004zM384.19 231l-9.49023 8.5
c-14.7998 13.2002 -46.2002 13.2002 -61 0l-9.7002 -8.5c-8.2998 -7.40039 -21.5996 -0.400391 -19.7998 10.7998c4 25.2002 34.2002 42.1006 59.8994 42.1006c25.7002 0 55.9004 -16.9004 59.9004 -42.1006c0.0908203 -0.59375 0.131836 -1.1875 0.131836 -1.80664
c0 -6.62305 -5.37695 -12 -12 -12c-3.04395 0 -5.8252 1.13574 -7.94141 3.00684zM168 272c17.6611 0 32 -14.3389 32 -32s-14.3389 -32 -32 -32s-32 14.3389 -32 32s14.3389 32 32 32z" />
    <glyph glyph-name="laugh-primary" unicode="&#xf599;" 
d="M328 288c17.6611 0 32 -14.3389 32 -32s-14.3389 -32 -32 -32s-32 14.3389 -32 32s14.3389 32 32 32zM168 288c17.6611 0 32 -14.3389 32 -32s-14.3389 -32 -32 -32s-32 14.3389 -32 32s14.3389 32 32 32z" />
    <glyph glyph-name="laugh-beam-primary" unicode="&#xf59a;" 
d="M384 240.6c0.700195 -8.59961 -10.7998 -11.8994 -14.9004 -4.5l-9.5 17c-7.69922 13.7002 -19.1992 21.6006 -31.5 21.6006c-12.2998 0 -23.7998 -7.90039 -31.5 -21.6006l-9.5 -17c-4.19922 -7.39941 -15.7998 -4.09961 -15.0996 4.5
c3.2998 42.1006 32.2002 71.4004 56 71.4004s52.7002 -29.2998 56 -71.4004zM168 312c23.7998 0 52.7002 -29.2998 56 -71.4004c0.700195 -8.59961 -10.7998 -11.8994 -14.9004 -4.5l-9.5 17c-7.69922 13.7002 -19.1992 21.6006 -31.5 21.6006
c-12.2998 0 -23.7998 -7.90039 -31.5 -21.6006l-9.5 -17c-4.2998 -7.39941 -15.7998 -4 -15.0996 4.5c3.2998 42.1006 32.2002 71.4004 56 71.4004z" />
    <glyph glyph-name="laugh-squint-primary" unicode="&#xf59b;" 
d="M377.2 227.7c8.7002 -10.4004 -3.90039 -24.7998 -15.4004 -18l-80 48c-3.47168 2.12012 -5.79004 5.92969 -5.79004 10.292s2.31836 8.1875 5.79004 10.3076l80 48c11.6006 6.90039 24 -7.7002 15.4004 -18l-33.6006 -40.2998zM214.2 278.3
c3.50586 -2.0957 5.85547 -5.91406 5.85547 -10.292s-2.34961 -8.21191 -5.85547 -10.3076l-80 -48c-11.5 -6.7998 -24 7.59961 -15.4004 18l33.6006 40.2998l-33.6006 40.2998c-8.59961 10.2998 3.7998 24.9004 15.4004 18z" />
    <glyph glyph-name="laugh-wink-primary" unicode="&#xf59c;" 
d="M387.9 241.9c1.69922 -11.1006 -11.4004 -18.3008 -19.8008 -10.8008l-9.5 8.5c-14.7998 13.2002 -46.1992 13.2002 -61 0l-9.59961 -8.59961c-2.125 -1.86035 -4.91309 -3.00195 -7.95703 -3.00195c-6.66699 0 -12.0801 5.41211 -12.0801 12.0801
c0 0.619141 0.046875 1.22754 0.136719 1.82227c4 25.1992 34.2002 42.0996 59.9004 42.0996s55.9004 -16.9004 59.9004 -42.0996zM168 288c17.6611 0 32 -14.3389 32 -32s-14.3389 -32 -32 -32s-32 14.3389 -32 32s14.3389 32 32 32z" />
    <glyph glyph-name="meh-blank-primary" unicode="&#xf5a4;" 
d="M168 272c17.6611 0 32 -14.3389 32 -32s-14.3389 -32 -32 -32s-32 14.3389 -32 32s14.3389 32 32 32zM328 272c17.6611 0 32 -14.3389 32 -32s-14.3389 -32 -32 -32s-32 14.3389 -32 32s14.3389 32 32 32z" />
    <glyph glyph-name="meh-rolling-eyes-primary" unicode="&#xf5a5;" 
d="M375 280c0.651367 -2.54199 1.00293 -5.20605 1.00293 -7.9502c0 -17.6611 -14.3389 -32 -32 -32s-32 14.3389 -32 32c0 2.74414 0.345703 5.4082 0.99707 7.9502c9.1709 5.07715 19.8516 7.96875 31.0674 7.96875s21.7617 -2.8916 30.9326 -7.96875zM152 288
c0.0351562 0 0.135742 -0.0400391 0.170898 -0.0400391c11.1816 0 21.6934 -2.88867 30.8291 -7.95996c0.651367 -2.54199 1.00293 -5.20605 1.00293 -7.9502c0 -17.6611 -14.3389 -32 -32 -32s-32 14.3389 -32 32c0 2.74414 0.345703 5.4082 0.99707 7.9502
c9.13574 5.07129 19.7129 8 30.8945 8h0.105469z" />
    <glyph glyph-name="sad-cry-primary" unicode="&#xf5b3;" 
d="M152.1 267.9c25.7002 0 55.9004 -16.9004 59.9004 -42.1006c0.0898438 -0.589844 0.129883 -1.18066 0.129883 -1.7959c0 -6.62305 -5.37695 -12 -12 -12c-3.03809 0 -5.81445 1.13184 -7.92969 2.99609l-9.7002 8.5c-14.7998 13.2002 -46.2002 13.2002 -61 0l-9.5 -8.5
c-2.11523 -1.86426 -4.89746 -3.01074 -7.93555 -3.01074c-6.62305 0 -12 5.37695 -12 12c0 0.615234 0.0458984 1.2207 0.135742 1.81055c4 25.2002 34.2002 42.1006 59.8994 42.1006zM404 225.8c0.0634766 -0.504883 0.108398 -1 0.108398 -1.52246
c0 -4.62402 -2.54492 -8.6582 -6.30859 -10.7773c-1.69531 -0.927734 -3.65918 -1.46191 -5.72656 -1.46191c-3.06445 0 -5.86035 1.15918 -7.97363 3.06152l-9.5 8.5c-14.7998 13.2002 -46.1992 13.2002 -61 0l-9.59961 -8.59961
c-2.11523 -1.86426 -4.89746 -3.01074 -7.93555 -3.01074c-6.62305 0 -12 5.37695 -12 12c0 0.615234 0.0458984 1.2207 0.135742 1.81055c4 25.2002 34.2002 42.1006 59.8994 42.1006c25.7002 0 55.9004 -16.9004 59.9004 -42.1006zM360 176c8.83105 0 16 -7.16895 16 -16
v-180.47c-10.1797 -6.14453 -20.9336 -11.6211 -32 -16.2705v196.74c0 8.83105 7.16895 16 16 16zM136 176c8.83105 0 16 -7.16895 16 -16v-196.74c-11.0664 4.64941 -21.8203 10.126 -32 16.2705v180.47c0 8.83105 7.16895 16 16 16z" />
    <glyph glyph-name="sad-tear-primary" unicode="&#xf5b4;" 
d="M328 272c17.6611 0 32 -14.3389 32 -32s-14.3389 -32 -32 -32s-32 14.3389 -32 32s14.3389 32 32 32zM145.6 156.8c0.453125 0.614258 0.986328 1.14746 1.60059 1.60059c1.33594 1.00195 2.99902 1.60645 4.7959 1.60645c2.61816 0 4.94434 -1.26074 6.4043 -3.20703
c13.0996 -17.3994 41.5996 -57.7998 41.5996 -77.7998c0 -26 -21.5 -47 -48 -47s-48 21 -48 47c0 20 28.5 60.4004 41.5996 77.7998zM168 272c17.6611 0 32 -14.3389 32 -32s-14.3389 -32 -32 -32s-32 14.3389 -32 32s14.3389 32 32 32z" />
    <glyph glyph-name="smile-beam-primary" unicode="&#xf5b8;" 
d="M168 296c23.7998 0 52.7002 -29.2998 55.9805 -71.3799c0.699219 -8.60059 -10.8008 -11.9004 -14.9004 -4.5l-9.5 17c-7.7002 13.7002 -19.2002 21.5996 -31.5 21.5996s-23.7803 -7.89941 -31.4805 -21.5996l-9.5 -17c-4.2998 -7.40039 -15.7998 -4 -15.0996 4.5
c3.32031 42.0996 32.2197 71.3799 56 71.3799zM384.08 224.6c0.599609 -8.59961 -11.0098 -11.8994 -15.1201 -4.5l-9.5 17c-7.7002 13.7002 -19.1797 21.6006 -31.4795 21.6006c-12.3008 0 -23.8008 -7.90039 -31.5 -21.6006l-9.5 -17
c-4.10059 -7.2998 -15.6006 -4 -14.9004 4.5c3.2998 42.1006 32.2002 71.3809 56 71.3809s52.7002 -29.2803 56 -71.3809z" />
    <glyph glyph-name="star-half-alt-primary" unicode="&#xf5c0;" horiz-adv-x="536" 
d="M90.4805 -26.5l25 145.5l-105.78 103c-19 18.5 -8.50977 50.7998 17.7197 54.5996l146.24 21.2002l65.3398 132.4c5.13965 10.5518 15.9717 17.8311 28.4902 17.8311c0.09375 0 0.165039 -0.0302734 0.259766 -0.03125v-439.6l-130.82 -68.6006
c-23.4199 -12.2998 -50.9297 7.60059 -46.4492 33.7002z" />
    <glyph glyph-name="surprise-primary" unicode="&#xf5c2;" 
d="M328 272c17.6611 0 32 -14.3389 32 -32s-14.3389 -32 -32 -32s-32 14.3389 -32 32s14.3389 32 32 32zM168 272c17.6611 0 32 -14.3389 32 -32s-14.3389 -32 -32 -32s-32 14.3389 -32 32s14.3389 32 32 32z" />
    <glyph glyph-name="swatchbook-primary" unicode="&#xf5c3;" horiz-adv-x="512" 
d="M160 448c17.6611 0 32 -14.3389 32 -32v-384c0 -52.9834 -43.0166 -96 -96 -96s-96 43.0166 -96 96v384c0 17.6611 14.3389 32 32 32h128zM96 8c13.2461 0 24 10.7539 24 24s-10.7539 24 -24 24s-24 -10.7539 -24 -24s10.7539 -24 24 -24zM128 192v64h-64v-64h64z
M128 320v64h-64v-64h64z" />
    <glyph glyph-name="tired-primary" unicode="&#xf5c8;" 
d="M214.2 250.3c3.50586 -2.0957 5.85547 -5.91406 5.85547 -10.292s-2.34961 -8.21191 -5.85547 -10.3076l-80 -48c-11.5 -6.7998 -24 7.59961 -15.4004 18l33.6006 40.2998l-33.6006 40.2998c-8.59961 10.2998 3.7998 24.9004 15.4004 18zM377.2 199.7
c8.7002 -10.4004 -3.90039 -24.7998 -15.4004 -18l-80 48c-3.47168 2.12012 -5.79004 5.92969 -5.79004 10.292s2.31836 8.1875 5.79004 10.3076l80 48c11.6006 6.90039 24 -7.7002 15.4004 -18l-33.6006 -40.2998z" />
    <glyph glyph-name="wine-glass-alt-primary" unicode="&#xf5ce;" horiz-adv-x="288" 
d="M211.63 384h-135.21l-12.0098 -134.36c-0.253906 -2.58594 -0.341797 -5.19727 -0.341797 -7.84961c0 -17.75 5.81055 -34.1533 15.6318 -47.4102c11.2539 -15.2822 27.75 -26.4014 46.8193 -30.8496c5.63867 -1.30762 11.4229 -1.99902 17.4561 -1.99902
s11.9062 0.691406 17.5439 1.99902c19.0742 4.44629 35.5732 15.5654 46.8301 30.8496c9.81836 13.2402 15.6689 29.6152 15.6689 47.3486c0 2.66992 -0.131836 5.30859 -0.388672 7.91113zM255.74 448c8.2373 -0.0761719 14.9844 -6.46484 15.6494 -14.5498l16 -178.101
c0.404297 -4.40332 0.524414 -8.71191 0.524414 -13.2207c0 -68.5811 -47.8242 -126.08 -111.914 -140.938v-117.19h40c22.0762 0 40 -17.9238 40 -40c0 -4.41504 -3.58496 -8 -8 -8h-208c-4.41504 0 -8 3.58496 -8 8c0 22.0762 17.9238 40 40 40h40v117.18
c-64.0898 14.8594 -112.001 72.208 -112.001 140.789c0 4.50781 0.207031 8.96777 0.611328 13.3711l16 178.11c0.666016 8.10156 7.43945 14.499 15.6992 14.5498h223.431z" />
    <glyph glyph-name="car-alt-primary" unicode="&#xf5de;" horiz-adv-x="480" 
d="M438.66 235.67c24.1328 -9.10059 41.2969 -32.3799 41.3398 -59.6699v-48c0 -35.3223 -28.6777 -64 -64 -64h-352c-35.3223 0 -64 28.6777 -64 64v48c0.0429688 27.29 17.207 50.5693 41.3398 59.6699l31.1602 77.9297c16.3506 41.2559 56.5762 70.4014 103.621 70.4014
c0.126953 0 0.25293 -0.000976562 0.378906 -0.000976562h127c0.123047 0 0.193359 0.0634766 0.316406 0.0634766c47.0459 0 87.3232 -29.208 103.674 -70.4639zM131.93 289.83l-19.9297 -49.8301h256l-19.9297 49.8301
c-7.07715 17.6885 -24.3672 30.1699 -44.5703 30.1699h-127c-20.2031 0 -37.4932 -12.4814 -44.5703 -30.1699zM80 128.2c19.2002 0 48 -3.19043 48 15.9502c0 19.1396 -28.7998 47.8496 -48 47.8496s-32 -12.7598 -32 -31.9004c0 -19.1396 12.7998 -31.8994 32 -31.8994z
M400 128.2c19.2002 0 32 12.7598 32 31.8994c0 19.1406 -12.7998 31.9004 -32 31.9004s-48 -28.71 -48 -47.8496c0 -19.1406 28.7998 -15.9502 48 -15.9502z" />
    <glyph glyph-name="car-wash-primary" unicode="&#xf5e6;" horiz-adv-x="464" 
d="M424.49 155.09c23.1963 -9.60742 39.4932 -32.4404 39.5098 -59.0898v-32c0 -35.3223 -28.6777 -64 -64 -64h-336c-35.3223 0 -64 28.6777 -64 64v32c0.0117188 26.6533 16.3105 49.4912 39.5098 59.0996l5.07031 12.6699l19.9102 49.8203
c16.3438 41.2549 56.5654 70.4004 103.607 70.4004h0.392578h127c0.125977 0 0.200195 0.0634766 0.326172 0.0634766c47.0459 0 87.3232 -29.208 103.674 -70.4639l19.9297 -49.8301zM123.93 193.82l-13.5293 -33.8203h243.199l-13.5293 33.8301
c-7.07715 17.6885 -24.3672 30.1699 -44.5703 30.1699h-127c-20.207 0 -37.4951 -12.4863 -44.5703 -30.1797zM72 48.2002c19.2002 0 48 -3.19043 48 15.9502c0 19.1396 -28.7998 47.8496 -48 47.8496s-32 -12.7598 -32 -31.9004c0 -19.1396 12.7998 -31.8994 32 -31.8994z
M424 80.0996c0 19.1406 -12.7998 31.9004 -32 31.9004s-48 -28.71 -48 -47.8496c0 -19.1406 28.7998 -15.9502 48 -15.9502s32 12.7598 32 31.8994z" />
    <glyph glyph-name="do-not-enter-primary" unicode="&#xf5ec;" 
d="M248 440c137 0 248 -111 248 -248s-111 -248 -248 -248s-248 111 -248 248s111 248 248 248zM424 144c8.83105 0 16 7.16895 16 16v64c0 8.83105 -7.16895 16 -16 16h-352c-8.83105 0 -16 -7.16895 -16 -16v-64c0 -8.83105 7.16895 -16 16 -16h352z" />
    <glyph glyph-name="location-circle-primary" unicode="&#xf602;" 
d="M118.36 206.3l207.89 95.9502c19.2002 8 40 -12.7998 32 -32l-96 -207.88c-11.2002 -24 -46.3799 -16 -46.3799 9.58984v88.04h-87.8701c-25.6396 0 -33.6299 35.1396 -9.63965 46.3398v-0.0400391z" />
    <glyph glyph-name="parking-circle-primary" unicode="&#xf615;" 
d="M280 304c44.1533 0 80 -35.8467 80 -80s-35.8467 -80 -80 -80h-48v-48c0 -8.83105 -7.16895 -16 -16 -16h-32c-8.83105 0 -16 7.16895 -16 16v192c0 8.83105 7.16895 16 16 16h96zM280 208c8.83105 0 16 7.16895 16 16s-7.16895 16 -16 16h-48v-32h48z" />
    <glyph glyph-name="parking-circle-slash-primary" unicode="&#xf616;" 
d="M248 440c137 0 248 -111 248 -248s-111 -248 -248 -248s-248 111 -248 248s111 248 248 248zM248 8c47.5771 0.0195312 91.0039 18.2441 123.56 48.0596l-286.39 221.351c-13.4443 -25.4355 -21.1699 -54.6064 -21.1699 -85.3555v-0.0546875
c0 -101.46 82.54 -184 184 -184zM410.83 106.59c13.4443 25.4355 21.1699 54.6064 21.1699 85.3555v0.0546875c0 101.46 -82.54 184 -184 184c-47.5771 -0.0195312 -91.0039 -18.2441 -123.56 -48.0596z" />
    <glyph glyph-name="steering-wheel-primary" unicode="&#xf622;" 
d="M248 376c-101.553 0 -184 -82.4473 -184 -184s82.4473 -184 184 -184s184 82.4473 184 184s-82.4473 184 -184 184zM248 440c137 0 248 -111 248 -248s-111 -248 -248 -248s-248 111 -248 248s111 248 248 248z" />
    <glyph glyph-name="bullseye-arrow-primary" unicode="&#xf648;" 
d="M310 370.3l63.6797 63.7002c3.71973 3.70801 8.85059 6.00195 14.5127 6.00195c9.05469 0 16.748 -5.86523 19.4873 -14.002l18.5508 -55.6504l55.6592 -18.5498c8.13672 -2.73926 14.0029 -10.4355 14.0029 -19.4902c0 -5.66211 -2.29492 -10.79 -6.00293 -14.5098
l-63.5898 -63.7998c-3.72559 -3.72852 -8.87305 -6.03711 -14.5557 -6.03711c-2.24805 0 -4.41797 0.369141 -6.44434 1.03711l-49.7002 16.5703l-90.5996 -90.5703c-4.35156 -4.35156 -10.3623 -7.04492 -16.9971 -7.04492c-13.2686 0 -24.041 10.7725 -24.041 24.042
c0 6.63379 2.68652 12.6514 7.03809 17.0029l90.5898 90.5898l-16.5898 49.7002c-0.668945 2.02832 -1.03125 4.19531 -1.03125 6.44629c0 5.68359 2.30078 10.8379 6.03125 14.5635z" />
    <glyph glyph-name="bullseye-pointer-primary" unicode="&#xf649;" 
d="M242.21 207.35c1.49023 0.423828 3.06348 0.651367 4.68848 0.651367c9.4541 0 17.1299 -7.67578 17.1299 -17.1299c0 -1.62891 -0.233398 -3.19824 -0.658203 -4.69141l-60.8604 -214.18c-4.30957 -15.1699 -25.0801 -17 -31.9102 -2.73047l-32.8799 68.4707
l-89.1494 -89.1504c-2.80859 -2.81152 -6.68945 -4.55273 -10.9736 -4.55273c-4.2832 0 -8.16895 1.74121 -10.9766 4.55273h-0.0498047l-22 22c-2.83984 2.81348 -4.59961 6.71484 -4.59961 11.0234c0 4.2832 1.73926 8.16699 4.54883 10.9766v0h0.0507812l89.1494 89.1504
l-68.3594 32.8096c-14.25 6.82031 -12.4404 27.6104 2.73926 31.9199l214.131 60.8799h-0.0205078z" />
    <glyph glyph-name="peace-primary" unicode="&#xf67c;" 
d="M248 440c137 0 248 -111 248 -248s-111 -248 -248 -248s-248 111 -248 248s111 248 248 248zM378.11 61.8896l0.399414 0.400391c71.75 71.9697 71.5498 188.479 -0.410156 260.22s-188.47 71.5898 -260.21 -0.410156
c-33.3203 -33.2969 -53.9443 -79.3486 -53.9443 -130.13c0 -50.7803 20.624 -96.7822 53.9443 -130.08v0c33.3066 -33.3066 79.3584 -53.9199 130.136 -53.9199s96.7783 20.6133 130.085 53.9199z" />
    <glyph glyph-name="star-of-david-primary" unicode="&#xf69a;" horiz-adv-x="464" 
d="M91 137.45l-20 -33.4502h216.85l-33.2793 -56h-217.46c-28.5908 0 -46.4102 30.3799 -32 54.5898l53.21 89.4102zM127.86 199.28l-4.36035 -7.28027l-32.6201 54.6797l109.12 183.32c6.56836 10.8135 18.4111 18.0439 31.9766 18.0439s25.4551 -7.23047 32.0234 -18.0439
l55.9404 -94h-65.1602l-22.7803 38.2197l-22.7402 -38.2393h0.129883l-33.3896 -56h-0.139648zM458.92 102.59c14.4199 -24.21 -3.42969 -54.5898 -32.0303 -54.5898h-107.109l33.2197 56h40l-60.9297 102.07l-44 73.9297h65.21z" />
    <glyph glyph-name="wifi-1-primary" unicode="&#xf6aa;" horiz-adv-x="640" 
d="M320 96c35.2998 0 64 -28.7002 64 -64s-28.7002 -64 -64 -64s-64 28.7002 -64 64s28.7002 64 64 64z" />
    <glyph glyph-name="wifi-2-primary" unicode="&#xf6ab;" horiz-adv-x="640" 
d="M320 96c35.2998 0 64 -28.7002 64 -64s-28.7002 -64 -64 -64s-64 28.7002 -64 64s28.7002 64 64 64zM523.5 178.8c6.09961 -6.2998 6 -16.2998 -0.400391 -22.2998l-34.3994 -34c-6 -6 -15.6006 -6.2998 -22 -0.799805c-83.7998 72.3994 -209.5 72.5996 -293.5 0
c-6.40039 -5.5 -16 -5.10059 -22 0.799805l-34.4004 34c-0.299805 0.200195 -0.5 0.5 -0.799805 0.799805c-5.7002 6.5 -5.09961 16.5 1.40039 22.2998c115.1 101.801 290 101.9 405.3 0z" />
    <glyph glyph-name="yin-yang-primary" unicode="&#xf6ad;" 
d="M248 288c-17.6611 0 -32 14.3389 -32 32s14.3389 32 32 32s32 -14.3389 32 -32s-14.3389 -32 -32 -32zM248 440c137 0 248 -111 248 -248s-111 -248 -248 -248c-68.4375 0 -124 55.5625 -124 124s55.5625 124 124 124s124 55.5625 124 124s-55.5625 124 -124 124zM248 32
c17.6611 0 32 14.3389 32 32s-14.3389 32 -32 32s-32 -14.3389 -32 -32s14.3389 -32 32 -32z" />
    <glyph glyph-name="globe-europe-primary" unicode="&#xf7a2;" 
d="M187.4 290.9c-2.05371 -2.03809 -4.88184 -3.29785 -8 -3.30078h-16c-6.24023 0.00292969 -11.3076 5.07129 -11.3076 11.3125c0 3.11719 1.26465 5.94141 3.30762 7.98828l25.3994 25.3994c2.04688 2.04297 4.87305 3.30566 7.99023 3.30566
c6.24023 0 11.3076 -5.06543 11.3096 -11.3057v-16c-0.00195312 -3.11816 -1.26172 -5.94629 -3.2998 -8zM418.78 100.82c13.2197 -11.8799 21.2197 -28.4404 21.2197 -46.1904v-19.6299c-39.0205 -47.7939 -95.7031 -80.6055 -159.9 -88.9404v53.54
c0 8.83105 -7.16895 16 -16 16h-20.1992c-10.8008 0 -26.7002 5.30078 -35.4004 11.8008l-22.2002 16.6992c-11.0693 8.28711 -18.2002 21.4814 -18.2002 36.3594v0.0410156v23.9004c0 16.5713 8.83789 31.0557 22.1006 39l42.8994 25.6992
c6.84082 4.07617 14.876 6.46094 23.4004 6.5h31.2002l0.0332031 -0.0107422c11.2754 0 21.6016 -4.09961 29.5664 -10.8887l43.2002 -37.1006h18.2998c8.82227 -0.0146484 16.8184 -3.60352 22.6006 -9.39941l17.2998 -17.2998zM317.62 430.08
c103.09 -30.0801 178.38 -125.26 178.38 -238.08c0 -0.046875 -0.0283203 -0.0146484 -0.0283203 -0.0615234c0 -22.248 -2.93262 -43.8154 -8.43164 -64.3389h-48.6396c-0.0205078 0 -0.0400391 -0.00292969 -0.0595703 -0.00292969
c-4.44727 0 -8.46875 1.8418 -11.3408 4.80371l-32 32.5996c-2.08203 2.14648 -3.36523 5.07715 -3.36523 8.30078c0 3.27539 1.32422 6.24414 3.46484 8.39941l12.5 12.5v8.7002c-0.00195312 3.11816 -1.26172 5.94629 -3.2998 8l-9.39941 9.39941
c-2.05371 2.03809 -4.88184 3.29785 -8 3.2998h-16c-6.24023 0.00292969 -11.3076 5.07129 -11.3076 11.3125c0 3.11719 1.26465 5.94141 3.30762 7.98828l9.39941 9.39941c2.05371 2.03809 4.88184 3.29785 8 3.2998h32c6.22461 0.0273438 11.2725 5.07617 11.2998 11.3008
v9.39941c-0.0273438 6.22461 -5.0752 11.2725 -11.2998 11.2998h-36.7002c-8.83008 0 -16 -7.16895 -16 -16v-4.5c0 -0.0117188 0.00390625 -0.0185547 0.00390625 -0.0302734c0 -7.04883 -4.56836 -13.0391 -10.9033 -15.1689l-31.6006 -10.5
c-3.19238 -1.05078 -5.5 -4.05762 -5.5 -7.60059v-2.2002c0 -4.41504 -3.58398 -8 -8 -8h-16c-4.41504 0 -8 3.58496 -8 8c0 4.41602 -3.58398 8 -8 8h-3.09961c-3.13477 -0.0107422 -5.85059 -1.79102 -7.2002 -4.39941l-9.39941 -18.7002
c-2.61816 -5.22559 -8.01367 -8.7998 -14.251 -8.7998h-0.0498047h-22.0996c-8.83105 0 -16 7.16895 -16 16v25.2998c0.0078125 4.41113 1.80176 8.40918 4.7002 11.2998l20.0996 20.1006c4.45117 4.47852 7.2002 10.6514 7.2002 17.459v0.0410156
c0 3.54199 2.30664 6.54883 5.5 7.59961l40 13.2998c1.66797 0.566406 3.16699 1.49609 4.40039 2.7002l26.7998 26.7998c2.04297 2.04688 3.30469 4.87305 3.30469 7.99023c0 6.24023 -5.06543 11.3076 -11.3047 11.3096h-20.7002l-16 -16v-8c0 -4.41504 -3.58496 -8 -8 -8
h-16c-4.41504 0 -8 3.58496 -8 8v20c0.0078125 2.61523 1.25879 4.93555 3.2002 6.40039z" />
    <glyph glyph-name="grip-lines-vertical-primary" unicode="&#xf7a5;" horiz-adv-x="256" 
d="M96 432v-480c0 -8.83105 -7.16895 -16 -16 -16h-32c-8.83105 0 -16 7.16895 -16 16v480c0 8.83105 7.16895 16 16 16h32c8.83105 0 16 -7.16895 16 -16z" />
    <glyph glyph-name="radiation-primary" unicode="&#xf7b9;" 
d="M125.23 -4l80.3994 128.48c12.2197 -7.81641 26.9033 -12.3496 42.4727 -12.3496c15.5684 0 30.0879 4.5332 42.3076 12.3496l80.3799 -128.48c4.7998 -7.59961 2.40039 -18.0996 -5.59961 -22.4004c-34.8066 -18.7842 -75.1445 -29.4482 -117.438 -29.4482
c-42.2939 0 -82.1162 10.6641 -116.923 29.4482c-8 4.30078 -10.4004 14.7002 -5.59961 22.4004zM16.2305 192.18c-9.10059 0 -16.8301 7.7002 -16.2305 16.7002c5.13965 75.79 44.4404 142.18 102.53 184.18c7.39941 5.40039 17.8994 2.90039 22.7002 -4.7998
l80.3896 -128.39c-22.6006 -14.2002 -37.7998 -39.1006 -37.7998 -67.6904h-151.59zM328.23 192.18c0 28.5898 -15.2207 53.5205 -37.8203 67.8203l80.3896 128.36c4.7998 7.69922 15.2998 10.0996 22.7002 4.7998c58.0898 -42 97.3896 -108.391 102.49 -184.18
c0.589844 -9.10059 -7.10059 -16.8008 -16.2002 -16.8008h-151.56z" />
    <glyph glyph-name="radiation-alt-primary" unicode="&#xf7ba;" 
d="M104.9 192c-9.2002 0 -17 7.7002 -15.9004 16.9004c4.69336 43.5723 26.8818 82.0049 59.5195 107.83c0.514648 0.421875 1.04785 0.80957 1.61035 1.16992v0c2.50781 1.59277 5.48926 2.54297 8.67773 2.54297c5.75879 0 10.8193 -3.01074 13.6924 -7.54297
l41.7002 -66.8008c-18.1299 -11.2227 -30.1592 -31.2393 -30.2002 -54.0996h-79.0996zM312 192c-0.0302734 22.8115 -12.0205 42.7881 -30.0996 54l41.6992 66.7998c0.363281 0.560547 0.75 1.09375 1.16992 1.61035c2.97656 3.60645 7.48535 5.89062 12.5215 5.89062
c3.91406 0 7.50586 -1.38867 10.3086 -3.70117c32.5 -26 54.9004 -64.1992 59.5 -107.8c0.900391 -9.09961 -6.7998 -16.7998 -16 -16.7998h-79.0996zM172.4 71l41.7998 66.9004c9.75781 -6.24219 21.4834 -9.86133 33.915 -9.86133
c12.4326 0 24.0264 3.61914 33.7852 9.86133l41.7998 -66.9004c4.7998 -7.7998 2.39941 -18.4004 -5.7998 -22.5c-20.9844 -10.499 -44.96 -16.4092 -70.002 -16.4092s-48.7148 5.91016 -69.6982 16.4092c-8.2002 4.09961 -10.7002 14.7002 -5.7998 22.5z" />
    <glyph glyph-name="flower-primary" unicode="&#xf7ff;" horiz-adv-x="512" 
d="M336 192c0 -44.1533 -35.8467 -80 -80 -80s-80 35.8467 -80 80s35.8467 80 80 80s80 -35.8467 80 -80z" />
    <glyph glyph-name="french-fries-primary" unicode="&#xf803;" horiz-adv-x="512" 
d="M64 208c0 8.83105 7.16895 16 16 16h34c6.91992 0 13.7002 -4.24023 15.1904 -11c8.59961 -39 62.0898 -69 126.79 -69c64.6992 0 118.199 30 126.8 69c1.48926 6.73047 8.26953 11 15.1895 11h34c8.83105 0 16 -7.16895 16 -16
c-0.00195312 -1.19141 -0.132812 -2.3418 -0.379883 -3.45996l-54.1094 -243.54c-3.20215 -14.2812 -15.9619 -24.9883 -31.2002 -25h-212.55h-0.0263672c-15.25 0 -28.0205 10.7109 -31.2236 25l-54.1006 243.52c-0.248047 1.125 -0.379883 2.28223 -0.379883 3.48047z" />
    <glyph glyph-name="hand-middle-finger-primary" unicode="&#xf806;" horiz-adv-x="512" 
d="M479.93 130.84l0.0703125 -82.8398c0 -61.7979 -50.1592 -111.973 -111.95 -112h-215c-30.9053 0.00292969 -58.9189 12.5361 -79.1895 32.8096l-30.9307 30.9102c-6.75488 6.75391 -10.9297 16.0928 -10.9297 26.3906v73.4492v0.0439453
c0 14.6221 8.38574 27.2695 20.6396 33.3965l27.3604 15v-76c0 -4.41504 3.58496 -8 8 -8s8 3.58496 8 8v147c0 15.2598 12.8701 28.3799 30.8701 31.3799l30.6797 5.12012c17.8203 3 34.4502 -8.38965 34.4502 -23.54v-32c0 -4.41504 3.58496 -8 8 -8s8 3.58496 8 8v201.5
c0.773438 25.8174 21.9746 46.5391 47.9785 46.5391c0.49707 0 0.967773 0.015625 1.46191 0.000976562v0c26.3096 -0.860352 46.5596 -23.7803 46.5596 -50v-198c0 -4.41504 3.58496 -8 8 -8s8 3.58496 8 8v32c0 15.1396 16.6299 26.4902 34.4502 23.5303l38.3994 -6.40039
c13.46 -2.29004 23.1504 -12.1299 23.1504 -23.5801v-49.5498l35.6504 -9c16.208 -4.05371 28.25 -18.71 28.2793 -36.1602z" />
    <glyph glyph-name="ice-cream-primary" unicode="&#xf810;" horiz-adv-x="448" 
d="M195.39 -45.6904l-99.3398 205.521h255.95l-99.3896 -205.521c-4.99902 -10.8105 -15.9434 -18.3184 -28.627 -18.3184c-12.6846 0 -23.5947 7.50781 -28.5938 18.3184z" />
    <glyph glyph-name="popcorn-primary" unicode="&#xf819;" horiz-adv-x="512" 
d="M64 256h81.5596l28 -256h45.0508l-21.5605 256h117.95l-21.6104 -256h45l28 256h81.6104l-43.9102 -292.73c-2.30273 -15.4062 -15.6064 -27.2695 -31.6494 -27.2695h-232.881c-16.0361 0 -29.3389 11.8535 -31.6494 27.25z" />
    <glyph glyph-name="tree-palm-primary" unicode="&#xf82b;" horiz-adv-x="640" 
d="M607.74 275.14c1.87012 -9.92969 -6.49023 -19.1396 -17.7402 -19.1396h-54l-24 48l-24 -48h-192l-154.55 -154.38c-7.9502 -7.94043 -20.3701 -7.33984 -26.0703 1c-35.3799 51.7803 -21.5596 132.38 35.4404 189.38c3.37988 3.38965 7.17969 6 10.6396 9.08008
l-33.46 66.9199l-24 -48h-54c-11.2305 0 -19.5898 9.20996 -17.75 19.1396c11.6396 61.6201 78.3799 108.86 159 108.86c74.1299 0 135.9 -40.1699 154.51 -94.5c27.9502 18.7598 63.5703 30.5 103 30.5c80.6201 0 147.37 -47.2402 158.98 -108.86z" />
    <glyph glyph-name="send-backward-primary" unicode="&#xf87f;" horiz-adv-x="514" 
d="M160 96h-112c-26.4922 0 -48 21.5078 -48 48v256c0 26.4922 21.5078 48 48 48h256c26.4922 0 48 -21.5078 48 -48v-112h-144c-26.4922 0 -48 -21.5078 -48 -48v-144z" />
    <glyph glyph-name="skull-cow-primary" unicode="&#xf8de;" horiz-adv-x="640" 
d="M416 352c35.3223 0 64 -28.6777 64 -64v-128c0 -35.3223 -28.6777 -64 -64 -64l-26.9004 -134.28c-2.93066 -14.6465 -15.876 -25.7197 -31.3799 -25.7197h-75.5293c-0.00390625 0 -0.00683594 0.0244141 -0.0107422 0.0244141
c-15.5068 0 -28.4521 11.0547 -31.3799 25.7061l-26.7998 134.27c-35.3223 0 -64 28.6777 -64 64v128c0 35.3223 28.6777 64 64 64h192zM240 160c17.6611 0 32 14.3389 32 32s-14.3389 32 -32 32s-32 -14.3389 -32 -32s14.3389 -32 32 -32zM400 160
c17.6611 0 32 14.3389 32 32s-14.3389 32 -32 32s-32 -14.3389 -32 -32s14.3389 -32 32 -32z" />
    <glyph glyph-name="wagon-covered-primary" unicode="&#xf8ee;" horiz-adv-x="640" 
d="M560 192c8.83105 0 16 -7.16895 16 -16v-32c0 -8.83105 -7.16895 -16 -16 -16h-17.79c-20.1738 19.7949 -47.8486 32.0156 -78.3164 32.0156c-30.8799 0 -58.8525 -12.5469 -79.0938 -32.8154c-25.9502 -25.96 -36.1201 -61.46 -31.2695 -95.2002h-67.0605
c4.85059 33.7402 -5.31934 69.2002 -31.2695 95.2002c-20.2412 20.2686 -48.25 32.8096 -79.1299 32.8096c-30.4688 0 -58.1064 -12.2148 -78.2803 -32.0098h-17.79c-8.83105 0 -16 7.16895 -16 16v32c0 8.83105 7.16895 16 16 16h480zM416 408v-184h-32v184
c0 4.41504 3.58496 8 8 8h16c4.41504 0 8 -3.58496 8 -8zM256 408v-184h-32v184c0 4.41504 3.58496 8 8 8h16c4.41504 0 8 -3.58496 8 -8z" />
    <glyph glyph-name="times-secondary" unicode="&#x10f00d;" horiz-adv-x="352" 
d="M9.20996 91.9297l100.07 100.07l66.7197 -66.7197l-100.07 -100.07c-5.69336 -5.69141 -13.5654 -9.21289 -22.2441 -9.21289s-16.541 3.52148 -22.2354 9.21289l-22.2402 22.2402c-5.69141 5.69434 -9.21289 13.5654 -9.21289 22.2441s3.52148 16.542 9.21289 22.2354z
M342.79 336.55c5.69141 -5.69434 9.21289 -13.5654 9.21289 -22.2441s-3.52148 -16.542 -9.21289 -22.2354l-100.07 -100.07l-66.7197 66.7197l100.07 100.07c5.69336 5.69141 13.5654 9.21289 22.2441 9.21289s16.541 -3.52148 22.2354 -9.21289z" />
    <glyph glyph-name="step-backward-secondary" unicode="&#x10f048;" horiz-adv-x="448" 
d="M144 155.29v-171.29c0 -8.83105 -7.16895 -16 -16 -16h-48c-8.83105 0 -16 7.16895 -16 16v416c0 8.83105 7.16895 16 16 16h48c8.83105 0 16 -7.16895 16 -16v-244.7v-0.00976562z" />
    <glyph glyph-name="step-forward-secondary" unicode="&#x10f051;" horiz-adv-x="448" 
d="M304 228.71v171.29c0 8.83105 7.16895 16 16 16h48c8.83105 0 16 -7.16895 16 -16v-416c0 -8.83105 -7.16895 -16 -16 -16h-48c-8.83105 0 -16 7.16895 -16 16v244.7v0.00976562z" />
    <glyph glyph-name="globe-secondary" unicode="&#x10f0ac;" 
d="M340.45 128h-184.9c-2.3584 21.21 -3.56934 42.7637 -3.56934 64.5977c0 21.835 1.21094 42.1924 3.56934 63.4023h184.9c2.35938 -21.1396 3.57227 -42.625 3.57227 -64.3906c0 -0.0693359 -0.0224609 0.459961 -0.0224609 0.390625v-0.208008
c0 -21.7656 -1.19043 -42.6523 -3.5498 -63.792zM160.2 288c0.410156 2.30957 0.799805 4.62012 1.33008 6.91016c5.96973 30.8496 14.4697 58.3701 25.1299 81.7803c9.84961 21.54 21.3398 38.7695 33.3398 49.8291c9.62012 8.9502 19.0596 13.4805 28 13.4805
s18.3799 -4.53027 28.0498 -13.4805c11.9502 -11.0596 23.4902 -28.2891 33.3398 -49.8291c10.71 -23.4102 19.1299 -50.9307 25.1299 -81.7803c0.44043 -2.29004 0.870117 -4.60059 1.28027 -6.91016h-175.6zM120 192
c0 -0.0888672 -0.0224609 0.450195 -0.0224609 0.360352c0 -21.7373 1.14258 -43.21 3.37207 -64.3604h-115c-5.42676 20.4521 -8.31934 41.7676 -8.31934 63.918s2.89258 43.6299 8.31934 64.082h114.99c-2.22266 -21.1201 -3.33984 -41.9307 -3.33984 -63.6357v-0.364258z
M487.62 256c5.42676 -20.4521 8.35938 -41.7676 8.35938 -63.918s-2.89258 -43.6299 -8.31934 -64.082h-115c2.22266 21.1201 3.33984 41.9307 3.33984 63.6357v0.364258c-0.000976562 21.8271 -1.13184 42.7646 -3.37988 64h115zM476.7 288h-108.37
c-9.86035 59.5303 -28.6201 109.68 -52.75 142.68c72.877 -20.7314 132.085 -73.6982 161.12 -142.68zM315.58 -46.6797c24.1299 33 42.8896 83.1494 52.75 142.68h108.38c-29.0332 -68.9854 -88.2471 -121.955 -161.13 -142.68zM335.8 96
c-0.410156 -2.30957 -0.799805 -4.62012 -1.28027 -6.91016c-5.96973 -30.8496 -14.4199 -58.3701 -25.1299 -81.7803c-9.84961 -21.54 -21.3398 -38.7695 -33.3398 -49.8291c-9.66992 -8.9502 -19.1094 -13.4805 -28.0498 -13.4805s-18.3799 4.48047 -28.0498 13.4805
c-11.96 11.0596 -23.4902 28.2891 -33.3398 49.8291c-10.71 23.4102 -19.1299 50.9307 -25.1299 81.7803c-0.44043 2.29004 -0.870117 4.60059 -1.28027 6.91016h175.6zM180.42 430.68c-24.1299 -33 -42.8896 -83.1494 -52.75 -142.68h-108.38
c29.0332 68.9854 88.2471 121.955 161.13 142.68zM19.29 96h108.38c9.86035 -59.5303 28.6201 -109.68 52.75 -142.68c-72.8828 20.7246 -132.097 73.6943 -161.13 142.68z" />
    <glyph glyph-name="filter-secondary" unicode="&#x10f0b0;" horiz-adv-x="512" 
d="M505 407l-185 -184.93v-262.07c0 -19.5098 -22 -30.71 -37.7598 -19.6602l-80 56c-6.20215 4.33984 -10.2393 11.5234 -10.2402 19.6602v206l-185 185c-15 15.1299 -4.30957 41 17 41h464c21.3301 0 32 -25.9004 17 -41z" />
    <glyph glyph-name="smile-secondary" unicode="&#x10f118;" 
d="M248 440c137 0 248 -111 248 -248s-111 -248 -248 -248s-248 111 -248 248s111 248 248 248zM328 272c-17.6611 0 -32 -14.3389 -32 -32s14.3389 -32 32 -32s32 14.3389 32 32s-14.3389 32 -32 32zM168 272c-17.6611 0 -32 -14.3389 -32 -32s14.3389 -32 32 -32
s32 14.3389 32 32s-14.3389 32 -32 32zM362.8 101.8c13.5 16.2998 -11.2002 36.7002 -24.5996 20.5c-21.5615 -25.8271 -53.9238 -42.2705 -90.166 -42.2705c-36.2412 0 -68.6729 16.4434 -90.2344 42.2705c-13.5996 16.2002 -38.2002 -4.2002 -24.5996 -20.5
c27.4102 -32.9229 68.6084 -53.8926 114.755 -53.8926c46.1475 0 87.4346 20.9697 114.845 53.8926z" />
    <glyph glyph-name="frown-secondary" unicode="&#x10f119;" 
d="M248 440c137 0 248 -111 248 -248s-111 -248 -248 -248s-248 111 -248 248s111 248 248 248zM328 272c-17.6611 0 -32 -14.3389 -32 -32s14.3389 -32 32 -32s32 14.3389 32 32s-14.3389 32 -32 32zM168 272c-17.6611 0 -32 -14.3389 -32 -32s14.3389 -32 32 -32
s32 14.3389 32 32s-14.3389 32 -32 32zM338.2 53.7998c13.5 -16.2998 38.0996 4.2002 24.5 20.4004c-27.4033 32.9297 -68.6006 53.9043 -114.748 53.9043c-46.0996 0 -87.3486 -20.9326 -114.752 -53.8047c-13.5 -16.2998 11.0996 -36.7998 24.5996 -20.5
c21.5615 25.8271 53.9238 42.2705 90.166 42.2705c36.2412 0 68.6729 -16.4434 90.2344 -42.2705z" />
    <glyph glyph-name="meh-secondary" unicode="&#x10f11a;" 
d="M248 440c137 0 248 -111 248 -248s-111 -248 -248 -248s-248 111 -248 248s111 248 248 248zM168 272c-17.6611 0 -32 -14.3389 -32 -32s14.3389 -32 32 -32s32 14.3389 32 32s-14.3389 32 -32 32zM344 80c21.2002 0 21.2002 32 0 32h-192c-21.2002 0 -21.2002 -32 0 -32
h192zM328 208c17.6611 0 32 14.3389 32 32s-14.3389 32 -32 32s-32 -14.3389 -32 -32s14.3389 -32 32 -32z" />
    <glyph glyph-name="level-up-secondary" unicode="&#x10f148;" horiz-adv-x="352" 
d="M68 16h84v292.69l40 43.2295l40 -43.21v-348.71c0 -13.2461 -10.7539 -24 -24 -24h-196c-6.61816 0.00585938 -11.9893 5.38086 -11.9893 12c0 3.30859 1.33984 6.30859 3.50879 8.48047l56 56c2.1709 2.17285 5.1709 3.5166 8.48047 3.51953z" />
    <glyph glyph-name="compass-secondary" unicode="&#x10f14e;" 
d="M248 440c137 0 248 -111 248 -248s-111 -248 -248 -248s-248 111 -248 248s111 248 248 248zM374.14 291.95c7.60938 16.6494 -9.56934 33.7998 -26.2295 26.2002l-144.34 -66c-6.98438 -3.19336 -12.5781 -8.78613 -15.7705 -15.7705l-66 -144.35
c-7.60938 -16.6504 9.5498 -33.8105 26.2002 -26.2002l144.37 66c6.98438 3.19238 12.5771 8.78613 15.7695 15.7695z" />
    <glyph glyph-name="dollar-sign-secondary" unicode="&#x10f155;" horiz-adv-x="288" 
d="M176 384h-64v48c0 8.83105 7.16895 16 16 16h32c8.83105 0 16 -7.16895 16 -16v-48zM112 0h64v-48c0 -8.83105 -7.16895 -16 -16 -16h-32c-8.83105 0 -16 7.16895 -16 16v48z" />
    <glyph glyph-name="moon-secondary" unicode="&#x10f186;" horiz-adv-x="512" 
 />
    <glyph glyph-name="university-secondary" unicode="&#x10f19c;" horiz-adv-x="512" 
d="M160 256v-192h64v192h64v-192h64v192h64v-192h36c6.62305 0 12 -5.37695 12 -12v-20h-416v20c0 6.62305 5.37695 12 12 12h36v192h64z" />
    <glyph glyph-name="wifi-secondary" unicode="&#x10f1eb;" horiz-adv-x="640" 
 />
    <glyph glyph-name="ship-secondary" unicode="&#x10f21a;" horiz-adv-x="640" 
d="M594.3 0.110352h-0.0595703c8.09961 -0.900391 13.8994 -8.32031 13.7402 -16.3203v-31.6299c0 -9.10059 -7.60059 -16.7998 -16.7002 -16c-28.6201 2.5332 -55.7529 11.7236 -79.1406 25.8203c-55 -34.1309 -135.489 -34.6309 -192 0
c-55 -34.1309 -135.479 -34.6309 -192 0c-23.3193 -14.5107 -50.6299 -23.4209 -79.4395 -25.9209c-9.10059 -0.80957 -16.7002 6.89062 -16.7002 16v32.2305c0 7.91016 5.7002 14.9199 13.5996 15.7197c21.7207 2.2998 42.2207 10.21 57.7207 22.4199
c13.8096 10.9102 33.6201 13.21 47.1201 2c38.3193 -31.6992 107.25 -31.8301 145.25 -1.69922c13.71 10.9092 33.21 13.0098 46.71 1.7998c38.5098 -31.9307 107.84 -31.9307 145.75 -1.5c6.61621 5.25391 15.041 8.39355 24.1377 8.39355
s17.4658 -3.13965 24.082 -8.39355c15.7998 -12.4102 36.3994 -20.5205 57.9297 -22.9199zM192 320v-87.5303l-64 -20.5801v140.11c0 17.6611 14.3389 32 32 32h64v40c0 13.2461 10.7539 24 24 24h144c13.2461 0 24 -10.7539 24 -24v-40h64c17.6611 0 32 -14.3389 32 -32
v-140.11l-64 20.5801v87.5303h-256z" />
    <glyph glyph-name="venus-secondary" unicode="&#x10f221;" horiz-adv-x="288" 
d="M144 192c-44.1533 0 -80 35.8467 -80 80s35.8467 80 80 80s80 -35.8467 80 -80s-35.8467 -80 -80 -80z" />
    <glyph glyph-name="genderless-secondary" unicode="&#x10f22d;" horiz-adv-x="288" 
d="M144 112c-44.1533 0 -80 35.8467 -80 80s35.8467 80 80 80s80 -35.8467 80 -80s-35.8467 -80 -80 -80z" />
    <glyph glyph-name="user-circle-secondary" unicode="&#x10f2bd;" 
d="M248 440c137 0 248 -111 248 -248s-111 -248 -248 -248s-248 111 -248 248s111 248 248 248zM248 344c-48.5684 0 -88 -39.4316 -88 -88s39.4316 -88 88 -88s88 39.4316 88 88s-39.4316 88 -88 88zM248 0c58.7793 0.0234375 111.355 26.458 146.5 68.2002
c-18.7998 35.3994 -55.5996 59.7998 -98.5 59.7998c-2.46777 -0.0195312 -4.85352 -0.407227 -7.09961 -1.09961c-12.8057 -4.44727 -26.6221 -6.86426 -40.9326 -6.86426c-14.3115 0 -28.0625 2.41699 -40.8682 6.86426
c-2.24609 0.692383 -4.63184 1.08008 -7.09961 1.09961c-42.9004 0 -79.7002 -24.4004 -98.5 -59.7998c35.1445 -41.7422 87.7207 -68.1768 146.5 -68.2002z" />
    <glyph glyph-name="usd-circle-secondary" unicode="&#x10f2e8;" 
d="M248 440c137 0 248 -111 248 -248s-111 -248 -248 -248s-248 111 -248 248s111 248 248 248zM272 64c37.5996 0.200195 68.2002 32.0996 68 71.4004c0 31.5996 -20.2002 59.7998 -49.2002 68.5996l-72 21.9004c-8.89941 2.7998 -15.2002 12.0996 -15.2002 22.6992
c0 12.9004 9.2002 23.4004 20.5 23.4004h45c0.0429688 0 0.124023 -0.0244141 0.166016 -0.0244141c7.20117 0 13.9473 -1.95996 19.7344 -5.37598c6.40039 -3.7998 14.2998 -3.5 19.7002 1.60059l12 11.2998c7.7002 7.09961 6.39941 19.2998 -2.2998 25.2002
c-13.3066 8.96875 -29.3105 14.4814 -46.4004 15.0996v16.2002c0 8.83105 -7.16895 16 -16 16h-16c-8.83105 0 -16 -7.16895 -16 -16v-16c-37.5996 -0.0996094 -68.2002 -32.0996 -68.2002 -71.4004c0 -31.5996 20.2002 -59.7998 49.2002 -68.5996l72.2002 -21.9004
c8.89941 -2.7998 15.2002 -12.0996 15.2002 -22.6992c0 -12.9004 -9.2002 -23.4004 -20.5 -23.4004h-45c-0.0429688 0 -0.124023 0.0244141 -0.166016 0.0244141c-7.20117 0 -13.9473 1.95996 -19.7344 5.37598c-6.40039 3.7998 -14.2998 3.5 -19.7002 -1.60059
l-12 -11.2998c-7.7002 -7.09961 -6.39941 -19.2998 2.2998 -25.2002c13.3066 -8.96875 29.3105 -14.4814 46.4004 -15.0996v-16.2002c0 -8.83105 7.16895 -16 16 -16h16c8.83105 0 16 7.16895 16 16v16z" />
    <glyph glyph-name="scrubber-secondary" unicode="&#x10f2f8;" 
d="M248 440c137 0 248 -111 248 -248s-111 -248 -248 -248s-248 111 -248 248s111 248 248 248zM248 128c35.3223 0 64 28.6777 64 64s-28.6777 64 -64 64s-64 -28.6777 -64 -64s28.6777 -64 64 -64z" />
    <glyph glyph-name="arrow-alt-down-secondary" unicode="&#x10f354;" horiz-adv-x="448" 
d="M288 392v-200h-128.12v200c0 13.2461 10.7539 24 24 24h80.1201c13.2461 0 24 -10.7539 24 -24z" />
    <glyph glyph-name="arrow-alt-up-secondary" unicode="&#x10f357;" horiz-adv-x="448" 
d="M160 -8v200h128.11v-200c0 -13.2461 -10.7539 -24 -24 -24h-80.1104c-13.2461 0 -24 10.7539 -24 24z" />
    <glyph glyph-name="baseball-ball-secondary" unicode="&#x10f433;" 
d="M441.77 346.9h-0.109375c33.9199 -42.4307 54.208 -96.5781 54.208 -155.072c0 -58.2969 -20.1543 -111.924 -53.8682 -154.288c-17.8389 17.082 -32.5361 37.0381 -43.5898 59.4102l-28.6504 -14.25c12.8535 -25.96 29.9717 -49.084 50.7598 -68.8301
c-96.0195 -93.04 -248.529 -93.1797 -344.729 -0.320312c21.0029 20.0732 38.2549 43.6035 51.1201 70l0.0898438 0.19043l-28.7197 14.0498l-0.110352 -0.240234c-11.0713 -22.7295 -25.8867 -43.0146 -43.9102 -60.3594
c-33.8926 42.4141 -54.1631 96.5332 -54.1631 154.995c0 58.2705 20.1396 111.875 53.833 154.225c17.8252 -17.0557 32.5176 -36.9756 43.5801 -59.3105l28.6104 14.2002c-12.8467 25.9414 -29.9502 49.0518 -50.7197 68.79c96 93.0498 248.51 93.2402 344.729 0.410156
c-21.0156 -20.0928 -38.2744 -43.6475 -51.1396 -70.0703l-0.0898438 -0.189453l28.75 -14l0.119141 0.240234c11.0928 22.7588 25.9385 43.0645 44 60.4199zM139.25 113.51c8.22559 24.4229 12.75 50.6152 12.75 77.7969v0.173828
c0 0.0283203 -0.0703125 0.115234 -0.0703125 0.143555c0 28.0205 -4.70215 54.9512 -13.3594 80.0459l-30.2607 -10.4004c7.53613 -21.8643 11.6904 -45.3789 11.6904 -69.7891c0 -0.0400391 -0.0566406 -0.116211 -0.0566406 -0.15625
c0 -23.6357 -3.875 -46.375 -11.0234 -67.6143zM357.38 112.37l30.2197 10.3994c-7.53613 21.8213 -11.6338 45.332 -11.6338 69.7002c0 23.7188 3.87793 46.5391 11.0342 67.8604l-30.29 10.2002c-8.2373 -24.5225 -12.6963 -50.876 -12.6963 -78.1582
c0 -28.0068 4.70508 -54.9229 13.3662 -80.002z" />
    <glyph glyph-name="basketball-ball-secondary" unicode="&#x10f434;" 
d="M216 437.95c0.000976562 -0.199219 -0.0449219 -0.498047 -0.0449219 -0.697266c0 -53.0635 -19.5068 -101.606 -51.7354 -138.843l-79.8896 79.8896c36.0088 31.7314 81.6943 53.1973 131.67 59.6504zM186.89 275.74c38 43.0449 61.1113 99.6768 61.1113 161.552
c0 0.236328 0 0.472656 -0.000976562 0.708008v2c0.119141 0 0.348633 -0.0429688 0.467773 -0.0429688c62.5332 0 119.669 -23.2881 163.202 -61.6572l-163.67 -163.67zM280 -54c-0.000976562 0.209961 0.0449219 0.518555 0.0449219 0.728516
c0 53.0693 19.5068 101.618 51.7354 138.861l79.8896 -79.8896c-36.0039 -31.749 -81.6904 -53.2334 -131.67 -59.7002zM434.3 355.67c38.3691 -43.5332 61.7002 -100.779 61.7002 -163.312v-0.358398h-2c-0.229492 0.000976562 -0.560547 -0.0410156 -0.790039 -0.0410156
c-61.8818 0 -118.418 -23.0693 -161.47 -61.0693l-61.1104 61.1104zM434.3 28.3301l-79.8398 79.8896c37.2363 32.2285 85.8789 51.7812 138.941 51.7812c0.200195 0 0.399414 0 0.598633 -0.000976562c-6.4668 -49.9795 -27.9512 -95.666 -59.7002 -131.67zM309.11 108.26
c-38 -43.0449 -61.1113 -99.6768 -61.1113 -161.552c0 -0.236328 0 -0.472656 0.000976562 -0.708008v-2c-0.119141 0 -0.348633 0.0429688 -0.467773 0.0429688c-62.5332 0 -119.669 23.2881 -163.202 61.6572l163.67 163.67zM61.7002 355.67l79.8896 -79.8896
c-37.2363 -32.2285 -85.8789 -51.7812 -138.941 -51.7812c-0.199219 0 -0.399414 0 -0.598633 0.000976562c6.45312 49.9756 27.9189 95.6611 59.6504 131.67zM164.26 253.11l61.1104 -61.1104l-163.67 -163.67c-38.3691 43.5332 -61.7002 100.779 -61.7002 163.312
v0.358398h2c0.235352 -0.000976562 0.572266 0.0410156 0.808594 0.0410156c61.876 0 118.406 23.0693 161.451 61.0693z" />
    <glyph glyph-name="bowling-ball-secondary" unicode="&#x10f436;" 
d="M232 208c-17.6611 0 -32 14.3389 -32 32s14.3389 32 32 32s32 -14.3389 32 -32s-14.3389 -32 -32 -32zM216 384c17.6611 0 32 -14.3389 32 -32s-14.3389 -32 -32 -32s-32 14.3389 -32 32s14.3389 32 32 32zM120 256c-17.6611 0 -32 14.3389 -32 32s14.3389 32 32 32
s32 -14.3389 32 -32s-14.3389 -32 -32 -32z" />
    <glyph glyph-name="football-ball-secondary" unicode="&#x10f44e;" 
d="M0 119.59c0 20.79 1.97559 40.9043 5.75 60.6006l230.44 -230.44c-19.6963 -3.77441 -39.8105 -5.75 -60.6006 -5.75h-1.53027l-174.06 174.06v1.53027zM496 265.94v-1.53027c0 -20.79 -1.97559 -40.9043 -5.75 -60.6006l-230.44 230.44
c19.6963 3.77441 39.8105 5.75 60.6006 5.75h1.53027z" />
    <glyph glyph-name="tennis-ball-secondary" unicode="&#x10f45e;" 
d="M267 370.5c1.5 -47.0996 -21.5996 -101.6 -58.7002 -138.7c-37.0996 -37.2998 -91.2998 -60.5996 -138.7 -58.7998c-19.3799 0.490234 -63.8994 -3 -58.8799 -53.3096c-6.93945 22.8359 -10.7197 47.0488 -10.7197 72.1406v0.168945
c0 3.63965 0.0996094 7.25977 0.25 10.8604c18.6699 12.79 42.9697 19.4297 70.8496 18.2393c78.9004 -1.89941 150.101 76.6006 147.9 147.801c-0.900391 27.7793 5.5498 52.1797 18.2402 70.8496c3.56934 0.160156 7.14941 0.25 10.7598 0.25
c0.0625 0 0.107422 -0.046875 0.170898 -0.046875c24.9482 0 49.04 -3.69336 71.7588 -10.5635c-49.9297 4.7002 -53.5195 -39.6299 -52.9297 -58.8896zM485.26 264.37c6.95312 -22.8428 10.7402 -47.0654 10.7402 -72.1689v-0.201172
c0 -3.58008 -0.0898438 -7.15039 -0.240234 -10.6904c-18.5898 -12.7393 -43.0293 -19.21 -70.8594 -18.3096c-71.5 2.59961 -150.301 -70.4004 -147.9 -147.9c0.900391 -27.7793 -5.5498 -52.1895 -18.3398 -70.8594
c-3.54004 -0.150391 -7.08984 -0.240234 -10.6602 -0.240234c-0.0615234 0 -0.108398 0.0478516 -0.169922 0.0478516c-25.0977 0 -49.3301 3.73633 -72.1699 10.6826c50.21 -4.85059 53.9297 39.4795 53.3398 58.8691c-1.5 47.1006 21.5 101.5 58.7002 138.7
s91.8994 60.7002 138.7 58.7998c19.21 -0.399414 63.8594 3.04004 58.8594 53.2705z" />
    <glyph glyph-name="heart-circle-secondary" unicode="&#x10f4c7;" 
d="M248 440c137 0 248 -111 248 -248s-111 -248 -248 -248s-248 111 -248 248s111 248 248 248zM371.5 167.7c32.2002 33.2002 30.2998 88.2002 -5.5 118.8c-31.2998 26.7002 -77.9004 21.9004 -106.6 -7.7002l-11.3008 -11.5996l-11.2998 11.5996
c-28.7002 29.6006 -75.2998 34.4004 -106.6 7.7002c-35.9004 -30.5996 -37.7998 -85.5996 -5.7002 -118.8l110.5 -114.2c0.200195 -0.209961 0.410156 -0.419922 0.620117 -0.620117v0c3.20801 -3.05469 7.55469 -4.93652 12.3301 -4.93652
c5.09277 0 9.69238 2.13477 12.9502 5.55664z" />
    <glyph glyph-name="smile-wink-secondary" unicode="&#x10f4da;" 
d="M248 440c137 0 248 -111 248 -248s-111 -248 -248 -248s-248 111 -248 248s111 248 248 248zM168 272c-17.6611 0 -32 -14.3389 -32 -32s14.3389 -32 32 -32s32 14.3389 32 32s-14.3389 32 -32 32zM362.8 101.7c13.5 16.2998 -11 36.7002 -24.5996 20.5
c-21.5615 -25.8271 -53.9238 -42.2705 -90.166 -42.2705c-36.2412 0 -68.6729 16.4434 -90.2344 42.2705c-13.3994 16.2998 -38.0996 -4.10059 -24.5996 -20.4004c27.4287 -32.9199 68.6396 -53.8857 114.798 -53.8857c46.1104 0 87.373 20.9238 114.802 53.7861zM368.2 215
c8.39941 -7.5 21.5 -0.299805 19.7998 10.7998c-4 25.2002 -34.2002 42.1006 -59.9004 42.1006c-25.6992 0 -55.8994 -16.9004 -59.8994 -42.1006c-1.7998 -11.2002 11.5 -18.2002 19.7998 -10.7998l9.5 8.5c14.7998 13.2002 46.2002 13.2002 61 0z" />
    <glyph glyph-name="wine-glass-secondary" unicode="&#x10f4e3;" horiz-adv-x="288" 
d="M208.35 194.38c-11.2568 -15.2842 -27.7559 -26.4033 -46.8301 -30.8496c-5.6377 -1.30762 -11.5107 -1.99902 -17.5439 -1.99902s-11.8174 0.691406 -17.4561 1.99902c-19.0693 4.44824 -35.5654 15.5674 -46.8193 30.8496
c-9.82129 13.2568 -15.6318 29.6602 -15.6318 47.4102c0 2.65234 0.0878906 5.26367 0.341797 7.84961l12.0098 134.36h135.21l12 -134.36c0.256836 -2.60254 0.388672 -5.24121 0.388672 -7.91113c0 -17.7334 -5.85059 -34.1084 -15.6689 -47.3486z" />
    <glyph glyph-name="compact-disc-secondary" unicode="&#x10f51f;" 
d="M248 440c137 0 248 -111 248 -248s-111 -248 -248 -248s-248 111 -248 248s111 248 248 248zM88 192c0 88.2002 71.7998 160 160 160v32c-105.9 0 -192 -86.0996 -192 -192h32zM248 96c52.9834 0 96 43.0166 96 96s-43.0166 96 -96 96s-96 -43.0166 -96 -96
s43.0166 -96 96 -96z" />
    <glyph glyph-name="store-secondary" unicode="&#x10f54e;" horiz-adv-x="616" 
d="M547.69 161.2c5.58691 0.751953 11.1357 1.98047 16.3994 3.59961v-196.8c0 -17.6611 -14.3389 -32 -32 -32h-448.09c-17.6611 0 -32 14.3389 -32 32v196.8c5.2959 -1.53906 10.8418 -2.76367 16.4004 -3.59961c5.93164 -0.794922 11.8516 -1.2002 18 -1.2002
c10.1611 0.161133 20.0225 1.47461 29.5098 3.7998v-99.7998h384.09v99.7998c9.47168 -2.37207 19.333 -3.69043 29.5098 -3.7998c6.21094 0 12.1846 0.405273 18.1807 1.2002z" />
    <glyph glyph-name="angry-secondary" unicode="&#x10f556;" 
d="M248 440c137 0 248 -111 248 -248s-111 -248 -248 -248s-248 111 -248 248s111 248 248 248zM136 208c0.0351562 -17.6318 14.3574 -31.9502 31.9971 -31.9502c17.6611 0 32 14.3389 32 32c0 2.74414 -0.34668 5.4082 -0.99707 7.9502h1
c0.00585938 0 0.0107422 -0.00292969 0.0175781 -0.00292969c8.83008 0 16 7.16895 16 16c0 7.23828 -4.81738 13.3604 -11.418 15.333l-80 24c-1.45703 0.4375 -2.99902 0.677734 -4.59863 0.677734c-8.83301 0 -16.0049 -7.1709 -16.0049 -16.0049
c0 -7.23438 4.80957 -13.3545 11.4043 -15.333l30.8193 -9.24023c-6.29004 -5.82324 -10.2197 -14.1465 -10.2197 -23.3867v-0.0429688zM304.32 53.9502c13.4697 -16.04 38.4893 3.97949 24.6602 20.4102c-19.4385 23.0635 -48.4775 37.7266 -80.9717 37.7266
s-61.5908 -14.6631 -81.0283 -37.7266c-13.6602 -16.2305 11.1494 -36.6406 24.7197 -20.4102c28.0303 33.2598 84.6895 33.2598 112.62 0zM381.6 240.67h-0.00976562c6.5918 1.97852 11.4014 8.08984 11.4014 15.3223c0 8.83105 -7.16895 16 -16 16
c-1.59961 0 -3.14355 -0.234375 -4.60156 -0.671875l-80 -24c-6.58301 -1.9834 -11.3848 -8.09375 -11.3848 -15.3203c0 -8.8291 7.16699 -15.9971 15.9951 -16c-0.664062 -2.56641 -1.01172 -5.24512 -1.01172 -8.01855c0 -17.6611 14.3389 -32 32 -32s32 14.3389 32 32
c0 9.1377 -3.83789 17.3857 -9.98828 23.2188z" />
    <glyph glyph-name="dizzy-secondary" unicode="&#x10f567;" 
d="M248 440c137 0 248 -111 248 -248s-111 -248 -248 -248s-248 111 -248 248s111 248 248 248zM152 233.4l28.7002 -28.7002c14.7002 -14.7998 37.7998 7.39941 22.5996 22.5996l-28.7002 28.7002l28.7002 28.7002c15 14.8994 -7.59961 37.5996 -22.5996 22.5996
l-28.7002 -28.7002l-28.7002 28.7002c-14.8994 15 -37.5996 -7.59961 -22.5996 -22.5996l28.7002 -28.7002l-28.7002 -28.7002c-15.2002 -15.0996 7.7998 -37.3994 22.5996 -22.5996zM248 32c35.3223 0 64 28.6777 64 64s-28.6777 64 -64 64s-64 -28.6777 -64 -64
s28.6777 -64 64 -64zM372.7 204.7c14.7002 -14.7998 37.7998 7.39941 22.5996 22.5996l-28.7002 28.7002l28.7002 28.7002c15 14.8994 -7.59961 37.5996 -22.5996 22.5996l-28.7002 -28.7002l-28.7002 28.7002c-14.8994 15 -37.5996 -7.59961 -22.5996 -22.5996
l28.7002 -28.7002l-28.7002 -28.7002c-15.2002 -15.0996 7.7998 -37.3994 22.5996 -22.5996l28.7002 28.7002z" />
    <glyph glyph-name="flushed-secondary" unicode="&#x10f579;" 
d="M248 440c137 0 248 -111 248 -248s-111 -248 -248 -248s-248 111 -248 248s111 248 248 248zM80 224c0 -39.7383 32.2617 -72 72 -72s72 32.2617 72 72s-32.2617 72 -72 72s-72 -32.2617 -72 -72zM312 48c21.2002 0 21.2002 32 0 32h-128c-21.2002 0 -21.2002 -32 0 -32
h128zM344 152c39.7383 0 72 32.2617 72 72s-32.2617 72 -72 72s-72 -32.2617 -72 -72s32.2617 -72 72 -72z" />
    <glyph glyph-name="frown-open-secondary" unicode="&#x10f57a;" 
d="M248 440c137 0 248 -111 248 -248s-111 -248 -248 -248s-248 111 -248 248s111 248 248 248zM136 240c0 -17.6611 14.3389 -32 32 -32s32 14.3389 32 32s-14.3389 32 -32 32s-32 -14.3389 -32 -32zM323.3 56.7002c1.50098 -0.466797 3.09766 -0.736328 4.75098 -0.736328
c8.83105 0 16 7.16992 16 16c0 0.967773 -0.0859375 1.91602 -0.250977 2.83594c-7 39.9004 -60.0996 61.2002 -95.7998 61.2002s-88.7998 -21.2002 -95.7998 -61.2002c-0.165039 -0.919922 -0.250977 -1.85059 -0.250977 -2.81836c0 -8.83008 7.16992 -16 16 -16
c1.6543 0 3.25 0.251953 4.75098 0.71875c31.2002 9.59961 59.3994 15.2998 75.2998 15.2998s44.0996 -5.7002 75.2998 -15.2998zM328 208c17.6611 0 32 14.3389 32 32s-14.3389 32 -32 32s-32 -14.3389 -32 -32s14.3389 -32 32 -32z" />
    <glyph glyph-name="globe-africa-secondary" unicode="&#x10f57c;" 
d="M491.33 240c3.06055 -15.5957 4.66699 -31.5137 4.66992 -48c0 -137 -111 -248 -248 -248s-248 111 -248 248s111 248 248 248c0.0195312 0 -0.220703 0.00976562 -0.201172 0.00976562c10.9102 0 21.6582 -0.701172 32.2012 -2.05957v-70.4404v-0.00976562
c0 -8.55176 -6.94043 -15.4941 -15.4902 -15.5h-24.21c-5.38672 -0.00585938 -10.123 -2.75488 -12.8896 -6.94043l-8.08008 -12.1094c-2.11133 -3.16211 -5.34863 -5.49023 -9.13965 -6.44043l-14.4502 -3.60938c-6.72168 -1.68848 -11.7158 -7.76465 -11.7402 -15
v-4.40039c0 -8.54492 6.92969 -15.4834 15.4697 -15.5h90c0.0136719 0 0.0283203 0.00195312 0.0419922 0.00195312c4.27734 0 8.15234 -1.73633 10.958 -4.54199l6.91992 -6.91992c2.80566 -2.80566 6.68262 -4.54004 10.96 -4.54004h0.0400391h10.0908
c8.54688 -0.00878906 15.4873 -6.94629 15.4873 -15.4961c0 -6.83789 -4.4375 -12.6475 -10.5879 -14.7041l-47.3096 -15.7695c-1.54004 -0.513672 -3.20508 -0.787109 -4.91699 -0.787109c-2.4834 0 -4.83203 0.585938 -6.91309 1.62695l-14.7207 7.36035
c-7.33203 3.6709 -15.6572 5.76953 -24.4092 5.76953h-0.0205078h-0.889648l-0.0556641 -0.0263672c-12.2676 0 -23.5947 -4.05371 -32.7148 -10.8936l-27.5801 -20.6904c-13.2871 -9.9707 -21.8457 -25.8252 -21.8496 -43.6992v-14.0605
c0 -30.1475 24.4736 -54.624 54.6201 -54.6299h25.8799c8.55469 0 15.5 -6.94531 15.5 -15.5v-29.8896c0 -12.6436 3.0293 -24.6758 8.33008 -35.2705c4.56055 -9.10254 13.9453 -15.3584 24.8115 -15.3584c9.62598 0 18.1152 4.90918 23.0986 12.3584l13 19.5498
c7.18262 10.7715 15.4844 20.4473 25 29.1602c2.41797 2.21973 4.12598 5.20605 4.75977 8.56055l4.32031 22.8096c0.447266 2.36719 1.43945 4.57227 2.83008 6.42969l18.7393 25c1.94141 2.58984 3.09863 5.81836 3.10059 9.30078v11.3398
c0 8.55469 -6.94531 15.5 -15.5 15.5h-8.20996c-5.37988 0 -10.1133 2.73242 -12.8906 6.89941l-13.2393 19.8604c-0.762695 1.14648 -1.38477 2.41016 -1.83008 3.74023c-0.507812 1.53125 -0.789062 3.16602 -0.789062 4.86719c0 6.84375 4.4541 12.6553 10.6191 14.6924
l2.64941 0.879883c1.53906 0.511719 3.20312 0.78418 4.91309 0.78418c3.17383 0 6.12695 -0.955078 8.58691 -2.59375l18.1699 -12.1201c2.46289 -1.65137 5.45605 -2.61523 8.64062 -2.61523c2.47461 0 4.81445 0.582031 6.88965 1.61523l15.4297 7.70996
c5.08789 2.54004 8.57031 7.79102 8.57031 13.8604v6.92969v0c0 8.55469 6.94531 15.5 15.5 15.5h67.8301z" />
    <glyph glyph-name="globe-americas-secondary" unicode="&#x10f57d;" 
d="M489.55 135.59c-25.5498 -109.81 -123.96 -191.59 -241.55 -191.59c-137 0 -248 111 -248 248v0.392578c0 59.3516 21.0596 113.995 56 156.607v-45.71c0.00292969 -10.3281 3.17285 -19.9795 8.5498 -27.9502c11.7197 -17.3896 28.3799 -42.0703 35.6699 -52.7695
c5.20605 -7.66895 11.2012 -14.5488 18.0605 -20.7402l0.799805 -0.719727c9.5127 -8.60938 20.0938 -15.9004 31.6504 -21.75c14 -7.05078 34.4395 -18.1602 48.8096 -26.1104c9.83105 -5.4375 16.4941 -15.9141 16.4941 -27.9346
c0 -0.0292969 -0.0341797 -0.0361328 -0.0341797 -0.0654297v-32c0 -8.8291 3.5791 -16.8379 9.37012 -22.6299c15 -15 24.3203 -38.6299 22.6299 -51.25v-29.0703c0.000976562 -11.5889 9.41016 -20.998 21 -20.998c0.849609 0 1.66602 0.0498047 2.49023 0.148438
c1.75 0.209961 3.49023 0.439453 5.22949 0.700195c8.41016 1.2832 15.1982 7.5957 17.1699 15.7598l14.1104 57.6299c2 5.49023 3.25977 11.21 4.76953 16.8701c1.11426 4.11133 3.29297 7.79395 6.23047 10.71c3.32031 3.33008 7.41016 7.39941 11.3096 11.2803
c8.47656 8.41797 13.7275 20.0801 13.7275 32.958c0 0.0126953 -0.00683594 0.0292969 -0.00683594 0.0419922v0.0410156c0 8.41406 -3.41113 16.04 -8.93066 21.5586l-13.71 13.6699c-5.78809 5.76758 -13.7705 9.33398 -22.5801 9.33398
c-0.0146484 0 -0.0341797 -0.00390625 -0.0498047 -0.00390625h-66.7598c-9.41016 4.70996 -21.4805 32 -32 32c-10.8652 0 -21.2061 2.60352 -30.3096 7.16016l-11.0801 5.54004c-3.86621 1.99316 -6.5127 6.02637 -6.5127 10.6719
c0 5.24512 3.38086 9.69727 8.07227 11.3281l31.1699 10.3896c1.59375 0.533203 3.29883 0.821289 5.07031 0.821289c4.00684 0 7.68164 -1.47461 10.4902 -3.91113l9.2793 -8.05957c1.39844 -1.2334 3.23438 -1.9873 5.24023 -2h5.63965
c4.41406 0.00195312 7.99609 3.58594 7.99609 8c0 1.2832 -0.307617 2.50391 -0.845703 3.5791l-15.5898 31.1904c-0.532227 1.07031 -0.832031 2.27734 -0.832031 3.55371c0 2.24414 0.920898 4.2832 2.41211 5.73633l9.91992 9.65039
c1.42969 1.43359 3.40234 2.32715 5.58008 2.34961h9h0.00585938c2.20605 0 4.20605 0.893555 5.6543 2.33984l8 8c1.44629 1.44824 2.3418 3.44727 2.3418 5.6543c0 2.20605 -0.895508 4.20801 -2.3418 5.65625l-4.69043 4.68945
c-1.44727 1.44824 -2.34277 3.44727 -2.34277 5.6543c0 2.20605 0.895508 4.20801 2.34277 5.65625l10.3301 10.3496l4.69043 4.67969c2.89648 2.89648 4.68945 6.89746 4.68945 11.3135s-1.79297 8.4209 -4.68945 11.3164v0l-24.4004 24.4004
c-2.24121 2.24609 -5.34082 3.63672 -8.76172 3.63672c-0.267578 0 -0.524414 -0.00976562 -0.788086 -0.0263672c-2.53027 -0.169922 -5.0498 -0.379883 -7.58008 -0.650391c-6.25195 -0.632812 -11.1514 -5.91504 -11.1602 -12.3301
c0.000976562 -0.0634766 0.000976562 -0.126953 0.000976562 -0.191406c0 -7.36816 -4.88574 -13.5986 -11.5908 -15.6387c-1.40234 -0.402344 -2.88379 -0.617188 -4.41504 -0.617188c-2.56641 0 -5.00488 0.611328 -7.15527 1.6875
c-5.90625 2.95508 -11.2637 6.73047 -16 11.2402l-40.5801 38.6396c33.415 16.8828 71.1758 26.3945 111.142 26.3945c0.121094 0 0.477539 0.145508 0.598633 0.145508c103.83 0 192.71 -63.7598 229.67 -154.27l-36.5098 -3.15039
c-9.75 -0.841797 -19.124 -3.56934 -27.4805 -7.74023c-3.75879 -1.87988 -6.91992 -4.67773 -9.23926 -8.14941l-19.5908 -29.3809c-2.53516 -3.80469 -4.01465 -8.37402 -4.01465 -13.2852c0 -4.91211 1.47949 -9.5293 4.01465 -13.334l18 -27
c2.57617 -3.87695 6.21582 -6.92773 10.54 -8.78027l20.5205 -10.1006z" />
    <glyph glyph-name="globe-asia-secondary" unicode="&#x10f57e;" 
d="M312 431.65c106 -28.21 184 -124.78 184 -239.65c0 -137 -111 -248 -248 -248c-126.16 0 -230.26 94.1201 -245.95 216h111.33c4.41699 0 8.42383 1.79199 11.3203 4.69043l19.4697 19.46c0.615234 0.618164 1.32324 1.13281 2.11035 1.5293v0
c1.06934 0.53125 2.27832 0.842773 3.55371 0.842773c3.1377 0 5.85547 -1.81055 7.16602 -4.44238l22.6201 -45.2305c2.61914 -5.24414 8.02637 -8.83691 14.2803 -8.84961h6.09961c8.83105 0 16 7.16895 16 16v9.37012
c-0.00195312 4.41406 -1.79297 8.41504 -4.69043 11.3096l-5.65918 5.66016c-1.44727 1.44824 -2.34277 3.44922 -2.34277 5.65625s0.895508 4.20605 2.34277 5.6543l5.65918 5.65918c2.89648 2.89844 6.90332 4.69043 11.3203 4.69043h0.310547
c0.00878906 0 0.00683594 -0.0175781 0.0166016 -0.0175781c5.81641 0 10.9121 3.11035 13.7129 7.75781l17.3398 29v0c0.770508 1.29688 2.1875 2.1582 3.80469 2.1582c0.823242 0 1.59473 -0.225586 2.25586 -0.618164
c0.740234 -0.441406 1.33594 -1.08398 1.71973 -1.86035c1.3125 -2.62305 4.01953 -4.41797 7.15039 -4.41992h3.05957c4.41504 0 8 3.58496 8 8v78.1201c0 6.26367 -3.5918 11.6836 -8.83984 14.3096l-10.8301 5.41016c-2.625 1.31348 -4.42871 4.01758 -4.42871 7.15039
c0 2.77637 1.41797 5.22559 3.56836 6.66016l41.4102 31.2695c6.7666 5.11328 11.1201 13.2129 11.1201 22.3398v0.00976562v34.3809zM408 89.5703v24.5996c-0.015625 4.39453 -1.80469 8.37598 -4.69043 11.2598l-11.9092 11.9102
c-1.44629 1.44824 -2.34082 3.44727 -2.34082 5.65332v0.00683594v13c0 2.20801 -1.79199 4 -4 4h-6.05957c-1.81836 0 -3.35449 -1.2168 -3.83984 -2.87988l-4.16016 -14.4902c-0.485352 -1.66309 -2.02148 -2.87988 -3.83984 -2.87988h-3.7998
c-1.66309 0.000976562 -3.08789 1.01465 -3.69043 2.45996l-5.34961 12.8496c-1.2041 2.89648 -4.05762 4.93066 -7.3877 4.93066h-0.00292969h-12.1396c-0.00195312 0 -0.0107422 -0.00488281 -0.0117188 -0.00488281c-1.72363 0 -3.32129 -0.545898 -4.62793 -1.47559
l-23.71 -16.8896c-1.71875 -1.22852 -3.59961 -2.25879 -5.59082 -3.0498l-39.3398 -15.7402c-2.93262 -1.18652 -5 -4.05957 -5 -7.41602v-0.0136719v-10.2002c0 -0.00195312 -0.000976562 -0.00585938 -0.000976562 -0.0078125
c0 -2.20605 0.894531 -4.2041 2.34082 -5.65234l11.9102 -11.9102c2.87988 -2.88086 6.85449 -4.66895 11.2402 -4.68945h10.3398c0.00292969 0 -0.00195312 0.000976562 0.000976562 0.000976562c1.33789 0 2.6377 0.166016 3.87891 0.478516l21.2705 5.32031
c2.09082 0.524414 4.27148 0.80957 6.52539 0.80957c7.37012 0 14.0498 -2.98438 18.8945 -7.80957l13 -13c2.89844 -2.92676 6.91992 -4.73828 11.3594 -4.74023h15.1602c4.41406 0.00195312 8.41504 1.79297 11.3105 4.69043l9.56934 9.56934
c2.89746 2.89551 4.68848 6.89648 4.69043 11.3105z" />
    <glyph glyph-name="grimace-secondary" unicode="&#x10f57f;" 
d="M248 440c137 0 248 -111 248 -248s-111 -248 -248 -248s-248 111 -248 248s111 248 248 248zM144 48v40h-40v-8c0 -17.6611 14.3389 -32 32 -32h8zM144 104v40h-8c-17.6611 0 -32 -14.3389 -32 -32v-8h40zM136 240c0 -17.6611 14.3389 -32 32 -32s32 14.3389 32 32
s-14.3389 32 -32 32s-32 -14.3389 -32 -32zM208 48v40h-48v-40h48zM208 104v40h-48v-40h48zM272 48v40h-48v-40h48zM272 104v40h-48v-40h48zM336 48v40h-48v-40h48zM336 104v40h-48v-40h48zM328 208c17.6611 0 32 14.3389 32 32s-14.3389 32 -32 32s-32 -14.3389 -32 -32
s14.3389 -32 32 -32zM392 80v8h-40v-40h8c17.6611 0 32 14.3389 32 32zM392 104v8c0 17.6611 -14.3389 32 -32 32h-8v-40h40z" />
    <glyph glyph-name="grin-secondary" unicode="&#x10f580;" 
d="M248 440c137 0 248 -111 248 -248s-111 -248 -248 -248s-248 111 -248 248s111 248 248 248zM328 272c-17.6611 0 -32 -14.3389 -32 -32s14.3389 -32 32 -32s32 14.3389 32 32s-14.3389 32 -32 32zM168 272c-17.6611 0 -32 -14.3389 -32 -32s14.3389 -32 32 -32
s32 14.3389 32 32s-14.3389 32 -32 32zM391.8 109.3c1.90039 11.7998 -9.39941 21.6006 -20.7002 17.9004c-30.1992 -9.7002 -75.0996 -15.2002 -123.1 -15.2002s-92.9004 5.5 -123.1 15.2002c-1.55176 0.501953 -3.20898 0.791992 -4.92676 0.791992
c-8.83008 0 -16 -7.16992 -16 -16c0 -0.917969 0.078125 -1.81738 0.226562 -2.69238c9.2998 -55 83.2002 -93.2998 143.8 -93.2998s134.5 38.2998 143.8 93.2998z" />
    </font>
</defs>
</svg>
