<?xml version="1.0" standalone="no"?>
<!DOCTYPE svg PUBLIC "-//W3C//DTD SVG 1.1//EN" "http://www.w3.org/Graphics/SVG/1.1/DTD/svg11.dtd" >
<svg xmlns="http://www.w3.org/2000/svg" xmlns:xlink="http://www.w3.org/1999/xlink" version="1.1">
<metadata>
Created by FontForge 20201107 at Tue Mar 16 10:17:01 2021
 By Robert Madole
Copyright (c) Font Awesome
</metadata>
<!-- Font Awesome Pro 5.15.3 by @fontawesome - https://fontawesome.com License - https://fontawesome.com/license (Commercial License) --><defs>
<font id="FontAwesome5Duotone-Solid" horiz-adv-x="448" >
  <font-face 
    font-family="Font Awesome 5 Duotone Solid"
    font-weight="900"
    font-stretch="normal"
    units-per-em="512"
    panose-1="2 0 5 3 0 0 0 0 0 0"
    ascent="448"
    descent="-64"
    bbox="-0.0791016 -64.083 640.014 449.02"
    underline-thickness="25"
    underline-position="-50"
    unicode-range="U+0020-10F8FF"
  />
    <missing-glyph />
    <glyph glyph-name="align-left-primary" unicode="&#xf036;" 
d="M432 288c8.83105 0 16 -7.16895 16 -16v-32c0 -8.83105 -7.16895 -16 -16 -16h-416c-8.83105 0 -16 7.16895 -16 16v32c0 8.83105 7.16895 16 16 16h416zM432 32c8.83105 0 16 -7.16895 16 -16v-32c0 -8.83105 -7.16895 -16 -16 -16h-416c-8.83105 0 -16 7.16895 -16 16
v32c0 8.83105 7.16895 16 16 16h416z" />
    <glyph glyph-name="align-center-primary" unicode="&#xf037;" 
d="M432 288c8.83105 0 16 -7.16895 16 -16v-32c0 -8.83105 -7.16895 -16 -16 -16h-416c-8.83105 0 -16 7.16895 -16 16v32c0 8.83105 7.16895 16 16 16h416zM432 32c8.83105 0 16 -7.16895 16 -16v-32c0 -8.83105 -7.16895 -16 -16 -16h-416c-8.83105 0 -16 7.16895 -16 16
v32c0 8.83105 7.16895 16 16 16h416z" />
    <glyph glyph-name="align-right-primary" unicode="&#xf038;" 
d="M16 224c-8.83105 0 -16 7.16895 -16 16v32c0 8.83105 7.16895 16 16 16h416c8.83105 0 16 -7.16895 16 -16v-32c0 -8.83105 -7.16895 -16 -16 -16h-416zM432 32c8.83105 0 16 -7.16895 16 -16v-32c0 -8.83105 -7.16895 -16 -16 -16h-416c-8.83105 0 -16 7.16895 -16 16
v32c0 8.83105 7.16895 16 16 16h416z" />
    <glyph glyph-name="align-justify-primary" unicode="&#xf039;" 
d="M432 160c8.83105 0 16 -7.16895 16 -16v-32c0 -8.83105 -7.16895 -16 -16 -16h-416c-8.83105 0 -16 7.16895 -16 16v32c0 8.83105 7.16895 16 16 16h416zM432 416c8.83105 0 16 -7.16895 16 -16v-32c0 -8.83105 -7.16895 -16 -16 -16h-416c-8.83105 0 -16 7.16895 -16 16
v32c0 8.83105 7.16895 16 16 16h416z" />
    <glyph glyph-name="list-primary" unicode="&#xf03a;" horiz-adv-x="512" 
d="M80 80c8.83105 0 16 -7.16895 16 -16v-64c0 -8.83105 -7.16895 -16 -16 -16h-64c-8.83105 0 -16 7.16895 -16 16v64c0 8.83105 7.16895 16 16 16h64zM80 400c8.83105 0 16 -7.16895 16 -16v-64c0 -8.83105 -7.16895 -16 -16 -16h-64c-8.83105 0 -16 7.16895 -16 16v64
c0 8.83105 7.16895 16 16 16h64zM80 240c8.83105 0 16 -7.16895 16 -16v-64c0 -8.83105 -7.16895 -16 -16 -16h-64c-8.83105 0 -16 7.16895 -16 16v64c0 8.83105 7.16895 16 16 16h64z" />
    <glyph glyph-name="outdent-primary" unicode="&#xf03b;" 
d="M100.69 84.71l-96 95.9805c-2.89453 2.89551 -4.68555 6.89844 -4.68555 11.3115c0 4.41406 1.79102 8.41211 4.68555 11.3076l96 96c9.97949 10 27.3096 3.01074 27.3096 -11.3096v-191.98c0 -14.2393 -17.3096 -21.3096 -27.3096 -11.3096z" />
    <glyph glyph-name="indent-primary" unicode="&#xf03c;" 
d="M27.3096 84.7002c-9.97949 -10 -27.3096 -3.00977 -27.3096 11.2998v192c0 14.2197 17.2695 21.3398 27.3096 11.3203l96 -96c2.89453 -2.89648 4.68555 -6.89941 4.68555 -11.3125s-1.79102 -8.41211 -4.68555 -11.3076z" />
    <glyph glyph-name="tasks-primary" unicode="&#xf0ae;" horiz-adv-x="512" 
d="M139.61 412.5l17 -16.5c2.13281 -2.18066 3.44922 -5.16797 3.44922 -8.45605c0 -3.33496 -1.35352 -6.35547 -3.54004 -8.54395l-72.1992 -72.1904l-15.5898 -15.6191c-2.29297 -2.17969 -5.39941 -3.51758 -8.80859 -3.51758
c-3.41016 0 -6.50977 1.33789 -8.80176 3.51758l-47.5898 47.3994c-2.18066 2.17383 -3.53125 5.18262 -3.53125 8.50195c0 3.31836 1.35059 6.3252 3.53125 8.49805l15.7002 15.7197c2.17285 2.18164 5.18164 3.53125 8.50098 3.53125s6.3252 -1.34961 8.49902 -3.53125
l22.6992 -22.1191l63.6807 63.3096c2.17285 2.18066 5.18262 3.53125 8.50098 3.53125c3.31934 0 6.3252 -1.35059 8.49902 -3.53125zM139.61 253.31l16.9795 -17c2.125 -2.16504 3.43652 -5.13574 3.43652 -8.40625c0 -3.31641 -1.34863 -6.32031 -3.52637 -8.49316
l-72.2002 -72.2197l-15.7002 -15.6904c-2.29004 -2.17871 -5.39551 -3.5166 -8.80273 -3.5166c-3.4082 0 -6.50586 1.33789 -8.79688 3.5166l-47.4697 47.5c-2.18066 2.17285 -3.53125 5.18262 -3.53125 8.50195c0 3.31836 1.35059 6.3252 3.53125 8.49805l15.7002 15.6904
c2.17285 2.18066 5.18164 3.53125 8.50098 3.53125s6.3252 -1.35059 8.49902 -3.53125l22.6992 -22.1006l63.6807 63.7197c2.17285 2.18164 5.18262 3.53125 8.50098 3.53125c3.31934 0 6.3252 -1.34961 8.49902 -3.53125zM64 80c26.4922 0 48 -21.5078 48 -48
s-21.5078 -48 -48 -48c-26.4697 0 -48.5898 21.5 -48.5898 48s22.0996 48 48.5898 48z" />
    <glyph glyph-name="list-ul-primary" unicode="&#xf0ca;" horiz-adv-x="512" 
d="M48 400c26.4922 0 48 -21.5078 48 -48s-21.5078 -48 -48 -48s-48 21.5078 -48 48s21.5078 48 48 48zM48 240c26.4922 0 48 -21.5078 48 -48s-21.5078 -48 -48 -48s-48 21.5078 -48 48s21.5078 48 48 48zM48 80c26.4922 0 48 -21.5078 48 -48s-21.5078 -48 -48 -48
s-48 21.5078 -48 48s21.5078 48 48 48z" />
    <glyph glyph-name="list-ol-primary" unicode="&#xf0cb;" horiz-adv-x="512" 
d="M61.7695 47c19.6104 -5.12012 28.7002 -20.5 28.7305 -34.8799c0 -21.3701 -14.3398 -44.1201 -48.5 -44.1201c-16.6201 0 -29.29 4.75 -37 9.44043c-5.82031 4.21973 -6.34961 9.80957 -2.62988 15.9395l5.58984 9.31055c3.86035 6.61914 9.11035 7 15.5996 3.11914
c4.76758 -1.95996 10.0107 -3.07617 15.4707 -3.11914c10.1602 0 14.3594 3.5 14.3594 8.21973c0 6.64941 -5.60938 9.08984 -15.9395 9.08984h-4.73047c-5.95996 0 -9.25 2.12012 -12.25 7.87988l-1.0498 1.92969c-2.4502 4.75 -1.2002 9.81055 2.7998 14.8809l5.61035 7
c3.47461 4.32422 7.0957 8.37695 11 12.3096h-22.8301c-4.41504 0 -8 3.58496 -8 8v16c0 4.41504 3.58496 8 8 8h57c7.5 0 11.3398 -4 11.3398 -11.3496v-3.31055c0.0136719 -0.299805 0.0175781 -0.595703 0.0175781 -0.899414
c0 -5.10449 -1.9248 -9.76367 -5.08789 -13.29zM16 288c-4.41504 0 -8 3.58496 -8 8v16c0 4.41504 3.58496 8 8 8h16v64h-8c-4.4082 0.0078125 -7.98145 3.59766 -7.98145 8.00781c0 1.2832 0.303711 2.49707 0.841797 3.57227l8 16
c1.31055 2.62012 4.01367 4.41406 7.13965 4.41992h24c4.41504 0 8 -3.58496 8 -8v-88h16c4.41504 0 8 -3.58496 8 -8v-16c0 -4.41504 -3.58496 -8 -8 -8h-64zM12.0898 128c-7.00977 0 -12.0898 4 -12.0898 11.4102v4c0 47.2803 51 56.3994 50.9697 69.1201
c0 7.18945 -5.9502 8.75 -9.2793 8.75c-0.0185547 0 -0.0380859 0.000976562 -0.0566406 0.000976562c-3.65918 0 -6.97949 -1.46582 -9.40332 -3.84082c-5.12012 -4.91016 -10.5107 -7 -16.1201 -2.44043l-8.58008 6.87988
c-5.7998 4.53027 -7.16992 9.78027 -2.7998 15.3701c6.65918 8.75 19.0996 18.75 40.46 18.75c19.4697 0 44.4697 -10.5 44.4697 -39.5596c0 -37.7607 -45.0498 -46.1504 -48.3398 -56.4404h38.6797c4.41504 0 8 -3.58496 8 -8v-16c0 -4.41504 -3.58496 -8 -8 -8h-67.9102z
" />
    <glyph glyph-name="strikethrough-primary" unicode="&#xf0cc;" horiz-adv-x="512" 
d="M410.15 128c2.58496 -7.73633 4.39746 -15.9775 5.26953 -24.3496c0.386719 -3.97656 0.583984 -8.00781 0.583984 -12.085c0 -68.2188 -55.3535 -123.488 -123.554 -123.565h-68c-50.1094 0.0146484 -93.4521 28.7617 -114.45 70.7598l-0.519531 1
c-1.07715 2.15137 -1.68262 4.57812 -1.68262 7.14551c0 6.26367 3.58301 11.6982 8.83203 14.3252l42.9404 21.4697c2.14941 1.0752 4.5752 1.68066 7.14062 1.68066c6.26758 0 11.7041 -3.58691 14.3291 -8.84082c8.18848 -16.3516 25.1025 -27.5889 44.6201 -27.5889
c0.00976562 0 -0.00976562 0.0488281 0 0.0488281h66.79c24.0254 0.0224609 43.5273 19.5244 43.5498 43.5498c-0.0117188 15.3828 -8.07227 28.8594 -20.2402 36.4502h94.3906zM293.9 224h-175.61c-11.6797 16.5303 -19.7803 35.4697 -21.7803 56.3604
c-0.385742 3.97559 -0.577148 7.88281 -0.577148 11.96c0 68.2266 55.3633 123.624 123.577 123.68h68c0.0078125 0 -0.0595703 0.124023 -0.0527344 0.124023c50.1416 0 93.5869 -28.8926 114.583 -70.9238l0.519531 -1c1.07422 -2.14941 1.7041 -4.5791 1.7041 -7.14355
c0 -6.2627 -3.60645 -11.6895 -8.85352 -14.3164l-42.9404 -21.4707c-2.14941 -1.0752 -4.58105 -1.70508 -7.14746 -1.70508c-6.2666 0 -11.6982 3.61133 -14.3223 8.86523c-8.17969 16.3682 -25.0713 27.5703 -44.5986 27.5703h-0.0615234h-66.79
c-24.0352 -0.000976562 -43.5479 -19.5059 -43.5479 -43.541c0 -19.5742 12.9414 -36.1494 30.7285 -41.6289z" />
    <glyph glyph-name="underline-primary" unicode="&#xf0cd;" 
d="M32 384c-8.83105 0 -16 7.16895 -16 16v32c0 8.83105 7.16895 16 16 16h144c8.83105 0 16 -7.16895 16 -16v-32c0 -8.83105 -7.16895 -16 -16 -16h-32v-160c0 -44.1533 35.8467 -80 80 -80s80 35.8467 80 80v160h-32c-8.83105 0 -16 7.16895 -16 16v32
c0 8.83105 7.16895 16 16 16h144c8.83105 0 16 -7.16895 16 -16v-32c0 -8.83105 -7.16895 -16 -16 -16h-32v-160c0 -88.2197 -71.7803 -160 -160 -160s-160 71.7803 -160 160v160h-32z" />
    <glyph glyph-name="sort-alpha-down-primary" unicode="&#xf15d;" 
d="M176 96c14.2197 0 21.3496 -17.2598 11.3301 -27.3096l-80 -96c-2.89551 -2.89453 -6.89844 -4.68555 -11.3125 -4.68555c-4.41309 0 -8.41211 1.79102 -11.3076 4.68555l-80 96c-10.0703 10.0693 -2.90039 27.3096 11.29 27.3096h48v304c0 8.83105 7.16895 16 16 16h32
c8.83105 0 16 -7.16895 16 -16v-304h48z" />
    <glyph glyph-name="sort-alpha-up-primary" unicode="&#xf15e;" 
d="M16 288c-14.2197 0 -21.3496 17.2598 -11.3096 27.3096l80 96c2.89551 2.89453 6.89844 4.68555 11.3115 4.68555c4.41406 0 8.41211 -1.79102 11.3076 -4.68555l80 -96c10.0703 -10.0693 2.90039 -27.3096 -11.3096 -27.3096h-48v-304c0 -8.83105 -7.16895 -16 -16 -16
h-32c-8.83105 0 -16 7.16895 -16 16v304h-48z" />
    <glyph glyph-name="sort-amount-down-primary" unicode="&#xf160;" horiz-adv-x="512" 
d="M176 96c14.2197 0 21.3496 -17.2598 11.3301 -27.3096l-80 -96c-2.89551 -2.89453 -6.89844 -4.68555 -11.3125 -4.68555c-4.41309 0 -8.41211 1.79102 -11.3076 4.68555l-80 96c-10.0801 10.0693 -2.90039 27.3096 11.29 27.3096h48v304c0 8.83105 7.16895 16 16 16h32
c8.83105 0 16 -7.16895 16 -16v-304h48z" />
    <glyph glyph-name="sort-amount-up-primary" unicode="&#xf161;" horiz-adv-x="512" 
d="M16 288c-14.2305 0 -21.3496 17.2598 -11.3096 27.3096l80 96c2.89551 2.89453 6.89844 4.68555 11.3115 4.68555c4.41406 0 8.41211 -1.79102 11.3076 -4.68555l80 -96c10.0703 -10.0693 2.90039 -27.3096 -11.3096 -27.3096h-48v-304c0 -8.83105 -7.16895 -16 -16 -16
h-32c-8.83105 0 -16 7.16895 -16 16v304h-48z" />
    <glyph glyph-name="sort-numeric-down-primary" unicode="&#xf162;" 
d="M176 96c14.2197 0 21.3496 -17.2598 11.3301 -27.3096l-80 -96c-2.89551 -2.89453 -6.89844 -4.68555 -11.3125 -4.68555c-4.41309 0 -8.41211 1.79102 -11.3076 4.68555l-80 96c-10.0703 10.0693 -2.90039 27.3096 11.29 27.3096h48v304c0 8.83105 7.16895 16 16 16h32
c8.83105 0 16 -7.16895 16 -16v-304h48z" />
    <glyph glyph-name="sort-numeric-up-primary" unicode="&#xf163;" 
d="M107.31 411.31l80 -96c10.0703 -10.0693 2.90039 -27.3096 -11.3096 -27.3096h-48v-304c0 -8.83105 -7.16895 -16 -16 -16h-32c-8.83105 0 -16 7.16895 -16 16v304h-48c-14.2197 0 -21.3496 17.2598 -11.3096 27.3096l80 96
c2.89551 2.89453 6.89844 4.68555 11.3115 4.68555c4.41406 0 8.41211 -1.79102 11.3076 -4.68555z" />
    <glyph glyph-name="paragraph-primary" unicode="&#xf1dd;" 
d="M432 400v-32c0 -8.83105 -7.16895 -16 -16 -16h-144v-368c0 -8.83105 -7.16895 -16 -16 -16h-32c-8.83105 0 -16 7.16895 -16 16v112h-32c-88.3066 0 -160 71.6934 -160 160s71.6934 160 160 160h240c8.83105 0 16 -7.16895 16 -16z" />
    <glyph glyph-name="h1-primary" unicode="&#xf313;" horiz-adv-x="576" 
d="M560 96c8.83105 0 16 -7.16895 16 -16v-32c0 -8.83105 -7.16895 -16 -16 -16h-160c-8.83105 0 -16 7.16895 -16 16v32c0 8.83105 7.16895 16 16 16h48v160h-24c-13.2354 0.0126953 -23.9629 10.7852 -23.9629 24.0234c0 3.85059 0.908203 7.49023 2.52246 10.7168l24 48
c3.93652 7.86621 12.0547 13.251 21.4404 13.2598h40c13.2461 0 24 -10.7539 24 -24v-232h48z" />
    <glyph glyph-name="h2-primary" unicode="&#xf314;" horiz-adv-x="576" 
d="M560 96c8.83105 0 16 -7.16895 16 -16v-32c0 -8.83105 -7.16895 -16 -16 -16h-181.86c-0.0263672 0 -0.0517578 0.015625 -0.078125 0.015625c-8.05664 0 -14.7246 5.98926 -15.792 13.7539c-1.02246 6.79004 -1.59863 13.6133 -1.70996 20.6602
c0 111.351 142.101 132.38 142.101 184.561c0 23.3799 -19.3105 33.8398 -38.2197 33.8398c-18.9102 0 -33.0801 -11.1396 -43.8506 -26c-2.94434 -3.95605 -7.66504 -6.49707 -12.9717 -6.49707c-3.28223 0 -6.33789 0.981445 -8.8877 2.66699l-28.2607 18.5996
c-4.29199 2.79492 -7.10547 7.64258 -7.10547 13.1406c0 3.03027 0.862305 5.86133 2.35547 8.25977c22.0107 35.6201 59.5898 57 103.42 57c59.1904 0 106.86 -36.5498 106.86 -96.3799c0 -93.0498 -118.21 -116.67 -135.21 -159.62h119.21z" />
    <glyph glyph-name="h3-primary" unicode="&#xf315;" horiz-adv-x="576" 
d="M499 230.31c44.2695 -11.3594 77 -44.9492 77 -92.25c0 -57.1992 -45.4902 -106.06 -116.49 -106.06c-37.5098 0 -74.6094 12.79 -102.26 37.5498c-3.21777 2.83398 -5.2334 6.99707 -5.2334 11.6182c0 3.23926 0.998047 6.24707 2.70312 8.73242l19.75 28.7998
c2.97656 4.25586 7.91699 7.02051 13.5 7.02051c3.92969 0 7.53906 -1.37988 10.3701 -3.68066c16.5205 -13.6602 35.6201 -22.8301 57.7002 -22.8301c27.46 0 47.3896 15.4697 47.3896 36.79c0 28.1602 -28.8496 38.4805 -57.79 38.4805h-15.9492
c-5.84082 0 -12.4902 4.20996 -14.8408 9.41992l-8.40918 18.5898c-0.80957 1.95801 -1.29883 4.11035 -1.38086 6.33984c0.205078 3.81738 1.6084 7.34668 3.83008 10.1699l53.1006 61.0996c2.54004 2.90039 4.89941 5.4502 7.18945 7.90039h-85.1797
c-8.83105 0 -16 7.16895 -16 16v32c0 8.83105 7.16895 16 16 16h167.12c0.0957031 0.00195312 0.185547 -0.00195312 0.282227 -0.00195312c8.74609 0 15.8633 -7.0332 15.998 -15.748v-23.3203c-0.0195312 -3.96094 -1.53223 -7.58105 -4 -10.3096z" />
    <glyph glyph-name="alarm-clock-primary" unicode="&#xf34e;" horiz-adv-x="512" 
d="M1 352c0 53 42.8301 96 95.6201 96c25.0957 -0.00292969 47.9609 -9.75977 64.9502 -25.6797l-145.33 -121.58c-9.54102 14.7529 -15.166 32.416 -15.2402 51.2598zM343.5 115c3.66992 -2.93262 6.00488 -7.45117 6.00488 -12.5098
c0 -3.77832 -1.31152 -7.25195 -3.50488 -9.99023l-20 -25c-2.93262 -3.66699 -7.4502 -6 -12.5059 -6c-3.77539 0 -7.24707 1.30957 -9.98438 3.5l-64.5098 51.6104c-9.1582 7.33203 -15 18.5957 -15 31.2295v124.16c0 8.83105 7.16895 16 16 16h32
c8.83105 0 16 -7.16895 16 -16v-112.62zM415.38 448c52.79 0 95.6201 -43 95.6201 -96c-0.0761719 -18.8301 -5.69336 -36.4824 -15.2197 -51.2305l-145.33 121.57c16.9912 15.9023 39.8467 25.6494 64.9297 25.6602z" />
    <glyph glyph-name="chess-primary" unicode="&#xf439;" horiz-adv-x="512" 
d="M200.91 352c8.83008 0 15.9941 -7.17676 15.9941 -16.0068c0 -1.97461 -0.359375 -3.86621 -1.01465 -5.61328l-33.8896 -90.3799h10c8.83105 0 16 -7.16895 16 -16v-16c0 -8.83105 -7.16895 -16 -16 -16h-15.9404c0.142578 -44.1934 5.69141 -86.9287 15.9404 -128h-128
c10.249 41.0713 15.7979 83.8066 15.9404 128h-15.9404c-8.83105 0 -16 7.16895 -16 16v16c0 8.83105 7.16895 16 16 16h10l-33.9102 90.3799c-0.655273 1.74707 -1.01953 3.64551 -1.01953 5.62012c0 8.83105 7.16895 16 16 16h0.0195312h56.9102v32h-24
c-4.41504 0 -8 3.58496 -8 8v16c0 4.41504 3.58496 8 8 8h24v24c0 4.41504 3.58496 8 8 8h16c4.41504 0 8 -3.58496 8 -8v-24h24c4.41504 0 8 -3.58496 8 -8v-16c0 -4.41504 -3.58496 -8 -8 -8h-24v-32h56.9102zM490 256c3.31152 0 6 -2.68848 6 -6v-58.54
c0 -0.0107422 0.0185547 -0.0126953 0.0185547 -0.0234375c0 -9.79297 -4.40918 -18.5645 -11.3486 -24.4365l-24.5996 -20.79l3.29004 -82.21h-126.721l3.29004 82.2402l-24.5693 20.7598c-6.94434 5.86133 -11.3438 14.6143 -11.3604 24.4004v58.5996
c0 3.31152 2.68848 6 6 6h26.3896c3.31152 0 6 -2.68848 6 -6v-26h24.71v26c0 3.31152 2.68848 6 6 6h53.8105c3.31152 0 6 -2.68848 6 -6v-26h24.71v26c0 3.31152 2.68848 6 6 6h26.3799z" />
    <glyph glyph-name="chess-bishop-primary" unicode="&#xf43a;" horiz-adv-x="320" 
d="M8 160.12c0 73.3799 59.8096 181.08 112.6 225.37c-14 3.41992 -24.5996 15.5098 -24.5996 30.5098c0 17.6611 14.3389 32 32 32h64c17.6611 0 32 -14.3389 32 -32c0 -15.0498 -10.5996 -27.0898 -24.5996 -30.5098c24.3994 -20.4902 50.0693 -54.6807 70.8691 -92.5898
l-107.89 -107.931c-1.44727 -1.44727 -2.3418 -3.44922 -2.3418 -5.65625c0 -2.20605 0.894531 -4.20508 2.3418 -5.65332l11.3105 -11.3105c1.44727 -1.44629 3.44922 -2.3418 5.65527 -2.3418c2.20703 0 4.20605 0.895508 5.6543 2.3418l100.31 100.33
c15.96 -35.46 26.6904 -71.9492 26.6904 -102.56c0 -51.6006 -22.1396 -73.8301 -56 -84.6006v-43.5195h-192v43.5195c-33.8604 10.7705 -56 32.9609 -56 84.6006z" />
    <glyph glyph-name="chess-bishop-alt-primary" unicode="&#xf43b;" horiz-adv-x="256" 
d="M64 160c-8.83105 0 -16 7.16895 -16 16v16c0 8.83105 7.16895 16 16 16h11.6699c-15.9902 6.66992 -26.4795 25.0898 -26.4795 50.4297c0 40.4502 31.0996 97.3301 59.6797 117.2c-8.17969 2.78027 -12.8701 10.5205 -12.8701 19.6396
c0 11.4502 8.08008 20.7305 19.5303 20.7305h24.9395c11.4502 0 19.5303 -9.28027 19.5303 -20.7305c0 -9.11914 -4.69043 -16.8594 -12.8604 -19.6396c11.6602 -8.11035 23.6406 -22.5195 33.8604 -39.3301l-51.8301 -51.8193
c-0.72168 -0.724609 -1.16895 -1.72363 -1.16895 -2.82617c0 -1.10156 0.447266 -2.10059 1.16895 -2.82422l5.66016 -5.66016c0.723633 -0.724609 1.72559 -1.17383 2.83008 -1.17383c1.10547 0 2.10547 0.449219 2.83008 1.17383l48.5898 48.5898
c10.5303 -20.9902 17.7295 -44.0098 17.7295 -63.3301c0 -25.3398 -10.4795 -43.7598 -26.4795 -50.4297h11.6699c8.83105 0 16 -7.16895 16 -16v-16c0 -8.83105 -7.16895 -16 -16 -16h-14.8896c2.07324 -32.8154 7.16113 -65.0449 14.8896 -96h-128
c7.72852 30.9551 12.8164 63.1846 14.8896 96h-14.8896z" />
    <glyph glyph-name="chess-board-primary" unicode="&#xf43c;" horiz-adv-x="512" 
d="M256 448v-64h-64v64h64zM0 384h64v-64h-64v64zM128 448v-64h-64v64h64zM192 192h64v-64h-64v64zM0 256h64v-64h-64v64zM384 448v-64h-64v64h64zM512 448v-64h-64v64h64zM128 192v-64h-64v64h64zM512 0h-64v64h64v-64zM512 128h-64v64h64v-64zM384 -64v64h64v-64h-64z
M512 256h-64v64h64v-64zM128 -64v64h64v-64h-64zM0 -64v64h64v-64h-64zM256 -64v64h64v-64h-64zM0 128h64v-64h-64v64zM320 320h-64v64h64v-64zM256 192v64h64v-64h-64zM192 64h64v-64h-64v64zM320 128v64h64v-64h-64zM320 256v64h64v-64h-64zM320 64h64v-64h-64v64zM64 64
h64v-64h-64v64zM192 320h-64v64h64v-64zM384 64v64h64v-64h-64zM256 256h-64v64h64v-64zM384 384h64v-64h-64v64zM256 128h64v-64h-64v64zM192 256v-64h-64v64h64zM384 192v64h64v-64h-64zM128 320v-64h-64v64h64zM128 128h64v-64h-64v64z" />
    <glyph glyph-name="chess-clock-primary" unicode="&#xf43d;" horiz-adv-x="640" 
d="M600 320c22.0762 0 40 -17.9238 40 -40v-272c0 -22.0762 -17.9238 -40 -40 -40h-560c-22.0762 0 -40 17.9238 -40 40v272c0 22.0762 17.9238 40 40 40h560zM176.29 31.9404c61.7871 0 112 50.1631 112 111.949v0.0507812c0 61.8145 -50.1855 112 -112 112
s-112 -50.1855 -112 -112s50.1855 -112 112 -112zM464.29 31.9404c61.7871 0 112 50.1631 112 111.949v0.0507812c0 61.8145 -50.1855 112 -112 112s-112 -50.1855 -112 -112s50.1855 -112 112 -112z" />
    <glyph glyph-name="chess-clock-alt-primary" unicode="&#xf43e;" horiz-adv-x="640" 
d="M600 320c22.0703 -0.09375 39.9668 -18.0254 40 -40.1104v-271.89c0 -22.0762 -17.9238 -40 -40 -40h-560c-22.0762 0 -40 17.9238 -40 40v271.89c0.0332031 22.085 17.9297 40.0166 40 40.1104h560zM175.93 31.9404h0.0507812
c61.7861 0 111.949 50.1631 111.949 111.949v0.0507812c0 61.8145 -50.1855 112 -112 112s-112 -50.1855 -112 -112s50.1855 -112 112 -112zM463.82 31.9404c61.7871 0 112 50.1631 112 111.949v0.0507812c0 61.8145 -50.1855 112 -112 112s-112 -50.1855 -112 -112
s50.1855 -112 112 -112z" />
    <glyph glyph-name="chess-king-primary" unicode="&#xf43f;" 
d="M416 288c17.6494 -0.0136719 31.9688 -14.3477 31.9688 -32.001c0 -3.32129 -0.507812 -6.52539 -1.44922 -9.53906l-73.0791 -214.46h-298.881l-73.0791 214.46c-0.941406 3.01367 -1.45508 6.21875 -1.45508 9.54004c0 17.6533 14.3252 31.9863 31.9746 32h160v48h-40
c-4.41504 0 -8 3.58496 -8 8v48c0 4.41504 3.58496 8 8 8h40v40c0 4.41504 3.58496 8 8 8h48c4.41504 0 8 -3.58496 8 -8v-40h40c4.41504 0 8 -3.58496 8 -8v-48c0 -4.41504 -3.58496 -8 -8 -8h-40v-48h160z" />
    <glyph glyph-name="chess-king-alt-primary" unicode="&#xf440;" horiz-adv-x="320" 
d="M106 240l-33.9102 90.3799c-0.655273 1.74707 -1.01953 3.64551 -1.01953 5.62012c0 8.83105 7.16895 16 16 16h0.0195312h56.9102v32h-24c-4.41504 0 -8 3.58496 -8 8v16c0 4.41504 3.58496 8 8 8h24v24c0 4.41504 3.58496 8 8 8h16c4.41504 0 8 -3.58496 8 -8v-24h24
c4.41504 0 8 -3.58496 8 -8v-16c0 -4.41504 -3.58496 -8 -8 -8h-24v-32h56.8896c0.00683594 0 0.0078125 -0.00683594 0.0146484 -0.00683594c8.83008 0 16 -7.16992 16 -16c0 -1.97461 -0.359375 -3.86621 -1.01465 -5.61328l-33.8896 -90.3799h10
c8.83105 0 16 -7.16895 16 -16v-16c0 -8.83105 -7.16895 -16 -16 -16h-15.9404c0.142578 -44.1934 5.69141 -86.9287 15.9404 -128h-128c10.249 41.0713 15.7979 83.8066 15.9404 128h-15.9404c-8.83105 0 -16 7.16895 -16 16v16c0 8.83105 7.16895 16 16 16h10z" />
    <glyph glyph-name="chess-knight-primary" unicode="&#xf441;" horiz-adv-x="384" 
d="M159.94 416c106 0 191.92 -86 191.92 -192v-192h-319.86v14.5195c0 0.00585938 -0.078125 -0.0351562 -0.078125 -0.0292969c0 31.3184 18.0361 58.458 44.2783 71.5898l57.21 28.6504c15.751 7.87695 26.5303 24.1348 26.5303 42.9297v0.00976562v50.3301
l-22.1201 -11.0801c-6.19238 -3.09668 -10.8369 -8.78906 -12.5508 -15.6504l-9.21973 -30.6494c-2.80957 -9.35449 -9.76465 -16.9014 -18.75 -20.5l-12.79 -5.12012c-3.66895 -1.46777 -7.7168 -2.27246 -11.9082 -2.27246c-4.61621 0 -9.00586 0.979492 -12.9717 2.74219
l-40.6299 18.0605c-11.2041 4.98145 -19 16.1963 -19 29.2393v0.0205078v137.21c0 0.0195312 -0.00292969 0.0419922 -0.00292969 0.0625c0 6.60742 2.67578 12.5957 7.00293 16.9375l9 9l-14.21 28.4199c-1.13867 2.27344 -1.79004 4.85547 -1.79004 7.56934v0.0107422
c0 6.62305 5.37695 12 12 12h147.94zM52 280c11.0381 0 20 8.96191 20 20s-8.96191 20 -20 20s-20 -8.96191 -20 -20s8.96191 -20 20 -20z" />
    <glyph glyph-name="chess-knight-alt-primary" unicode="&#xf442;" horiz-adv-x="320" 
d="M45.5498 212.48c-7.99121 3.56348 -13.5498 11.5703 -13.5498 20.8799v97.8994c0.00488281 4.7207 1.91309 9.00293 5 12.1104l6.37012 6.34961l-10.1006 20.2803c-0.807617 1.625 -1.26953 3.46777 -1.26953 5.40527v0.0351562v0.0195312
c0 4.70703 3.81641 8.5293 8.51953 8.54004h92.3203c76.54 0 139.16 -62.6201 139.16 -139.16v-148.84c0 -13.6904 -9 -24.1504 -16 -32h-192c-31.5801 31.5801 -23.1299 84.7803 16.6797 105l46.54 23.7002c9.9707 4.46387 16.9004 14.4609 16.9004 26.084v0.00585938
v37.21l-14.2002 -5.42969c-4.40332 -2.20996 -7.70508 -6.26465 -8.91992 -11.1504l-6.53027 -21.8701c-1.99121 -6.66602 -6.93555 -12.0469 -13.3301 -14.6201l-9.08984 -3.64941c-2.60254 -1.04785 -5.47656 -1.62305 -8.45312 -1.62305
c-3.28223 0 -6.40137 0.702148 -9.2168 1.96289zM80.0703 320c-8.80273 -0.0332031 -15.9404 -7.18945 -15.9404 -16c0 -8.83105 7.1709 -16 16.001 -16c8.83105 0 16 7.16992 16 16c0 8.83105 -7.16895 16 -16 16h-0.0605469z" />
    <glyph glyph-name="chess-pawn-primary" unicode="&#xf443;" horiz-adv-x="320" 
d="M105.1 224c-29.3896 18.3799 -49.0996 50.7803 -49.0996 88c0 57.3994 46.6006 104 104 104s104 -46.6006 104 -104c0 -37.2197 -19.71 -69.6201 -49.0996 -88h25.0996c8.83105 0 16 -7.16895 16 -16v-32c0 -8.83105 -7.16895 -16 -16 -16h-16v-5.49023
c0 -44 4.11035 -86.5996 24 -122.51h-176c19.8604 35.9102 24 78.5098 24 122.51v5.49023h-16c-8.83105 0 -16 7.16895 -16 16v32c0 8.83105 7.16895 16 16 16h25.0996z" />
    <glyph glyph-name="chess-pawn-alt-primary" unicode="&#xf444;" horiz-adv-x="256" 
d="M64 160c-8.83105 0 -16 7.16895 -16 16v16c0 8.83105 7.16895 16 16 16h16.4404c-19.7158 14.5762 -32.3711 37.9893 -32.3711 64.3672c0 44.1533 35.8467 80 80 80s80 -35.8467 80 -80c0 -26.3779 -12.7939 -49.791 -32.5098 -64.3672h16.4404
c8.83105 0 16 -7.16895 16 -16v-16c0 -8.83105 -7.16895 -16 -16 -16h-14.8896c2.07324 -32.8154 7.16113 -65.0449 14.8896 -96h-128c7.72852 30.9551 12.8164 63.1846 14.8896 96h-14.8896z" />
    <glyph glyph-name="chess-queen-primary" unicode="&#xf445;" horiz-adv-x="512" 
d="M256 336c-30.9072 0 -56 25.0928 -56 56s25.0928 56 56 56s56 -25.0928 56 -56s-25.0928 -56 -56 -56zM504.88 263.84c4.30176 -2.86914 7.1123 -7.77148 7.1123 -13.3262c0 -2.56641 -0.606445 -4.99316 -1.68262 -7.14355l-102.55 -211.37h-303.52l-102.55 211.33
c-1.07617 2.15039 -1.70801 4.58301 -1.70801 7.15039c0 5.55371 2.83594 10.4502 7.1377 13.3193l28.5801 16c7.35938 4.91016 16.8096 2.5498 22.0898 -4.54004c8.65234 -11.71 22.4893 -19.2686 38.1523 -19.2686c1.13867 0 2.26855 0.0400391 3.3877 0.119141
c25.6699 1.73926 44.6699 24.7998 44.6699 50.4893c0 7.39648 6.00391 13.4004 13.4004 13.4004h38.7295c6.04004 0 11.6104 -3.99023 12.8506 -9.91016c4.52246 -21.8076 23.8584 -38.2178 46.999 -38.2178s42.4775 16.4102 47.001 38.2178
c1.23926 5.91016 6.84961 9.91016 12.8496 9.91016h38.7695c7.39648 0 13.4004 -6.00391 13.4004 -13.4004c0 -23.5293 15.7002 -45.46 38.8398 -49.75c2.95898 -0.576172 5.9541 -0.918945 9.08105 -0.918945c15.6064 0 29.4688 7.5293 38.1494 19.1494
c5.37988 7.13965 14.8496 9.67969 22.29 4.67969z" />
    <glyph glyph-name="chess-queen-alt-primary" unicode="&#xf446;" horiz-adv-x="256" 
d="M128 400c-13.2461 0 -24 10.7539 -24 24s10.7539 24 24 24s24 -10.7539 24 -24s-10.7539 -24 -24 -24zM230.84 360.35c1.81445 -1.20605 3 -3.27051 3 -5.61035c0 -1.08105 -0.255859 -2.10352 -0.709961 -3.00879l-44.5 -95.7305h3.37012c8.83105 0 16 -7.16895 16 -16
v-16c0 -8.83105 -7.16895 -16 -16 -16h-16v-14c0 -44.8945 5.57812 -88.3154 16 -130h-128c10.4219 41.6846 16 85.1055 16 130v14h-16c-8.83105 0 -16 7.16895 -16 16v16c0 8.83105 7.16895 16 16 16h3.37012l-44.5 95.7305
c-0.454102 0.905273 -0.720703 1.92969 -0.720703 3.01172c0 2.33887 1.19629 4.40137 3.01074 5.60742l10.0801 6.7207c1.05762 0.675781 2.31641 1.07812 3.66309 1.07812c2.34277 0 4.41113 -1.18555 5.63672 -2.98828
c3.64453 -4.92871 9.46973 -8.11035 16.0635 -8.11035c0.479492 0 0.955078 0.0166016 1.42676 0.0498047c10.8096 0.730469 18.8096 10.4404 18.8096 21.2607c0.00585938 3.11328 2.53516 5.63965 5.65039 5.63965h16.3193
c0.0380859 0.000976562 0.0742188 -0.00195312 0.112305 -0.00195312c2.56641 0 4.7207 -1.77734 5.29785 -4.16797c1.93945 -9.14258 10.0635 -16.0107 19.7803 -16.0107c9.71582 0 17.8408 6.86816 19.7803 16.0107c0.577148 2.39062 2.72949 4.1709 5.2959 4.1709
c0.0380859 0 0.0761719 0 0.114258 -0.000976562h16.3291c3.10059 -0.00585938 5.61816 -2.51367 5.64062 -5.61035c0 -10 6.60938 -19.1895 16.3496 -21c1.24707 -0.242188 2.50879 -0.386719 3.8252 -0.386719c6.57031 0 12.4072 3.16699 16.0654 8.05664
c2.25977 3 6.25 4.08008 9.37988 2z" />
    <glyph glyph-name="chess-rook-primary" unicode="&#xf447;" horiz-adv-x="384" 
d="M384 400v-176l-64 -32c0 -47.7197 1.54004 -95 13.21 -160h-282.42c11.6699 65 13.21 111.67 13.21 160l-64 32v176c0 8.83105 7.16895 16 16 16h56.0996c8.83105 0 16 -7.16895 16 -16v-48h47.9004v48c0 8.83105 7.16895 16 16 16h80c8.83105 0 16 -7.16895 16 -16v-48
h48v48c0 8.83105 7.16895 16 16 16h56c8.83105 0 16 -7.16895 16 -16zM224 128v64c0 17.6611 -14.3389 32 -32 32s-32 -14.3389 -32 -32v-64h64z" />
    <glyph glyph-name="chess-rook-alt-primary" unicode="&#xf448;" horiz-adv-x="320" 
d="M71.8096 237.68l-30.5996 31.0303c-5.69629 5.7793 -9.20996 13.7168 -9.20996 22.4639v0.00585938v84.8203c0 4.41504 3.58496 8 8 8h35.1904c4.41504 0 8 -3.58496 8 -8v-40h32.9395v40c0 4.41504 3.58496 8 8 8h71.75c4.41504 0 8 -3.58496 8 -8v-40h32.9404v40
c0 4.41504 3.58398 8 8 8h35.1797c4.41504 0 8 -3.58496 8 -8v-84.7402l0.00292969 -0.0126953c0 -8.73633 -3.50879 -16.6602 -9.19336 -22.4375l-30.6191 -31.1094l14.4795 -173.7h-205.34zM136.41 216.41v-47.1797h47.1797v47.1797
c0 13.0195 -10.5703 23.5898 -23.5898 23.5898s-23.5898 -10.5703 -23.5898 -23.5898z" />
    <glyph glyph-name="user-lock-primary" unicode="&#xf502;" horiz-adv-x="640" 
d="M224 192c-70.6455 0 -128 57.3545 -128 128s57.3545 128 128 128s128 -57.3545 128 -128s-57.3545 -128 -128 -128zM320 128v-160c0.0791016 -11.6504 3.3418 -22.6367 8.90039 -32h-280.9c-26.4922 0 -48 21.5078 -48 48v41.5996
c0.0166016 74.1699 60.2305 134.384 134.4 134.4h16.6992c22.1426 -10.2109 47.085 -15.9072 73.0498 -15.9072c25.9639 0 50.6084 5.69629 72.751 15.9072h16.6992c5 0 9.7002 -1 14.5 -1.5c-5.06641 -9.00684 -8.02539 -19.4561 -8.09961 -30.5z" />
    <glyph glyph-name="mind-share-primary" unicode="&#xf677;" horiz-adv-x="640" 
d="M635 83.79l-96 -95.1904c-10.1201 -10 -27 -2.59961 -27 12.21v47.1904h-64c-65.8496 0 -69.2695 -68.9502 -60.2803 -95.5195c3.77051 -11.1309 -8 -20.9004 -17.8193 -14.3809c-35 23.3008 -56.0801 67 -48.29 113.67c7.83984 46.9209 46.3896 84.5605 93.4492 91.4609
c4.50879 0.543945 9.09863 0.823242 13.7529 0.823242c1.14453 0 2.11133 -0.0205078 3.24707 -0.0537109h79.9404v47.1904c0 14.8193 16.8799 22.2295 27 12.21l96 -95.1904c3.09961 -3.13965 5.01367 -7.45117 5.01367 -12.207s-1.91406 -9.07324 -5.01367 -12.2129z" />
    <glyph glyph-name="alarm-exclamation-primary" unicode="&#xf843;" horiz-adv-x="512" 
d="M1 352c0 53 42.8301 96 95.6201 96c25.0957 -0.00292969 47.9609 -9.75977 64.9502 -25.6797l-145.33 -121.58c-9.53906 14.7529 -15.165 32.417 -15.2402 51.2598zM415.38 448c52.79 0 95.6201 -43 95.6201 -96
c-0.0761719 -18.8301 -5.69336 -36.4824 -15.2197 -51.2305l-145.33 121.57c16.9922 15.9014 39.8477 25.6484 64.9297 25.6602zM256 96c17.5977 -0.0166016 31.8799 -14.3066 31.8799 -31.9082v-0.0917969c0 -17.6611 -14.3408 -32 -32.002 -32s-32 14.3389 -32 32
s14.3389 32 32 32h0.12207zM278.21 288c0.00292969 0 0.0166016 0.0166016 0.0195312 0.0166016c8.78613 0 15.9199 -7.13379 15.9199 -15.9199c0 -0.573242 -0.0302734 -1.13965 -0.0898438 -1.69629l-12.75 -128c-0.768555 -8.06348 -7.56738 -14.3965 -15.8291 -14.4004
h-18.9307c-8.24219 0.0292969 -15.0176 6.35156 -15.79 14.4004l-12.7598 128c-0.0537109 0.53125 -0.078125 1.05469 -0.078125 1.59961c0 8.79004 7.10352 15.9346 15.8779 16h44.4102z" />
    <glyph glyph-name="alarm-plus-primary" unicode="&#xf844;" horiz-adv-x="512" 
d="M352 184c8.83105 0 16 -7.16895 16 -16v-16c0 -8.83105 -7.16895 -16 -16 -16h-72v-72c0 -8.83105 -7.16895 -16 -16 -16h-16c-8.83105 0 -16 7.16895 -16 16v72h-72c-8.83105 0 -16 7.16895 -16 16v16c0 8.83105 7.16895 16 16 16h72v72c0 8.83105 7.16895 16 16 16h16
c8.83105 0 16 -7.16895 16 -16v-72h72zM96 448c25.1729 0 48.1182 -9.75391 65.2002 -25.6797l-145.9 -121.58c-9.57422 14.7402 -15.2236 32.4072 -15.2998 51.2598c0 52.9834 43.0166 96 96 96zM416 448c52.9834 0 96 -43.0166 96 -96
c-0.0830078 -18.8369 -5.72363 -36.4932 -15.2803 -51.2305l-145.899 121.57c17.083 15.9092 40.0186 25.6533 65.1797 25.6602z" />
    <glyph glyph-name="alarm-snooze-primary" unicode="&#xf845;" horiz-adv-x="512" 
d="M319.74 264c13.2109 -0.0410156 23.916 -10.7959 23.916 -24.0166c0 -5.66602 -1.96777 -10.876 -5.25586 -14.9834l-96.4004 -121h77.7402c8.79785 -0.0380859 15.9297 -7.19336 15.9297 -16v-16c0 -8.80664 -7.13184 -15.9619 -15.9297 -16h-127.51
c-13.2158 0.0361328 -23.9268 10.793 -23.9268 24.0166c0 5.66602 1.96777 10.876 5.25586 14.9834l96.4404 121h-77.7695c-8.80273 0.0332031 -15.9404 7.18945 -15.9404 16v16c0 8.81055 7.1377 15.9668 15.9404 16h127.51zM1 352c0 53 42.8301 96 95.6201 96
c25.0957 -0.00292969 47.9609 -9.75977 64.9502 -25.6797l-145.33 -121.58c-9.53906 14.7529 -15.165 32.417 -15.2402 51.2598zM415.38 448c52.7803 0 95.6201 -43 95.6201 -96c-0.0800781 -18.8301 -5.70117 -36.4824 -15.2305 -51.2305l-145.319 121.57
c16.9922 15.9014 39.8477 25.6484 64.9297 25.6602z" />
    <glyph glyph-name="align-slash-primary" unicode="&#xf846;" horiz-adv-x="640" 
d="M633.82 -10.0996c3.76855 -2.92871 6.17676 -7.50977 6.17676 -12.6475c0 -3.69238 -1.25293 -7.09375 -3.35742 -9.80273l-19.6396 -25.2705c-2.92871 -3.76855 -7.50879 -6.17578 -12.6465 -6.17578c-3.69727 0 -7.10254 1.25684 -9.81348 3.36621l-588.36 454.72
c-3.76562 2.92871 -6.1709 7.50781 -6.1709 12.6426c0 3.69434 1.25488 7.09766 3.36133 9.80762l19.6299 25.2695c2.92871 3.76855 7.50879 6.17676 12.6465 6.17676c3.69727 0 7.10254 -1.25684 9.81348 -3.36621z" />
    <glyph glyph-name="bags-shopping-primary" unicode="&#xf847;" horiz-adv-x="576" 
d="M544 192c17.6611 0 32 -14.3389 32 -32v-192c0 -17.6611 -14.3389 -32 -32 -32h-320c-17.6611 0 -32 14.3389 -32 32v192c0 17.6611 14.3389 32 32 32h320zM480 96v24c0 4.41504 -3.58496 8 -8 8h-16c-4.41504 0 -8 -3.58496 -8 -8v-24
c-0.0380859 -35.3291 -28.667 -64.0039 -64.0049 -64.0039c-2.15137 0 -4.27832 0.106445 -6.375 0.313477c-33.25 3.23047 -57.6201 33.1201 -57.6201 66.5303v21.1602c0 4.41504 -3.58496 8 -8 8h-16c-4.41504 0 -8 -3.58496 -8 -8v-20.6602
c0 -48.79 35 -92.3398 83.3701 -98.5303c4.12695 -0.541016 8.23633 -0.81543 12.5098 -0.81543c53.0117 0 96.0586 43.0088 96.1201 96.0059z" />
    <glyph glyph-name="bell-exclamation-primary" unicode="&#xf848;" 
d="M160 0h128c0 -35.3223 -28.6777 -64 -64 -64s-64 28.6777 -64 64zM224 160c17.6611 0 32 -14.3389 32 -32s-14.3389 -32 -32 -32s-32 14.3389 -32 32s14.3389 32 32 32zM214.5 192c-8.27148 0.015625 -15.0898 6.33691 -15.9004 14.4004l-12.7998 96
c-0.0488281 0.511719 -0.0722656 1.01465 -0.0722656 1.54004c0 8.83398 7.14941 16.0127 15.9727 16.0596h44.5996c8.82129 -0.0107422 15.9814 -7.16016 15.9814 -15.9834c0 -0.545898 -0.0273438 -1.08496 -0.0810547 -1.61621l-12.7998 -96
c-0.811523 -8.06641 -7.62402 -14.3906 -15.9004 -14.4004h-19z" />
    <glyph glyph-name="bell-plus-primary" unicode="&#xf849;" 
d="M224 -63c-35.3223 0 -64 28.6777 -64 64h128c0 -35.3223 -28.6777 -64 -64 -64zM304 233c8.83105 0 16 -7.16895 16 -16v-16c0 -8.83105 -7.16895 -16 -16 -16h-56v-56c0 -8.83105 -7.16895 -16 -16 -16h-16c-8.83105 0 -16 7.16895 -16 16v56h-56
c-8.83105 0 -16 7.16895 -16 16v16c0 8.83105 7.16895 16 16 16h56v56c0 8.83105 7.16895 16 16 16h16c8.83105 0 16 -7.16895 16 -16v-56h56z" />
    <glyph glyph-name="biking-primary" unicode="&#xf84a;" horiz-adv-x="640" 
d="M400 352c-26.4922 0 -48 21.5078 -48 48s21.5078 48 48 48s48 -21.5078 48 -48s-21.5078 -48 -48 -48zM480 288c17.6611 0 32 -14.3389 32 -32s-14.3389 -32 -32 -32h-64c-0.0205078 0 -0.0625 0.0117188 -0.0830078 0.0117188
c-7.53125 0 -14.457 2.61621 -19.917 6.98828l-41.3604 33.1104l-58.25 -49.9199l41.3604 -27.5703c8.60547 -5.7373 14.248 -15.5117 14.25 -26.6201v-128c0 -17.6611 -14.3389 -32 -32 -32s-32 14.3389 -32 32v110.88l-81.7305 54.5205
c-8.60742 5.7373 -14.2686 15.5068 -14.2686 26.6191c0 9.71777 4.3418 18.4297 11.1895 24.3008l112 96c5.58887 4.80176 12.8965 7.70117 20.8359 7.70117c7.55566 0 14.502 -2.62891 19.9736 -7.02148l71.2197 -57h52.7803z" />
    <glyph glyph-name="biking-mountain-primary" unicode="&#xf84b;" horiz-adv-x="640" 
d="M400 352c-26.4922 0 -48 21.5078 -48 48s21.5078 48 48 48s48 -21.5078 48 -48s-21.5078 -48 -48 -48zM396 231l-41.3604 33.1104l-58.2393 -49.9199l41.3496 -27.5703c8.60547 -5.7373 14.248 -15.5117 14.25 -26.6201v-128c0 -17.6611 -14.3389 -32 -32 -32
s-32 14.3389 -32 32v110.88l-81.7402 54.5205c-8.60449 5.73828 -14.2627 15.5059 -14.2627 26.6152c0 9.71973 4.34277 18.4336 11.1934 24.3047l112 96c5.58887 4.80176 12.8965 7.70117 20.8359 7.70117c7.55566 0 14.502 -2.62891 19.9736 -7.02148l71.2197 -57h52.7803
c17.6611 0 32 -14.3389 32 -32s-14.3389 -32 -32 -32h-64c-0.00878906 0 -0.0390625 0.0117188 -0.0478516 0.0117188c-7.54297 0 -14.4795 2.61523 -19.9521 6.98828z" />
    <glyph glyph-name="border-all-primary" unicode="&#xf84c;" 
d="M416 416c17.6611 0 32 -14.3389 32 -32v-384c0 -17.6611 -14.3389 -32 -32 -32h-384c-17.6611 0 -32 14.3389 -32 32v384c0 17.6611 14.3389 32 32 32h384zM384 32v320h-320v-320h320z" />
    <glyph glyph-name="border-bottom-primary" unicode="&#xf84d;" 
d="M432 32c8.83105 0 16 -7.16895 16 -16v-32c0 -8.83105 -7.16895 -16 -16 -16h-416c-8.83105 0 -16 7.16895 -16 16v32c0 8.83105 7.16895 16 16 16h416z" />
    <glyph glyph-name="border-inner-primary" unicode="&#xf84e;" 
d="M432 224c8.83105 0 16 -7.16895 16 -16v-32c0 -8.83105 -7.16895 -16 -16 -16h-176v-176c0 -8.83105 -7.16895 -16 -16 -16h-32c-8.83105 0 -16 7.16895 -16 16v176h-176c-8.83105 0 -16 7.16895 -16 16v32c0 8.83105 7.16895 16 16 16h176v176
c0 8.83105 7.16895 16 16 16h32c8.83105 0 16 -7.16895 16 -16v-176h176z" />
    <glyph glyph-name="border-left-primary" unicode="&#xf84f;" 
d="M48 416c8.83105 0 16 -7.16895 16 -16v-416c0 -8.83105 -7.16895 -16 -16 -16h-32c-8.83105 0 -16 7.16895 -16 16v416c0 8.83105 7.16895 16 16 16h32z" />
    <glyph glyph-name="border-none-primary" unicode="&#xf850;" 
 />
    <glyph glyph-name="border-outer-primary" unicode="&#xf851;" 
d="M416 416c17.6611 0 32 -14.3389 32 -32v-384c0 -17.6611 -14.3389 -32 -32 -32h-384c-17.6611 0 -32 14.3389 -32 32v384c0 17.6611 14.3389 32 32 32h384zM384 32v320h-320v-320h320z" />
    <glyph glyph-name="border-right-primary" unicode="&#xf852;" 
d="M432 416c8.83105 0 16 -7.16895 16 -16v-416c0 -8.83105 -7.16895 -16 -16 -16h-32c-8.83105 0 -16 7.16895 -16 16v416c0 8.83105 7.16895 16 16 16h32z" />
    <glyph glyph-name="border-style-primary" unicode="&#xf853;" 
d="M432 416c8.83105 0 16 -7.16895 16 -16v-32c0 -8.83105 -7.16895 -16 -16 -16h-368v-368c0 -8.83105 -7.16895 -16 -16 -16h-32c-8.83105 0 -16 7.16895 -16 16v400c0 17.6611 14.3389 32 32 32h400z" />
    <glyph glyph-name="border-style-alt-primary" unicode="&#xf854;" 
d="M432 416c8.83105 0 16 -7.16895 16 -16v-400c0 -17.6611 -14.3389 -32 -32 -32h-400c-8.83105 0 -16 7.16895 -16 16v32c0 8.83105 7.16895 16 16 16h368v368c0 8.83105 7.16895 16 16 16h32z" />
    <glyph glyph-name="border-top-primary" unicode="&#xf855;" 
d="M432 416c8.83105 0 16 -7.16895 16 -16v-32c0 -8.83105 -7.16895 -16 -16 -16h-416c-8.83105 0 -16 7.16895 -16 16v32c0 8.83105 7.16895 16 16 16h416z" />
    <glyph glyph-name="burger-soda-primary" unicode="&#xf858;" horiz-adv-x="640" 
d="M624 0c8.83105 0 16 -7.16895 16 -16c0 -26.4922 -21.5078 -48 -48 -48h-256c-26.4922 0 -48 21.5078 -48 48c0 8.83105 7.16895 16 16 16h320zM319.27 128c-25.3398 0 -40.0596 29.2695 -25.5293 50.5898c29.4697 43.2803 94.3193 77.4805 170.26 77.4102
s140.8 -34.1299 170.27 -77.4102c14.4609 -21.3203 -0.189453 -50.5898 -25.5391 -50.5898h-289.461zM544 208c-8.83105 0 -16 -7.16895 -16 -16s7.16895 -16 16 -16s16 7.16895 16 16s-7.16895 16 -16 16zM464 224c-8.83105 0 -16 -7.16895 -16 -16s7.16895 -16 16 -16
s16 7.16895 16 16s-7.16895 16 -16 16zM384 208c-8.83105 0 -16 -7.16895 -16 -16s7.16895 -16 16 -16s16 7.16895 16 16s-7.16895 16 -16 16zM320 32c-17.6611 0 -32 14.3389 -32 32s14.3389 32 32 32h288c17.6611 0 32 -14.3389 32 -32s-14.3389 -32 -32 -32h-288z" />
    <glyph glyph-name="car-building-primary" unicode="&#xf859;" horiz-adv-x="640" 
d="M604.58 132.44c20.7979 -8.61914 35.4082 -29.0947 35.4199 -52.9902v-28.6904c-0.0478516 -18.0068 -8.42285 -34.0439 -21.5195 -44.46v-41.6094c-0.00585938 -15.832 -12.8584 -28.6846 -28.6904 -28.6904h-28.6904
c-15.8311 0.00585938 -28.6846 12.8584 -28.6895 28.6904v35.3096h-200.83v-35.3096c0 -15.8311 -12.8506 -28.6846 -28.6797 -28.6904h-28.6904c-15.8203 0.0224609 -28.6592 12.8672 -28.6699 28.6904v41.6094c-13.0879 10.4229 -21.457 26.457 -21.5098 44.46v28.6904
c0.0126953 23.8984 14.6221 44.376 35.4199 53l4.5498 11.3496l17.8301 49.0801c14.6582 36.9893 50.7236 63.1211 92.9043 63.1211c0.111328 0 0.223633 -0.000976562 0.335938 -0.000976562h113.859c0.103516 0 0.160156 0.0566406 0.263672 0.0566406
c42.1758 0 78.2842 -26.1885 92.9365 -63.1768l17.8701 -49.0801zM335.11 164l-12.1104 -36h218l-12.0703 36c-6.58008 16.9004 -22.3994 28 -40 28h-113.819c-17.6406 0 -33.4707 -11.0801 -40 -28zM300 40.1504c14.4004 0 36 -2.40039 36 11.96
c0 14.3594 -21.5996 35.8896 -36 35.8896s-24 -9.55957 -24 -23.9199s9.59961 -23.9297 24 -23.9297zM564 40.1504c14.4004 0 24 9.58008 24 23.9297s-9.59961 23.9199 -24 23.9199s-36 -21.46 -36 -35.8496c0 -14.3906 21.5996 -12 36 -12z" />
    <glyph glyph-name="car-bus-primary" unicode="&#xf85a;" horiz-adv-x="640" 
d="M604.58 132.44c20.7979 -8.61914 35.4082 -29.0947 35.4199 -52.9902v-28.6904c-0.0478516 -18.0068 -8.42285 -34.0439 -21.5195 -44.46v-38.2998c0 -17.6611 -14.3389 -32 -32 -32h-22.0703c-17.6611 0 -32 14.3389 -32 32v32h-200.79v-32
c0 -17.6611 -14.3389 -32 -32 -32h-22.0703c-17.6611 0 -32 14.3389 -32 32v38.29c-13.0967 10.416 -21.4717 26.4531 -21.5195 44.46v28.6904c0.00683594 23.9004 14.6191 44.3799 35.4199 53l4.5498 11.3594l17.8398 49.0801
c14.6523 36.9883 50.7139 63.1211 92.8906 63.1211c0.113281 0 0.226562 -0.000976562 0.339844 -0.000976562h113.859c0.103516 0 0.160156 0.0566406 0.263672 0.0566406c42.1758 0 78.2842 -26.1885 92.9365 -63.1768l17.8701 -49.0801zM335.11 164l-12.1104 -36h218
l-12.0703 36c-6.58008 16.9004 -22.3994 28 -40 28h-113.819c-17.6406 0 -33.4707 -11.0801 -40 -28zM300 40.1504c14.4004 0 36 -2.40039 36 11.96c0 14.3594 -21.5996 35.8896 -36 35.8896s-24 -9.58008 -24 -23.9297c0 -14.3506 9.59961 -23.9199 24 -23.9199z
M564 40.1504c14.4004 0 24 9.55957 24 23.9199c0 14.3594 -9.59961 23.9297 -24 23.9297s-36 -21.46 -36 -35.8496c0 -14.3906 21.5996 -12 36 -12z" />
    <glyph glyph-name="cars-primary" unicode="&#xf85b;" horiz-adv-x="640" 
d="M604.58 132.44c20.7979 -8.61914 35.4082 -29.0947 35.4199 -52.9902v-28.6904c-0.0478516 -18.0068 -8.42285 -34.0439 -21.5195 -44.46v-38.2998c0 -17.6611 -14.3389 -32 -32 -32h-22.0703c-17.6611 0 -32 14.3389 -32 32v32h-200.79v-32
c0 -17.6611 -14.3389 -32 -32 -32h-22.0703c-17.6611 0 -32 14.3389 -32 32v38.29c-13.0967 10.416 -21.4717 26.4531 -21.5195 44.46v28.6904c0.00683594 23.9004 14.6191 44.3799 35.4199 53l4.5498 11.3594l17.8398 49.0801
c14.6523 36.9883 50.7139 63.1211 92.8906 63.1211c0.113281 0 0.226562 -0.000976562 0.339844 -0.000976562h113.859c0.103516 0 0.160156 0.0566406 0.263672 0.0566406c42.1758 0 78.2842 -26.1885 92.9365 -63.1768l17.8701 -49.0801zM335.11 164l-12.1104 -36h218
l-12.0703 36c-6.58008 16.9004 -22.3994 28 -40 28h-113.819c-17.6406 0 -33.4707 -11.0801 -40 -28zM300 40.1504c14.4004 0 36 -2.40039 36 11.96c0 14.3594 -21.5996 35.8896 -36 35.8896s-24 -9.55957 -24 -23.9199s9.59961 -23.9297 24 -23.9297zM564 40.1504
c14.4004 0 24 9.58008 24 23.9297s-9.59961 23.9199 -24 23.9199s-36 -21.46 -36 -35.8496c0 -14.3906 21.5996 -12 36 -12z" />
    <glyph glyph-name="coin-primary" unicode="&#xf85c;" horiz-adv-x="512" 
d="M0 128v30.3799c12.5996 -15.0195 29.1504 -28.3799 48 -40.3799v-64.3301c-30 20.96 -48 46.5605 -48 74.3301zM80 35.4902v64.5098c28.1904 -13.1201 60.6104 -23 96 -29v-64.3096c-36.3398 5.98926 -68.9102 15.9092 -96 28.7998zM464 118
c18.8496 12 35.4004 25.3496 48 40.3701v-30.3604c0 -27.7695 -17.9502 -53.3301 -48 -74.3301v64.3203zM336 6.69043v64.3096c35.3896 6 67.8096 15.8799 96 29v-64.5098c-27.0898 -12.8906 -59.6602 -22.7998 -96 -28.7998zM208 66.7998
c15.9189 -1.73633 31.6514 -2.6709 48 -2.7998c16.3486 0.128906 32.0811 1.06348 48 2.7998v-64.0898c-15.6201 -1.50977 -31.4902 -2.70996 -48 -2.70996s-32.3799 1.2002 -48 2.70996v64.0898z" />
    <glyph glyph-name="construction-primary" unicode="&#xf85d;" horiz-adv-x="640" 
d="M308 232c-15.4541 0 -28 12.5459 -28 28s12.5459 28 28 28s28 -12.5459 28 -28s-12.5459 -28 -28 -28zM289.38 75.6396c8.81348 -5.68359 14.6201 -15.5664 14.6201 -26.8242v-0.0458984v-32.7695c0 -8.83105 -7.16895 -16 -16 -16s-16 7.16895 -16 16v32.7695
l-46.3301 29.9209l-18.25 -66.8906c-1.84668 -6.78809 -8.05273 -11.791 -15.4199 -11.7998c-0.0175781 0 -0.0302734 0.00195312 -0.0478516 0.00195312c-1.4375 0 -2.83008 0.194336 -4.15234 0.557617c-6.79395 1.84863 -11.7988 8.05859 -11.7988 15.4355
c0 1.45508 0.194336 2.86426 0.558594 4.20508l29.75 109.109zM363.98 29.9404c2.35547 5.88965 8.125 10.0488 14.8496 10.0596h35.6396l-94.75 58.2998l-0.109375 0.0703125l-104 64c-4.57422 2.81738 -7.60059 7.875 -7.60059 13.6357
c0 3.59375 1.18652 6.91211 3.19043 9.58398l11.6094 15.5303c8.73633 11.6592 22.6113 19.167 38.2871 19.167c3.62207 0 7.15039 -0.40332 10.543 -1.16699l24.5801 -7.28027c17.4502 -3.82031 31.8398 -18.5303 35.5605 -37.1396l10.5498 -52.7002l87.6699 -54
l21.1396 42.5c2.62402 5.25684 8.03711 8.87207 14.3066 8.87207c5.6543 0 10.6279 -2.93945 13.4736 -7.37207l71.8799 -112h-198.8z" />
    <glyph glyph-name="digging-primary" unicode="&#xf85e;" horiz-adv-x="576" 
d="M272 352c-26.4922 0 -48 21.5078 -48 48s21.5078 48 48 48s48 -21.5078 48 -48s-21.5078 -48 -48 -48zM209.76 90.6396c8.60156 -5.73828 14.2402 -15.5117 14.2402 -26.6182v-0.0214844v-96c0 -17.6611 -14.3389 -32 -32 -32s-32 14.3389 -32 32v78.8896
l-60.6104 40.4102l-36.5996 -128.16c-3.82715 -13.3936 -16.1592 -23.2227 -30.7754 -23.2227c-17.668 0 -32.0117 14.3447 -32.0117 32.0127c0 3.05176 0.427734 6.00391 1.22754 8.80078l57.4199 201l71.5596 -39c27.2334 -14.874 53.75 -30.9043 79.5498 -48.0908z
M386.15 90.1797l-24.3008 -41.4102l-336.6 184.301c-14.6201 7.98926 -20.4502 26.75 -11.6201 40.8496c0.69043 1.11719 1.45312 2.16406 2.2998 3.16016l56 64c5.86621 6.7002 14.4746 10.918 24.0703 10.9199h72.7305c16.5098 0 32.7295 -3.90039 48.0693 -10
c2.52246 -0.589844 4.97559 -1.50488 7.21973 -2.66992c1 -0.469727 2.11035 -0.629883 3.11035 -1.12988c35.584 -17.6289 61.8242 -51.1299 69.7197 -91.2002l24 -121.2zM105.9 243l38.9697 45h-34.3301l-28.1299 -32.1504zM199.64 191.87l48.2305 -26.3105l-13.5 67.54z
" />
    <glyph glyph-name="drone-alt-primary" unicode="&#xf860;" horiz-adv-x="640" 
d="M472 256h48v-64.0498c0 -17.6611 -14.3389 -32 -32 -32h-45.4199c29.3652 -28.5361 48.9512 -67.2451 53.3203 -110.24c0.0517578 -0.525391 0.0761719 -1.04102 0.0761719 -1.58008c0 -8.88477 -7.19824 -16.1006 -16.0762 -16.1299h-16.2207
c-8.33008 0.0195312 -14.75 6.58008 -15.6797 14.8701c-4.21289 37.6172 -24.3896 70.4668 -53.7197 91.3799l-32.9307 -32.9297c-5.79199 -5.79102 -13.7998 -9.37012 -22.6299 -9.37012h-37.4893c-8.82812 0.000976562 -16.8291 3.58008 -22.6201 9.37012
l-32.9307 32.9297c-29.3066 -20.9238 -49.4619 -53.7715 -53.6602 -91.3799c-0.929688 -8.29004 -7.34961 -14.8701 -15.6797 -14.8701h-16.2598c-8.87793 0.0351562 -16.0771 7.2373 -16.0771 16.124c0 0.535156 0.0263672 1.06445 0.0771484 1.58594
c4.37695 42.9941 23.9648 81.7021 53.3301 110.24h-45.4102c-17.6611 0 -32 14.3389 -32 32v64.0498h48v-45.6504l96.8301 29.0508c17.4795 5.24512 35.9775 8.06445 55.1562 8.06445s37.7041 -2.81934 55.1836 -8.06445l96.8301 -29.0508v45.6504zM144 352
c10.3213 -0.0693359 19.082 -6.73926 22.2695 -16h-44.5c3.17383 9.25586 11.9219 15.9258 22.2305 16zM496 352c10.3213 -0.0693359 19.082 -6.73926 22.2695 -16h-44.5c3.17383 9.25586 11.9219 15.9258 22.2305 16z" />
    <glyph glyph-name="dryer-primary" unicode="&#xf861;" 
d="M384 448c35.3223 0 64 -28.6777 64 -64v-416c0 -17.6611 -14.3389 -32 -32 -32h-384c-17.6611 0 -32 14.3389 -32 32v416c0 35.3223 28.6777 64 64 64h320zM184 384c-13.2461 0 -24 -10.7539 -24 -24s10.7539 -24 24 -24s24 10.7539 24 24s-10.7539 24 -24 24zM64 360
c0 -13.2461 10.7539 -24 24 -24s24 10.7539 24 24s-10.7539 24 -24 24s-24 -10.7539 -24 -24zM224 0c79.4756 0 144 64.5244 144 144s-64.5244 144 -144 144s-144 -64.5244 -144 -144s64.5244 -144 144 -144z" />
    <glyph glyph-name="dryer-alt-primary" unicode="&#xf862;" 
d="M384 448c35.3223 0 64 -28.6777 64 -64v-416c0 -17.6611 -14.3389 -32 -32 -32h-384c-17.6611 0 -32 14.3389 -32 32v416c0 35.3223 28.6777 64 64 64h320zM184 384c-13.2461 0 -24 -10.7539 -24 -24s10.7539 -24 24 -24s24 10.7539 24 24s-10.7539 24 -24 24zM64 360
c0 -13.2461 10.7539 -24 24 -24s24 10.7539 24 24s-10.7539 24 -24 24s-24 -10.7539 -24 -24zM224 0c79.4756 0 144 64.5244 144 144s-64.5244 144 -144 144s-144 -64.5244 -144 -144s64.5244 -144 144 -144z" />
    <glyph glyph-name="farm-primary" unicode="&#xf864;" horiz-adv-x="576" 
d="M572.62 201.78c2.14941 -4.30371 3.37793 -9.1875 3.37988 -14.3203v-251.46h-128v96h-160v-96h-128v251.46c0.00683594 5.12109 1.23535 9.99512 3.37988 14.29l55.4902 111c3.31543 6.63184 8.82324 11.9072 15.6201 14.9297l120.51 53.5605
c3.9668 1.76367 8.4082 2.74316 13.0254 2.74316s9.00781 -0.979492 12.9746 -2.74316l120.51 -53.5303c6.79688 -3.02246 12.3047 -8.29785 15.6201 -14.9297zM416 128v96h-96v-96h96z" />
    <glyph glyph-name="font-case-primary" unicode="&#xf866;" horiz-adv-x="640" 
d="M229.88 362.31l121.28 -341.199c0.540039 -1.60449 0.837891 -3.3252 0.837891 -5.11035c0 -8.83008 -7.16797 -15.999 -15.998 -16h-50.6201c-7.04395 0.000976562 -13.0264 4.56055 -15.1602 10.8896l-19.0693 53.1104h-150.301l-19.0693 -53.1104
c-2.13379 -6.3291 -8.11621 -10.8887 -15.1602 -10.8896h-50.6201c-8.8252 0.00683594 -15.9834 7.17676 -15.9834 16.0029c0 1.78516 0.292969 3.50293 0.833008 5.10742l121.271 341.199c4.29297 12.6133 16.2363 21.6904 30.293 21.6904h0.00683594h47.1602
l-0.00292969 0.00683594c14.0576 0 26.0098 -9.08398 30.3027 -21.6973zM129.58 144h92.8398l-46.4199 129.26z" />
    <glyph glyph-name="game-board-primary" unicode="&#xf867;" horiz-adv-x="512" 
d="M256 192h-95.7998v-96h-96v96h95.7998v95.9004h-95.9004v96h96v-95.9004h95.9004v-96zM256 96v96h96v-96h-95.7998v-96h-96v96h95.7998zM352.1 -0.0996094v96h96v-96h-96zM352.2 288h96v-96h-96v96zM256.2 384h96v-96h-96v96z" />
    <glyph glyph-name="game-board-alt-primary" unicode="&#xf868;" horiz-adv-x="512" 
d="M256 384h192v-192h-192v192zM64 0v192h192v-192h-192z" />
    <glyph glyph-name="glass-citrus-primary" unicode="&#xf869;" horiz-adv-x="512" 
d="M283.43 256h-217.06l27.4297 -256h162.2zM317.8 320c0.660156 0 1.33008 -0.0595703 2.00977 -0.0595703c16.7158 -1.05078 29.9941 -14.9326 29.9941 -31.9111c0 -0.681641 -0.0214844 -1.3584 -0.0634766 -2.0293l-32 -320c-1.04688 -16.7188 -14.96 -30 -31.9404 -30
h-221.8c-16.9805 0 -30.8926 13.2812 -31.9404 30l-32 320c-0.0595703 0.669922 -0.0595703 1.33008 -0.0595703 2c0 17.6611 14.3389 32 32 32h285.8z" />
    <glyph glyph-name="h4-primary" unicode="&#xf86a;" horiz-adv-x="576" 
d="M560 224c8.83105 0 16 -7.16895 16 -16v-32c0 -8.83105 -7.16895 -16 -16 -16h-16v-112c0 -8.83105 -7.16895 -16 -16 -16h-32c-8.83105 0 -16 7.16895 -16 16v112h-96c-17.6611 0 -32 14.3389 -32 32v144c0 8.83105 7.16895 16 16 16h32c8.83105 0 16 -7.16895 16 -16
v-112h64v112c0 8.83105 7.16895 16 16 16h32c8.83105 0 16 -7.16895 16 -16v-112h16z" />
    <glyph glyph-name="hat-chef-primary" unicode="&#xf86b;" horiz-adv-x="512" 
d="M64 -32v128h384v-128c0 -17.6611 -14.3389 -32 -32 -32h-320c-17.6611 0 -32 14.3389 -32 32z" />
    <glyph glyph-name="horizontal-rule-primary" unicode="&#xf86c;" horiz-adv-x="640" 
 />
    <glyph glyph-name="icons-primary" unicode="&#xf86d;" horiz-adv-x="512" 
d="M260.57 128.16c15.1406 -0.0107422 27.4297 -12.3066 27.4297 -27.4502v-0.00976562v-137.25c0 -15.1436 -12.2891 -27.4395 -27.4297 -27.4502h-233.141c-15.1406 0.0107422 -27.4297 12.3066 -27.4297 27.4502v137.25v0.00976562
c0 15.1504 12.2998 27.4502 27.4502 27.4502h0.00976562h48l7 14.2402c3.89258 10.3887 13.9082 17.7793 25.6484 17.7793h0.0117188h71.71c0.00390625 0 -0.00195312 0.0126953 0.000976562 0.0126953c11.7412 0 21.7666 -7.40332 25.6592 -17.792l7.08008 -14.2402h48z
M144 -20c28.6992 0 52 23.3008 52 52s-23.3008 52 -52 52s-52 -23.3008 -52 -52s23.3008 -52 52 -52zM478.08 447.67c17.9199 2.75 33.9199 -12.1895 33.9199 -31.6699v-144.26c-0.269531 -26.3398 -28.7998 -47.6602 -64 -47.6602c-35.3496 0 -64 21.4795 -64 48
c0 26.5195 28.6504 48 64 48c5.49219 -0.0498047 10.8096 -0.633789 16 -1.7002v47.1797l-112 -17.2197v-108.58c-0.269531 -26.3398 -28.7998 -47.6602 -64 -47.6602c-35.3496 0 -64 21.4805 -64 48c0 26.5205 28.6504 48 64 48
c5.49219 -0.0498047 10.8096 -0.632812 16 -1.69922v106.77c0 15.9102 10.8701 29.4102 25.5098 31.6602z" />
    <glyph glyph-name="icons-alt-primary" unicode="&#xf86e;" horiz-adv-x="512" 
d="M478.08 447.67c17.9199 2.75977 33.9199 -12.2002 33.9199 -31.6699v-144.31c-0.269531 -26.3604 -28.7998 -47.6904 -64 -47.6904c-35.3496 0 -64 21.4902 -64 48s28.6504 48 64 48c5.49219 -0.0498047 10.8096 -0.633789 16 -1.7002v47.2002l-112 -17.2305v-108.579
c-0.269531 -26.3604 -28.7998 -47.6904 -64 -47.6904c-35.3496 0 -64 21.4902 -64 48s28.6504 48 64 48c5.49219 -0.0498047 10.8096 -0.633789 16 -1.7002v106.84c0 15.9199 10.8701 29.4199 25.5098 31.6807zM219.59 64.0596
c2.89453 -2.89551 4.68457 -6.89844 4.68457 -11.3115c0 -4.41406 -1.79004 -8.41211 -4.68457 -11.3076l-27.8896 -27.8906l27.6396 -27.6094c2.89746 -2.89648 4.69043 -6.90137 4.69043 -11.3174s-1.79297 -8.41699 -4.69043 -11.3135l-22.6201 -22.6191
c-2.89648 -2.89746 -6.90137 -4.69043 -11.3174 -4.69043s-8.41602 1.79297 -11.3125 4.69043l-27.6094 27.6094l-8.48047 -8.49023c-14.7188 -14.7246 -35.0283 -23.8896 -57.4736 -23.8896c-26.0889 0 -49.3242 12.3135 -64.2061 31.4404
c-25.8799 32.8896 -19.7803 80.9297 9.80957 110.52l6.91992 6.91992c-10.5527 11.4131 -16.9883 26.6973 -16.9883 43.4521c0 35.3223 28.6768 64 64 64c35.3223 0 64 -28.6777 64 -64c0 -18.4395 -7.81543 -35.0684 -20.3115 -46.752l22.7002 -22.7002l27.9199 27.8906
c2.89648 2.89648 6.90137 4.68945 11.3174 4.68945s8.41602 -1.79297 11.3125 -4.68945zM80 144c-8.83105 0 -16 -7.16895 -16 -16s7.16895 -16 16 -16s16 7.16895 16 16s-7.16895 16 -16 16zM92.7197 5.05957l8.48047 8.49023l-24.4502 24.4502l-8.48047 -8.48047
c-3.13086 -3.12988 -5.06445 -7.45898 -5.06445 -12.2314c0 -9.54395 7.74805 -17.293 17.292 -17.293c4.77148 0 9.09277 1.93652 12.2227 5.06445z" />
    <glyph glyph-name="kerning-primary" unicode="&#xf86f;" horiz-adv-x="640" 
d="M304 352c8.8252 -0.00683594 15.9834 -7.17676 15.9834 -16.0029c0 -1.78516 -0.292969 -3.50293 -0.833008 -5.10742l-105.271 -277.199c-4.29297 -12.6133 -16.2363 -21.6904 -30.293 -21.6904h-0.00683594h-47.1602l0.00292969 -0.00683594
c-14.0576 0 -26.0098 9.08398 -30.3027 21.6973l-105.271 277.199c-0.540039 1.60449 -0.836914 3.3252 -0.836914 5.11035c0 8.82617 7.16211 15.9932 15.9873 16h50.6201c7.04395 -0.000976562 13.0264 -4.56055 15.1602 -10.8896l78.2197 -199.79l78.2197 199.79
c2.13379 6.3291 8.11621 10.8887 15.1602 10.8896h50.6201zM639.15 53.1104c0.540039 -1.60449 0.836914 -3.3252 0.836914 -5.11035c0 -8.82617 -7.16211 -15.9932 -15.9873 -16h-50.6201c-7.04395 0.000976562 -13.0264 4.56055 -15.1602 10.8896l-14.5293 37.1104
h-127.381l-14.54 -37.1104c-2.13281 -6.3291 -8.11523 -10.8887 -15.1592 -10.8896h-50.6104c-8.8252 0.00683594 -15.9834 7.17676 -15.9834 16.0029c0 1.78516 0.292969 3.50293 0.833008 5.10742l105.271 277.199c4.29297 12.6133 16.2363 21.6904 30.293 21.6904
h0.00683594h47.1602l-0.00292969 0.00683594c14.0576 0 26.0098 -9.08398 30.3027 -21.6973zM447.63 160h64.7402l-32.3701 82.6797z" />
    <glyph glyph-name="line-columns-primary" unicode="&#xf870;" horiz-adv-x="512" 
d="M208 160c8.83105 0 16 -7.16895 16 -16v-32c0 -8.83105 -7.16895 -16 -16 -16h-192c-8.83105 0 -16 7.16895 -16 16v32c0 8.83105 7.16895 16 16 16h192zM208 32c8.83105 0 16 -7.16895 16 -16v-32c0 -8.83105 -7.16895 -16 -16 -16h-192c-8.83105 0 -16 7.16895 -16 16
v32c0 8.83105 7.16895 16 16 16h192zM208 416c8.83105 0 16 -7.16895 16 -16v-32c0 -8.83105 -7.16895 -16 -16 -16h-192c-8.83105 0 -16 7.16895 -16 16v32c0 8.83105 7.16895 16 16 16h192zM208 288c8.83105 0 16 -7.16895 16 -16v-32c0 -8.83105 -7.16895 -16 -16 -16
h-192c-8.83105 0 -16 7.16895 -16 16v32c0 8.83105 7.16895 16 16 16h192z" />
    <glyph glyph-name="line-height-primary" unicode="&#xf871;" horiz-adv-x="640" 
d="M176 304h-48v-224h48c15.6396 0 20.6396 -18 11.3301 -27.3096l-80 -80c-2.89551 -2.89453 -6.89844 -4.68555 -11.3125 -4.68555c-4.41309 0 -8.41211 1.79102 -11.3076 4.68555l-80 80c-10.0195 10 -3 27.3096 11.29 27.3096h48v224h-48
c-15.6396 0 -20.6396 18 -11.3096 27.3096l80 80c2.89551 2.89453 6.89844 4.68555 11.3115 4.68555c4.41406 0 8.41211 -1.79102 11.3076 -4.68555l80 -80c10.0205 -10 3 -27.3096 -11.3096 -27.3096z" />
    <glyph glyph-name="money-check-edit-primary" unicode="&#xf872;" horiz-adv-x="640" 
d="M534.64 145.09c5.78516 -5.79102 9.36035 -13.79 9.36035 -22.6143v-0.015625v-42.46c0 -8.83105 -7.16895 -16 -16 -16h-42.4902c-8.83398 0 -16.8467 3.58301 -22.6396 9.37988l-231.39 231.45l71.6992 71.7002zM238.78 441l41.8193 -41.7695l-71.6992 -71.8008
l-41.9004 41.9004c-4.30273 4.33887 -6.96191 10.3164 -6.96191 16.9033s2.65918 12.5576 6.96191 16.8965l37.8799 37.8701c4.35547 4.30859 10.3506 6.9707 16.9541 6.9707c6.60449 0 12.5908 -2.66211 16.9463 -6.9707z" />
    <glyph glyph-name="money-check-edit-alt-primary" unicode="&#xf873;" horiz-adv-x="640" 
d="M238.78 441l41.8193 -41.7402l-71.6992 -71.7998l-41.9004 41.9004c-4.30273 4.33789 -6.96191 10.3164 -6.96191 16.9033s2.65918 12.5576 6.96191 16.8965l37.8799 37.8398c4.35547 4.30859 10.3506 6.9707 16.9541 6.9707c6.60449 0 12.5908 -2.66211 16.9463 -6.9707
zM534.64 145.12c5.78516 -5.79102 9.36035 -13.79 9.36035 -22.6143v-0.015625v-42.4902c0 -8.83105 -7.16895 -16 -16 -16h-42.5c-8.83105 0.00976562 -16.833 3.59961 -22.6201 9.40039l-231.399 231.46l71.6992 71.6992zM155.09 120.61
c18.5898 -5.61035 31.5801 -23.4199 31.5801 -43.3906c0 -24.5293 -19.0498 -44.4395 -42.6699 -45.0693v-16.1504c0 -4.41504 -3.58496 -8 -8 -8h-16c-4.41504 0 -8 3.58496 -8 8v16.3203c-11.6943 0.607422 -22.5566 4.75488 -31.3701 11.3496
c-1.88184 1.46387 -3.08984 3.74707 -3.08984 6.31445c0 2.29492 0.96875 4.36621 2.51953 5.8252l11.75 11.1904c1.45703 1.33203 3.40723 2.1416 5.53516 2.1416c1.70312 0 3.28516 -0.521484 4.5957 -1.41113c3.7041 -2.34473 8.11719 -3.7207 12.8193 -3.73047h28.1201
c6.5 0 11.7998 5.91992 11.7998 13.1904c0 5.94922 -3.60938 11.1895 -8.76953 12.7295l-45 13.5c-18.5801 5.58008 -31.5801 23.3896 -31.5801 43.3896c0 24.5205 19.0498 44.4404 42.6699 45.0703v16.1201c0 4.41504 3.58496 8 8 8h16c4.41504 0 8 -3.58496 8 -8v-16.2598
c11.6934 -0.600586 22.5537 -4.74902 31.3604 -11.3506c1.87891 -1.46387 3.08008 -3.75195 3.08008 -6.31641c0 -1.84668 -0.62793 -3.54883 -1.68066 -4.90332c-0.251953 -0.332031 -0.525391 -0.635742 -0.830078 -0.919922l-11.75 -11.2197
c-1.45996 -1.32812 -3.41016 -2.13379 -5.53711 -2.13379c-1.7002 0 -3.28125 0.517578 -4.59277 1.40332c-3.70215 2.34766 -8.11621 3.72461 -12.8193 3.73047h-28.1104c-6.5 0 -11.7998 -5.91992 -11.7998 -13.1904c0 -5.9502 3.60938 -11.1895 8.76953 -12.7295z" />
    <glyph glyph-name="mug-primary" unicode="&#xf874;" horiz-adv-x="576" 
d="M416 96c0 -52.9834 -43.0166 -96 -96 -96h-192c-52.9834 0 -96 43.0166 -96 96v264.12c0.0332031 13.1846 10.7471 23.8789 23.9395 23.8789c0.0205078 0 0.0400391 0.000976562 0.0605469 0.000976562h360v-288z" />
    <glyph glyph-name="mug-tea-primary" unicode="&#xf875;" horiz-adv-x="640" 
d="M512 416c70.6455 0 128 -57.3545 128 -128s-57.3545 -128 -128 -128h-32c0 -52.9834 -43.0166 -96 -96 -96h-191.95c-52.9834 0 -96 43.0166 -96 96v232c0 0.0205078 -0.000976562 0.0400391 -0.000976562 0.0605469c0 13.2119 10.7275 23.9395 23.9395 23.9395
h0.0615234h87.9502v-64l-38.6299 -38.6299c-5.79004 -5.79102 -9.36914 -13.793 -9.37012 -22.6201v-66.75c0 -17.6611 14.3389 -32 32 -32h64c17.6611 0 32 14.3389 32 32v66.75c-0.00390625 8.82812 -3.58691 16.8301 -9.37988 22.6201l-38.6201 38.6299v64h272zM512 224
c35.3223 0 64 28.6777 64 64s-28.6777 64 -64 64h-32v-128h32z" />
    <glyph glyph-name="overline-primary" unicode="&#xf876;" 
d="M232.19 320c92.6162 0 167.81 -75.1934 167.81 -167.81v-48.3809c0 -92.6162 -75.1934 -167.81 -167.81 -167.81h-16.3809c-92.6162 0 -167.81 75.1934 -167.81 167.81v48.3809c0 92.6162 75.1934 167.81 167.81 167.81h16.3809zM320 103.81v48.3809
c-0.0546875 48.4375 -39.3721 87.7549 -87.8096 87.8096h-16.3809c-48.4375 -0.0546875 -87.7549 -39.3721 -87.8096 -87.8096v-48.3809c0.0546875 -48.4375 39.3721 -87.7549 87.8096 -87.8096h16.3809c48.4375 0.0546875 87.7549 39.3721 87.8096 87.8096z" />
    <glyph glyph-name="page-break-primary" unicode="&#xf877;" horiz-adv-x="576" 
d="M243.6 192h88.8008h0.00976562c10.8115 0 19.5898 -8.77734 19.5898 -19.5898v-0.00976562v-24.8008v-0.00976562c0 -10.8115 -8.77734 -19.5898 -19.5898 -19.5898h-0.00976562h-88.8008h-0.00976562c-10.8115 0 -19.5898 8.77734 -19.5898 19.5898v0.00976562v24.8008
v0.00976562c0 10.8115 8.77734 19.5898 19.5898 19.5898h0.00976562zM560 192c8.83105 0 16 -7.16895 16 -16v-32c0 -8.83105 -7.16895 -16 -16 -16h-128c-8.83105 0 -16 7.16895 -16 16v32c0 8.83105 7.16895 16 16 16h128zM160 144c0 -8.83105 -7.16895 -16 -16 -16h-128
c-8.83105 0 -16 7.16895 -16 16v32c0 8.83105 7.16895 16 16 16h128c8.83105 0 16 -7.16895 16 -16v-32z" />
    <glyph glyph-name="paragraph-rtl-primary" unicode="&#xf878;" horiz-adv-x="384" 
d="M368 64c8.83105 0 16 -7.16895 16 -16v-32c0 -8.83105 -7.16895 -16 -16 -16h-256v-48c0 -15.6396 -18 -20.6396 -27.3096 -11.3096l-80 80c-2.89453 2.89551 -4.68555 6.89844 -4.68555 11.3115c0 4.41406 1.79102 8.41211 4.68555 11.3076l80 80
c10.0791 10.0801 27.3096 2.94043 27.3096 -11.3096v-48h256z" />
    <glyph glyph-name="phone-laptop-primary" unicode="&#xf87a;" horiz-adv-x="640" 
d="M604 320c19.8691 0 36 -16.1309 36 -36v-312c0 -19.8691 -16.1309 -36 -36 -36h-184c-19.8691 0 -36 16.1309 -36 36v312c0 19.8691 16.1309 36 36 36h184zM576 0v256h-128v-256h128z" />
    <glyph glyph-name="photo-video-primary" unicode="&#xf87c;" horiz-adv-x="640" 
d="M416 288c17.6611 0 32 -14.3389 32 -32v-288c0 -17.6611 -14.3389 -32 -32 -32h-384c-17.6611 0 -32 14.3389 -32 32v288c0 17.6611 14.3389 32 32 32h384zM96 224c-17.6611 0 -32 -14.3389 -32 -32s14.3389 -32 32 -32s32 14.3389 32 32s-14.3389 32 -32 32zM384 0v96
l-96 96l-128 -128l-32 32l-64 -64v-32h320z" />
    <glyph glyph-name="remove-format-primary" unicode="&#xf87d;" horiz-adv-x="640" 
d="M633.82 -10.0996c3.76855 -2.92871 6.17676 -7.50977 6.17676 -12.6475c0 -3.69238 -1.25293 -7.09375 -3.35742 -9.80273l-19.6396 -25.2705c-2.92871 -3.76855 -7.50879 -6.17578 -12.6465 -6.17578c-3.69727 0 -7.10254 1.25684 -9.81348 3.36621l-588.36 454.72
c-3.76562 2.92871 -6.1709 7.50781 -6.1709 12.6426c0 3.69434 1.25488 7.09766 3.36133 9.80762l19.6299 25.2695c2.92871 3.76855 7.50879 6.17676 12.6465 6.17676c3.69727 0 7.10254 -1.25684 9.81348 -3.36621z" />
    <glyph glyph-name="snooze-primary" unicode="&#xf880;" 
d="M192 224c17.6611 0 32 -14.3389 32 -32v-46.0801c0 -8.14844 -3.05762 -15.6074 -8.08008 -21.2598l-82.3604 -92.6602h50.4404c13.2461 0 24 -10.7539 24 -24v-48c0 -13.2461 -10.7539 -24 -24 -24h-152c-17.6611 0 -32 14.3389 -32 32v46.0801
c0 8.14844 3.05762 15.6074 8.08008 21.2598l82.3604 92.6602h-50.4404c-13.2461 0 -24 10.7539 -24 24v48c0 13.2461 10.7539 24 24 24h152z" />
    <glyph glyph-name="sort-alpha-down-alt-primary" unicode="&#xf881;" 
d="M176 96c14.2197 0 21.3496 -17.2598 11.3301 -27.3096l-80 -96c-2.89551 -2.89453 -6.89844 -4.68555 -11.3125 -4.68555c-4.41309 0 -8.41211 1.79102 -11.3076 4.68555l-80 96c-10.0703 10.0693 -2.90039 27.3096 11.29 27.3096h48v304c0 8.83105 7.16895 16 16 16h32
c8.83105 0 16 -7.16895 16 -16v-304h48z" />
    <glyph glyph-name="sort-alpha-up-alt-primary" unicode="&#xf882;" 
d="M16 288c-14.2197 0 -21.3496 17.2598 -11.3096 27.3096l80 96c2.89551 2.89453 6.89844 4.68555 11.3115 4.68555c4.41406 0 8.41211 -1.79102 11.3076 -4.68555l80 -96c10.0703 -10.0693 2.90039 -27.3096 -11.3096 -27.3096h-48v-304c0 -8.83105 -7.16895 -16 -16 -16
h-32c-8.83105 0 -16 7.16895 -16 16v304h-48z" />
    <glyph glyph-name="sort-alt-primary" unicode="&#xf883;" horiz-adv-x="384" 
d="M176 96c14.2197 0 21.3496 -17.2598 11.3301 -27.3096l-80 -96c-2.89551 -2.89453 -6.89844 -4.68555 -11.3125 -4.68555c-4.41309 0 -8.41211 1.79102 -11.3076 4.68555l-80 96c-10.0703 10.0693 -2.90039 27.3096 11.29 27.3096h48v304c0 8.83105 7.16895 16 16 16h32
c8.83105 0 16 -7.16895 16 -16v-304h48z" />
    <glyph glyph-name="sort-amount-down-alt-primary" unicode="&#xf884;" horiz-adv-x="512" 
d="M176 96c14.2197 0 21.3496 -17.2598 11.3301 -27.3096l-80 -96c-2.89551 -2.89453 -6.89844 -4.68555 -11.3125 -4.68555c-4.41309 0 -8.41211 1.79102 -11.3076 4.68555l-80 96c-10.0801 10.0693 -2.90039 27.3096 11.29 27.3096h48v304c0 8.83105 7.16895 16 16 16h32
c8.83105 0 16 -7.16895 16 -16v-304h48z" />
    <glyph glyph-name="sort-amount-up-alt-primary" unicode="&#xf885;" horiz-adv-x="512" 
d="M16 288c-14.2197 0 -21.3496 17.2598 -11.3096 27.3096l80 96c2.89551 2.89453 6.89844 4.68555 11.3115 4.68555c4.41406 0 8.41211 -1.79102 11.3076 -4.68555l80 -96c10.0801 -10.0693 2.90039 -27.3096 -11.3096 -27.3096h-48v-304c0 -8.83105 -7.16895 -16 -16 -16
h-32c-8.83105 0 -16 7.16895 -16 16v304h-48z" />
    <glyph glyph-name="sort-numeric-down-alt-primary" unicode="&#xf886;" 
d="M176 96c14.2197 0 21.3496 -17.2598 11.3301 -27.3096l-80 -96c-2.89551 -2.89453 -6.89844 -4.68555 -11.3125 -4.68555c-4.41309 0 -8.41211 1.79102 -11.3076 4.68555l-80 96c-10.0703 10.0693 -2.90039 27.3096 11.29 27.3096h48v304c0 8.83105 7.16895 16 16 16h32
c8.83105 0 16 -7.16895 16 -16v-304h48z" />
    <glyph glyph-name="sort-numeric-up-alt-primary" unicode="&#xf887;" 
d="M107.31 411.31l80 -96c10.0703 -10.0693 2.90039 -27.3096 -11.3096 -27.3096h-48v-304c0 -8.83105 -7.16895 -16 -16 -16h-32c-8.83105 0 -16 7.16895 -16 16v304h-48c-14.2197 0 -21.3496 17.2598 -11.3096 27.3096l80 96
c2.89551 2.89453 6.89844 4.68555 11.3115 4.68555c4.41406 0 8.41211 -1.79102 11.3076 -4.68555z" />
    <glyph glyph-name="sort-shapes-down-primary" unicode="&#xf888;" 
d="M176 96c14.2197 0 21.3496 -17.2598 11.3301 -27.3096l-80 -96c-2.89551 -2.89453 -6.89844 -4.68555 -11.3125 -4.68555c-4.41309 0 -8.41211 1.79102 -11.3076 4.68555l-80 96c-10.0703 10.0693 -2.90039 27.3096 11.29 27.3096h48v304c0 8.83105 7.16895 16 16 16h32
c8.83105 0 16 -7.16895 16 -16v-304h48z" />
    <glyph glyph-name="sort-shapes-down-alt-primary" unicode="&#xf889;" 
d="M176 96c14.2197 0 21.3496 -17.2598 11.3301 -27.3096l-80 -96c-2.89551 -2.89453 -6.89844 -4.68555 -11.3125 -4.68555c-4.41309 0 -8.41211 1.79102 -11.3076 4.68555l-80 96c-10.0703 10.0693 -2.90039 27.3096 11.29 27.3096h48v304c0 8.83105 7.16895 16 16 16h32
c8.83105 0 16 -7.16895 16 -16v-304h48z" />
    <glyph glyph-name="sort-shapes-up-primary" unicode="&#xf88a;" 
d="M107.31 411.31l80 -96c10.0801 -10.0693 2.90039 -27.3096 -11.3096 -27.3096h-48v-304c0 -8.83105 -7.16895 -16 -16 -16h-32c-8.83105 0 -16 7.16895 -16 16v304h-48c-14.2197 0 -21.3496 17.2598 -11.3096 27.3096l80 96
c2.89551 2.89453 6.89844 4.68555 11.3115 4.68555c4.41406 0 8.41211 -1.79102 11.3076 -4.68555z" />
    <glyph glyph-name="sort-shapes-up-alt-primary" unicode="&#xf88b;" 
d="M107.31 411.31l80 -96c10.0801 -10.0693 2.90039 -27.3096 -11.3096 -27.3096h-48v-304c0 -8.83105 -7.16895 -16 -16 -16h-32c-8.83105 0 -16 7.16895 -16 16v304h-48c-14.2197 0 -21.3496 17.2598 -11.3096 27.3096l80 96
c2.89551 2.89453 6.89844 4.68555 11.3115 4.68555c4.41406 0 8.41211 -1.79102 11.3076 -4.68555z" />
    <glyph glyph-name="sort-size-down-primary" unicode="&#xf88c;" horiz-adv-x="512" 
d="M176 96c14.2197 0 21.3496 -17.2598 11.3301 -27.3096l-80 -96c-2.89551 -2.89453 -6.89844 -4.68555 -11.3125 -4.68555c-4.41309 0 -8.41211 1.79102 -11.3076 4.68555l-80 96c-10.0801 10.0693 -2.90039 27.3096 11.29 27.3096h48v304c0 8.83105 7.16895 16 16 16h32
c8.83105 0 16 -7.16895 16 -16v-304h48z" />
    <glyph glyph-name="sort-size-down-alt-primary" unicode="&#xf88d;" horiz-adv-x="512" 
d="M176 96c14.2197 0 21.3496 -17.2598 11.3301 -27.3096l-80 -96c-2.89551 -2.89453 -6.89844 -4.68555 -11.3125 -4.68555c-4.41309 0 -8.41211 1.79102 -11.3076 4.68555l-80 96c-10.0801 10.0693 -2.90039 27.3096 11.29 27.3096h48v304c0 8.83105 7.16895 16 16 16h32
c8.83105 0 16 -7.16895 16 -16v-304h48z" />
    <glyph glyph-name="sort-size-up-primary" unicode="&#xf88e;" horiz-adv-x="512" 
d="M107.31 411.31l80 -96c10.0703 -10.0693 2.90039 -27.3096 -11.3096 -27.3096h-48v-304c0 -8.83105 -7.16895 -16 -16 -16h-32c-8.83105 0 -16 7.16895 -16 16v304h-48c-14.2305 0 -21.3496 17.2598 -11.3096 27.3096l80 96
c2.89551 2.89453 6.89844 4.68555 11.3115 4.68555c4.41406 0 8.41211 -1.79102 11.3076 -4.68555z" />
    <glyph glyph-name="sort-size-up-alt-primary" unicode="&#xf88f;" horiz-adv-x="512" 
d="M107.31 411.31l80 -96c10.0703 -10.0693 2.90039 -27.3096 -11.3096 -27.3096h-48v-304c0 -8.83105 -7.16895 -16 -16 -16h-32c-8.83105 0 -16 7.16895 -16 16v304h-48c-14.2305 0 -21.3496 17.2598 -11.3096 27.3096l80 96
c2.89551 2.89453 6.89844 4.68555 11.3115 4.68555c4.41406 0 8.41211 -1.79102 11.3076 -4.68555z" />
    <glyph glyph-name="sparkles-primary" unicode="&#xf890;" horiz-adv-x="512" 
d="M384 193.36c0 -0.00292969 0.015625 0.00390625 0.015625 0.000976562c0 -6.27637 -3.60547 -11.7158 -8.85547 -14.3613l-112.57 -56.3701l-56.2803 -112.77c-2.625 -5.25 -8.03516 -8.8584 -14.2998 -8.8584c-6.26562 0 -11.6943 3.6084 -14.3193 8.8584
l-56.2803 112.77l-112.57 56.3896c-5.27734 2.61719 -8.9082 8.04102 -8.9082 14.3262s3.63086 11.7285 8.9082 14.3447l112.57 56.3896l56.2803 112.77c5.42969 10.8701 23.1797 10.8701 28.6191 0l56.2803 -112.77l112.57 -56.3896
c5.24609 -2.64062 8.83398 -8.06348 8.83984 -14.3301z" />
    <glyph glyph-name="spell-check-primary" unicode="&#xf891;" horiz-adv-x="576" 
d="M272 192c-8.83105 0 -16 7.16895 -16 16v224c0 8.83105 7.16895 16 16 16h75c42.2998 0 80.9004 -30.5703 84.6699 -72.6797c0.225586 -2.44238 0.289062 -4.91895 0.289062 -7.41895c0 -13.5479 -3.38281 -26.3115 -9.34863 -37.4912
c15.6377 -14.5762 25.3984 -35.2832 25.3984 -58.3262c0 -1.59277 -0.046875 -3.1748 -0.138672 -4.74414c-2.50977 -43.1396 -41.3105 -75.3398 -84.5098 -75.3398h-91.3604zM312 392v-48h40c13.2461 0 24 10.7539 24 24s-10.7539 24 -24 24h-40zM312 296v-48h56
c13.2461 0 24 10.7539 24 24s-10.7539 24 -24 24h-56zM155.12 425.75l68.2998 -213.48c0.376953 -1.36035 0.580078 -2.79004 0.580078 -4.26953c0 -8.83105 -7.16895 -16 -16 -16h-24.9297c-7.35059 0 -13.5488 4.97168 -15.4199 11.7305l-11.9404 36.2695h-87.4199
l-11.9404 -36.2695c-1.87109 -6.75879 -8.06934 -11.7305 -15.4199 -11.7305h-24.9297c-8.82617 0.00488281 -15.9883 7.16895 -15.9883 15.9961c0 1.47949 0.201172 2.91309 0.578125 4.27344l68.29 213.48c4.12695 12.9004 16.2168 22.25 30.4805 22.25h25.2793
c14.2637 0 26.3535 -9.34961 30.4805 -22.25zM89.3701 304h45.2598l-22.6299 68.7002z" />
    <glyph glyph-name="sunglasses-primary" unicode="&#xf892;" horiz-adv-x="576" 
d="M64.1904 80.0996l99.5293 49.7607c14.4707 -2.04004 28.7803 -5.12988 42.7803 -10.4199l-3.12012 -41.2402c-1.96973 -25.9004 -24.4102 -46.2002 -51.0703 -46.2002h-37.1191c-28.1904 0 -51.1904 22.3701 -51.1904 49.9004
c0 -0.620117 0.19043 -1.19043 0.19043 -1.80078zM468.19 130.1c15.0361 -2.10742 29.8613 -5.78125 43.8096 -10.6797v-37.5498c0 -27.5 -23 -49.8701 -51.1504 -49.8799h-37.1191c-26.6904 0 -49.0703 20.2998 -51.0703 46.2002l-0.299805 4z" />
    <glyph glyph-name="voicemail-primary" unicode="&#xf897;" horiz-adv-x="640" 
d="M496 320c79.4756 0 144 -64.5244 144 -144s-64.5244 -144 -144 -144h-352c-79.4727 0.00390625 -144.079 64.3818 -144.079 143.854c0 79.4766 64.5244 144 144 144c79.4766 0 144 -64.5234 144 -144c0 -29.5293 -8.90723 -56.9961 -24.1807 -79.8545h112.52
c-15.2734 22.8584 -24.2598 50.4697 -24.2598 80c0 79.4756 64.5244 144 144 144zM64 176c0 -44.1533 35.8467 -80 80 -80s80 35.8467 80 80s-35.8467 80 -80 80s-80 -35.8467 -80 -80zM496 96c44.1533 0 80 35.8467 80 80s-35.8467 80 -80 80s-80 -35.8467 -80 -80
s35.8467 -80 80 -80z" />
    <glyph glyph-name="washer-primary" unicode="&#xf898;" horiz-adv-x="446" 
d="M384 448c35.3223 0 64 -28.6777 64 -64v-416c0 -17.6611 -14.3389 -32 -32 -32h-384c-17.6611 0 -32 14.3389 -32 32v416c0 35.3223 28.6777 64 64 64h320zM184 384c-13.2461 0 -24 -10.7539 -24 -24s10.7539 -24 24 -24s24 10.7539 24 24s-10.7539 24 -24 24zM64 360
c0 -13.2461 10.7539 -24 24 -24s24 10.7539 24 24s-10.7539 24 -24 24s-24 -10.7539 -24 -24zM224 0c79.4756 0 144 64.5244 144 144s-64.5244 144 -144 144s-144 -64.5244 -144 -144s64.5244 -144 144 -144z" />
    <glyph glyph-name="wave-sine-primary" unicode="&#xf899;" horiz-adv-x="640" 
 />
    <glyph glyph-name="wave-triangle-primary" unicode="&#xf89a;" horiz-adv-x="640" 
 />
    <glyph glyph-name="wind-turbine-primary" unicode="&#xf89b;" horiz-adv-x="514" 
d="M398.69 22.21c0.837891 -1.92773 1.32715 -4.05566 1.32715 -6.29004c0 -5.72168 -3.04785 -10.7373 -7.60742 -13.5098l-0.200195 -0.120117c-2.38672 -1.44727 -5.19727 -2.30078 -8.18945 -2.30078c-4.98926 0 -9.44238 2.31543 -12.3408 5.93066l-130.31 153.5
c-9.03613 11.2812 -22.3984 18.9434 -37.5303 20.5801l-189.74 20.5303c-7.79688 0.841797 -13.9189 7.37305 -14.0996 15.3496v0.230469c-0.00195312 0.113281 0.0117188 0.222656 0.0117188 0.336914c0 7.87402 5.76953 14.4121 13.3086 15.6123l191.479 30.3301
c14.9541 2.36426 27.9639 10.6348 36.4697 22.4004l114.12 156.67c2.87109 3.97852 7.53125 6.5459 12.8066 6.5459c8.7207 0 15.8008 -7.0791 15.8008 -15.7998c0 -2.05273 -0.392578 -4.01562 -1.10742 -5.81641l-73.2793 -179.069
c-2.50977 -6.34277 -3.88477 -13.3281 -3.88477 -20.5586c0 -7.90039 1.64648 -15.4189 4.61426 -22.2314zM256 200c13.2461 0 24 10.7539 24 24s-10.7539 24 -24 24s-24 -10.7539 -24 -24s10.7539 -24 24 -24z" />
    <glyph glyph-name="align-left-secondary" unicode="&#x10f036;" 
d="M12.8301 96c-7.07617 0 -12.8301 5.74414 -12.8301 12.8193v0.0107422v38.3398v0.00976562c0 7.07617 5.74414 12.8203 12.8193 12.8203h0.0107422h262.34h0.00976562c7.07617 0 12.8203 -5.74414 12.8203 -12.8193v-0.0107422v-38.3398v-0.00976562
c0 -7.07617 -5.74414 -12.8203 -12.8193 -12.8203h-0.0107422h-262.34zM12.8301 352c-7.07617 0 -12.8301 5.74414 -12.8301 12.8193v0.0107422v38.3398v0.00976562c0 7.07617 5.74414 12.8203 12.8193 12.8203h0.0107422h262.34h0.00976562
c7.07617 0 12.8203 -5.74414 12.8203 -12.8193v-0.0107422v-38.3398v-0.00976562c0 -7.07617 -5.74414 -12.8203 -12.8193 -12.8203h-0.0107422h-262.34z" />
    <glyph glyph-name="align-center-secondary" unicode="&#x10f037;" 
d="M108.1 352c-6.67773 0 -12.0996 5.42188 -12.0996 12.0996v39.8105c0 6.67285 5.41699 12.0898 12.0898 12.0898h0.00976562h231.811c6.67285 0 12.0898 -5.41699 12.0898 -12.0898v-39.8105v-0.00976562c0 -6.67285 -5.41699 -12.0898 -12.0898 -12.0898h-231.811z
M339.91 96h-231.811c-6.67773 0 -12.0996 5.42188 -12.0996 12.0996v39.8105c0 6.67285 5.41699 12.0898 12.0898 12.0898h0.00976562h231.811c6.67285 0 12.0898 -5.41699 12.0898 -12.0898v-39.8105v-0.00976562c0 -6.67285 -5.41699 -12.0898 -12.0898 -12.0898z" />
    <glyph glyph-name="align-right-secondary" unicode="&#x10f038;" 
d="M435.17 416c7.07617 0 12.8301 -5.74414 12.8301 -12.8193v-0.0107422v-38.3398v-0.00976562c0 -7.07617 -5.74414 -12.8203 -12.8193 -12.8203h-0.0107422h-262.34h-0.00976562c-7.07617 0 -12.8203 5.74414 -12.8203 12.8193v0.0107422v38.3398v0.00976562
c0 7.07617 5.74414 12.8203 12.8193 12.8203h0.0107422h262.34zM435.17 160c7.07617 0 12.8301 -5.74414 12.8301 -12.8193v-0.0107422v-38.3398v-0.00976562c0 -7.07617 -5.74414 -12.8203 -12.8193 -12.8203h-0.0107422h-262.34h-0.00976562
c-7.07617 0 -12.8203 5.74414 -12.8203 12.8193v0.0107422v38.3398v0.00976562c0 7.07617 5.74414 12.8203 12.8193 12.8203h0.0107422h262.34z" />
    <glyph glyph-name="align-justify-secondary" unicode="&#x10f039;" 
d="M432 32c8.83105 0 16 -7.16895 16 -16v-32c0 -8.83105 -7.16895 -16 -16 -16h-416c-8.83105 0 -16 7.16895 -16 16v32c0 8.83105 7.16895 16 16 16h416zM432 288c8.83105 0 16 -7.16895 16 -16v-32c0 -8.83105 -7.16895 -16 -16 -16h-416c-8.83105 0 -16 7.16895 -16 16
v32c0 8.83105 7.16895 16 16 16h416z" />
    <glyph glyph-name="list-secondary" unicode="&#x10f03a;" horiz-adv-x="512" 
d="M496 64c8.83105 0 16 -7.16895 16 -16v-32c0 -8.83105 -7.16895 -16 -16 -16h-320c-8.83105 0 -16 7.16895 -16 16v32c0 8.83105 7.16895 16 16 16h320zM496 384c8.83105 0 16 -7.16895 16 -16v-32c0 -8.83105 -7.16895 -16 -16 -16h-320c-8.83105 0 -16 7.16895 -16 16
v32c0 8.83105 7.16895 16 16 16h320zM496 224c8.83105 0 16 -7.16895 16 -16v-32c0 -8.83105 -7.16895 -16 -16 -16h-320c-8.83105 0 -16 7.16895 -16 16v32c0 8.83105 7.16895 16 16 16h320z" />
    <glyph glyph-name="outdent-secondary" unicode="&#x10f03b;" 
d="M432 32c8.83105 0 16 -7.16895 16 -16v-32c0 -8.83105 -7.16895 -16 -16 -16h-416c-8.83105 0 -16 7.16895 -16 16v32c0 8.83105 7.16895 16 16 16h416zM435.17 160c7.07617 0 12.8301 -5.74414 12.8301 -12.8193v-0.0107422v-38.3398v-0.00976562
c0 -7.07617 -5.74414 -12.8203 -12.8193 -12.8203h-0.0107422h-230.34h-0.00976562c-7.07617 0 -12.8203 5.74414 -12.8203 12.8193v0.0107422v38.3398v0.00976562c0 7.07617 5.74414 12.8203 12.8193 12.8203h0.0107422h230.34zM435.17 288
c7.07617 0 12.8301 -5.74414 12.8301 -12.8193v-0.0107422v-38.3398v-0.00976562c0 -7.07617 -5.74414 -12.8203 -12.8193 -12.8203h-0.0107422h-230.34h-0.00976562c-7.07617 0 -12.8203 5.74414 -12.8203 12.8193v0.0107422v38.3398v0.00976562
c0 7.07617 5.74414 12.8203 12.8193 12.8203h0.0107422h230.34zM432 416c8.83105 0 16 -7.16895 16 -16v-32c0 -8.83105 -7.16895 -16 -16 -16h-416c-8.83105 0 -16 7.16895 -16 16v32c0 8.83105 7.16895 16 16 16h416z" />
    <glyph glyph-name="indent-secondary" unicode="&#x10f03c;" 
d="M432 32c8.83105 0 16 -7.16895 16 -16v-32c0 -8.83105 -7.16895 -16 -16 -16h-416c-8.83105 0 -16 7.16895 -16 16v32c0 8.83105 7.16895 16 16 16h416zM435.17 160c7.07617 0 12.8301 -5.74414 12.8301 -12.8193v-0.0107422v-38.3398v-0.00976562
c0 -7.07617 -5.74414 -12.8203 -12.8193 -12.8203h-0.0107422h-230.34h-0.00976562c-7.07617 0 -12.8203 5.74414 -12.8203 12.8193v0.0107422v38.3398v0.00976562c0 7.07617 5.74414 12.8203 12.8193 12.8203h0.0107422h230.34zM435.17 288
c7.07617 0 12.8301 -5.74414 12.8301 -12.8193v-0.0107422v-38.3398v-0.00976562c0 -7.07617 -5.74414 -12.8203 -12.8193 -12.8203h-0.0107422h-230.34h-0.00976562c-7.07617 0 -12.8203 5.74414 -12.8203 12.8193v0.0107422v38.3398v0.00976562
c0 7.07617 5.74414 12.8203 12.8193 12.8203h0.0107422h230.34zM432 416c8.83105 0 16 -7.16895 16 -16v-32c0 -8.83105 -7.16895 -16 -16 -16h-416c-8.83105 0 -16 7.16895 -16 16v32c0 8.83105 7.16895 16 16 16h416z" />
    <glyph glyph-name="tasks-secondary" unicode="&#x10f0ae;" horiz-adv-x="512" 
d="M496 64c8.83105 0 16 -7.16895 16 -16v-32c0 -8.83105 -7.16895 -16 -16 -16h-288c-8.83105 0 -16 7.16895 -16 16v32c0 8.83105 7.16895 16 16 16h288zM496 384c8.83105 0 16 -7.16895 16 -16v-32c0 -8.83105 -7.16895 -16 -16 -16h-288c-8.83105 0 -16 7.16895 -16 16
v32c0 8.83105 7.16895 16 16 16h288zM496 224c8.83105 0 16 -7.16895 16 -16v-32c0 -8.83105 -7.16895 -16 -16 -16h-288c-8.83105 0 -16 7.16895 -16 16v32c0 8.83105 7.16895 16 16 16h288z" />
    <glyph glyph-name="list-ul-secondary" unicode="&#x10f0ca;" horiz-adv-x="512" 
d="M496 64c8.83105 0 16 -7.16895 16 -16v-32c0 -8.83105 -7.16895 -16 -16 -16h-320c-8.83105 0 -16 7.16895 -16 16v32c0 8.83105 7.16895 16 16 16h320zM496 384c8.83105 0 16 -7.16895 16 -16v-32c0 -8.83105 -7.16895 -16 -16 -16h-320c-8.83105 0 -16 7.16895 -16 16
v32c0 8.83105 7.16895 16 16 16h320zM496 224c8.83105 0 16 -7.16895 16 -16v-32c0 -8.83105 -7.16895 -16 -16 -16h-320c-8.83105 0 -16 7.16895 -16 16v32c0 8.83105 7.16895 16 16 16h320z" />
    <glyph glyph-name="list-ol-secondary" unicode="&#x10f0cb;" horiz-adv-x="512" 
d="M496 224c8.83105 0 16 -7.16895 16 -16v-32c0 -8.83105 -7.16895 -16 -16 -16h-320c-8.83105 0 -16 7.16895 -16 16v32c0 8.83105 7.16895 16 16 16h320zM496 384c8.83105 0 16 -7.16895 16 -16v-32c0 -8.83105 -7.16895 -16 -16 -16h-320c-8.83105 0 -16 7.16895 -16 16
v32c0 8.83105 7.16895 16 16 16h320zM496 64c8.83105 0 16 -7.16895 16 -16v-32c0 -8.83105 -7.16895 -16 -16 -16h-320c-8.83105 0 -16 7.16895 -16 16v32c0 8.83105 7.16895 16 16 16h320z" />
    <glyph glyph-name="strikethrough-secondary" unicode="&#x10f0cc;" horiz-adv-x="512" 
d="M512 208v-32c0 -8.83105 -7.16895 -16 -16 -16h-480c-8.83105 0 -16 7.16895 -16 16v32c0 8.83105 7.16895 16 16 16h480c8.83105 0 16 -7.16895 16 -16z" />
    <glyph glyph-name="underline-secondary" unicode="&#x10f0cd;" 
d="M432 0c8.83105 0 16 -7.16895 16 -16v-32c0 -8.83105 -7.16895 -16 -16 -16h-416c-8.83105 0 -16 7.16895 -16 16v32c0 8.83105 7.16895 16 16 16h416z" />
    <glyph glyph-name="sort-alpha-down-secondary" unicode="&#x10f15d;" 
d="M416 160c8.83105 0 16 -7.16895 16 -16v-17.6299c0 -9.51074 -4.14355 -18.0566 -10.7402 -23.9199l-61.2598 -70.4502h56c8.83105 0 16 -7.16895 16 -16v-32c0 -8.83105 -7.16895 -16 -16 -16h-128c-8.83105 0 -16 7.16895 -16 16v17.6299
c0 9.51074 4.14355 18.0566 10.7402 23.9199l61.2598 70.4502h-56c-8.83105 0 -16 7.16895 -16 16v32c0 8.83105 7.16895 16 16 16h128zM447.06 245.38c0.600586 -1.67969 0.931641 -3.49512 0.931641 -5.37988c0 -8.82812 -7.16406 -15.9951 -15.9912 -16h-24.8398
c-0.015625 0 -0.0263672 -0.00195312 -0.0419922 -0.00195312c-7.11426 0 -13.1514 4.6543 -15.2285 11.082l-4.40918 12.9199h-71l-4.4209 -12.9199c-2.07617 -6.42773 -8.10938 -11.0801 -15.2246 -11.0801h-0.00488281h-24.8301
c-8.82715 0.00488281 -15.9863 7.17773 -15.9863 16.0049c0 1.88574 0.326172 3.69531 0.926758 5.375l59.2695 160c2.20996 6.19043 8.125 10.6201 15.0703 10.6201h41.4395c6.94531 0 12.8604 -4.42969 15.0703 -10.6201zM335.61 304h32.7793l-16.3896 48z" />
    <glyph glyph-name="sort-alpha-up-secondary" unicode="&#x10f15e;" 
d="M416 160c8.83105 0 16 -7.16895 16 -16v-17.6299c0 -9.51074 -4.14355 -18.0566 -10.7402 -23.9199l-61.2598 -70.4502h56c8.83105 0 16 -7.16895 16 -16v-32c0 -8.83105 -7.16895 -16 -16 -16h-128c-8.83105 0 -16 7.16895 -16 16v17.6299
c0 9.51074 4.14355 18.0566 10.7402 23.9199l61.2598 70.4502h-56c-8.83105 0 -16 7.16895 -16 16v32c0 8.83105 7.16895 16 16 16h128zM447.06 245.38c0.600586 -1.67969 0.931641 -3.49512 0.931641 -5.37988c0 -8.82812 -7.16406 -15.9951 -15.9912 -16h-24.8398
c-0.015625 0 -0.0263672 -0.00195312 -0.0419922 -0.00195312c-7.11426 0 -13.1514 4.6543 -15.2285 11.082l-4.40918 12.9199h-71l-4.4209 -12.9199c-2.07617 -6.42773 -8.10938 -11.0801 -15.2246 -11.0801h-0.00488281h-24.8301
c-8.82715 0.00488281 -15.9863 7.17773 -15.9863 16.0049c0 1.88574 0.326172 3.69531 0.926758 5.375l59.2695 160c2.20996 6.19043 8.125 10.6201 15.0703 10.6201h41.4395c6.94531 0 12.8604 -4.42969 15.0703 -10.6201zM335.61 304h32.7793l-16.3896 48z" />
    <glyph glyph-name="sort-amount-down-secondary" unicode="&#x10f160;" horiz-adv-x="512" 
d="M304 32c8.83105 0 16 -7.16895 16 -16v-32c0 -8.83105 -7.16895 -16 -16 -16h-64c-8.83105 0 -16 7.16895 -16 16v32c0 8.83105 7.16895 16 16 16h64zM432 288c8.83105 0 16 -7.16895 16 -16v-32c0 -8.83105 -7.16895 -16 -16 -16h-192c-8.83105 0 -16 7.16895 -16 16v32
c0 8.83105 7.16895 16 16 16h192zM368 160c8.83105 0 16 -7.16895 16 -16v-32c0 -8.83105 -7.16895 -16 -16 -16h-128c-8.83105 0 -16 7.16895 -16 16v32c0 8.83105 7.16895 16 16 16h128zM496 416c8.83105 0 16 -7.16895 16 -16v-32c0 -8.83105 -7.16895 -16 -16 -16h-256
c-8.83105 0 -16 7.16895 -16 16v32c0 8.83105 7.16895 16 16 16h256z" />
    <glyph glyph-name="sort-amount-up-secondary" unicode="&#x10f161;" horiz-adv-x="512" 
d="M304 32c8.83105 0 16 -7.16895 16 -16v-32c0 -8.83105 -7.16895 -16 -16 -16h-64c-8.83105 0 -16 7.16895 -16 16v32c0 8.83105 7.16895 16 16 16h64zM432 288c8.83105 0 16 -7.16895 16 -16v-32c0 -8.83105 -7.16895 -16 -16 -16h-192c-8.83105 0 -16 7.16895 -16 16v32
c0 8.83105 7.16895 16 16 16h192zM368 160c8.83105 0 16 -7.16895 16 -16v-32c0 -8.83105 -7.16895 -16 -16 -16h-128c-8.83105 0 -16 7.16895 -16 16v32c0 8.83105 7.16895 16 16 16h128zM496 416c8.83105 0 16 -7.16895 16 -16v-32c0 -8.83105 -7.16895 -16 -16 -16h-256
c-8.83105 0 -16 7.16895 -16 16v32c0 8.83105 7.16895 16 16 16h256z" />
    <glyph glyph-name="sort-numeric-down-secondary" unicode="&#x10f162;" 
d="M304 352c-8.82422 0.0078125 -15.9775 7.18945 -15.9775 16.0156c0 2.57129 0.608398 5.00098 1.6875 7.1543l16 32c2.62598 5.23926 8.03613 8.8252 14.29 8.83008h48c8.83105 0 16 -7.16895 16 -16v-112h16c8.83105 0 16 -7.16895 16 -16v-32
c0 -8.83105 -7.16895 -16 -16 -16h-96c-8.83105 0 -16 7.16895 -16 16v32c0 8.83105 7.16895 16 16 16h16v64h-16zM330.15 189.09c53.4502 14.25 101.85 -25.8799 101.869 -77.0898v-10.7695c0 -70.3906 -28.25 -107.24 -86.25 -132
c-8.36914 -3.58008 -18.0293 1.2793 -20.8994 9.90918l-9.90039 20c-2.62012 7.87012 0.610352 16.9404 8.18066 20.3408c7.59961 3.28516 14.6064 7.64258 20.8496 12.9092c-47.6396 4.76074 -83.0996 51.4805 -68.8496 102.53c7.62793 26.2793 28.5596 46.9287 55 54.1699
zM352 92c11.0381 0 20 8.96191 20 20s-8.96191 20 -20 20s-20 -8.96191 -20 -20s8.96191 -20 20 -20z" />
    <glyph glyph-name="sort-numeric-up-secondary" unicode="&#x10f163;" 
d="M330.17 189.09c53.4502 14.25 101.83 -25.8799 101.85 -77.0898v-10.7695c0 -70.3906 -28.25 -107.24 -86.25 -132c-8.36914 -3.58008 -18.0293 1.2793 -20.8994 9.90918l-9.90039 20c-2.62012 7.87012 0.610352 16.9404 8.18066 20.3408
c7.59961 3.28516 14.6064 7.64258 20.8496 12.9092c-47.6396 4.76074 -83.0996 51.4805 -68.8301 102.53c7.62891 26.2793 28.5596 46.9287 55 54.1699zM352 92c11.0381 0 20 8.96191 20 20s-8.96191 20 -20 20s-20 -8.96191 -20 -20s8.96191 -20 20 -20zM304 352
c-8.82422 0.0078125 -15.9775 7.18945 -15.9775 16.0156c0 2.57129 0.608398 5.00098 1.6875 7.1543l16 32c2.62598 5.23926 8.03613 8.8252 14.29 8.83008h48c8.83105 0 16 -7.16895 16 -16v-112h16c8.83105 0 16 -7.16895 16 -16v-32c0 -8.83105 -7.16895 -16 -16 -16h-96
c-8.83105 0 -16 7.16895 -16 16v32c0 8.83105 7.16895 16 16 16h16v64h-16z" />
    <glyph glyph-name="paragraph-secondary" unicode="&#x10f1dd;" 
d="M368 352v-368c0 -8.83105 -7.16895 -16 -16 -16h-32c-8.83105 0 -16 7.16895 -16 16v368h64z" />
    <glyph glyph-name="h1-secondary" unicode="&#x10f313;" horiz-adv-x="576" 
d="M304 352c8.83105 0 16 -7.16895 16 -16v-34.9404c0 -7.20801 -5.85156 -13.0596 -13.0596 -13.0596h-18.9404v-192h18.9404c7.20801 0 13.0596 -5.85156 13.0596 -13.0596v-34.9404c0 -8.83105 -7.16895 -16 -16 -16h-96c-8.83105 0 -16 7.16895 -16 16v34.9404
c0 7.20801 5.85156 13.0596 13.0596 13.0596h18.9404v64h-128v-64h18.9404c7.20801 0 13.0596 -5.85156 13.0596 -13.0596v-37.8809c0 -7.20801 -5.85156 -13.0596 -13.0596 -13.0596h-98.9404c-8.83105 0 -16 7.16895 -16 16v34.9404
c0 7.20801 5.85156 13.0596 13.0596 13.0596h18.9404v192h-18.9404c-7.20801 0 -13.0596 5.85156 -13.0596 13.0596v34.9404c0 8.83105 7.16895 16 16 16h96c8.83105 0 16 -7.16895 16 -16v-34.9404c0 -7.20801 -5.85156 -13.0596 -13.0596 -13.0596h-18.9404v-64h128v64
h-18.9404c-7.20801 0 -13.0596 5.85156 -13.0596 13.0596v37.8809c0 7.20801 5.85156 13.0596 13.0596 13.0596h98.9404z" />
    <glyph glyph-name="h2-secondary" unicode="&#x10f314;" horiz-adv-x="576" 
d="M304 352c8.83105 0 16 -7.16895 16 -16v-34.9404c0 -7.20801 -5.85156 -13.0596 -13.0596 -13.0596h-18.9404v-192h18.9404c7.20801 0 13.0596 -5.85156 13.0596 -13.0596v-34.9404c0 -8.83105 -7.16895 -16 -16 -16h-96c-8.83105 0 -16 7.16895 -16 16v34.9404
c0 7.20801 5.85156 13.0596 13.0596 13.0596h18.9404v64h-128v-64h18.9404c7.20801 0 13.0596 -5.85156 13.0596 -13.0596v-37.8809c0 -7.20801 -5.85156 -13.0596 -13.0596 -13.0596h-98.9404c-8.83105 0 -16 7.16895 -16 16v34.9404
c0 7.20801 5.85156 13.0596 13.0596 13.0596h18.9404v192h-18.9404c-7.20801 0 -13.0596 5.85156 -13.0596 13.0596v34.9404c0 8.83105 7.16895 16 16 16h96c8.83105 0 16 -7.16895 16 -16v-34.9404c0 -7.20801 -5.85156 -13.0596 -13.0596 -13.0596h-18.9404v-64h128v64
h-18.9404c-7.20801 0 -13.0596 5.85156 -13.0596 13.0596v37.8809c0 7.20801 5.85156 13.0596 13.0596 13.0596h98.9404z" />
    <glyph glyph-name="h3-secondary" unicode="&#x10f315;" horiz-adv-x="576" 
d="M304 352c8.83105 0 16 -7.16895 16 -16v-34.9404c0 -7.20801 -5.85156 -13.0596 -13.0596 -13.0596h-18.9404v-192h18.9404c7.20801 0 13.0596 -5.85156 13.0596 -13.0596v-34.9404c0 -8.83105 -7.16895 -16 -16 -16h-96c-8.83105 0 -16 7.16895 -16 16v34.9404
c0 7.20801 5.85156 13.0596 13.0596 13.0596h18.9404v64h-128v-64h18.9404c7.20801 0 13.0596 -5.85156 13.0596 -13.0596v-37.8809c0 -7.20801 -5.85156 -13.0596 -13.0596 -13.0596h-98.9404c-8.83105 0 -16 7.16895 -16 16v34.9404
c0 7.20801 5.85156 13.0596 13.0596 13.0596h18.9404v192h-18.9404c-7.20801 0 -13.0596 5.85156 -13.0596 13.0596v34.9404c0 8.83105 7.16895 16 16 16h96c8.83105 0 16 -7.16895 16 -16v-34.9404c0 -7.20801 -5.85156 -13.0596 -13.0596 -13.0596h-18.9404v-64h128v64
h-18.9404c-7.20801 0 -13.0596 5.85156 -13.0596 13.0596v37.8809c0 7.20801 5.85156 13.0596 13.0596 13.0596h98.9404z" />
    <glyph glyph-name="alarm-clock-secondary" unicode="&#x10f34e;" horiz-adv-x="512" 
d="M474.49 -14.0596c2.89648 -2.89648 4.68945 -6.90137 4.68945 -11.3174s-1.79297 -8.41699 -4.68945 -11.3135l-22.5303 -22.6191l-0.0703125 -0.0703125c-2.87402 -2.85254 -6.83594 -4.61621 -11.2012 -4.61621c-4.40234 0 -8.38867 1.79199 -11.2686 4.68652
l-39.9395 40.0898c-37.0791 -28.041 -83.6162 -44.6797 -133.643 -44.6797c-50.0273 0 -96.1992 16.6387 -133.278 44.6797l-39.9395 -40.0898l-0.0703125 -0.0703125c-2.87402 -2.85254 -6.83594 -4.61621 -11.2021 -4.61621c-4.40137 0 -8.3877 1.79199 -11.2676 4.68652
l-22.54 22.6191c-2.88477 2.90332 -4.66895 6.90625 -4.66895 11.3184c0 4.41113 1.78418 8.40918 4.66895 11.3125l39.9502 40.0596c-27.9443 37.2812 -44.6104 83.7627 -44.6104 133.895v0.105469c0 123.71 99.9004 224 223.14 224c123.24 0 223.141 -100.29 223.141 -224
c0 -0.0351562 -0.106445 -0.255859 -0.106445 -0.291016c0 -50.1328 -16.5605 -96.4277 -44.5039 -133.709zM346 92.4902c2.19629 2.73926 3.52734 6.2207 3.52734 10.001c0 5.06055 -2.35449 9.57617 -6.02734 12.5088l-55.5 44.3799v112.62c0 8.83105 -7.16895 16 -16 16
h-32c-8.83105 0 -16 -7.16895 -16 -16v-124.16c0 -12.6338 5.8418 -23.8975 15 -31.2295l64.5098 -51.6201c2.7373 -2.19043 6.21484 -3.51758 9.98926 -3.51758c5.05664 0 9.56836 2.35059 12.501 6.01758z" />
    <glyph glyph-name="chess-secondary" unicode="&#x10f439;" horiz-adv-x="512" 
d="M247.16 -11.5801c5.24805 -2.62598 8.83984 -8.0459 8.83984 -14.3096v-22.1104c0 -8.83105 -7.16895 -16 -16 -16h-224c-8.83105 0 -16 7.16895 -16 16v22.1104c0 6.26367 3.5918 11.6836 8.83984 14.3096l23.1602 11.5801v16c0 8.83105 7.16895 16 16 16h160
c8.83105 0 16 -7.16895 16 -16v-16zM503.16 -11.5801c5.24805 -2.62598 8.83984 -8.0459 8.83984 -14.3096v-22.1104c0 -8.83105 -7.16895 -16 -16 -16h-192c-8.83105 0 -16 7.16895 -16 16v22.1104c0 6.26367 3.5918 11.6836 8.83984 14.3096l23.1602 11.5801v16
c0 8.83105 7.16895 16 16 16h128c8.83105 0 16 -7.16895 16 -16v-16z" />
    <glyph glyph-name="chess-bishop-secondary" unicode="&#x10f43a;" horiz-adv-x="320" 
d="M304 0c8.83105 0 16 -7.16895 16 -16v-32c0 -8.83105 -7.16895 -16 -16 -16h-288c-8.83105 0 -16 7.16895 -16 16v32c0 8.83105 7.16895 16 16 16h288z" />
    <glyph glyph-name="chess-bishop-alt-secondary" unicode="&#x10f43b;" horiz-adv-x="256" 
d="M247.16 -11.5801c5.24805 -2.62598 8.83984 -8.0459 8.83984 -14.3096v-22.1104c0 -8.83105 -7.16895 -16 -16 -16h-224c-8.83105 0 -16 7.16895 -16 16v22.1104c0.000976562 6.26562 3.59668 11.6855 8.84961 14.3096l23.1504 11.5801v16c0 8.83105 7.16895 16 16 16
h160c8.83105 0 16 -7.16895 16 -16v-16z" />
    <glyph glyph-name="chess-board-secondary" unicode="&#x10f43c;" horiz-adv-x="512" 
d="M512 192h-64v64h64v-64zM448 448v-64h-64v64h64zM512 320h-64v64h64v-64zM256 256v-64h-64v64h64zM320 448v-64h-64v64h64zM512 64h-64v64h64v-64zM512 -64h-64v64h64v-64zM256 320h-64v64h64v-64zM64 -64v64h64v-64h-64zM192 -64v64h64v-64h-64zM0 64h64v-64h-64v64z
M320 -64v64h64v-64h-64zM0 320h64v-64h-64v64zM0 448h64v-64h-64v64zM0 192h64v-64h-64v64zM192 448v-64h-64v64h64zM384 128v64h64v-64h-64zM256 192h64v-64h-64v64zM128 256v-64h-64v64h64zM192 128h64v-64h-64v64zM320 128h64v-64h-64v64zM128 128v-64h-64v64h64z
M128 384v-64h-64v64h64zM384 256v64h64v-64h-64zM128 64h64v-64h-64v64zM320 192v64h64v-64h-64zM448 64v-64h-64v64h64zM192 192v-64h-64v64h64zM320 256h-64v64h64v-64zM256 64h64v-64h-64v64zM384 320h-64v64h64v-64zM192 320v-64h-64v64h64z" />
    <glyph glyph-name="chess-clock-secondary" unicode="&#x10f43d;" horiz-adv-x="640" 
d="M519.48 205l5.65918 -5.65039c2.18164 -2.17285 3.53125 -5.18262 3.53125 -8.50098c0 -3.31934 -1.34961 -6.3252 -3.53125 -8.49902l-50.8994 -50.8994c-2.17383 -2.18066 -5.18262 -3.53125 -8.50195 -3.53125s-6.3252 1.35059 -8.49805 3.53125l-5.66016 5.66016
c-2.18066 2.17285 -3.53125 5.18262 -3.53125 8.50098c0 3.31934 1.35059 6.3252 3.53125 8.49902l50.9004 50.8896c2.17285 2.18066 5.18164 3.53125 8.50098 3.53125s6.3252 -1.35059 8.49902 -3.53125zM180.29 223.86c6.62305 0 12 -5.37695 12 -12v-72
c0 -6.62305 -5.37695 -12 -12 -12h-8c-6.62305 0 -12 5.37695 -12 12v72c0 6.62305 5.37695 12 12 12h8zM240.06 416c8.83105 0 16 -7.16895 16 -16v-15.9404c0 -8.83008 -7.16895 -16 -16 -16h-39.8096v-48.0596h-48v48.0596h-40.1904c-8.83008 0 -16 7.16992 -16 16
v15.9404c0 8.83105 7.16992 16 16 16h128zM528 352c8.83105 0 16 -7.16895 16 -16v-16h-160v16c0 8.83105 7.16895 16 16 16h128z" />
    <glyph glyph-name="chess-clock-alt-secondary" unicode="&#x10f43e;" horiz-adv-x="640" 
d="M231.12 205l5.64941 -5.65039c2.18164 -2.17285 3.53125 -5.18262 3.53125 -8.50098c0 -3.31934 -1.34961 -6.3252 -3.53125 -8.49902l-50.8896 -50.8994c-2.17285 -2.18066 -5.18262 -3.53125 -8.50098 -3.53125c-3.31934 0 -6.3252 1.35059 -8.49902 3.53125
l-5.64941 5.66016c-2.18164 2.17285 -3.53125 5.18262 -3.53125 8.50098c0 3.31934 1.34961 6.3252 3.53125 8.49902l50.8896 50.8896c2.17285 2.18066 5.18262 3.53125 8.50098 3.53125c3.31934 0 6.3252 -1.35059 8.49902 -3.53125zM467.82 223.84
c6.62305 0 12 -5.35645 12 -11.9795v-0.0205078v-72c0 -6.62305 -5.37695 -12 -12 -12h-8c-6.62305 0 -12 5.37695 -12 12v72c0 6.62305 5.37695 12 12 12h8zM239.91 352c8.83008 0 16 -7.16895 16 -16v-16h-160v16c0 8.83105 7.16895 16 16 16h128zM528 416
c8.83105 0 16 -7.16895 16 -16v-16c0 -8.83105 -7.16895 -16 -16 -16h-40.25v-48h-48v48h-39.75c-8.83105 0 -16 7.16895 -16 16v16c0 8.83105 7.16895 16 16 16h128z" />
    <glyph glyph-name="chess-king-secondary" unicode="&#x10f43f;" 
d="M400 0c8.83105 0 16 -7.16895 16 -16v-32c0 -8.83105 -7.16895 -16 -16 -16h-352c-8.83105 0 -16 7.16895 -16 16v32c0 8.83105 7.16895 16 16 16h352z" />
    <glyph glyph-name="chess-king-alt-secondary" unicode="&#x10f440;" horiz-adv-x="320" 
d="M279.16 -11.5801c5.24805 -2.62598 8.83984 -8.0459 8.83984 -14.3096v-22.1104c0 -8.83105 -7.16895 -16 -16 -16h-224c-8.83105 0 -16 7.16895 -16 16v22.1104c0.000976562 6.26562 3.59668 11.6855 8.84961 14.3096l23.1504 11.5801v16c0 8.83105 7.16895 16 16 16
h160c8.83105 0 16 -7.16895 16 -16v-16z" />
    <glyph glyph-name="chess-knight-secondary" unicode="&#x10f441;" horiz-adv-x="384" 
d="M368 0c8.83105 0 16 -7.16895 16 -16v-32c0 -8.83105 -7.16895 -16 -16 -16h-352c-8.83105 0 -16 7.16895 -16 16v32c0 8.83105 7.16895 16 16 16h352z" />
    <glyph glyph-name="chess-knight-alt-secondary" unicode="&#x10f442;" horiz-adv-x="320" 
d="M320 -25.8896v-22.1104c0 -8.83105 -7.16895 -16 -16 -16h-288c-8.83105 0 -16 7.16895 -16 16v22.1104c0.000976562 6.26562 3.59668 11.6855 8.84961 14.3096l23.1504 11.5801v16c0 8.83105 7.16895 16 16 16h224c8.83105 0 16 -7.16895 16 -16v-16l23.1602 -11.5801
c5.24805 -2.62598 8.83984 -8.0459 8.83984 -14.3096z" />
    <glyph glyph-name="chess-pawn-secondary" unicode="&#x10f443;" horiz-adv-x="320" 
d="M304 0c8.83105 0 16 -7.16895 16 -16v-32c0 -8.83105 -7.16895 -16 -16 -16h-288c-8.83105 0 -16 7.16895 -16 16v32c0 8.83105 7.16895 16 16 16h288z" />
    <glyph glyph-name="chess-pawn-alt-secondary" unicode="&#x10f444;" horiz-adv-x="256" 
d="M247.16 -11.5801c5.24805 -2.62598 8.83984 -8.0459 8.83984 -14.3096v-22.1104c0 -8.83105 -7.16895 -16 -16 -16h-224c-8.83105 0 -16 7.16895 -16 16v22.1104c0.000976562 6.26562 3.59668 11.6855 8.84961 14.3096l23.1504 11.5801v16c0 8.83105 7.16895 16 16 16
h160c8.83105 0 16 -7.16895 16 -16v-16z" />
    <glyph glyph-name="chess-queen-secondary" unicode="&#x10f445;" horiz-adv-x="512" 
d="M432 0c8.83105 0 16 -7.16895 16 -16v-32c0 -8.83105 -7.16895 -16 -16 -16h-352c-8.83105 0 -16 7.16895 -16 16v32c0 8.83105 7.16895 16 16 16h352z" />
    <glyph glyph-name="chess-queen-alt-secondary" unicode="&#x10f446;" horiz-adv-x="256" 
d="M256 -25.8896v-22.1104c0 -8.83105 -7.16895 -16 -16 -16h-224c-8.83105 0 -16 7.16895 -16 16v22.1104c0.000976562 6.26562 3.59668 11.6855 8.84961 14.3096l23.1504 11.5801v16c0 8.83105 7.16895 16 16 16h160c8.83105 0 16 -7.16895 16 -16v-16l23.1602 -11.5801
c5.24805 -2.62598 8.83984 -8.0459 8.83984 -14.3096z" />
    <glyph glyph-name="chess-rook-secondary" unicode="&#x10f447;" horiz-adv-x="384" 
d="M368 0c8.83105 0 16 -7.16895 16 -16v-32c0 -8.83105 -7.16895 -16 -16 -16h-352c-8.83105 0 -16 7.16895 -16 16v32c0 8.83105 7.16895 16 16 16h352z" />
    <glyph glyph-name="chess-rook-alt-secondary" unicode="&#x10f448;" horiz-adv-x="320" 
d="M320 -25.8896v-22.1104c0 -8.83105 -7.16895 -16 -16 -16h-288c-8.83105 0 -16 7.16895 -16 16v22.1104c0.000976562 6.26562 3.59668 11.6855 8.84961 14.3096l23.1504 11.5801v16c0 8.83105 7.16895 16 16 16h224c8.83105 0 16 -7.16895 16 -16v-16l23.1602 -11.5801
c5.24805 -2.62598 8.83984 -8.0459 8.83984 -14.3096z" />
    <glyph glyph-name="user-lock-secondary" unicode="&#x10f502;" horiz-adv-x="640" 
d="M608 160c17.6611 0 32 -14.3389 32 -32v-160c0 -17.6611 -14.3389 -32 -32 -32h-224c-17.6611 0 -32 14.3389 -32 32v160c0 17.6611 14.3389 32 32 32h32v80c0 44.1533 35.8467 80 80 80s80 -35.8467 80 -80v-80h32zM496 16c17.6611 0 32 14.3389 32 32
s-14.3389 32 -32 32s-32 -14.3389 -32 -32s14.3389 -32 32 -32zM528 160v80c0 17.6611 -14.3389 32 -32 32s-32 -14.3389 -32 -32v-80h64z" />
    <glyph glyph-name="mind-share-secondary" unicode="&#x10f677;" horiz-adv-x="640" 
d="M467.14 329.85c27.3643 -11.1494 46.6396 -37.9727 46.7002 -69.3096c0 -8.70996 -2.03027 -16.7998 -4.83984 -24.54c-17.1025 -7.61133 -29 -24.7314 -29 -44.6455v-0.154297v-15.2002h-50.9404c-0.652344 0.00976562 -1.14453 0.0195312 -1.7998 0.0195312
c-5.71094 0 -11.332 -0.384766 -16.8398 -1.12988c-58.4199 -8.55957 -109.78 -53.75 -122.42 -110.89v324c0.0712891 33.1318 26.9863 59.9873 60.1348 59.9873c28.0342 0 51.6143 -19.2236 58.2656 -45.1973c0.709961 0.0302734 1.35938 0.209961 2.06934 0.209961
c0.209961 0.00195312 0.405273 0.0361328 0.616211 0.0361328c32.8994 0 59.6094 -26.71 59.6094 -59.6094c0 -4.66992 -0.538086 -9.21484 -1.55566 -13.5771zM256 388v-352.5c-0.15918 -37.1846 -30.3789 -67.3438 -67.6016 -67.3438
c-29.7549 0 -55.0469 19.2607 -64.0781 45.9834c-3.68945 -0.691406 -7.44629 -1.08008 -11.3203 -1.13965c-0.15625 -0.000976562 -0.303711 -0.0527344 -0.459961 -0.0527344c-37.1768 0 -67.3604 30.1836 -67.3604 67.3604c0 4.5957 0.461914 9.08398 1.33984 13.4229
c-27.2793 11.1973 -46.4727 37.9863 -46.5195 69.2695c0 27.7695 15.4102 51.7695 38 64.7695c-4.94238 9.83398 -7.80078 21.001 -7.87988 32.7305c0.0546875 31.3584 19.3506 58.1982 46.7402 69.3398c-0.991211 4.23926 -1.53125 8.62695 -1.56055 13.1602
c0.0664062 33.125 26.9775 60 60.1182 60h0.112305c0.709961 0 1.37012 -0.209961 2.06934 -0.209961c6.65137 25.9736 30.2256 45.2188 58.2607 45.2188c33.1484 0 60.0684 -26.877 60.1396 -60.0088z" />
    <glyph glyph-name="alarm-exclamation-secondary" unicode="&#x10f843;" horiz-adv-x="512" 
d="M434.55 26l39.9404 -40.0596c2.89648 -2.89648 4.68945 -6.90137 4.68945 -11.3174s-1.79297 -8.41699 -4.68945 -11.3135l-22.5303 -22.6191c-2.87891 -2.89648 -6.86914 -4.69141 -11.2715 -4.69141c-4.40332 0 -8.38965 1.79492 -11.2686 4.69141l-39.9395 40.0898
c-37.0801 -28.0391 -83.6162 -44.6777 -133.643 -44.6777c-50.0273 0 -96.1982 16.6387 -133.278 44.6777l-39.9395 -40.0898c-2.87891 -2.89648 -6.87012 -4.69141 -11.2725 -4.69141s-8.38867 1.79492 -11.2676 4.69141l-22.54 22.6191
c-2.88477 2.90332 -4.66895 6.90625 -4.66895 11.3184c0 4.41113 1.78418 8.40918 4.66895 11.3125l39.9502 40.0596c-27.9443 37.2842 -44.6104 83.7666 -44.6104 133.901v0.0986328c0 123.71 99.9004 224 223.14 224c123.24 0 223.141 -100.29 223.141 -224
c0 -0.0332031 -0.106445 -0.251953 -0.106445 -0.28418c0 -50.1348 -16.5596 -96.4316 -44.5039 -133.716zM256 32c17.5977 0.0166016 31.8799 14.3066 31.8799 31.9082v0.0917969c0 17.6611 -14.3408 32 -32.002 32s-32 -14.3389 -32 -32s14.3389 -32 32 -32h0.12207z
M294.05 270.4c0.0595703 0.556641 0.0996094 1.10645 0.0996094 1.67969c0 8.78613 -7.13379 15.9199 -15.9199 15.9199h-0.00976562h-44.4199c-8.77441 -0.0654297 -15.8809 -7.19336 -15.8809 -15.9834c0 -0.545898 0.0273438 -1.08496 0.0810547 -1.61621l12.71 -128
c0.773438 -8.06543 7.5752 -14.3965 15.8398 -14.4004h18.9307c8.25781 0.00976562 15.0508 6.33984 15.8193 14.4004z" />
    <glyph glyph-name="alarm-plus-secondary" unicode="&#x10f844;" horiz-adv-x="512" 
d="M435.25 26l40.0996 -40.0596c2.89746 -2.89648 4.69043 -6.90137 4.69043 -11.3174s-1.79297 -8.41699 -4.69043 -11.3135l-22.6191 -22.6191c-2.89648 -2.89746 -6.90137 -4.69043 -11.3174 -4.69043s-8.41699 1.79297 -11.3135 4.69043l-40.0996 40.0898
c-37.2715 -28.0547 -83.9873 -44.6904 -134.186 -44.6904c-50.1992 0 -96.543 16.6357 -133.814 44.6904l-40.0596 -40.1201c-2.89648 -2.89746 -6.90137 -4.69043 -11.3174 -4.69043s-8.41699 1.79297 -11.3135 4.69043l-22.6191 22.6201
c-2.89746 2.89648 -4.69043 6.90137 -4.69043 11.3174s1.79297 8.41602 4.69043 11.3125l40.0996 40.0898c-28.0508 37.2559 -44.79 83.7686 -44.79 133.952v0.0478516c0 123.71 100.3 224 224 224s224 -100.29 224 -224
c0 -0.0341797 -0.104492 -0.251953 -0.104492 -0.286133c0 -50.1592 -16.6191 -96.4668 -44.6455 -133.714zM368 152v16c0 8.83105 -7.16895 16 -16 16h-72v72c0 8.83105 -7.16895 16 -16 16h-16c-8.83105 0 -16 -7.16895 -16 -16v-72h-72c-8.83105 0 -16 -7.16895 -16 -16
v-16c0 -8.83105 7.16895 -16 16 -16h72v-72c0 -8.83105 7.16895 -16 16 -16h16c8.83105 0 16 7.16895 16 16v72h72c8.83105 0 16 7.16895 16 16z" />
    <glyph glyph-name="alarm-snooze-secondary" unicode="&#x10f845;" horiz-adv-x="512" 
d="M434.55 26l39.9404 -40.0596c2.89648 -2.89648 4.68945 -6.90137 4.68945 -11.3174s-1.79297 -8.41699 -4.68945 -11.3135l-22.5303 -22.6191c-2.87891 -2.89648 -6.86914 -4.69141 -11.2715 -4.69141c-4.40332 0 -8.38965 1.79492 -11.2686 4.69141l-39.9502 40.0898
c-37.0771 -28.04 -83.6123 -44.6787 -133.637 -44.6787c-50.0254 0 -96.1953 16.6387 -133.273 44.6787l-39.9395 -40.0898c-2.87891 -2.89648 -6.87012 -4.69141 -11.2725 -4.69141s-8.38867 1.79492 -11.2676 4.69141l-22.54 22.6191
c-2.88477 2.90332 -4.66895 6.90625 -4.66895 11.3184c0 4.41113 1.78418 8.40918 4.66895 11.3125l39.9502 40.0596c-27.9434 37.2764 -44.6104 83.7529 -44.6104 133.881v0.119141c0 123.71 99.9102 224 223.14 224c123.23 0 223.141 -100.29 223.141 -224
c0 -0.0332031 -0.106445 -0.251953 -0.106445 -0.28418c0 -50.1348 -16.5596 -96.4316 -44.5039 -133.716zM338.4 225c3.28809 4.10742 5.26367 9.33398 5.26367 15c0 13.2207 -10.7129 23.959 -23.9238 24h-127.51c-8.80273 -0.0332031 -15.9404 -7.18945 -15.9404 -16v-16
c0 -8.81055 7.1377 -15.9668 15.9404 -16h77.7695l-96.4404 -121c-3.28809 -4.10742 -5.26367 -9.33398 -5.26367 -15c0 -13.2236 10.7188 -23.9639 23.9346 -24h127.539c8.79883 0.0380859 15.9307 7.19336 15.9307 16v16c0 8.80664 -7.13184 15.9619 -15.9307 16h-77.7695
z" />
    </font>
</defs>
</svg>
