<?xml version="1.0" standalone="no"?>
<!DOCTYPE svg PUBLIC "-//W3C//DTD SVG 1.1//EN" "http://www.w3.org/Graphics/SVG/1.1/DTD/svg11.dtd" >
<svg xmlns="http://www.w3.org/2000/svg" xmlns:xlink="http://www.w3.org/1999/xlink" version="1.1">
<metadata>
Created by FontForge 20201107 at Tue Mar 16 10:16:42 2021
 By Robert Madole
Copyright (c) Font Awesome
</metadata>
<!-- Font Awesome Pro 5.15.3 by @fontawesome - https://fontawesome.com License - https://fontawesome.com/license (Commercial License) --><defs>
<font id="FontAwesome5Pro-Light" horiz-adv-x="640" >
  <font-face 
    font-family="Font Awesome 5 Pro Light"
    font-weight="300"
    font-stretch="normal"
    units-per-em="512"
    panose-1="2 0 3 3 0 0 0 0 0 0"
    ascent="448"
    descent="-64"
    bbox="-0.000244141 -64.0996 640.012 448"
    underline-thickness="25"
    underline-position="-50"
    unicode-range="U+0020-F8FF"
  />
    <missing-glyph />
    <glyph glyph-name="user" unicode="&#xf007;" horiz-adv-x="448" 
d="M313.6 160c74.2002 0 134.4 -60.2002 134.4 -134.4v-41.5996c0 -26.5 -21.5 -48 -48 -48h-352c-26.5 0 -48 21.5 -48 48v41.5996c0 74.2002 60.2002 134.4 134.4 134.4c28.7998 0 42.5 -16 89.5996 -16s60.9004 16 89.5996 16zM416 -16v41.5996
c0 56.5 -45.9004 102.4 -102.4 102.4c-19.5996 0 -39.1992 -16 -89.5996 -16c-50.5 0 -70 16 -89.5996 16c-56.5 0 -102.4 -45.9004 -102.4 -102.4v-41.5996c0 -8.7998 7.2002 -16 16 -16h352c8.7998 0 16 7.2002 16 16zM224 192c-70.7002 0 -128 57.2998 -128 128
s57.2998 128 128 128s128 -57.2998 128 -128s-57.2998 -128 -128 -128zM224 416c-52.9004 0 -96 -43.0996 -96 -96s43.0996 -96 96 -96s96 43.0996 96 96s-43.0996 96 -96 96z" />
    <glyph glyph-name="users" unicode="&#xf0c0;" 
d="M544 224c-44.2002 0 -80 35.7998 -80 80s35.7998 80 80 80s80 -35.7998 80 -80s-35.7998 -80 -80 -80zM544 352c-26.5 0 -48 -21.5 -48 -48s21.5 -48 48 -48s48 21.5 48 48s-21.5 48 -48 48zM320 192c-61.9004 0 -112 50.0996 -112 112s50.0996 112 112 112
s112 -50.0996 112 -112s-50.0996 -112 -112 -112zM320 384c-44.0996 0 -80 -35.9004 -80 -80s35.9004 -80 80 -80s80 35.9004 80 80s-35.9004 80 -80 80zM564 192c41.9004 0 76 -35.9004 76 -80c0 -8.7998 -7.2002 -16 -16 -16s-16 7.2002 -16 16c0 26.5 -19.7998 48 -44 48
h-40c-5.5 0 -10.7998 -1.2002 -15.7002 -3.2998c-7.5 8.5 -16 16 -25.3994 22.3994c11.7998 8.10059 25.8994 12.9004 41.0996 12.9004h40zM96 224c-44.2002 0 -80 35.7998 -80 80s35.7998 80 80 80s80 -35.7998 80 -80s-35.7998 -80 -80 -80zM96 352
c-26.5 0 -48 -21.5 -48 -48s21.5 -48 48 -48s48 21.5 48 48s-21.5 48 -48 48zM400.1 172c36.3008 0 71.6006 -16.2002 92.3008 -46.9004c12.3994 -18.3994 19.5996 -40.5 19.5996 -64.2998v-44.7998c0 -26.5 -21.5 -48 -48 -48h-288c-26.5 0 -48 21.5 -48 48v44.7998
c0 23.7998 7.2002 45.9004 19.5996 64.2998c20.7002 30.7002 56 46.9004 92.3008 46.9004c33.3994 0 41.6992 -12 80.0996 -12s46.7002 12 80.0996 12zM480 16h-0.0996094v44.7998c0 16.6006 -4.90039 32.7002 -14.1006 46.4004
c-13.7998 20.5 -38.3994 32.7998 -65.7002 32.7998c-27.2998 0 -37.0996 -12 -80.0996 -12s-52.7998 12 -80.2002 12c-27.2998 0 -51.8994 -12.2998 -65.7002 -32.7998c-9.19922 -13.7002 -14.0996 -29.7998 -14.0996 -46.4004v-44.7998c0 -8.7998 7.2002 -16 16 -16h288
c8.7998 0 16 7.2002 16 16zM157.1 179.1c-9.2998 -6.39941 -17.8994 -13.8994 -25.3994 -22.3994c-4.90039 2.09961 -10.2002 3.2998 -15.7002 3.2998h-40c-24.2002 0 -44 -21.5 -44 -48c0 -8.7998 -7.2002 -16 -16 -16s-16 7.2002 -16 16c0 44.0996 34.0996 80 76 80h40
c15.0996 0 29.2002 -4.7998 41.0996 -12.9004z" />
    <glyph glyph-name="cloud" unicode="&#xf0c2;" 
d="M571.7 209.2c42.5 -22.4004 68.2998 -66.2002 68.2998 -113.2c0 -70.7998 -57.2998 -128 -128 -128h-368c-79.5996 0 -144 64.4004 -144 144c0 61.7002 39.2002 115.8 96.2002 135.8c4.09961 93.7002 81.3994 168.2 175.8 168.2c59.7002 0 112.4 -29.7998 144 -74.7998
c15.0996 7.2002 31.2998 10.7998 48 10.7998c61.9004 0 112 -50.0996 112 -112c0 -10.5996 -1.5 -20.9004 -4.2998 -30.7998zM512 0c53 0 96 43 96 96c0 47.9004 -35 87.5996 -80.9004 94.7998c10.6006 13.6006 16.9004 30.7002 16.9004 49.2002
c0 44.2002 -35.7998 80 -80 80c-23.2002 0 -44 -9.90039 -58.5996 -25.5996c-21.5 52.5996 -73.1006 89.5996 -133.4 89.5996c-79.5 0 -144 -64.5 -144 -144c0 -5.7002 0.299805 -11.4004 1 -17c-54.7998 -7.2998 -97 -54.2002 -97 -111c0 -61.9004 50.0996 -112 112 -112
h368z" />
    <glyph glyph-name="cloud-download" unicode="&#xf0ed;" 
d="M571.7 209.2c42.5 -22.4004 68.2998 -66.2002 68.2998 -113.2c0 -70.7998 -57.2998 -128 -128 -128h-368c-79.5996 0 -144 64.4004 -144 144c0 61.7002 39.2002 115.8 96.2002 135.8c4.09961 93.7002 81.3994 168.2 175.8 168.2c59.7002 0 112.4 -29.7998 144 -74.7998
c15.0996 7.2002 31.2998 10.7998 48 10.7998c61.9004 0 112 -50.0996 112 -112c0 -10.5996 -1.5 -20.9004 -4.2998 -30.7998zM512 0c53 0 96 43 96 96c0 47.9004 -35 87.5996 -80.9004 94.7998c10.6006 13.6006 16.9004 30.7002 16.9004 49.2002
c0 44.2002 -35.7998 80 -80 80c-23.2002 0 -44 -9.90039 -58.5996 -25.5996c-21.5 52.5996 -73.1006 89.5996 -133.4 89.5996c-79.5 0 -144 -64.5 -144 -144c0 -5.7002 0.299805 -11.4004 1 -17c-54.7998 -7.2998 -97 -54.2002 -97 -111c0 -61.9004 50.0996 -112 112 -112
h368zM405.2 193.5l5.5 -5.7002c4.7002 -4.7002 4.7002 -12.2998 0 -17l-98.2998 -98.2998c-4.7002 -4.7002 -12.3008 -4.7002 -17 0l-98.3008 98.2998c-4.69922 4.7002 -4.69922 12.2998 0 17l5.7002 5.7002c4.7002 4.7002 12.2998 4.7002 17 0l68.2002 -68.2002v150.7
c0 6.59961 5.40039 12 12 12h8c6.59961 0 12 -5.40039 12 -12v-150.7l68.2002 68.2002c4.7002 4.7002 12.2998 4.7002 17 0z" />
    <glyph glyph-name="cloud-upload" unicode="&#xf0ee;" 
d="M312.5 279.5l98.5 -98.2998c4.7002 -4.7002 4.7002 -12.2998 0 -17l-5.7002 -5.7002c-4.7002 -4.7002 -12.2998 -4.7002 -17 0l-68.2002 68.2002v-150.7c0 -6.59961 -5.39941 -12 -12 -12h-8c-6.59961 0 -12 5.40039 -12 12v150.7l-68.1992 -68.2002
c-4.7002 -4.7002 -12.3008 -4.7002 -17 0l-5.7002 5.7002c-4.7002 4.7002 -4.7002 12.2998 0 17l98.2998 98.2998c4.7002 4.7002 12.2998 4.7002 17 0zM571.7 209.2c42.5 -22.4004 68.2998 -66.2002 68.2998 -113.2c0 -70.7998 -57.2998 -128 -128 -128h-368
c-79.5996 0 -144 64.4004 -144 144c0 61.7002 39.2002 115.8 96.2002 135.8c4.09961 93.7002 81.3994 168.2 175.8 168.2c59.7002 0 112.4 -29.7998 144 -74.7998c15.0996 7.2002 31.2998 10.7998 48 10.7998c61.9004 0 112 -50.0996 112 -112
c0 -10.5996 -1.5 -20.9004 -4.2998 -30.7998zM512 0c53 0 96 43 96 96c0 47.9004 -35 87.5996 -80.9004 94.7998c10.6006 13.6006 16.9004 30.7002 16.9004 49.2002c0 44.2002 -35.7998 80 -80 80c-23.2002 0 -44 -9.90039 -58.5996 -25.5996
c-21.5 52.5996 -73.1006 89.5996 -133.4 89.5996c-79.5 0 -144 -64.5 -144 -144c0 -5.7002 0.299805 -11.4004 1 -17c-54.7998 -7.2998 -97 -54.2002 -97 -111c0 -61.9004 50.0996 -112 112 -112h368z" />
    <glyph glyph-name="user-md" unicode="&#xf0f0;" horiz-adv-x="448" 
d="M224 192c-70.7002 0 -128 57.2998 -128 128s57.2998 128 128 128s128 -57.2998 128 -128s-57.2998 -128 -128 -128zM224 416c-52.9004 0 -96 -43.0996 -96 -96s43.0996 -96 96 -96s96 43.0996 96 96s-43.0996 96 -96 96zM317.7 159.9
c72.2998 -2.10059 130.3 -61.4004 130.1 -134.301v-81.5996c0 -4.40039 -3.59961 -8 -8 -8h-16c-4.39941 0 -8 3.59961 -8 8v81.5c0 54.2998 -42.5996 98.4004 -96 101.8v-73.7002c27.5 -7.09961 48 -31.8994 48 -61.5996v-32c0 -4.2002 -1.7002 -8.2998 -4.7002 -11.2998
l-10.2998 -10.2998c-3.09961 -3.10059 -8.2002 -3.10059 -11.2998 0l-11.2998 11.2998c-3.10059 3.09961 -3.10059 8.2002 0 11.2998l5.7002 5.7002v23.5996c0 15.9004 -10.9004 30.7002 -26.6006 33.2998c-20 3.2002 -37.3994 -12.1992 -37.3994 -31.5996v-25.2998
l5.69922 -5.7002c3.10059 -3.09961 3.10059 -8.2002 0 -11.2998l-11.2998 -11.2998c-3.09961 -3.10059 -8.2002 -3.10059 -11.2998 0l-10.2998 10.2998c-3 3 -4.7002 7.09961 -4.7002 11.2998v29.2002c0 30.0996 19.7998 57.0996 48 64.5996v68.7998
c-20.7998 -6.7998 -42.2002 -10.5 -64 -10.5s-43.2002 3.7002 -64 10.5v-76.8994c23.0996 -6.90039 40 -28.2998 40 -53.7002c0 -30.9004 -25.0996 -56 -56 -56s-56 25.0996 -56 56c0 25.4004 16.9004 46.7998 40 53.7002v81.7002c-53.4004 -3.40039 -96 -47.5 -96 -101.801
v-81.5996c0 -4.40039 -3.59961 -8 -8 -8h-16c-4.40039 0 -8 3.59961 -8 8v81.5996c0 72.9004 58 132.2 130.4 134.301c33.7998 1 44.2998 -15.9004 93.5996 -15.9004c49.4004 0 59.9004 16.9004 93.7002 15.9004zM168 -8c0 13.2002 -10.7998 24 -24 24s-24 -10.7998 -24 -24
s10.7998 -24 24 -24s24 10.7998 24 24z" />
    <glyph glyph-name="sliders-h" unicode="&#xf1de;" horiz-adv-x="512" 
d="M504 64c4.40039 0 8 -3.59961 8 -8v-16c0 -4.40039 -3.59961 -8 -8 -8h-312v-40c0 -13.2998 -10.7002 -24 -24 -24h-48c-13.2998 0 -24 10.7002 -24 24v40h-88c-4.40039 0 -8 3.59961 -8 8v16c0 4.40039 3.59961 8 8 8h88v40c0 13.2998 10.7002 24 24 24h48
c13.2998 0 24 -10.7002 24 -24v-40h312zM160 0v96h-32v-96h32zM504 352c4.40039 0 8 -3.59961 8 -8v-16c0 -4.40039 -3.59961 -8 -8 -8h-248v-40c0 -13.2998 -10.7002 -24 -24 -24h-48c-13.2998 0 -24 10.7002 -24 24v40h-152c-4.40039 0 -8 3.59961 -8 8v16
c0 4.40039 3.59961 8 8 8h152v40c0 13.2998 10.7002 24 24 24h48c13.2998 0 24 -10.7002 24 -24v-40h248zM224 288v96h-32v-96h32zM504 208c4.40039 0 8 -3.59961 8 -8v-16c0 -4.40039 -3.59961 -8 -8 -8h-88v-40c0 -13.2998 -10.7002 -24 -24 -24h-48
c-13.2998 0 -24 10.7002 -24 24v40h-312c-4.40039 0 -8 3.59961 -8 8v16c0 4.40039 3.59961 8 8 8h312v40c0 13.2998 10.7002 24 24 24h48c13.2998 0 24 -10.7002 24 -24v-40h88zM384 144v96h-32v-96h32z" />
    <glyph glyph-name="user-secret" unicode="&#xf21b;" horiz-adv-x="448" 
d="M383.9 139.7c38.2998 -23.7002 64.0996 -65.7002 64.0996 -114.101v-44.7998c0 -24.7002 -20.0996 -44.7998 -44.7998 -44.7998h-358.4c-24.7002 0 -44.7998 20.0996 -44.7998 44.7998v44.7998c0 49.7002 27.2998 92.6006 67.4004 115.9l-25.8008 60.2002
c-4.5 10.5996 3.2002 22.2998 14.7002 22.2998h42.1006c-1.5 7.7998 -2.40039 15.7998 -2.40039 24c0 7.2002 0.900391 14.2002 2.2002 21.0996c-40.5 9.7002 -66.2002 24.1006 -66.2002 40.2002c0 16.5 27 31.2998 69.4004 41.1006
c8.89941 33.5996 27.3994 67.8994 41.2998 85.3994c6.2998 7.90039 15.5996 12.2002 25.2002 12.2002c9.39941 0 12 -2.2998 41.7998 -17.2002c4.2998 -2.09961 15.7998 -6.39941 28.5996 0c29.5 14.7998 32.2998 17.2002 41.7998 17.2002
c9.60059 0 19 -4.2998 25.3008 -12.2998c13.8994 -17.5 32.3994 -51.7998 41.2998 -85.4004c42.2998 -9.7998 69.2998 -24.5 69.2998 -41c0 -16 -25.7002 -30.3994 -66.2002 -40.2002c1.2998 -6.89941 2.2002 -13.8994 2.2002 -21.0996
c0 -8.2002 -0.900391 -16.2002 -2.40039 -24h43.2002c11.2998 0 19 -11.2002 15 -21.7002zM128 248c0 -52.9004 43.2002 -96 96.0996 -96c52.9004 0 96 43.0996 96 96c0 2.7002 -0.299805 5.2998 -0.599609 7.90039c-1.40039 -0.800781 -5.09961 -3.30078 -5.7998 -5.40039
c-3.7998 -11.9004 -7 -24.5996 -16.5 -33.4004c-10.1006 -9.39941 -48 -22.3994 -64 25c-2.90039 8.40039 -15.5 8.40039 -18.2998 0c-17 -50.0996 -56 -32.3994 -64 -25c-9.5 8.80078 -12.6006 21.5 -16.5 33.4004c-0.700195 2.09961 -4.5 4.59961 -5.80078 5.40039
c-0.299805 -2.60059 -0.599609 -5.2002 -0.599609 -7.90039zM127.3 323.5c-21.0996 -4.90039 -35.7998 -7.90039 -51 -14.2002c24.2998 -9.89941 75.4004 -21.2998 147.7 -21.2998s123.4 11.4004 147.7 21.2998c-15.2002 6.2998 -29.6006 9.2998 -51 14.2002
c-0.700195 2.7998 -12.2998 57 -40.4004 92.4004l-0.0996094 0.0996094c-28.5 -14.2002 -37.6006 -20.5 -56.2002 -20.5c-18.5 0 -27.5 6.09961 -56.2002 20.5c-28.2002 -35.5 -39.7998 -89.7998 -40.5 -92.5zM44.7998 -32h98.1006l30.8994 115.5
s-59.5996 98.9004 -64.2998 108.5h-28.9004l27.4004 -64l-24.5996 -14.2002c-32.2002 -18.7002 -51.4004 -51.7002 -51.4004 -88.2002v-44.7998c0 -7.09961 5.7002 -12.7998 12.7998 -12.7998zM176 -32h96l-32 120l21.9004 38.4004
c-12 -3.80078 -24.6006 -6.40039 -37.9004 -6.40039s-25.7998 2.59961 -37.9004 6.40039l21.9004 -38.4004zM416 -19.2002v44.7998c0 35.5 -18.2998 68 -48.9004 86.9004l-22.5 13.9004l25 65.5996h-31c-4.69922 -9.59961 -64.2998 -108.5 -64.2998 -108.5l30.7998 -115.5
h98.1006c7.09961 0 12.7998 5.7002 12.7998 12.7998z" />
    <glyph glyph-name="user-plus" unicode="&#xf234;" 
d="M632 224c4.40039 0 8 -3.59961 8 -8v-16c0 -4.40039 -3.59961 -8 -8 -8h-88v-88c0 -4.40039 -3.59961 -8 -8 -8h-16c-4.40039 0 -8 3.59961 -8 8v88h-88c-4.40039 0 -8 3.59961 -8 8v16c0 4.40039 3.59961 8 8 8h88v88c0 4.40039 3.59961 8 8 8h16
c4.40039 0 8 -3.59961 8 -8v-88h88zM313.6 160c74.2002 0 134.4 -60.2002 134.4 -134.4v-41.5996c0 -26.5 -21.5 -48 -48 -48h-352c-26.5 0 -48 21.5 -48 48v41.5996c0 74.2002 60.2002 134.4 134.4 134.4c28.7998 0 42.5 -16 89.5996 -16s60.9004 16 89.5996 16zM416 -16
v41.5996c0 56.5 -45.9004 102.4 -102.4 102.4c-19.5996 0 -39.1992 -16 -89.5996 -16c-50.5 0 -70 16 -89.5996 16c-56.5 0 -102.4 -45.9004 -102.4 -102.4v-41.5996c0 -8.7998 7.2002 -16 16 -16h352c8.7998 0 16 7.2002 16 16zM224 192c-70.7002 0 -128 57.2998 -128 128
s57.2998 128 128 128s128 -57.2998 128 -128s-57.2998 -128 -128 -128zM224 416c-52.9004 0 -96 -43.0996 -96 -96s43.0996 -96 96 -96s96 43.0996 96 96s-43.0996 96 -96 96z" />
    <glyph glyph-name="user-times" unicode="&#xf235;" 
d="M582.6 208l55 -55c3.10059 -3.09961 3.10059 -8.2002 0 -11.2998l-11.2998 -11.2998c-3.09961 -3.10059 -8.2002 -3.10059 -11.2998 0l-55 55l-55 -55c-3.09961 -3.10059 -8.2002 -3.10059 -11.2998 0l-11.2998 11.2998c-3.10059 3.09961 -3.10059 8.2002 0 11.2998
l55 55l-55 55c-3.10059 3.09961 -3.10059 8.2002 0 11.2998l11.2998 11.2998c3.09961 3.10059 8.2002 3.10059 11.2998 0l55 -55l55 55c3.09961 3.10059 8.2002 3.10059 11.2998 0l11.2998 -11.2998c3.10059 -3.09961 3.10059 -8.2002 0 -11.2998zM224 192
c-70.7002 0 -128 57.2998 -128 128s57.2998 128 128 128s128 -57.2998 128 -128s-57.2998 -128 -128 -128zM224 416c-52.9004 0 -96 -43.0996 -96 -96s43.0996 -96 96 -96s96 43.0996 96 96s-43.0996 96 -96 96zM313.6 160c74.2002 0 134.4 -60.2002 134.4 -134.4v-41.5996
c0 -26.5 -21.5 -48 -48 -48h-352c-26.5 0 -48 21.5 -48 48v41.5996c0 74.2002 60.2002 134.4 134.4 134.4c28.7998 0 42.5 -16 89.5996 -16s60.9004 16 89.5996 16zM416 -16v41.5996c0 56.5 -45.9004 102.4 -102.4 102.4c-19.5996 0 -39.1992 -16 -89.5996 -16
c-50.5 0 -70 16 -89.5996 16c-56.5 0 -102.4 -45.9004 -102.4 -102.4v-41.5996c0 -8.7998 7.2002 -16 16 -16h352c8.7998 0 16 7.2002 16 16z" />
    <glyph glyph-name="cloud-download-alt" unicode="&#xf381;" 
d="M571.7 209.2c42.5 -22.4004 68.2998 -66.2002 68.2998 -113.2c0 -70.7998 -57.2998 -128 -128 -128h-368c-79.5996 0 -144 64.4004 -144 144c0 61.7002 39.2002 115.8 96.2002 135.8c4.09961 93.7002 81.3994 168.2 175.8 168.2c59.7002 0 112.4 -29.7998 144 -74.7998
c15.0996 7.2002 31.2998 10.7998 48 10.7998c61.9004 0 112 -50.0996 112 -112c0 -10.5996 -1.5 -20.9004 -4.2998 -30.7998zM512 0c53 0 96 43 96 96c0 47.9004 -35 87.5996 -80.9004 94.7998c10.6006 13.6006 16.9004 30.7002 16.9004 49.2002
c0 44.2002 -35.7998 80 -80 80c-23.2002 0 -44 -9.90039 -58.5996 -25.5996c-21.5 52.5996 -73.1006 89.5996 -133.4 89.5996c-79.5 0 -144 -64.5 -144 -144c0 -5.7002 0.299805 -11.4004 1 -17c-54.7998 -7.2998 -97 -54.2002 -97 -111c0 -61.9004 50.0996 -112 112 -112
h368zM384 200c29.2998 0 43.0996 -36.2002 21.4004 -55.7998l-80 -72c-12.2002 -11 -30.6006 -11 -42.8008 0l-80 72c-21.7998 19.5996 -7.7998 55.7998 21.4004 55.7998h64v84c0 6.59961 5.40039 12 12 12h8c6.59961 0 12 -5.40039 12 -12v-84h64zM304 96l80 72h-160z" />
    <glyph glyph-name="cloud-upload-alt" unicode="&#xf382;" 
d="M405.4 215.8c21.6992 -19.5996 7.7998 -55.7998 -21.4004 -55.7998h-64v-84c0 -6.59961 -5.40039 -12 -12 -12h-8c-6.59961 0 -12 5.40039 -12 12v84h-64c-29.2998 0 -43.0996 36.2002 -21.4004 55.7998l80 72c12.2002 11 30.6006 11 42.8008 0zM224 192h160l-80 72z
M571.7 209.2c42.5 -22.4004 68.2998 -66.2002 68.2998 -113.2c0 -70.7998 -57.2998 -128 -128 -128h-368c-79.5996 0 -144 64.4004 -144 144c0 61.7002 39.2002 115.8 96.2002 135.8c4.09961 93.7002 81.3994 168.2 175.8 168.2c59.7002 0 112.4 -29.7998 144 -74.7998
c15.0996 7.2002 31.2998 10.7998 48 10.7998c61.9004 0 112 -50.0996 112 -112c0 -10.5996 -1.5 -20.9004 -4.2998 -30.7998zM512 0c53 0 96 43 96 96c0 47.9004 -35 87.5996 -80.9004 94.7998c10.6006 13.6006 16.9004 30.7002 16.9004 49.2002
c0 44.2002 -35.7998 80 -80 80c-23.2002 0 -44 -9.90039 -58.5996 -25.5996c-21.5 52.5996 -73.1006 89.5996 -133.4 89.5996c-79.5 0 -144 -64.5 -144 -144c0 -5.7002 0.299805 -11.4004 1 -17c-54.7998 -7.2998 -97 -54.2002 -97 -111c0 -61.9004 50.0996 -112 112 -112
h368z" />
    <glyph glyph-name="sliders-v" unicode="&#xf3f1;" horiz-adv-x="448" 
d="M160 280c0 -13.2998 -10.7002 -24 -24 -24h-40v-312c0 -4.40039 -3.59961 -8 -8 -8h-16c-4.40039 0 -8 3.59961 -8 8v312h-40c-13.2998 0 -24 10.7002 -24 24v48c0 13.2998 10.7002 24 24 24h40v88c0 4.40039 3.59961 8 8 8h16c4.40039 0 8 -3.59961 8 -8v-88h40
c13.2998 0 24 -10.7002 24 -24v-48zM128 288v32h-96v-32h96zM280 128c13.2998 0 24 -10.7002 24 -24v-48c0 -13.2998 -10.7002 -24 -24 -24h-40v-88c0 -4.40039 -3.59961 -8 -8 -8h-16c-4.40039 0 -8 3.59961 -8 8v88h-40c-13.2998 0 -24 10.7002 -24 24v48
c0 13.2998 10.7002 24 24 24h40v312c0 4.40039 3.59961 8 8 8h16c4.40039 0 8 -3.59961 8 -8v-312h40zM272 64v32h-96v-32h96zM424 288c13.2998 0 24 -10.7002 24 -24v-48c0 -13.2998 -10.7002 -24 -24 -24h-40v-248c0 -4.40039 -3.59961 -8 -8 -8h-16
c-4.40039 0 -8 3.59961 -8 8v248h-40c-13.2998 0 -24 10.7002 -24 24v48c0 13.2998 10.7002 24 24 24h40v152c0 4.40039 3.59961 8 8 8h16c4.40039 0 8 -3.59961 8 -8v-152h40zM416 224v32h-96v-32h96z" />
    <glyph glyph-name="user-alt" unicode="&#xf406;" horiz-adv-x="512" 
d="M256 416c-61.7998 0 -112 -50.2002 -112 -112s50.2002 -112 112 -112s112 50.2002 112 112s-50.2002 112 -112 112zM384 96c-85.0996 0 -67.0996 -16 -128 -16c-60.7002 0 -43 16 -128 16c-52.9004 0 -96 -43.0996 -96 -96v-32h448v32c0 52.9004 -43.0996 96 -96 96z
M256 448c79.5 0 144 -64.5 144 -144s-64.5 -144 -144 -144s-144 64.5 -144 144s64.5 144 144 144zM384 128c70.7002 0 128 -57.2998 128 -128v-32c0 -17.7002 -14.2998 -32 -32 -32h-448c-17.7002 0 -32 14.2998 -32 32v32c0 70.7002 57.2998 128 128 128
c92.2998 0 71.2002 -16 128 -16c57 0 35.5996 16 128 16z" />
    <glyph glyph-name="user-alt-slash" unicode="&#xf4fa;" 
d="M637 -37.2002c3.40039 -2.7998 4 -7.7998 1.2002 -11.3994l-10 -12.5c-2.7002 -3.40039 -7.7998 -4 -11.2002 -1.2002l-614 483.5c-3.40039 2.7998 -4 7.7998 -1.2002 11.2998l10 12.5c2.7002 3.40039 7.7998 4 11.2002 1.2002zM320 416
c-44.2998 0 -82.2998 -26 -100.5 -63.4004l-25.4004 20c24.5 44.7002 71.3008 75.4004 125.9 75.4004c79.5 0 144 -64.5 144 -144c0 -42.2998 -18.5996 -80 -47.7002 -106.4l-25.5996 20.2002c25 20.6006 41.2998 51.4004 41.2998 86.2002c0 61.7998 -50.2002 112 -112 112z
M96 -32h405l40.5996 -32h-445.6c-17.7002 0 -32 14.2998 -32 32v32c0 70.7002 57.2998 128 128 128h36.7002c29.8994 0 43 -15.2002 89.2002 -15.7998l36.8994 -29.1006c-11.5 -2 -23.0996 -3.09961 -34.7998 -3.09961c-50.9004 0 -68.7998 16 -91.2002 16h-36.7998
c-52.9004 0 -96 -43.0996 -96 -96v-32z" />
    <glyph glyph-name="user-astronaut" unicode="&#xf4fb;" horiz-adv-x="448" 
d="M288 320c35.2998 0 64 -28.7002 64 -64v-16c0 -61.7998 -50.2002 -112 -112 -112h-32c-61.7998 0 -112 50.2002 -112 112v16c0 35.2998 28.7002 64 64 64h128zM320 240v16c0 17.5996 -14.2998 32 -32 32h-128c-17.7002 0 -32 -14.4004 -32 -32v-16
c0 -44.0996 35.9004 -80 80 -80h32c44.0996 0 80 35.9004 80 80zM192 272l12 -36l36 -12l-36 -12l-12 -36l-12 36l-36 12l36 12zM304 48c26.5 0 48 -21.5 48 -48v-56c0 -4.40039 -3.59961 -8 -8 -8h-16c-4.40039 0 -8 3.59961 -8 8v56c0 8.7998 -7.2002 16 -16 16h-160
c-8.7998 0 -16 -7.2002 -16 -16v-56c0 -4.40039 -3.59961 -8 -8 -8h-16c-4.40039 0 -8 3.59961 -8 8v56c0 26.5 21.5 48 48 48h160zM272 0c8.7998 0 16 -7.2002 16 -16s-7.2002 -16 -16 -16s-16 7.2002 -16 16s7.2002 16 16 16zM176 0c8.7998 0 16 -7.2002 16 -16v-40
c0 -4.40039 -3.59961 -8 -8 -8h-16c-4.40039 0 -8 3.59961 -8 8v40c0 8.7998 7.2002 16 16 16zM359.2 119.7c51.7002 -18.7002 88.7998 -67.9004 88.7998 -126.101v-49.5996c0 -4.40039 -3.59961 -8 -8 -8h-16c-4.40039 0 -8 3.59961 -8 8v49.5996
c0 51.7002 -38.5 94.1006 -88.2998 101c-29.9004 -19.2998 -65.5 -30.5996 -103.7 -30.5996s-73.7998 11.2998 -103.7 30.5996c-49.7998 -7 -88.2998 -49.3994 -88.2998 -101v-49.5996c0 -4.40039 -3.59961 -8 -8 -8h-16c-4.40039 0 -8 3.59961 -8 8v49.5996
c0 58.2002 37.0996 107.4 88.9004 126.101c-20.3008 20.0996 -36 44.7998 -45.7002 72.2998h-11.2002c-8.7998 0 -16 7.2002 -16 16v96c0 8.7998 7.2002 16 16 16h11.2002c26.2998 74.5 97.2002 128 180.8 128s154.5 -53.5 180.8 -128h11.2002c8.7998 0 16 -7.2002 16 -16
v-96c0 -8.7998 -7.2002 -16 -16 -16h-11.0996c-9.80078 -27.5 -25.4004 -52.2002 -45.7002 -72.2998zM224 96c88.2002 0 160 71.7998 160 160s-71.7998 160 -160 160s-160 -71.7998 -160 -160s71.7998 -160 160 -160z" />
    <glyph glyph-name="user-check" unicode="&#xf4fc;" 
d="M637.7 303.4c3.09961 -3.10059 3.09961 -8.2002 -0.100586 -11.3008l-132.1 -128.6c-4.7002 -4.7002 -12.2998 -4.7002 -17 0l-70.2002 70.4004c-3.09961 3.09961 -3.09961 8.19922 0 11.2998l14.2002 14.0996c3.09961 3.10059 8.2002 3.10059 11.2998 0
l53.2998 -53.3994l115.2 111.699c3.10059 3.2002 8.2002 3.10059 11.2998 0zM313.6 160c74.2002 0 134.4 -60.2002 134.4 -134.4v-41.5996c0 -26.5 -21.5 -48 -48 -48h-352c-26.5 0 -48 21.5 -48 48v41.5996c0 74.2002 60.2002 134.4 134.4 134.4
c28.7998 0 42.5 -16 89.5996 -16s60.9004 16 89.5996 16zM416 -16v41.5996c0 56.5 -45.9004 102.4 -102.4 102.4c-19.5996 0 -39.1992 -16 -89.5996 -16c-50.5 0 -70 16 -89.5996 16c-56.5 0 -102.4 -45.9004 -102.4 -102.4v-41.5996c0 -8.7998 7.2002 -16 16 -16h352
c8.7998 0 16 7.2002 16 16zM224 192c-70.7002 0 -128 57.2998 -128 128s57.2998 128 128 128s128 -57.2998 128 -128s-57.2998 -128 -128 -128zM224 416c-52.9004 0 -96 -43.0996 -96 -96s43.0996 -96 96 -96s96 43.0996 96 96s-43.0996 96 -96 96z" />
    <glyph glyph-name="user-clock" unicode="&#xf4fd;" 
d="M224 192c-70.7002 0 -128 57.2998 -128 128s57.2998 128 128 128s128 -57.2998 128 -128s-57.2998 -128 -128 -128zM224 416c-52.9004 0 -96 -43.0996 -96 -96s43.0996 -96 96 -96s96 43.0996 96 96s-43.0996 96 -96 96zM496 224c79.5996 0 144 -64.4004 144 -144
s-64.4004 -144 -144 -144s-144 64.4004 -144 144s64.4004 144 144 144zM496 -32c61.7998 0 112 50.2002 112 112s-50.2002 112 -112 112s-112 -50.2002 -112 -112s50.2002 -112 112 -112zM360.2 -32c10 -12.2002 21.7998 -22.9004 34.7002 -32h-346.9
c-26.5 0 -48 21.5 -48 48v41.5996c0 74.2002 60.2002 134.4 134.5 134.4c28.7998 0 42.5 -16 89.5996 -16c47.1006 0 60.9004 16 89.6006 16c8.39941 0 16.5 -1 24.5 -2.5c-4.7998 -9.7998 -8.7998 -20.0996 -11.7002 -30.7998c-4.2998 0.5 -8.5 1.2998 -12.9004 1.2998
c-19.5996 0 -39.1992 -16 -89.5996 -16c-50.5 0 -70 16 -89.5996 16c-56.5 0 -102.4 -45.9004 -102.4 -102.4v-41.5996c0 -8.7998 7.2002 -16 16 -16h312.2zM550.3 96c5.2998 0 9.7002 -4.40039 9.7002 -9.7002v-12.5996c0 -5.2998 -4.40039 -9.7002 -9.7002 -9.7002
h-60.5996c-5.2998 0 -9.7002 4.40039 -9.7002 9.7002v76.5996c0 5.2998 4.40039 9.7002 9.7002 9.7002h12.5996c5.2998 0 9.7002 -4.40039 9.7002 -9.7002v-54.2998h38.2998z" />
    <glyph glyph-name="user-cog" unicode="&#xf4fe;" 
d="M628.3 89.7002c9.40039 -5.40039 13.9004 -16.9004 10.6006 -27.2998c-7.30078 -23.3008 -20 -45.3008 -36.7002 -63.4004c-7.40039 -8 -19.2998 -9.7998 -28.7002 -4.40039l-16.5 9.5c-7 -5 -14.4004 -9.2998 -22.2002 -12.7998v-19
c0 -10.8994 -7.5 -20.2998 -18.2002 -22.7002c-11.8994 -2.69922 -24.2998 -4 -36.5996 -4s-24.5996 1.30078 -36.5996 4c-10.7002 2.40039 -18.2002 11.7002 -18.2002 22.7002v19c-7.7998 3.5 -15.2002 7.7998 -22.2002 12.7998l-16.5 -9.5
c-9.5 -5.39941 -21.2998 -3.59961 -28.7002 4.40039c-16.7998 18.0996 -29.5 40.0996 -36.7002 63.5c-3.2998 10.2002 1.2002 21.7002 10.5 27.0996l16.6006 9.5c-0.799805 8.5 -0.799805 17.1006 0 25.6006l-16.5 9.5c-9.40039 5.39941 -13.9004 16.7998 -10.6006 27.2002
c7.30078 23.2998 20 45.2998 36.7002 63.3994c7.40039 8.10059 19.2002 9.90039 28.7002 4.40039l16.5 -9.5c7 5 14.4004 9.2998 22.2002 12.7998v19c0 10.9004 7.5 20.2998 18.2002 22.7002c23.8994 5.39941 49.2998 5.39941 73.1992 0
c10.7002 -2.40039 18.2002 -11.7002 18.2002 -22.7002v-19c7.7998 -3.5 15.2002 -7.7998 22.2002 -12.7998l16.5 9.5c9.40039 5.5 21.2998 3.7002 28.7002 -4.40039c16.7998 -18.0996 29.5 -40.0996 36.7002 -63.5c3.2998 -10.2998 -1 -21.5 -10.5 -27l-16.6006 -9.5
c0.799805 -8.5 0.799805 -17.0996 0 -25.5996zM576.7 82.5c5.2002 28.4004 4.89941 32.2002 0 59l29.3994 17c-5.19922 14.2998 -13 27.7002 -22.7998 39.5l-29.3994 -17c-20.9004 17.9004 -24.3008 20 -51.1006 29.5v34c-14.8994 2.5 -30.5 2.5 -45.5996 0v-34
c-26.6006 -9.40039 -29.7002 -11.2002 -51.1006 -29.5l-29.3994 17c-9.7998 -11.7998 -17.6006 -25.2002 -22.7998 -39.5l29.3994 -17c-5.2002 -28.4004 -4.89941 -32.2002 0 -59l-29.3994 -17c5.19922 -14.2998 13 -27.7002 22.7998 -39.5l29.3994 17
c20.9004 -17.7998 24.2002 -20 51.1006 -29.5v-34c15 -2.59961 30.5 -2.59961 45.5996 0v34c26.6006 9.40039 29.7002 11.2002 51.1006 29.5l29.3994 -17c9.7998 11.7002 17.6006 25.2002 22.7998 39.5zM480 176.5c35.5996 0 64.5 -29 64.5 -64.5
s-28.9004 -64.5 -64.5 -64.5s-64.5 29 -64.5 64.5s28.9004 64.5 64.5 64.5zM480 79.5c17.9004 0 32.5 14.5996 32.5 32.5s-14.5996 32.5 -32.5 32.5s-32.5 -14.5996 -32.5 -32.5s14.5996 -32.5 32.5 -32.5zM224 192c-70.7002 0 -128 57.2998 -128 128s57.2998 128 128 128
s128 -57.2998 128 -128s-57.2998 -128 -128 -128zM224 416c-52.9004 0 -96 -43.0996 -96 -96s43.0996 -96 96 -96s96 43.0996 96 96s-43.0996 96 -96 96zM48 -32h293.5c12.9004 -12.5 27.5 -23.4004 43.5 -32h-337c-26.5 0 -48 21.5 -48 48v41.5996
c0 74.2002 60.2002 134.4 134.4 134.4c28.7998 0 42.5 -16 89.5996 -16c30.5996 0 51.7998 8 60.7002 10.7002c-2.40039 -11 -3.7002 -22.4004 -4.2002 -34c-18.5 -5.40039 -37.2998 -8.7002 -56.5 -8.7002c-50.5 0 -70 16 -89.5996 16
c-56.5 0 -102.4 -45.9004 -102.4 -102.4v-41.5996c0 -8.7998 7.2002 -16 16 -16z" />
    <glyph glyph-name="user-edit" unicode="&#xf4ff;" 
d="M224 192c-70.7002 0 -128 57.2998 -128 128s57.2998 128 128 128s128 -57.2998 128 -128s-57.2998 -128 -128 -128zM224 416c-52.9004 0 -96 -43.0996 -96 -96s43.0996 -96 96 -96s96 43.0996 96 96s-43.0996 96 -96 96zM630.6 211.9c12.5 -12.6006 12.5 -33 0 -45.7002
l-222.5 -222.5l-68.1992 -7.60059c-0.700195 -0.0996094 -1.30078 -0.0996094 -2 -0.0996094c-10.5 0 -18.9004 9.09961 -17.7002 19.7998l7.59961 68.2002l222.5 222.6c6.2998 6.30078 14.6006 9.40039 22.7998 9.40039c8.30078 0 16.5 -3.09961 22.8008 -9.40039z
M393.3 -25.7002l156.9 156.9l-35 35l-156.9 -156.9l-4.39941 -39.5zM572.8 153.8l35.2002 35.1006l-34.7002 35l-0.200195 0.0996094h-0.0996094l-35.2002 -35.2002zM134.4 128c-56.5 0 -102.4 -45.9004 -102.4 -102.4v-41.5996c0 -8.7998 7.2002 -16 16 -16h241.3
l-1 -8.59961c-0.899414 -8 0.400391 -16 3.2002 -23.4004h-243.5c-26.5 0 -48 21.5 -48 48v41.5996c0 74.2002 60.2002 134.4 134.4 134.301c28.7998 0 42.5 -16 89.5996 -16s60.9004 16 89.5996 16c29.5 0 56.6006 -9.80078 78.8008 -26l-22.8008 -22.8008
c-16.0996 10.6006 -35.2998 16.9004 -56 16.9004c-19.5996 0 -39.1992 -16 -89.5996 -16c-50.5 0 -70 16 -89.5996 16z" />
    <glyph glyph-name="user-friends" unicode="&#xf500;" 
d="M480 192c-53 0 -96 43 -96 96s43 96 96 96s96 -43 96 -96s-43 -96 -96 -96zM480 352c-35.2998 0 -64 -28.7002 -64 -64s28.7002 -64 64 -64s64 28.7002 64 64s-28.7002 64 -64 64zM192 192c-61.9004 0 -112 50.0996 -112 112s50.0996 112 112 112s112 -50.0996 112 -112
s-50.0996 -112 -112 -112zM192 384c-44.0996 0 -80 -35.9004 -80 -80s35.9004 -80 80 -80s80 35.9004 80 80s-35.9004 80 -80 80zM272.1 172c36.3008 0 71.6006 -16.2002 92.3008 -46.9004c12.3994 -18.3994 19.5996 -40.5 19.5996 -64.2998v-44.7998
c0 -26.5 -21.5 -48 -48 -48h-288c-26.5 0 -48 21.5 -48 48v44.7998c0 23.7998 7.2002 45.9004 19.5996 64.2998c20.7002 30.7002 56 46.9004 92.3008 46.9004c33.3994 0 41.6992 -12 80.0996 -12s46.7002 12 80.0996 12zM352 16h-0.0996094v44.7998
c0 16.6006 -4.90039 32.7002 -14.1006 46.4004c-13.7998 20.5 -38.3994 32.7998 -65.7002 32.7998c-27.2998 0 -37.0996 -12 -80.0996 -12s-52.7998 12 -80.2002 12c-27.2998 0 -51.8994 -12.2998 -65.7002 -32.7998c-9.19922 -13.7002 -14.0996 -29.7998 -14.0996 -46.4004
v-44.7998c0 -8.7998 7.2002 -16 16 -16h288c8.7998 0 16 7.2002 16 16zM623.7 130.9c10.2998 -15.3008 16.2998 -33.7002 16.2998 -53.6006v-37.2998c0 -22.0996 -17.9004 -40 -40 -40h-185.6c1.89941 9.5 1.59961 14.2998 1.59961 32h184.1c4.40039 0 8 3.59961 8 8
v37.2002c0 12.7998 -3.7998 25.2002 -10.8994 35.7002c-10.6006 15.6992 -29.4004 25 -50.4004 25c-21.7998 0 -30 -10 -66.7998 -10s-45 10 -66.7998 10c-6.2998 0 -12.2002 -1 -17.9004 -2.60059c-1.7002 3 -5 11.2002 -20.2002 26.6006
c12 5.09961 24.9004 8.09961 38.1006 8.09961c27.7998 0 34.7998 -10 66.7998 -10s39 10 66.7998 10c30.2002 0 59.6006 -13.5 76.9004 -39.0996z" />
    <glyph glyph-name="user-graduate" unicode="&#xf501;" horiz-adv-x="448" 
d="M319.4 127.4c18.5 -0.800781 128.6 -15.5 128.6 -143.4c0 -26.5 -21.5 -48 -48 -48h-352c-26.5 0 -48 21.5 -48 48c0 127.9 110.2 142.6 128.6 143.4l95.4004 -79.4004zM208 -32v51.7002l-89.5996 74.5996c-2.30078 -0.399414 -86.4004 -10.7002 -86.4004 -110.3
c0 -8.7998 7.2002 -16 16 -16h160zM416 -16c0 99.5996 -84.0996 109.9 -86.4004 110.3l-89.5996 -74.5996v-51.7002h160c8.7998 0 16 7.2002 16 16zM13.2002 348c-17.6006 5.2002 -17.6006 34.7998 0 40l193.899 57.5c5.60059 1.7002 11.2002 2.5 16.9004 2.5
s11.2998 -0.799805 16.9004 -2.5l193.899 -57.5c17.6006 -5.2002 17.6006 -34.7998 0 -40l-77.5 -23c6.7002 -16.4004 10.7002 -34.2002 10.7002 -53c0 -79.5 -64.5 -144 -144 -144s-144 64.5 -144 144c0 18.7998 4 36.5996 10.7002 53l-46.7002 13.7998v-30.5
c7 -4.2002 12 -11.5 12 -20.2998c0 -8.40039 -4.59961 -15.4004 -11.0996 -19.7002l15.5996 -62.2998c1.7002 -6.90039 -2.09961 -14 -7.59961 -14h-41.8008c-5.5 0 -9.2998 7.09961 -7.59961 14l15.5996 62.4004c-6.5 4.2998 -11.0996 11.2998 -11.0996 19.6992
c0 8.80078 5 16.1006 12 20.3008v37.5996zM224 160c61.7998 0 112 50.2002 112 112c0 15.5996 -3.7002 30.2998 -9.59961 43.7998l-85.5 -25.3994c-6.60059 -2 -19 -4.40039 -33.8008 0l-85.5 25.3994c-5.89941 -13.5 -9.59961 -28.0996 -9.59961 -43.7998
c0 -61.7998 50.2002 -112 112 -112zM216.2 414.9l-158 -46.9004l158 -46.9004c8.2998 -2.39941 14.7998 -0.199219 15.5996 0l158 46.9004l-158 46.9004c-8.2998 2.39941 -14.7998 0.199219 -15.5996 0z" />
    <glyph glyph-name="user-minus" unicode="&#xf503;" 
d="M224 192c-70.7002 0 -128 57.2998 -128 128s57.2998 128 128 128s128 -57.2998 128 -128s-57.2998 -128 -128 -128zM224 416c-52.9004 0 -96 -43.0996 -96 -96s43.0996 -96 96 -96s96 43.0996 96 96s-43.0996 96 -96 96zM632 224c4.40039 0 8 -3.59961 8 -8v-16
c0 -4.40039 -3.59961 -8 -8 -8h-208c-4.40039 0 -8 3.59961 -8 8v16c0 4.40039 3.59961 8 8 8h208zM313.6 160c74.2002 0 134.4 -60.2002 134.4 -134.4v-41.5996c0 -26.5 -21.5 -48 -48 -48h-352c-26.5 0 -48 21.5 -48 48v41.5996c0 74.2002 60.2002 134.4 134.4 134.4
c28.7998 0 42.5 -16 89.5996 -16s60.9004 16 89.5996 16zM416 -16v41.5996c0 56.5 -45.9004 102.4 -102.4 102.4c-19.5996 0 -39.1992 -16 -89.5996 -16c-50.5 0 -70 16 -89.5996 16c-56.5 0 -102.4 -45.9004 -102.4 -102.4v-41.5996c0 -8.7998 7.2002 -16 16 -16h352
c8.7998 0 16 7.2002 16 16z" />
    <glyph glyph-name="user-ninja" unicode="&#xf504;" horiz-adv-x="448" 
d="M319.4 159.4c71.5 -3.10059 128.6 -61.6006 128.6 -133.801v-41.5996c0 -26.5 -21.5 -48 -48 -48h-352c-26.5 0 -48 21.5 -48 48v41.5996c0 72.2002 57.0996 130.7 128.6 133.801l95.4004 -79.4004zM208 -32v83.7002
c-6.40039 5.39941 0.299805 -0.200195 -89.5996 74.5996c-49.3008 -7.7002 -86.4004 -49.8994 -86.4004 -100.7v-41.5996c0 -8.7998 7.2002 -16 16 -16h160zM416 -16v41.5996c0 50.8008 -37.0996 93 -86.4004 100.7c-89.7998 -74.7998 -83.2998 -69.2998 -89.5996 -74.5996
v-83.7002h160c8.7998 0 16 7.2002 16 16zM32 256c0 33.4004 17.0996 62.7998 43.0996 80c-26 17.2002 -43.0996 46.5996 -43.0996 80c32 0 60.0996 -15.7998 77.5 -39.7998c20.9004 42.3994 64.0996 71.7998 114.5 71.7998c70.7002 0 128 -57.2998 128 -128
s-57.2998 -128 -128 -128c-58.7998 0 -107.7 39.7998 -122.8 93.7002c-17.4004 -18.2002 -41.9004 -29.7002 -69.2002 -29.7002zM224 416c-52.9004 0 -96 -43.0996 -96 -96s43.0996 -96 96 -96s96 43.0996 96 96s-43.0996 96 -96 96zM272 352c17.7002 0 32 -14.2998 32 -32
h-160c0 17.7002 14.2998 32 32 32h96z" />
    <glyph glyph-name="user-shield" unicode="&#xf505;" 
d="M622.3 176.9c10.7002 -4.2002 17.7002 -14 17.7002 -24.9004c0 -124.5 -81.5996 -193.9 -132.9 -213.9c-3.59961 -1.39941 -7.2998 -2.09961 -11.0996 -2.09961s-7.59961 0.700195 -11.0996 2.09961c-64.2002 25.1006 -132.9 102.301 -132.9 213.9
c0 10.9004 7 20.7002 17.7002 24.9004l115.2 45c3.59961 1.39941 7.2998 2.09961 11.0996 2.09961s7.59961 -0.700195 11.0996 -2.09961zM480 -24v209.6l-96 -37.5c1.40039 -84.5 47.7998 -145.3 96 -172.1zM496.6 -32.0996
c-0.0996094 0 -0.199219 0.0996094 -0.199219 0.0996094h0.5c-0.200195 0 -0.300781 -0.0996094 -0.300781 -0.0996094zM512 -24.5c38.9004 22.4004 94.5 77.7998 96 172.6l-96 37.5v-210.1zM48 -32h341.5c9.5 -10.4004 19.4004 -19.7998 29.7002 -28
c-5.90039 -2.5 -12.4004 -4 -19.2002 -4h-352c-26.5 0 -48 21.5 -48 48v41.5996c0 74.2002 60.2002 134.4 134.4 134.4c28.7998 0 42.5 -16 89.5996 -16s60.9004 16 89.5996 16c2.60059 0 5 -0.700195 7.5 -0.799805c-0.299805 -2.40039 -1.09961 -4.7002 -1.09961 -7.2002
c0 -8.5 0.400391 -16.7002 1.09961 -24.7998c-2.5 0.200195 -4.89941 0.799805 -7.5 0.799805c-19.5996 0 -39.1992 -16 -89.5996 -16c-50.5 0 -70 16 -89.5996 16c-56.5 0 -102.4 -45.9004 -102.4 -102.4v-41.5996c0 -8.7998 7.2002 -16 16 -16zM224 192
c-70.7002 0 -128 57.2998 -128 128s57.2998 128 128 128s128 -57.2998 128 -128s-57.2998 -128 -128 -128zM224 416c-52.9004 0 -96 -43.0996 -96 -96s43.0996 -96 96 -96s96 43.0996 96 96s-43.0996 96 -96 96z" />
    <glyph glyph-name="user-slash" unicode="&#xf506;" 
d="M637 -37.2002c3.40039 -2.7998 4 -7.7998 1.2002 -11.3994l-10 -12.5c-2.7002 -3.40039 -7.7998 -4 -11.2002 -1.2002l-614 483.5c-3.40039 2.7998 -4 7.7998 -1.2002 11.2998l10 12.5c2.7002 3.40039 7.7998 4 11.2002 1.2002zM320 416
c-43.9004 0 -80.5996 -29.7998 -92 -70.0996l-26.7998 21.0996c18.7998 47.4004 64.7998 81 118.8 81c70.7002 0 128 -57.2998 128 -128c0 -43.2002 -21.5996 -81.2998 -54.5 -104.4l-26.7998 21.1006c29.2998 16.3994 49.2998 47.3994 49.2998 83.2998
c0 52.9004 -43.0996 96 -96 96zM496 -32c1.40039 0 2.7002 0.5 3.90039 0.799805l27 -21.2002c-8.30078 -7.09961 -19 -11.5996 -30.9004 -11.5996h-352c-26.5 0 -48 21.5 -48 48v41.5996c0 74.2002 60.2002 134.4 134.4 134.4c9.09961 0 18.3994 -1.5 35.8994 -7.2002
l51.6006 -40.5996c-22.4004 0.299805 -44.5 4 -65.8008 11.3994c-8.69922 3 -15.5996 4.40039 -21.6992 4.40039c-56.5 0 -102.4 -45.9004 -102.4 -102.4v-41.5996c0 -8.7998 7.2002 -16 16 -16h352z" />
    <glyph glyph-name="user-tag" unicode="&#xf507;" 
d="M223.9 192c-70.6006 0 -127.9 57.2998 -127.9 128s57.2998 128 127.9 128c70.6992 0 128 -57.2998 128 -128s-57.3008 -128 -128 -128zM223.9 416c-52.9004 0 -95.9004 -43.0996 -96 -96c0 -52.9004 43.0996 -96 96 -96c52.8994 0 96 43.0996 96 96s-43.1006 96 -96 96z
M630.6 83.2002c12.5 -12.5 12.5 -32.7998 -0.0996094 -45.4004l-92.5 -92.5c-6.2002 -6.2998 -14.4004 -9.39941 -22.5996 -9.39941c-8.2002 0 -16.4004 3.19922 -22.6006 9.39941l-90.2002 90.2998c-12 12 -18.6992 28.3008 -18.6992 45.3008v79.2998
c0 17.7002 14.2998 32 32 32h79.2998c16.8994 0 33.2002 -6.7002 45.2002 -18.7002zM515.5 -32l92.5 92.5l-90.2002 90.2998c-6 6.10059 -14.0996 9.40039 -22.5996 9.40039h-79.2998v-79.2998c0 -8.5 3.39941 -16.6006 9.39941 -22.6006zM463.9 128
c8.7998 0 16 -7.2002 16 -16s-7.2002 -16 -16 -16c-8.80078 0 -16 7.2002 -16 16s7.19922 16 16 16zM399.9 -32c6.7998 0 12.5 4.2998 14.8994 10.2998l23.2002 -23.2002c-8.7998 -11.5 -22.5 -19.0996 -38.0996 -19.0996h-351.9c-26.5 0 -48 21.5 -48 48v41.5996
c0 74.2002 60.2002 134.4 134.4 134.4c28.7998 0 42.5 -16 89.5996 -16s60.9004 16 89.5996 16c13.4004 0 26.2002 -2.5 38.4004 -6.2002v-33.3994c-11.9004 4.7998 -24.7998 7.59961 -38.4004 7.59961c-19.5996 0 -39.2998 -16 -89.5996 -16c-50.5 0 -70 16 -89.5996 16
c-56.5 0 -102.4 -45.9004 -102.4 -102.4v-41.5996c0 -8.7998 7.2002 -16 16 -16h351.9z" />
    <glyph glyph-name="user-tie" unicode="&#xf508;" horiz-adv-x="448" 
d="M224 192c-70.7002 0 -128 57.2998 -128 128s57.2998 128 128 128s128 -57.2998 128 -128s-57.2998 -128 -128 -128zM224 416c-52.9004 0 -96 -43.0996 -96 -96s43.0996 -96 96 -96s96 43.0996 96 96s-43.0996 96 -96 96zM315.9 143.8
c73.1992 -1.2998 132.1 -60.7998 132.1 -134.2v-25.5996c0 -26.5 -21.5 -48 -48 -48h-352c-26.5 0 -48 21.5 -48 48v25.5996c0 73.4004 58.9004 132.9 132.1 134.101l39.7002 -137.7l33.9004 101.7l-25 25c-10.1006 10.0996 -3 27.2998 11.2998 27.2998h64
c14.2002 0 21.4004 -17.2002 11.2998 -27.2998l-25 -25l33.9004 -101.7zM48 -32h101.5l-40.5996 140.5c-44.1006 -11.4004 -76.9004 -51.7002 -76.9004 -98.9004v-25.5996c0 -8.7998 7.2002 -16 16 -16zM192.9 -32h62.1992l-31.0996 93.4004zM416 -16h-0.0996094v25.5996
c0 47.2002 -32.8008 87.5 -76.9004 98.9004l-40.5 -140.5h101.5c8.7998 0 16 7.2002 16 16z" />
    <glyph glyph-name="users-cog" unicode="&#xf509;" 
d="M287.4 197.4c-45.8008 14 -79.4004 56.1992 -79.4004 106.6c0 61.9004 50.0996 112 112 112c50.4004 0 92.5996 -33.5996 106.6 -79.4004c-10.3994 -2.7998 -20.3994 -6.5 -30 -10.8994c-9.59961 33.5996 -40.0996 58.3994 -76.6992 58.3994
c-44.1006 0 -80 -35.8994 -80 -80c0 -36.5996 24.7998 -67.1992 58.3994 -76.6992c-4.39941 -9.60059 -8 -19.6006 -10.8994 -30zM96 224c-44.2002 0 -80 35.7998 -80 80s35.7998 80 80 80s80 -35.7998 80 -80s-35.7998 -80 -80 -80zM96 352c-26.5 0 -48 -21.5 -48 -48
s21.5 -48 48 -48s48 21.5 48 48s-21.5 48 -48 48zM157.1 179.1c-9.2998 -6.39941 -17.8994 -13.8994 -25.3994 -22.3994c-4.90039 2.09961 -10.2002 3.2998 -15.7002 3.2998h-40c-24.2002 0 -44 -21.5 -44 -48c0 -8.7998 -7.2002 -16 -16 -16s-16 7.2002 -16 16
c0 44.0996 34.0996 80 76 80h40c15.0996 0 29.2002 -4.7998 41.0996 -12.9004zM176 0h165.4c12.8994 -12.5 27.5 -23.4004 43.5 -32h-209c-26.5 0 -48 21.5 -48 48v44.7998c0 23.7998 7.19922 45.9004 19.5996 64.2998c20.7002 30.7002 56 46.9004 92.2998 46.9004
c14.9004 0 25 -2.2998 41.2998 -6.59961c-2 -19.2002 -0.799805 -28.8008 -0.599609 -32.6006c-21.9004 4.7998 -26.4004 7.2002 -40.7002 7.2002c-27.2998 0 -51.8994 -12.2998 -65.7002 -32.7998c-9.19922 -13.7002 -14.0996 -29.7998 -14.0996 -46.4004v-44.7998
c0 -8.7998 7.2002 -16 16 -16zM480 208.5c35.5996 0 64.5 -29 64.5 -64.5s-28.9004 -64.5 -64.5 -64.5s-64.5 29 -64.5 64.5s28.9004 64.5 64.5 64.5zM480 111.5c17.9004 0 32.5 14.5996 32.5 32.5s-14.5996 32.5 -32.5 32.5s-32.5 -14.5996 -32.5 -32.5
s14.5996 -32.5 32.5 -32.5zM628.3 121.7c9.40039 -5.40039 13.9004 -16.9004 10.5 -27.2998c-7.2998 -23.3008 -19.8994 -45.3008 -36.7002 -63.4004c-7.39941 -8 -19.2998 -9.7998 -28.6992 -4.40039l-16.5 9.5c-7 -5 -14.4004 -9.2998 -22.2002 -12.7998v-19
c0 -10.8994 -7.5 -20.2998 -18.2002 -22.7002c-11.9004 -2.69922 -24.2998 -4 -36.5996 -4c-12.3008 0 -24.6006 1.30078 -36.6006 4c-10.7002 2.40039 -18.2002 11.7002 -18.2002 22.7002v19c-7.7998 3.5 -15.1992 7.7998 -22.1992 12.7998l-16.5 -9.5
c-9.60059 -5.39941 -21.4004 -3.59961 -28.8008 4.40039c-16.7998 18.0996 -29.3994 40.0996 -36.6992 63.5c-3.30078 10.2002 1.19922 21.7002 10.5 27.0996l16.5996 9.5c-0.799805 8.5 -0.799805 17.1006 0 25.6006l-16.5 9.5
c-9.40039 5.39941 -13.9004 16.7998 -10.5996 27.2002c7.2998 23.2998 19.8994 45.2998 36.6992 63.3994c7.40039 8.10059 19.2002 9.90039 28.7002 4.40039l16.5 -9.5c6.90039 5 14.4004 9.2998 22.2002 12.7998v19c0 10.9004 7.5 20.2998 18.2002 22.7002
c24 5.39941 49.3994 5.39941 73.2998 0c10.7002 -2.40039 18.2002 -11.7002 18.2002 -22.7002v-19c7.7998 -3.5 15.2002 -7.7998 22.2002 -12.7998l16.5 9.5c9.5 5.5 21.3994 3.7002 28.7998 -4.40039c16.7998 -18.0996 29.5 -40.0996 36.7002 -63.5
c3.2998 -10.2998 -1 -21.5 -10.5 -27l-16.6006 -9.5c0.799805 -8.5 0.799805 -17.0996 0 -25.5996zM576.7 114.5c5.2002 28.4004 4.89941 32.2002 0 59l29.3994 17c-5.19922 14.2998 -13 27.7002 -22.7998 39.5l-29.3994 -17c-20.9004 17.9004 -24.3008 20 -51.1006 29.5v34
c-14.8994 2.5 -30.5 2.5 -45.5996 0v-34c-26.6006 -9.40039 -29.7002 -11.2002 -51.1006 -29.5l-29.3994 17c-9.7998 -11.7998 -17.6006 -25.2002 -22.7998 -39.5l29.3994 -17c-5.2002 -28.4004 -4.89941 -32.2002 0 -59l-29.3994 -17
c5.19922 -14.2998 13 -27.7002 22.7998 -39.5l29.3994 17c20.9004 -17.7998 24.2002 -20 51.1006 -29.5v-34c15 -2.59961 30.5 -2.59961 45.5996 0v34c26.6006 9.40039 29.7002 11.2002 51.1006 29.5l29.3994 -17c9.7998 11.7002 17.5 25.2002 22.7998 39.5z" />
  </font>
</defs>
</svg>
