<?xml version="1.0" standalone="no"?>
<!DOCTYPE svg PUBLIC "-//W3C//DTD SVG 1.1//EN" "http://www.w3.org/Graphics/SVG/1.1/DTD/svg11.dtd" >
<svg xmlns="http://www.w3.org/2000/svg" xmlns:xlink="http://www.w3.org/1999/xlink" version="1.1">
<metadata>
Created by FontForge 20201107 at Tue Mar 16 10:16:59 2021
 By Robert Madole
Copyright (c) Font Awesome
</metadata>
<!-- Font Awesome Pro 5.15.3 by @fontawesome - https://fontawesome.com License - https://fontawesome.com/license (Commercial License) --><defs>
<font id="FontAwesome5Pro-Light" horiz-adv-x="496" >
  <font-face 
    font-family="Font Awesome 5 Pro Light"
    font-weight="300"
    font-stretch="normal"
    units-per-em="512"
    panose-1="2 0 3 3 0 0 0 0 0 0"
    ascent="448"
    descent="-64"
    bbox="-0.0502036 -64.0215 640.003 448.014"
    underline-thickness="25"
    underline-position="-50"
    unicode-range="U+0020-F8FF"
  />
    <missing-glyph />
    <glyph glyph-name="times" unicode="&#xf00d;" horiz-adv-x="320" 
d="M193.94 192l123.71 -123.71c3.11914 -3.12012 3.11914 -8.19043 0 -11.3096l-22.6309 -22.6309c-3.11914 -3.11914 -8.18945 -3.11914 -11.3096 0l-21.1504 21.1504l-102.56 102.56l-123.72 -123.71c-3.12012 -3.11914 -8.19043 -3.11914 -11.3105 0l-22.6299 22.6309
c-3.12012 3.11914 -3.12012 8.18945 0 11.3096l123.72 123.71l-123.72 123.72c-3.12012 3.12012 -3.12012 8.19043 0 11.3105l22.6406 22.6299c3.11914 3.12012 8.18945 3.12012 11.3096 0l123.71 -123.72l123.71 123.71c3.12012 3.11914 8.19043 3.11914 11.3096 0
l22.6309 -22.6309c3.11914 -3.11914 3.11914 -8.18945 0 -11.3096l-21.1504 -21.1504z" />
    <glyph glyph-name="step-backward" unicode="&#xf048;" horiz-adv-x="448" 
d="M76 -31c-6.59961 0 -12 5.40039 -12 12v424c0 6.59961 5.40039 12 12 12h8c6.59961 0 12 -5.40039 12 -12v-191.4c1.09961 1.2002 2.2002 2.30078 3.5 3.40039l232 192.6c20.5996 17.2002 52.5 2.80078 52.5 -24.5996v-383.9
c0 -27.3994 -31.9004 -41.7998 -52.5 -24.5996l-232 191.4c-1.2998 1 -2.40039 2.19922 -3.5 3.39941v-190.3c0 -6.59961 -5.40039 -12 -12 -12h-8zM116.5 192.4l235.2 -191.2l0.200195 -0.100586l0.0996094 -0.0996094v384l-0.0996094 -0.0996094l-0.100586 -0.100586z" />
    <glyph glyph-name="step-forward" unicode="&#xf051;" horiz-adv-x="448" 
d="M372 417c6.59961 0 12 -5.40039 12 -12v-424c0 -6.59961 -5.40039 -12 -12 -12h-8c-6.59961 0 -12 5.40039 -12 12v191.4c-1.09961 -1.2002 -2.2002 -2.30078 -3.5 -3.40039l-232 -192.6c-20.5996 -17.2002 -52.5 -2.80078 -52.5 24.5996v384
c0 27.4004 31.9004 41.7002 52.5 24.5l232 -191.4c1.2998 -1 2.40039 -2.19922 3.5 -3.39941v190.3c0 6.59961 5.40039 12 12 12h8zM331.5 193.6l-235.2 191.2l-0.200195 0.100586l-0.0996094 0.0996094v-384l0.0996094 0.0996094l0.100586 0.100586z" />
    <glyph glyph-name="globe" unicode="&#xf0ac;" 
d="M248 440c137 0 248 -111 248 -248s-111 -248 -248 -248s-248 111 -248 248s111 248 248 248zM441.2 288c-25.5 51.2002 -70.7002 90.9004 -125.7 109.1c19.0996 -26.8994 34.2002 -64.6992 43.2002 -109.1h82.5zM336 192c0 22.9004 -1.59961 44.2002 -4.2998 64h-167.4
c-2.7002 -19.7998 -4.2998 -41.0996 -4.2998 -64s1.59961 -44.2002 4.2998 -64h167.4c2.7002 19.7998 4.2998 41.0996 4.2998 64zM248 408c-26.9004 0 -61.4004 -44.0996 -78.0996 -120h156.199c-16.6992 75.9004 -51.1992 120 -78.0996 120zM180.5 397.1
c-55 -18.1992 -100.2 -57.8994 -125.7 -109.1h82.5c9 44.5 24.2002 82.2998 43.2002 109.1zM32 192c0 -22.2998 3.40039 -43.7998 9.7002 -64h90.5c-2.7002 20.5 -4.2002 41.7998 -4.2002 64s1.59961 43.5 4.2002 64h-90.5c-6.2998 -20.2002 -9.7002 -41.7002 -9.7002 -64z
M54.7998 96c25.5 -51.2002 70.7002 -90.9004 125.7 -109.1c-19.0996 26.8994 -34.2002 64.6992 -43.2002 109.1h-82.5zM248 -24c26.9004 0 61.4004 44.0996 78.0996 120h-156.199c16.6992 -75.9004 51.1992 -120 78.0996 -120zM315.5 -13.0996
c55 18.1992 100.2 57.8994 125.7 109.1h-82.5c-9 -44.5 -24.2002 -82.2998 -43.2002 -109.1zM363.8 128h90.5c6.2998 20.2002 9.7002 41.7002 9.7002 64s-3.40039 43.7998 -9.7002 64h-90.5c2.7002 -20.5 4.2002 -41.7998 4.2002 -64s-1.59961 -43.5 -4.2002 -64z" />
    <glyph glyph-name="filter" unicode="&#xf0b0;" horiz-adv-x="512" 
d="M479.968 448c28.4824 0 42.7275 -34.5283 22.627 -54.627l-182.595 -182.628v-242.729c0 -27.7617 -32.6338 -41.9648 -53.0723 -24.082l-64 55.9834c-6.70508 5.86719 -10.9277 14.4805 -10.9277 24.082v186.745l-182.59 182.628
c-20.1387 20.1396 -5.79688 54.627 22.6279 54.627h447.93zM288 224l192 192h-448l192 -192v-200l64 -56v256z" />
    <glyph glyph-name="smile" unicode="&#xf118;" 
d="M248 440c137 0 248 -111 248 -248s-111 -248 -248 -248s-248 111 -248 248s111 248 248 248zM248 -24c119.1 0 216 96.9004 216 216s-96.9004 216 -216 216s-216 -96.9004 -216 -216s96.9004 -216 216 -216zM338.2 122.2c5.7002 6.7998 15.7998 7.7002 22.5996 2.09961
c6.7998 -5.59961 7.7002 -15.7002 2 -22.5c-28.5 -34.2002 -70.3994 -53.7998 -114.8 -53.7998s-86.2998 19.5996 -114.7 53.7002c-5.7002 6.7998 -4.7998 16.7998 2 22.5c6.7002 5.7002 16.7998 4.7998 22.5 -2c22.4004 -26.7998 55.2998 -42.2002 90.2002 -42.2002
s67.7998 15.4004 90.2002 42.2002zM168 208c-17.7002 0 -32 14.2998 -32 32s14.2998 32 32 32s32 -14.2998 32 -32s-14.2998 -32 -32 -32zM328 208c-17.7002 0 -32 14.2998 -32 32s14.2998 32 32 32s32 -14.2998 32 -32s-14.2998 -32 -32 -32z" />
    <glyph glyph-name="frown" unicode="&#xf119;" 
d="M248 440c137 0 248 -111 248 -248s-111 -248 -248 -248s-248 111 -248 248s111 248 248 248zM248 -24c119.1 0 216 96.9004 216 216s-96.9004 216 -216 216s-216 -96.9004 -216 -216s96.9004 -216 216 -216zM248 128c44.4004 0 86.2002 -19.5996 114.6 -53.7998
c5.7002 -6.7002 4.80078 -16.7998 -2 -22.5c-7.09961 -6 -17.1992 -4.40039 -22.5 2c-22.3994 26.7998 -55.2998 42.2002 -90.1992 42.2002c-34.9004 0 -67.8008 -15.4004 -90.2002 -42.2002c-5.60059 -6.7998 -15.7002 -7.7002 -22.5 -2
c-6.7998 5.59961 -7.7002 15.7002 -2 22.5c28.5996 34.2002 70.3994 53.7998 114.8 53.7998zM168 208c-17.7002 0 -32 14.2998 -32 32s14.2998 32 32 32s32 -14.2998 32 -32s-14.2998 -32 -32 -32zM328 208c-17.7002 0 -32 14.2998 -32 32s14.2998 32 32 32
s32 -14.2998 32 -32s-14.2998 -32 -32 -32z" />
    <glyph glyph-name="meh" unicode="&#xf11a;" 
d="M248 440c137 0 248 -111 248 -248s-111 -248 -248 -248s-248 111 -248 248s111 248 248 248zM248 -24c119.1 0 216 96.9004 216 216s-96.9004 216 -216 216s-216 -96.9004 -216 -216s96.9004 -216 216 -216zM168 208c-17.7002 0 -32 14.2998 -32 32s14.2998 32 32 32
s32 -14.2998 32 -32s-14.2998 -32 -32 -32zM328 272c17.7002 0 32 -14.2998 32 -32s-14.2998 -32 -32 -32s-32 14.2998 -32 32s14.2998 32 32 32zM344 112c8.7998 0 16 -7.2002 16 -16s-7.2002 -16 -16 -16h-192c-8.7998 0 -16 7.2002 -16 16s7.2002 16 16 16h192z" />
    <glyph glyph-name="level-up" unicode="&#xf148;" horiz-adv-x="256" 
d="M252.478 344.503c4.69629 -4.69727 4.69629 -12.3105 -0.000976562 -17.0068l-8.50293 -8.50293c-4.69531 -4.69727 -12.3096 -4.69727 -17.0068 0l-64.9668 64.9658v-423.959c0 -13.2549 -10.7451 -24 -24 -24h-125.976c-10.6914 0 -16.0459 12.9258 -8.48535 20.4854
l12 12c2.17188 2.17188 5.17383 3.51465 8.48535 3.51465h101.976v411.959l-64.9678 -64.9668c-4.69629 -4.69727 -12.3105 -4.69727 -17.0068 0l-8.50293 8.50293c-4.69629 4.69727 -4.69629 12.3105 0 17.0078l99.9736 99.9746c4.69727 4.69727 12.3105 4.69727 17.0078 0
z" />
    <glyph glyph-name="compass" unicode="&#xf14e;" 
d="M264.97 175.03c-9.37012 -9.37012 -24.5693 -9.37012 -33.9395 0c-9.37988 9.37012 -9.37988 24.5693 0 33.9395c9.37012 9.37012 24.5693 9.37012 33.9395 0c9.37988 -9.37012 9.37988 -24.5693 0 -33.9395zM351.44 323c16.0693 0 32.04 -18.6104 26.3994 -34.2803
l-55.8496 -154.899c-2.7002 -7.49023 -8.31055 -13.1006 -15.7998 -15.8008l-154.9 -55.8496c-2.2002 -0.790039 -4.4502 -1.16016 -6.70996 -1.16016c-16.0703 0 -32.0498 18.6006 -26.4004 34.2705l55.8506 154.91c2.7002 7.48926 8.30957 13.0996 15.7998 15.7998
l154.9 55.8496c2.19922 0.790039 4.44922 1.16016 6.70996 1.16016zM292.79 147.21l50.5195 140.11l-140.109 -50.5107l-50.5098 -140.109zM248 440c136.97 0 248 -111.03 248 -248s-111.03 -248 -248 -248s-248 111.03 -248 248s111.03 248 248 248zM248 -24
c119.1 0 216 96.9004 216 216s-96.9004 216 -216 216s-216 -96.9004 -216 -216s96.9004 -216 216 -216z" />
    <glyph glyph-name="dollar-sign" unicode="&#xf155;" horiz-adv-x="256" 
d="M191.9 188.7c37.6992 -11.9004 64.0996 -49.9004 64.0996 -92.4004c0 -53.0996 -39.9004 -96.2998 -89 -96.2998h-23v-56c0 -4.40039 -3.59961 -8 -8 -8h-16c-4.40039 0 -8 3.59961 -8 8v56h-18.7002c-30.5996 0 -60.5 12.5 -83.2998 34.5
c-3.2998 3.09961 -3 8.5 0.299805 11.5l11.7998 10.7998c3.2002 2.90039 7.90039 2.60059 11 -0.299805c16.8008 -15.9004 37.9004 -24.5 60.1006 -24.5h73.7998c31.4004 0 57 28.9004 57 64.2998c0 28.7002 -17.0996 54.2002 -41.7002 61.9004l-118.2 37.0996
c-37.6992 11.7998 -64.0996 49.7998 -64.0996 92.4004c0 53.0996 39.9004 96.2998 89 96.2998h23v56c0 4.40039 3.59961 8 8 8h16c4.40039 0 8 -3.59961 8 -8v-55.9004h18.9004c30.5996 0 60.5 -12.5 83.2998 -34.5c3.2002 -3.19922 3 -8.5 -0.400391 -11.5996
l-11.8994 -10.7998c-3.2002 -2.90039 -7.90039 -2.60059 -11 0.299805c-16.8008 15.9004 -37.9004 24.5 -60.1006 24.5h-73.7998c-31.4004 0 -57 -28.7998 -57 -64.2998c0 -28.7002 17.2002 -54.2002 41.7002 -61.9004z" />
    <glyph glyph-name="moon" unicode="&#xf186;" horiz-adv-x="512" 
d="M448.964 82.3828c29.127 5.54883 49.6787 -28.3799 30.833 -51.5996c-47.7705 -58.8594 -119.919 -94.7832 -198.85 -94.7832c-141.453 0 -256 114.666 -256 256c0 141.454 114.666 256 256 256c16.0391 -0.00292969 31.5186 -1.46875 46.752 -4.27734
c29.3477 -5.4209 35.8447 -44.5801 10.0146 -59.2793c-51.0127 -29.0303 -82.5742 -82.9697 -82.5742 -141.862c0 -102.346 93.0488 -179.39 193.824 -160.198zM280.947 -32c70.249 0 132.934 32.3467 174.003 82.9492c-120.197 -22.8916 -231.811 69.0254 -231.811 191.632
c0 72.7051 39.7754 136.114 98.7471 169.674c-13.2744 2.45117 -26.9561 3.74512 -40.9395 3.74512c-123.712 0 -224 -100.288 -224 -224s100.288 -224 224 -224z" />
    <glyph glyph-name="university" unicode="&#xf19c;" horiz-adv-x="512" 
d="M496 0c8.83691 0 16 -7.16309 16 -16v-8c0 -4.41504 -3.58496 -8 -8 -8h-496c-4.41504 0 -8 3.58496 -8 8v8c0 8.83691 7.16309 16 16 16h16v40c0 13.2549 10.7451 24 24 24h40v176h32v-176h64v176h32v-176h64v176h32v-176h64v176h32v-176h40
c13.2549 0 24 -10.7451 24 -24v-40h16zM64 32v-32h384v32h-384zM504.267 312c4.65625 -1.77148 7.7334 -6.23438 7.7334 -11.2158v-8.78418c0 -6.62695 -5.37305 -12 -12 -12h-20v-12c0 -6.62695 -5.37305 -12 -12 -12h-424c-6.62695 0 -12 5.37305 -12 12v12h-20
c-6.62695 0 -12 5.37305 -12 12v8.78418c0 5.12207 3.21094 9.49609 7.7334 11.2158l233.088 101.537c4.76855 1.58984 9.88574 2.4502 15.1865 2.4502s10.4023 -0.860352 15.1709 -2.4502zM448 288v13.6064l-187.943 81.8701
c-1.29688 0.34082 -2.64746 0.521484 -4.05078 0.521484s-2.76562 -0.180664 -4.0625 -0.521484l-187.943 -81.8701v-13.6064h384z" />
    <glyph glyph-name="wifi" unicode="&#xf1eb;" horiz-adv-x="640" 
d="M320 128c44.1797 0 80 -35.8203 80 -80c0 -44.1602 -35.8096 -80 -80 -80c-44.1699 0 -80 35.8096 -80 80c0 44.1797 35.8203 80 80 80zM320 0c26.4697 0 48 21.5303 48 48s-21.5303 48 -48 48s-48 -21.5303 -48 -48s21.5303 -48 48 -48zM636.21 290.05
c4.94043 -4.68945 5.08008 -12.5098 0.270508 -17.3193l-5.69043 -5.69043c-4.61035 -4.59961 -12.0703 -4.73047 -16.7998 -0.25c-164.33 155.76 -422.98 156.39 -587.971 0c-4.72949 -4.49023 -12.1895 -4.36035 -16.7998 0.25l-5.68945 5.69043
c-4.82031 4.80957 -4.68066 12.6299 0.259766 17.3193c177.16 168.01 455.43 167.851 632.42 0zM526.02 177.69c5.05078 -4.5 5.32031 -12.3105 0.670898 -17.2002l-5.53027 -5.79004c-4.46973 -4.68066 -11.8301 -4.95996 -16.6602 -0.669922
c-104.98 93.21 -263.81 93.3799 -368.98 0c-4.83984 -4.29004 -12.1992 -4 -16.6592 0.669922l-5.53027 5.79004c-4.66992 4.88965 -4.40039 12.7002 0.650391 17.2002c117.18 104.34 294.699 104.479 412.039 0z" />
    <glyph glyph-name="ship" unicode="&#xf21a;" horiz-adv-x="640" 
d="M480 81.9229c0 -39.1367 54.377 -113.923 148 -113.923c6.62695 0 12 -5.37305 12 -12v-8c0 -6.62695 -5.37305 -12 -12 -12c-65.1777 0 -117.122 28.7266 -150.756 73.1484c-10.2803 -41.9385 -48.1826 -73.1484 -93.2441 -73.1484h-128
c-45.0615 0 -82.9639 31.21 -93.2441 73.1484c-33.4395 -44.1641 -85.2666 -73.1484 -150.756 -73.1484c-6.62695 0 -12 5.37305 -12 12v8c0 6.62695 5.37305 12 12 12c97.0479 0 148 77.833 148 113.923l-85.623 78.4883c-16.8047 15.4043 -12.916 43.6016 9.56836 53.2383
l76.0547 32.5947v121.756c0 8.83691 7.16309 16 16 16h48v40c0 13.2549 10.7451 24 24 24h144c13.2549 0 24 -10.7451 24 -24v-40h48c8.83691 0 16 -7.16309 16 -16v-121.756l76.6055 -32.832c20.917 -8.96387 26.6396 -36.8486 8.57617 -53.4062zM256 416v-32h128v32h-128z
M192 352v-92.042l115.394 49.4551c3.86328 1.65527 8.16309 2.57227 12.6289 2.57227s8.71973 -0.916992 12.583 -2.57227l115.395 -49.4551v92.042h-256zM448 96l96 88l-224 96l-224 -96l96 -88v-64c0 -35.3457 28.6543 -64 64 -64h128c35.3457 0 64 28.6543 64 64v64z" />
    <glyph glyph-name="venus" unicode="&#xf221;" horiz-adv-x="288" 
d="M288 272c0 -74.0996 -56 -135.2 -128 -143.1v-64.9004h52c6.59961 0 12 -5.40039 12 -12v-8c0 -6.59961 -5.40039 -12 -12 -12h-52v-52c0 -6.59961 -5.40039 -12 -12 -12h-8c-6.59961 0 -12 5.40039 -12 12v52h-52c-6.59961 0 -12 5.40039 -12 12v8
c0 6.59961 5.40039 12 12 12h52v64.9004c-72 7.89941 -128 69 -128 143.1c0 79.5 64.5 144 144 144s144 -64.5 144 -144zM32 272c0 -62 50.0996 -112 112 -112c62 0 112 50.0996 112 112c0 62 -50.0996 112 -112 112c-62 0 -112 -50.0996 -112 -112z" />
    <glyph glyph-name="genderless" unicode="&#xf22d;" horiz-adv-x="288" 
d="M144 304c-62 0 -112 -50.0996 -112 -112c0 -62 50.0996 -112 112 -112c62 0 112 50.0996 112 112c0 62 -50.0996 112 -112 112zM144 336c79.5 0 144 -64.5 144 -144s-64.5 -144 -144 -144s-144 64.5 -144 144s64.5 144 144 144z" />
    <glyph glyph-name="user-circle" unicode="&#xf2bd;" 
d="M248 440c137 0 248 -111 248 -248s-111 -248 -248 -248s-248 111 -248 248s111 248 248 248zM376 18.4004v13.5996c0 35.2998 -28.7002 64 -64 64c-11.2002 0 -27.4004 -11.4004 -64 -11.4004c-36.5 0 -52.9004 11.4004 -64 11.4004c-35.2998 0 -64 -28.7002 -64 -64
v-13.5996c35.9004 -26.5 80.0996 -42.4004 128 -42.4004s92.0996 15.9004 128 42.4004zM406.6 45.9004c35.5 38.5 57.4004 89.6992 57.4004 146.1c0 119.1 -96.9004 216 -216 216s-216 -96.9004 -216 -216c0 -56.4004 21.9004 -107.6 57.4004 -146.1
c6.7998 46.3994 46.2998 82.0996 94.5996 82.0996c20.5996 0 30.4004 -11.4004 64 -11.4004s43.5 11.4004 64 11.4004c48.2998 0 87.7998 -35.7002 94.5996 -82.0996zM248 328c48.5996 0 88 -39.4004 88 -88s-39.4004 -88 -88 -88s-88 39.4004 -88 88s39.4004 88 88 88z
M248 184c30.9004 0 56 25.0996 56 56s-25.0996 56 -56 56s-56 -25.0996 -56 -56s25.0996 -56 56 -56z" />
    <glyph glyph-name="usd-circle" unicode="&#xf2e8;" 
d="M248 440c137 0 248 -111 248 -248s-111 -248 -248 -248s-248 111 -248 248s111 248 248 248zM248 -24c119.1 0 216 96.9004 216 216s-96.9004 216 -216 216s-216 -96.9004 -216 -216s96.9004 -216 216 -216zM288.3 197.3c25.9004 -7.2998 43.9004 -30.8994 44 -57.5
c0 -33 -27.2002 -59.7998 -60.5 -59.7998h-7.7998v-40c0 -4.40039 -3.59961 -8 -8 -8h-16c-4.40039 0 -8 3.59961 -8 8v40h-5.2002c-19 0 -37 6.2998 -51.5996 17.9004c-3.7998 3 -4.2002 8.59961 -0.799805 12l11.2998 11.5c2.7998 2.7998 7.2002 3.19922 10.3994 0.799805
c8.7002 -6.5 19.4004 -10.1006 30.6006 -10.1006h45c15.7002 0 28.5 12.5 28.5 27.8008c0 12.2998 -8.5 23.2998 -20.6006 26.6992l-72 20.2002c-25.7998 7.2998 -43.8994 30.9004 -43.8994 57.5c0 33 27.2002 59.7998 60.5 59.7998h7.7998v40c0 4.40039 3.59961 8 8 8h16
c4.40039 0 8 -3.59961 8 -8v-40h5.09961c19 0 37 -6.2998 51.6006 -17.8994c3.7998 -3 4.2002 -8.60059 0.799805 -12l-11.2998 -11.5c-2.7998 -2.7998 -7.2002 -3.2002 -10.4004 -0.799805c-8.7002 6.5 -19.3994 10.0996 -30.5996 10.0996h-45
c-15.7002 0 -28.5 -12.5 -28.5 -27.7998c0 -12.2998 8.5 -23.2998 20.5996 -26.7002z" />
    <glyph glyph-name="scrubber" unicode="&#xf2f8;" 
d="M248 408c-119.4 0 -216 -96.7002 -216 -216c0 -119.4 96.7002 -216 216 -216c119.4 0 216 96.7002 216 216c0 119.4 -96.7002 216 -216 216zM248 440c137 0 248 -111 248 -248s-111 -248 -248 -248s-248 111 -248 248s111 248 248 248zM248 224
c-17.5996 0 -32 -14.4004 -32 -32s14.4004 -32 32 -32s32 14.4004 32 32s-14.4004 32 -32 32zM248 256c35.2998 0 64 -28.7002 64 -64s-28.7002 -64 -64 -64s-64 28.7002 -64 64s28.7002 64 64 64z" />
    <glyph glyph-name="arrow-alt-down" unicode="&#xf354;" horiz-adv-x="448" 
d="M267.427 384h-86.8535c-11.3623 0 -20.5732 -9.21094 -20.5732 -20.5723v-171.437h-116.98c-7.12305 0 -10.6943 -8.6123 -5.65918 -13.6533l172.084 -172.303c8.03613 -8.04688 21.0752 -8.0459 29.1113 0l172.083 172.303
c5.03516 5.04102 1.46484 13.6533 -5.66016 13.6533h-116.979v171.437c0 11.3613 -9.21094 20.5723 -20.5732 20.5723zM267.427 416c28.9893 0 52.5732 -23.584 52.5732 -52.5723v-139.437h84.9785c35.6533 0 53.3936 -43.1445 28.3027 -68.2666l-172.083 -172.303
c-20.5547 -20.5801 -53.8467 -20.5762 -74.3965 0l-172.083 172.303c-25.1943 25.2266 -7.20508 68.2666 28.3027 68.2666h84.9785v139.437c0 28.9883 23.584 52.5723 52.5723 52.5723h86.8545z" />
    <glyph glyph-name="arrow-alt-up" unicode="&#xf357;" horiz-adv-x="448" 
d="M180.573 0h86.8535c11.3623 0 20.5732 9.20996 20.5732 20.5723v171.437h116.98c7.12305 0 10.6943 8.6123 5.65918 13.6533l-172.084 172.303c-8.03613 8.04688 -21.0752 8.0459 -29.1113 0l-172.083 -172.303c-5.03516 -5.04102 -1.46484 -13.6533 5.66016 -13.6533
h116.979v-171.437c0 -11.3613 9.21094 -20.5723 20.5732 -20.5723zM180.573 -32c-28.9893 0 -52.5732 23.584 -52.5732 52.5732v139.437h-84.9785c-35.6533 0 -53.3936 43.1445 -28.3027 68.2666l172.083 172.302c20.5547 20.5801 53.8467 20.5762 74.3965 0
l172.083 -172.303c25.1943 -25.2266 7.20508 -68.2666 -28.3027 -68.2666h-84.9785v-139.437c0 -28.9883 -23.584 -52.5723 -52.5723 -52.5723h-86.8545z" />
    <glyph glyph-name="baseball-ball" unicode="&#xf433;" 
d="M248 440c136.8 0 248 -111.2 248 -248s-111.2 -248 -248 -248s-248 111.2 -248 248s111.2 248 248 248zM103.5 31.9004c75 -67.8008 199.3 -81.1006 289.3 0.399414c-16.7998 17.2998 -30.5996 37 -41.2998 58.9004l26.7998 13.0996
c9.10059 -18.7002 21.7002 -35 36 -49.8994c54.5 65.5 78 182.199 -0.0996094 275.899c-14.2998 -15 -26.9004 -31.2998 -36 -50l-26.7998 13c10.5996 21.9004 24.5 41.6006 41.1992 59c-85.8994 77.5 -209.899 71.2998 -289 -0.0996094
c16.7002 -17.4004 30.6006 -37.1006 41.2002 -58.9004l-26.7998 -13.0996c-9.2002 18.5996 -21.7998 34.8994 -36 49.7998c-45.2998 -54.5 -85.5996 -173.2 0 -276c14.2002 14.9004 26.9004 31.2002 36 50l26.7998 -13
c-10.7002 -21.9004 -24.5996 -41.7002 -41.2998 -59.0996zM156.7 120.5l-28.2998 9.2002c12.1992 37.5 14 81.5 -0.100586 124.7l28.2998 9.19922c16.3008 -50 14 -100.399 0.100586 -143.1zM367.7 129.7l-28.2998 -9.2002c-16.3008 50 -14 100.5 -0.100586 143.1
l28.2998 -9.19922c-12.1992 -37.6006 -13.8994 -81.6006 0.100586 -124.7z" />
    <glyph glyph-name="basketball-ball" unicode="&#xf434;" 
d="M423.4 367.4c96.7998 -96.7002 96.7998 -254.101 0 -350.9c-96.7002 -96.7002 -254.101 -96.7998 -350.9 0c-96.7002 96.7002 -96.7002 254.2 0 350.9c96.7002 96.6992 254.2 96.6992 350.9 0zM241.2 -23.7002c7.59961 50.6006 29.7002 98 63.5996 136.3
l-56.7998 56.8008l-140.9 -141c38.5 -33.2002 86.1006 -50.6006 134.101 -52.1006zM327.9 89.5c-27.6006 -31.7998 -46 -70.2998 -53.4004 -111.6c41.2002 5 81.0996 21.8994 114.4 50.5996zM350.5 112.1l61 -61.0996c28.7002 33.2998 45.5 73.2002 50.5996 114.4
c-41.2998 -7.30078 -79.7998 -25.7002 -111.6 -53.3008zM463.7 198.8c-1.5 48 -18.9004 95.6006 -52.2002 134.101l-140.9 -140.9l56.8008 -56.7002c38.2998 33.7998 85.6992 55.9004 136.3 63.5zM148.7 268.7l-64.2002 64.2002
c-29.5996 -34.3008 -46.7998 -75.7002 -51.2002 -118.301c42.7998 6.90039 82.7998 25.7002 115.4 54.1006zM107.1 355.6l64.2002 -64.1992c28.4004 32.5996 47.2002 72.5996 54.1006 115.399c-42.6006 -4.5 -84 -21.5996 -118.301 -51.2002zM257.7 407.5
c-7.10059 -51.5996 -29.2998 -99.9004 -63.7998 -138.8l54.0996 -54.1006l140.9 140.9c-37.8008 32.5996 -84.2002 49.9004 -131.2 52zM32.5 182.3c2.09961 -47.0996 19.4004 -93.3994 51.9004 -131.2l141 140.9l-54.1006 54.0996
c-38.8994 -34.3994 -87.2002 -56.5996 -138.8 -63.7998z" />
    <glyph glyph-name="bowling-ball" unicode="&#xf436;" 
d="M248 440c137 0 248 -111 248 -248s-111 -248 -248 -248s-248 111 -248 248s111 248 248 248zM248 -24c119.1 0 216 96.9004 216 216s-96.9004 216 -216 216s-216 -96.9004 -216 -216s96.9004 -216 216 -216zM152 288c17.7002 0 32 -14.2998 32 -32s-14.2998 -32 -32 -32
s-32 14.2998 -32 32s14.2998 32 32 32zM264 320c0 -17.7002 -14.2998 -32 -32 -32s-32 14.2998 -32 32s14.2998 32 32 32s32 -14.2998 32 -32zM248 256c17.7002 0 32 -14.2998 32 -32s-14.2998 -32 -32 -32s-32 14.2998 -32 32s14.2998 32 32 32z" />
    <glyph glyph-name="football-ball" unicode="&#xf44e;" 
d="M344.2 265.5l-28.2998 -28.2998l28.2998 -28.2998c3.09961 -3.10059 3.09961 -8.2002 0 -11.3008l-11.2998 -11.2998c-3.10059 -3.09961 -8.2002 -3.09961 -11.3008 0l-28.2998 28.2998l-22.7002 -22.5996l28.3008 -28.2998c3.09961 -3.10059 3.09961 -8.2002 0 -11.2998
l-11.3008 -11.3008c-3.09961 -3.09961 -8.19922 -3.09961 -11.2998 0l-28.2998 28.3008l-22.5996 -22.6006l28.2998 -28.2998c3.09961 -3.09961 3.09961 -8.2002 0 -11.2998l-11.2998 -11.2998c-3.10059 -3.10059 -8.2002 -3.10059 -11.3008 0l-28.2998 28.2998
l-28.2998 -28.2998c-3.09961 -3.10059 -8.2002 -3.10059 -11.2998 0l-11.2998 11.2998c-3.10059 3.09961 -3.10059 8.2002 0 11.2998l28.2998 28.2998l-28.4004 28.2002c-3.09961 3.09961 -3.09961 8.2002 0 11.2998l11.2998 11.2998
c3.10059 3.10059 8.2002 3.10059 11.3008 0l28.2998 -28.2998l22.5996 22.6006l-28.2998 28.2998c-3.09961 3.09961 -3.09961 8.2002 0 11.2998l11.2998 11.2998c3.10059 3.10059 8.2002 3.10059 11.2998 0l28.3008 -28.2998l22.5996 22.5996l-28.2998 28.3008
c-3.10059 3.09961 -3.10059 8.19922 0 11.2998l11.2998 11.2998c3.09961 3.09961 8.2002 3.09961 11.2998 0l28.2998 -28.2998l28.3008 28.2998c3.09961 3.09961 8.19922 3.09961 11.2998 0l11.2998 -11.2998c3.2998 -3 3.2998 -8 0.200195 -11.2002zM401.5 38.2998
c-137.9 -138.2 -325.8 -85.5996 -349.6 -79.2002c-18.2002 4.90039 -32.4004 19.1006 -37.2002 37.3008c-17.1006 64.6992 -42.9004 226.399 79.7998 349.3c137.9 138.2 325.8 85.5996 349.6 79.2002c18.2002 -4.90039 32.4004 -19.1006 37.2002 -37.3008
c17.1006 -64.6992 42.9004 -226.399 -79.7998 -349.3zM435.9 394c-20.3008 5.40039 -50.8008 11.4004 -86.3008 13.2002l113.9 -113.9c-1.59961 35.7002 -7.7002 66.1006 -13 86.1006c-1.90039 7.09961 -7.5 12.6992 -14.5996 14.5996zM60.0996 -10
c20.3008 -5.40039 50.8008 -11.4004 86.3008 -13.2002l-113.801 113.9c1.60059 -35.7002 7.7002 -66.1006 13 -86.1006c1.80078 -7.09961 7.40039 -12.6992 14.5 -14.5996zM462.8 248.8l-158.2 158.101c-74.1992 -5.30078 -137.199 -33.3008 -187.5 -83.7002
c-58.3994 -58.5 -79.2998 -127.3 -83.8994 -187.9l158.1 -158.1c74.2002 5.2998 137.2 33.2998 187.5 83.7002c58.5 58.3994 79.4004 127.199 84 187.899z" />
    <glyph glyph-name="tennis-ball" unicode="&#xf45e;" 
d="M248 440c136.8 0 248 -111.2 248 -248s-111.2 -248 -248 -248s-248 111.2 -248 248s111.2 248 248 248zM235.5 407.4c-109.1 -6.30078 -196.6 -93.8008 -202.8 -202.9c9.7002 5.59961 20.5 9.40039 32.5 9.40039c41.2002 0 87.5 18.5 115 46s46 73.7998 46 115.1
c0 11.9004 3.7998 22.7002 9.2998 32.4004zM34.5 160.8c13.7002 -94.0996 88.2002 -168.6 182.2 -182.3c12.5996 4.7998 21.0996 16.5996 21.0996 30.5996c0 50 21.7998 104.101 55.4004 137.7c33.5996 33.6006 87.5996 55.4004 137.6 55.4004
c14 0.0996094 25.7002 8.5 30.6006 21c-13.7002 94.0996 -88.2002 168.6 -182.301 182.3c-12.5996 -4.7998 -21 -16.5 -21 -30.5c0 -50 -21.7998 -104.1 -55.3994 -137.7c-33.6006 -33.5996 -87.6006 -55.3994 -137.601 -55.3994c-14 0 -25.6992 -8.5 -30.5996 -21.1006z
M260.5 -23.4004c109.1 6.30078 196.6 93.8008 202.8 202.9c-9.59961 -5.5 -20.5 -9.2998 -32.3994 -9.2998c-41.2002 0 -87.5 -18.5 -115 -46s-46 -73.7998 -46 -115.101c-0.100586 -12 -3.80078 -22.7998 -9.40039 -32.5z" />
    <glyph glyph-name="heart-circle" unicode="&#xf4c7;" 
d="M248 440c137 0 248 -111 248 -248s-111 -248 -248 -248s-248 111 -248 248s111 248 248 248zM248 -24c119.1 0 216 96.9004 216 216s-96.9004 216 -216 216s-216 -96.9004 -216 -216s96.9004 -216 216 -216zM364 294.4c35.4004 -30.6006 37.2002 -85.5 5.7002 -118.7
l-108.9 -114.101c-7.09961 -7.39941 -18.5 -7.39941 -25.5 0l-108.899 114.101c-31.6006 33.0996 -29.7002 88.0996 5.59961 118.7c32.4004 28.1992 78.2998 20.1992 104.9 -7.7002l11.0996 -11.6006l11.0996 11.6006c15.4004 16.0996 63 44 104.9 7.7002zM347 197.9
c16.7002 17.5996 20.4004 51.5996 -3.40039 72.0996c-24.3994 21.0996 -53.1992 3.5 -61.8994 -5.7002l-33.7002 -35.2998l-33.7002 35.2998c-11.8994 12.5 -39.7002 25 -61.8994 5.7002c-23.8008 -20.5 -20.1006 -54.5996 -3.40039 -72.0996l99 -103.801z" />
    <glyph glyph-name="smile-wink" unicode="&#xf4da;" 
d="M248 440c137 0 248 -111 248 -248s-111 -248 -248 -248s-248 111 -248 248s111 248 248 248zM400.7 39.2998c19.8994 19.7998 35.5 42.9004 46.2998 68.7002c11.2998 26.5996 17 54.9004 17 84.0996c0 29.2002 -5.7002 57.5 -17 84.1006
c-10.9004 25.7002 -26.5 48.8994 -46.2998 68.7002c-19.9004 19.7998 -43 35.3994 -68.7002 46.2998c-26.5996 11.2998 -54.9004 17 -84.0996 17c-29.2002 0 -57.5 -5.7002 -84.1006 -17c-25.7002 -10.9004 -48.8994 -26.5 -68.7002 -46.2998
c-19.7998 -19.9004 -35.3994 -43 -46.2998 -68.7002c-11.2998 -26.6006 -17 -54.9004 -17 -84.1006c0 -29.1992 5.7002 -57.5 17 -84.0996c10.9004 -25.7002 26.5 -48.9004 46.2998 -68.7002c19.9004 -19.7998 43 -35.3994 68.7002 -46.2998
c26.6006 -11.2998 54.9004 -17 84.1006 -17c29.1992 0 57.5 5.7002 84.0996 17c25.7002 10.9004 48.9004 26.5 68.7002 46.2998zM168 208c-17.7002 0 -32 14.2998 -32 32s14.2998 32 32 32s32 -14.2998 32 -32s-14.2998 -32 -32 -32zM328 268
c25.7002 0 55.9004 -16.9004 59.7002 -42.0996c1.7998 -11.1006 -11.2998 -18.2002 -19.7998 -10.8008l-9.5 8.5c-14.8008 13.2002 -46.2002 13.2002 -61 0l-9.5 -8.5c-8.30078 -7.39941 -21.5 -0.399414 -19.8008 10.8008c4 25.1992 34.2002 42.0996 59.9004 42.0996z
M338.2 122.2c13.5 16.2998 38.0996 -4.2002 24.5996 -20.4004c-28.5 -34.2002 -70.2998 -53.7998 -114.8 -53.7998s-86.2998 19.5996 -114.8 53.7002c-13.6006 16.2998 11.0996 36.7002 24.5996 20.5c22.4004 -26.7998 55.2998 -42.2002 90.2002 -42.2002
s67.7998 15.4004 90.2002 42.2002z" />
    <glyph glyph-name="wine-glass" unicode="&#xf4e3;" horiz-adv-x="288" 
d="M287.4 255.34c7.16992 -80.0098 -50.6699 -148.89 -127.4 -157.609v-129.73h53.3301c14.7295 0 26.6699 -11.9404 26.6699 -26.6699c0 -2.94043 -2.37988 -5.33008 -5.33008 -5.33008h-181.34c-2.94043 0 -5.33008 2.37988 -5.33008 5.33008
c0 14.7295 11.9404 26.6699 26.6699 26.6699h53.3301v129.73c-76.7305 8.71973 -134.57 77.5996 -127.4 157.609l15.96 178.11c0.730469 8.24023 7.55078 14.5498 15.7002 14.5498h223.48c8.16016 0 14.9697 -6.30957 15.7002 -14.5498zM144 129.73
c44.1797 0 84.7402 25.6797 102.46 66.1592c7.49023 17.1299 10.8799 36.4404 9.07031 56.6006l-14.6504 163.51h-193.76l-14.6396 -163.52c-1.81055 -20.1602 1.5791 -39.4707 9.06934 -56.6006c17.71 -40.4795 58.2705 -66.1494 102.45 -66.1494z" />
    <glyph glyph-name="compact-disc" unicode="&#xf51f;" 
d="M248 440c137 0 248 -111 248 -248s-111 -248 -248 -248s-248 111 -248 248s111 248 248 248zM248 -24c119.1 0 216 96.9004 216 216s-96.9004 216 -216 216s-216 -96.9004 -216 -216s96.9004 -216 216 -216zM248 288c53 0 96 -43 96 -96s-43 -96 -96 -96s-96 43 -96 96
s43 96 96 96zM248 128c35.2998 0 64 28.7002 64 64s-28.7002 64 -64 64s-64 -28.7002 -64 -64s28.7002 -64 64 -64zM248 216c13.2002 0 24 -10.7998 24 -24s-10.7998 -24 -24 -24s-24 10.7998 -24 24s10.7998 24 24 24zM240 360v-32c-70.5996 0 -128 -57.4004 -128 -128h-32
c0 88.2002 71.7998 160 160 160z" />
    <glyph glyph-name="store" unicode="&#xf54e;" horiz-adv-x="616" 
d="M602 329.4c29.5996 -47.2002 10 -110.601 -38 -130.801v-227.399c0 -19.4004 -14.2998 -35.2002 -32 -35.2002h-448c-17.7002 0 -32 15.7998 -32 35.2002v227.399c-48 20.2002 -67.5996 83.6006 -38 130.801l64.9004 103.6c5.7998 9.2998 16.0996 15 27.0996 15h404
c11 0 21.2998 -5.7002 27.0996 -15zM532 -28.7998v124.8h-448v-124.8c0 -2.2002 0.900391 -3.2998 1.2002 -3.5l446.6 0.299805c-0.599609 0.0996094 0.200195 1.2002 0.200195 3.2002zM84 128h447.9v64h-2.5c-29.6006 0 -55.8008 13 -73.9004 33.0996
c-18 -20.0996 -44.2002 -33.0996 -73.7998 -33.0996c-29.5 0 -55.7998 13 -73.7998 33.0996c-18 -20.0996 -44.2002 -33.0996 -73.8008 -33.0996c-29.5 0 -55.7998 13 -73.7998 33.0996c-18 -20.0996 -44.2002 -33.0996 -73.7998 -33.0996h-2.5v-64zM578.2 254.5
c8.7002 18.5996 7.5 40.7002 -3.2998 57.9004l-64.9004 103.6h-404l-64.9004 -103.8c-10.7998 -17.1006 -12 -39.2998 -3.2998 -57.9004c7.7998 -16.5996 22.1006 -27.5 39.2998 -29.7998c3.10059 -0.400391 6.2002 -0.599609 9.40039 -0.599609c19.2998 0 37 8 50 22.5
l23.7998 26.5996l23.9004 -26.5996c13 -14.5 30.7002 -22.5 50 -22.5s37 8 50 22.5l23.7998 26.5996l23.9004 -26.5996c13 -14.5 30.6992 -22.5 50 -22.5c19.2998 0 37 8 50 22.5l23.7998 26.5996l23.7998 -26.4004c13 -14.5 30.7002 -22.5 50 -22.5
c3.2002 0 6.2998 0.200195 9.40039 0.600586c17.1992 2.2998 31.5 13.2002 39.2998 29.7998z" />
    <glyph glyph-name="angry" unicode="&#xf556;" 
d="M248 440c137 0 248 -111 248 -248s-111 -248 -248 -248s-248 111 -248 248s111 248 248 248zM248 -24c119.1 0 216 96.9004 216 216s-96.9004 216 -216 216s-216 -96.9004 -216 -216s96.9004 -216 216 -216zM248 112c31.2002 0 60.5996 -13.7998 80.5 -37.7998
c5.7002 -6.7002 4.7998 -16.7998 -2 -22.5c-7.09961 -6 -17.2002 -4.40039 -22.5 2c-27.9004 33.3994 -84.2002 33.3994 -112.1 0c-5.60059 -6.7998 -15.7002 -7.60059 -22.5 -2c-6.80078 5.59961 -7.7002 15.7002 -2 22.5c20 24 49.3994 37.7998 80.5996 37.7998zM200 208
c0 -17.7002 -14.4004 -32 -32.0996 -32c-17.7002 0 -32 14.2998 -32 32c0 9.2998 4.19922 17.5996 10.5 23.4004l-31 9.2998c-8.5 2.5 -13.3008 11.3994 -10.7002 19.8994c2.5 8.40039 11.5 13.2002 19.8994 10.7002l80 -24c8.5 -2.5 13.3008 -11.3994 10.7002 -19.8994
c-2.09961 -6.90039 -8.39941 -11.4004 -15.2998 -11.4004c-0.599609 0 -1.09961 0.0996094 -1.7002 0.200195c0.799805 -2.60059 1.7002 -5.2998 1.7002 -8.2002zM371.4 271.3c8.39941 2.5 17.3994 -2.2002 19.7998 -10.7002
c2.59961 -8.39941 -2.2002 -17.3994 -10.7002 -19.8994l-31 -9.2998c6.40039 -5.90039 10.5 -14.1006 10.5 -23.4004c0 -17.7002 -14.2998 -32 -32 -32s-32 14.2998 -32 32c0 2.90039 1 5.5 1.7002 8.2002c-0.600586 0 -1.10059 -0.200195 -1.7002 -0.200195
c-6.90039 0 -13.2002 4.5 -15.2998 11.4004c-2.60059 8.39941 2.2002 17.3994 10.7002 19.8994z" />
    <glyph glyph-name="dizzy" unicode="&#xf567;" 
d="M248 440c137 0 248 -111 248 -248s-111 -248 -248 -248s-248 111 -248 248s111 248 248 248zM248 -24c119.1 0 216 96.9004 216 216s-96.9004 216 -216 216s-216 -96.9004 -216 -216s96.9004 -216 216 -216zM248 160c35.2998 0 64 -28.7002 64 -64s-28.7002 -64 -64 -64
s-64 28.7002 -64 64s28.7002 64 64 64zM248 64c17.5996 0 32 14.4004 32 32s-14.4004 32 -32 32s-32 -14.4004 -32 -32s14.4004 -32 32 -32zM219.3 204.7c-6.2002 -6.2998 -16.3994 -6.2998 -22.5996 0l-28.7002 28.7002l-28.7002 -28.7002
c-6.2002 -6.2998 -16.3994 -6.2002 -22.5996 0s-6.2002 16.3994 0 22.5996l28.7002 28.7002l-28.7002 28.7002c-6.2002 6.2002 -6.2002 16.3994 0 22.5996s16.3994 6.2002 22.5996 0l28.7002 -28.7002l28.7002 28.7002c6.2002 6.2002 16.3994 6.2002 22.5996 0
s6.2002 -16.3994 0 -22.5996l-28.7002 -28.7002l28.7002 -28.7002c6.2002 -6.2002 6.2002 -16.3994 0 -22.5996zM379.3 307.3c6.2998 -6.2002 6.2998 -16.3994 0 -22.5996l-28.7002 -28.7002l28.7002 -28.7002c6.2002 -6.2002 6.2002 -16.3994 0 -22.5996
c-6.2002 -6.2998 -16.3994 -6.2002 -22.5996 0l-28.7002 28.7002l-28.7002 -28.7002c-6.2002 -6.2998 -16.3994 -6.2002 -22.5996 0s-6.2002 16.3994 0 22.5996l28.7002 28.7002l-28.7002 28.7002c-6.2002 6.2002 -6.2002 16.3994 0 22.5996s16.3994 6.2002 22.5996 0
l28.7002 -28.7002l28.7002 28.7002c6.2002 6.2002 16.3994 6.2002 22.5996 0z" />
    <glyph glyph-name="flushed" unicode="&#xf579;" 
d="M248 440c137 0 248 -111 248 -248s-111 -248 -248 -248s-248 111 -248 248s111 248 248 248zM248 -24c119.1 0 216 96.9004 216 216s-96.9004 216 -216 216s-216 -96.9004 -216 -216s96.9004 -216 216 -216zM344 304c44.2002 0 80 -35.7998 80 -80s-35.7998 -80 -80 -80
s-80 35.7998 -80 80s35.7998 80 80 80zM344 176c26.5 0 48 21.5 48 48s-21.5 48 -48 48s-48 -21.5 -48 -48s21.5 -48 48 -48zM344 248c13.2998 0 24 -10.7002 24 -24s-10.7002 -24 -24 -24s-24 10.7002 -24 24s10.7002 24 24 24zM232 224c0 -44.2002 -35.7998 -80 -80 -80
s-80 35.7998 -80 80s35.7998 80 80 80s80 -35.7998 80 -80zM152 176c26.5 0 48 21.5 48 48s-21.5 48 -48 48s-48 -21.5 -48 -48s21.5 -48 48 -48zM152 248c13.2998 0 24 -10.7002 24 -24s-10.7002 -24 -24 -24s-24 10.7002 -24 24s10.7002 24 24 24zM312 80
c8.7998 0 16 -7.2002 16 -16s-7.2002 -16 -16 -16h-128c-8.7998 0 -16 7.2002 -16 16s7.2002 16 16 16h128z" />
    <glyph glyph-name="frown-open" unicode="&#xf57a;" 
d="M248 440c137 0 248 -111 248 -248s-111 -248 -248 -248s-248 111 -248 248s111 248 248 248zM248 -24c119.1 0 216 96.9004 216 216s-96.9004 216 -216 216s-216 -96.9004 -216 -216s96.9004 -216 216 -216zM168 208c-17.7002 0 -32 14.2998 -32 32s14.2998 32 32 32
s32 -14.2998 32 -32s-14.2998 -32 -32 -32zM328 272c17.7002 0 32 -14.2998 32 -32s-14.2998 -32 -32 -32s-32 14.2998 -32 32s14.2998 32 32 32zM248 160c39.7002 0 102.6 -23.7002 111.5 -74.5c1.90039 -10.9004 -2.09961 -22.2002 -10.2998 -29.5
c-10.5 -9.2002 -22.9004 -9 -30.6006 -6.59961c-29.2998 9 -56.3994 14.5996 -70.5996 14.5996s-41.2998 -5.59961 -70.5996 -14.5996c-10.7002 -3.30078 -22.4004 -0.700195 -30.6006 6.59961c-8.2998 7.2998 -12.2002 18.5996 -10.2998 29.5
c8.90039 50.7998 71.7998 74.5 111.5 74.5zM248 96c17.7002 0 46.9004 -5.7998 80 -16c-5.2002 29.7002 -50.0996 48 -80 48s-74.7998 -18.2998 -80 -48c33.0996 10.2002 62.2998 16 80 16z" />
    <glyph glyph-name="globe-africa" unicode="&#xf57c;" 
d="M248 440c136.96 0 248 -111.03 248 -248s-111.04 -248 -248 -248s-248 111.03 -248 248s111.04 248 248 248zM441.21 288c-28.5098 57.1396 -81.4697 99.9004 -145.21 114.44v-2.94043c0 -17.3799 -14.1201 -31.5 -31.5 -31.5h-24.2197l-7.66016 -11.9102
c-4.31055 -6.5 -10.9004 -11.1494 -18.5605 -13.0596l-14.4395 -3.61035l0.379883 -3.91992l89.5801 0.509766c8.41016 0 16.3096 -3.2793 22.25 -9.21973l6.93945 -6.94043l9.7207 0.160156c17.3799 0 31.5 -14.1201 31.5 -31.5
c0 -0.0078125 0.00488281 -0.0078125 0.00488281 -0.015625c0 -13.8975 -9.02832 -25.7021 -21.5352 -29.8643l-47.3096 -15.7695c-8.03027 -2.68066 -16.5605 -2.03027 -24.0605 1.69922l-14.7197 7.36035c-13.5898 6.78027 -30.3701 4.62988 -41.3105 -3.63965
l-27.6191 -20.6904c-9.66016 -7.25 -15.4404 -18.8203 -15.4404 -30.9102v-14.0596c0 -10.3105 4.03027 -20.0098 11.3096 -27.3105c7.31055 -7.29004 17 -11.3096 27.3105 -11.3096h25.8799c17.3799 0 31.5 -14.1201 31.5 -31.5v-29.8799
c0.0136719 -10.0693 2.43457 -19.6514 6.66016 -28.0898c3.75 -7.61035 15.6201 -8.26074 20.2803 -1.28027l13.0293 19.5303c7.85059 11.7793 17.0898 22.5801 27.4707 32.0801l4.18945 22.5596c0.907227 4.76367 2.88867 9.20801 5.66016 12.9697l18.8096 25.0908
l-0.0898438 11.0195l-7.71973 -0.5c-0.00585938 0 0.00683594 -0.0322266 0.000976562 -0.0322266c-10.9268 0 -20.5586 5.58984 -26.1914 14.0625l-18.4395 27.6094l4 10.1201c6.03027 11.9404 20.5996 13.0898 52.9102 14.6104
c6.67969 0.30957 12.4297 0.490234 15.0898 0.969727l12.6201 6.69043l-0.280273 6.46973c0 17.3799 14.1201 31.5 31.5 31.5h17.71zM248 -24c119.1 0 216 96.9004 216.01 216c0 22.2695 -3.39941 43.7695 -9.68945 64h-30.8105l0.5 -6.41992
c0 -12 -6.66016 -22.79 -17.4102 -28.1699l-15.4092 -7.7002c-4.5 -2.25 -9.28027 -2.57031 -25.1602 -3.2998c-3.7207 -0.169922 -9.15039 -0.44043 -14.5303 -0.780273l1.21973 -1.83008l7.78027 0.200195c17.3799 0 31.5 -14.1201 31.5 -31.5v-11.3398
c0 -6.77051 -2.21973 -13.4697 -6.28027 -18.8906l-18.75 -25l-4.21973 -22.6191c-1.28027 -6.79004 -4.66016 -12.8301 -9.75 -17.4502c-8.41016 -7.7002 -15.9697 -16.5303 -22.4102 -26.1699l-13.0303 -19.5498c-8.15918 -12.2002 -21.75 -19.4805 -36.4092 -19.4805
c-16.6807 0 -31.6807 9.28027 -39.1201 24.2002c-6.56055 13.04 -10.0303 27.7295 -10.0303 42.4199v29.8799l-25.3799 -0.5c-18.8701 0 -36.5801 7.33984 -49.9297 20.6904c-13.3506 13.3496 -20.6904 31.0791 -20.6904 49.9395v14.0605
c0 22.1094 10.5596 43.2295 28.2598 56.5l27.5898 20.6895c21.46 16.1699 52.5 17.8398 74.8408 6.66992l14.7197 -7.35938l46.9395 15.7793l-9.93945 -0.969727c-8.41016 0 -16.3105 3.26953 -22.25 9.21973l-6.94043 6.94043l-89.7197 -0.160156
c-17.3799 0 -31.5 14.1201 -31.5 31.5v4.41016c0 14.4502 9.80957 27.0098 23.8398 30.54l14.4697 3.60938l7.78027 11.9209c5.85059 8.76953 15.6602 14.0195 26.1904 14.0195h24.2197l-0.110352 7.16992c-5.42969 0.410156 -10.8496 0.830078 -16.3896 0.830078
c-119.1 0 -216 -96.9004 -216 -216s96.9004 -216 216 -216z" />
    <glyph glyph-name="globe-americas" unicode="&#xf57d;" 
d="M248 440c136.97 0 248 -111.03 248 -248s-111.03 -248 -248 -248s-248 111.03 -248 248s111.03 248 248 248zM463.72 186.55c0.0498047 1.83008 0.280273 3.61035 0.280273 5.4502c0 31.5596 -6.96973 61.4697 -19.2002 88.5195l-23.9697 -11.9893
c-1.25 -0.610352 -2.28027 -1.54004 -3.06055 -2.7002l-19.5898 -29.3896c-0.84082 -1.27148 -1.33008 -2.81152 -1.33008 -4.44824c0 -1.6377 0.489258 -3.16113 1.33008 -4.43262l17.9707 -26.9697c1.08984 -1.66016 2.7793 -2.83008 4.75 -3.33008zM32 192
c0 -102.59 71.9502 -188.53 168.01 -210.44v21.8105c0.970703 8.26953 -5.2793 27.2803 -17.9395 39.9395c-9.06055 9.06055 -14.0605 21.1309 -14.0605 33.9404v32.0195c0 5.81055 -3.16016 11.1709 -8.18945 13.9707c-14.2207 7.87988 -34.4707 18.8594 -48.2803 25.8301
c-12.5996 6.33008 -24.4404 14.4697 -35.1602 24.1602c-8.57031 7.72949 -15.5 15.6699 -21.3799 24.3398c-5.38965 7.89941 -12.75 18.7598 -19.9102 29.3594c-1.87012 -11.3994 -3.08984 -23.0098 -3.08984 -34.9297zM231.92 -23.1904
c5.33008 -0.389648 10.6504 -0.80957 16.0898 -0.829102c6.16016 0 12.2207 0.40918 18.25 0.919922l26.7803 72.1699c1.34961 3.62012 2.25 7.30957 3.19043 11l1.11914 4.41016c1.81836 6.84766 5.4043 12.9951 10.25 17.8799l11.3408 11.3301
c5.7793 5.73926 9.05957 13.6094 9.05957 21.6592c-0.0146484 4.00195 -1.63379 7.63184 -4.25 10.2705l-13.6904 13.6895c-2.96973 2.99023 -7.08984 4.69043 -11.3096 4.69043h-70.5303l-3.37988 1.69043c-7.5 3.75 -13.0898 11.3896 -19 19.4697
c-2.43945 3.33008 -6.30957 8.58984 -8.68945 10.8896c-12 0.419922 -23.9004 3.44043 -34.6201 8.7998l-11.0898 5.55078c-9.53027 4.76953 -15.4404 14.3398 -15.4404 25c0 0.0107422 -0.00488281 0.0136719 -0.00488281 0.0253906
c0 12.3203 8.00586 22.7861 19.0947 26.4746l31.1904 10.3896c7.25 2.45996 15.0898 2.08984 22.0293 -0.660156l-4 7.98047c-4.71973 9.41992 -2.80957 20.6494 4.75 27.9492l9.91016 9.64062c4.53027 4.38965 10.4707 6.7998 16.7207 6.7998l5.71973 0.0302734
c-8.40039 9.41016 -8.08984 23.9102 0.939453 32.9395l15.0303 15.0303l-51.79 51.79c-73.5801 -14.71 -133.58 -66.9805 -159.56 -135.85c9.85938 -14.6309 25.7393 -38.1602 35.3994 -52.3506c4.49512 -6.60645 9.65918 -12.5391 15.5605 -17.8896
c9.41016 -8.49023 18.8799 -15 28.9395 -20.0498c14.1504 -7.14062 34.8398 -18.3809 49.3398 -26.4102c15.25 -8.41992 24.7207 -24.5 24.7207 -41.9707v-32.0195c0 -4.2002 1.71973 -8.33008 4.68945 -11.3096c17.7207 -17.71 29.6602 -46.1104 27.1602 -64.6904z
M302.74 -16.7002c80.75 21.21 143.069 87.9307 157.79 171.08l-47.3799 11.8398c-9.70996 2.44043 -18.0605 8.33008 -23.5908 16.6104l-17.9697 26.9697c-9 13.4902 -9 30.9004 0 44.3799l19.5898 29.3906c3.85742 5.78613 9.12012 10.4482 15.3799 13.5801
l22.9805 11.4893c-38.4805 59.6699 -105.39 99.3506 -181.521 99.3506c-0.439453 0 -0.869141 -0.0703125 -1.30957 -0.0703125l33.3096 -33.3096c6.04004 -6.04004 9.38086 -14.0801 9.38086 -22.6201s-3.35059 -16.5703 -9.38086 -22.6201l-9.40918 -9.41016
c8.39941 -9.41016 8.08984 -23.9102 -0.94043 -32.9404l-8 -8c-4.53027 -4.5293 -10.5596 -7.0293 -16.9697 -7.0293h-5.75l-3.37988 -3.31055l12.9697 -25.9492c3.75 -7.48047 3.34961 -16.2207 -1.05957 -23.3408c-4.41016 -7.13965 -12.0303 -11.3896 -20.4102 -11.3896
h-5.66016c-5.78027 0 -11.3398 2.09961 -15.7197 5.87988l-9.28027 8.06055l-21.9102 -7.30078l2.33984 -1.16992c7.16016 -3.58008 15.1602 -5.46973 23.1602 -5.46973c14.1201 0 23.4404 -12.7197 31.6504 -23.9297c1.81934 -2.4707 4.25 -5.83008 6.15918 -8.06055
h60.9404c12.6299 0 25 -5.12012 33.9404 -14.0596l13.6895 -13.6904c8.65039 -8.66016 13.6201 -20.6396 13.6201 -32.8896c0 -16.5098 -6.71973 -32.6699 -18.4404 -44.3105l-9.18945 -9.15918c-3.03027 -3.03027 -3.75 -4.27051 -4.08984 -5.58008l-1.03027 -4.05078
c-1.21973 -4.8291 -2.46973 -9.65918 -4.25 -14.3594z" />
    <glyph glyph-name="globe-asia" unicode="&#xf57e;" 
d="M248 440c136.96 0 248 -111.03 248 -248s-111.04 -248 -248 -248s-248 111.03 -248 248s111.04 248 248 248zM248 408c-119.1 0 -216 -96.9004 -216 -216c0 -5.40039 0.419922 -10.7002 0.80957 -16h64.5703l19.4697 19.46
c5.40039 5.44043 13.4004 7.9502 20.7803 6.71973c7.74414 -1.24121 14.2656 -6.16992 17.6602 -12.9492l22.5898 -45.2305h22.1201v9.36035l-5.66016 5.65918c-4.53027 4.53027 -7.03027 10.5605 -7.03027 16.9707s2.5 12.4395 7.03027 16.9697l5.66016 5.66016
c6.03027 6.0498 14.0898 9.37988 22.6201 9.37988l17.6797 28.9404c3.78027 6.34961 11.1299 9.90918 18.25 9.90918c1.87988 -0.0595703 3.69043 -0.389648 5.44043 -0.939453v64.1895l-10.8105 5.41016c-7.62988 3.83008 -12.7197 11.4902 -13.25 20.0205
c-0.5 8.5 3.57031 16.7197 10.6904 21.4395l51.9297 43.7803c-17.46 4.57031 -35.6699 7.25 -54.5498 7.25zM37.5596 144c21.9102 -96.0498 107.851 -168 210.44 -168c48.0596 0 92.3398 15.9697 128.26 42.6104c-7.04004 2.31934 -13.5498 6.06934 -18.9297 11.4492
l-10.9102 10.9102l-18.3896 -4.59961c-3.7998 -0.950195 -7.7207 -1.42969 -11.6406 -1.42969h-10.3398c-12.8193 0 -24.8799 5 -33.9395 14.0596l-11.9199 11.9102c-7.55078 7.5498 -11.71 17.5996 -11.71 28.2803v10.21c0 16.4492 9.85938 31.0293 25.1396 37.1396
l38.25 15.1396l23.7197 16.9004c6.82031 4.84961 14.8398 7.41992 23.21 7.41992h12.0898c0.0117188 0 0.0556641 -0.0205078 0.0664062 -0.0205078c5.87891 0 11.4629 -1.26953 16.4941 -3.5498c4.75977 2.30078 10.0498 3.57031 15.5498 3.57031h6.07031
c19.8496 0 36 -16.1504 36 -36v-2.99023l4.87988 -4.87988c1.58008 -1.58984 2.63965 -3.51953 3.95996 -5.29004c6.51953 20.5801 10.0898 42.4502 10.0898 65.1602c0 87.1602 -51.9902 162.24 -126.49 196.36l-59.0693 -49.6699
c10.8398 -5.4707 17.5596 -16.4004 17.5596 -28.5605v-78.1104c0 -13.2295 -10.7803 -24 -24 -24c-4.03027 0 -7.62012 0.560547 -10.7803 1.59082l-10.8398 -18.0605c-5.71973 -9.55957 -16.25 -15.5303 -27.4395 -15.5303l-0.160156 -0.15918
c5.87988 -5.94043 9.21973 -14.1299 9.21973 -22.4707v-9.37988c0 -17.6396 -14.3398 -32 -32 -32h-22.1504c-12.1797 0 -23.1494 6.75977 -28.6191 17.6699l-17.6201 35.3105l-11.6201 -11.6104c-6.03027 -6.0498 -14.0898 -9.37988 -22.6201 -9.37988h-59.8105z
M409 48.5098c8.58203 9.61816 16.2139 19.8701 22.9902 30.9102v18.75c0 4.24023 -1.69043 8.31055 -4.69043 11.3105l-11.9102 11.9092c-1.5 1.5 -2.33984 3.54004 -2.33984 5.66016v12.9307c0 2.20996 -1.79004 4 -4 4h-6.05957
c-1.78027 0 -3.33984 -1.1709 -3.83984 -2.88086l-4.2002 -14.4697c-0.490234 -1.70996 -2.06055 -2.87988 -3.83984 -2.87988h-3.80078c-1.66211 0.000976562 -3.08691 1.01465 -3.68945 2.45996l-5.35059 12.8496c-1.23926 2.99023 -4.15918 4.93066 -7.38965 4.93066
h-12.0898c-1.72461 -0.00292969 -3.33008 -0.552734 -4.63965 -1.48047l-23.71 -16.8896c-1.73047 -1.23047 -3.61035 -2.25977 -5.59082 -3.0498l-39.3398 -15.7402c-3.04004 -1.21973 -5.0293 -4.16016 -5.0293 -7.42969v-10.2002l-0.00195312 -0.00390625
c0 -2.20703 0.895508 -4.20703 2.3418 -5.65625l11.9102 -11.9102c3 -3 7.06934 -4.68945 11.3096 -4.68945h10.3398c1.31055 0 2.61035 0.15918 3.87988 0.479492l21.2705 5.32031c2.08105 0.519531 4.25098 0.801758 6.49316 0.801758
c7.38672 0 14.0791 -2.99805 18.9268 -7.8418l13.0098 -13.0098c3 -3 7.07031 -4.69043 11.3096 -4.69043h15.1602c0.890625 0 1.7002 0.370117 2.57031 0.509766z" />
    <glyph glyph-name="grimace" unicode="&#xf57f;" 
d="M248 440c137 0 248 -111 248 -248s-111 -248 -248 -248s-248 111 -248 248s111 248 248 248zM248 -24c119.1 0 216 96.9004 216 216s-96.9004 216 -216 216s-216 -96.9004 -216 -216s96.9004 -216 216 -216zM168 208c-17.7002 0 -32 14.2998 -32 32s14.2998 32 32 32
s32 -14.2998 32 -32s-14.2998 -32 -32 -32zM328 208c-17.7002 0 -32 14.2998 -32 32s14.2998 32 32 32s32 -14.2998 32 -32s-14.2998 -32 -32 -32zM344 176c26.5 0 48 -21.5 48 -48v-32c0 -26.5 -21.5 -48 -48 -48h-192c-26.5 0 -48 21.5 -48 48v32c0 26.5 21.5 48 48 48
h192zM176 80v24h-40v-8c0 -8.7998 7.2002 -16 16 -16h24zM176 120v24h-24c-8.7998 0 -16 -7.2002 -16 -16v-8h40zM240 80v24h-48v-24h48zM240 120v24h-48v-24h48zM304 80v24h-48v-24h48zM304 120v24h-48v-24h48zM360 96v8h-40v-24h24c8.7998 0 16 7.2002 16 16zM360 120v8
c0 8.7998 -7.2002 16 -16 16h-24v-24h40z" />
    <glyph glyph-name="grin" unicode="&#xf580;" 
d="M248 440c137 0 248 -111 248 -248s-111 -248 -248 -248s-248 111 -248 248s111 248 248 248zM248 -24c119.1 0 216 96.9004 216 216s-96.9004 216 -216 216s-216 -96.9004 -216 -216s96.9004 -216 216 -216zM371.1 127.2c5.30078 1.7998 11.2002 0.599609 15.5 -3.10059
c4.2002 -3.69922 6.2002 -9.2998 5.30078 -14.7998c-9.30078 -55 -83.2002 -93.2998 -143.801 -93.2998c-60.5996 0 -134.6 38.2998 -143.8 93.2998c-0.899414 5.60059 1.10059 11.1006 5.2998 14.7998c4.2002 3.60059 10 4.80078 15.3008 3.10059
c30.1992 -9.7002 75.0996 -15.2002 123.1 -15.2002s92.9004 5.5 123.1 15.2002zM248 48c35 0 77 16.2998 98.5996 40.2998c-57.5 -10.7998 -139.6 -10.7998 -197.1 0c21.5 -24 63.5 -40.2998 98.5 -40.2998zM168 208c-17.7002 0 -32 14.2998 -32 32s14.2998 32 32 32
s32 -14.2998 32 -32s-14.2998 -32 -32 -32zM328 208c-17.7002 0 -32 14.2998 -32 32s14.2998 32 32 32s32 -14.2998 32 -32s-14.2998 -32 -32 -32z" />
    <glyph glyph-name="grin-alt" unicode="&#xf581;" 
d="M248 440c137 0 248 -111 248 -248s-111 -248 -248 -248s-248 111 -248 248s111 248 248 248zM248 -24c119.1 0 216 96.9004 216 216s-96.9004 216 -216 216s-216 -96.9004 -216 -216s96.9004 -216 216 -216zM184.3 192c-7.5 -11.4004 -24.5996 -12 -32.7002 0
c-12.3994 18.7002 -15.1992 37.2998 -15.6992 56c0.599609 18.7002 3.2998 37.2998 15.6992 56c7.60059 11.4004 24.7002 12 32.7002 0c12.4004 -18.7002 15.2002 -37.2998 15.7002 -56c-0.599609 -18.7002 -3.2998 -37.2998 -15.7002 -56zM344.3 192
c-7.5 -11.4004 -24.5996 -12 -32.7002 0c-12.3994 18.7002 -15.1992 37.2998 -15.6992 56c0.599609 18.7002 3.2998 37.2998 15.6992 56c7.60059 11.4004 24.7002 12 32.7002 0c12.4004 -18.7002 15.2002 -37.2998 15.7002 -56
c-0.599609 -18.7002 -3.2998 -37.2998 -15.7002 -56zM371.1 127.2c5.30078 1.7998 11.2002 0.599609 15.5 -3.10059c4.2002 -3.69922 6.2002 -9.2998 5.30078 -14.7998c-9.30078 -55 -83.2002 -93.2998 -143.801 -93.2998c-60.5996 0 -134.6 38.2998 -143.8 93.2998
c-0.899414 5.60059 1.10059 11.1006 5.2998 14.7998c4.10059 3.60059 10 4.80078 15.3008 3.10059c30.1992 -9.7002 75.0996 -15.2002 123.1 -15.2002s92.9004 5.5 123.1 15.2002zM248 48c35 0 77 16.2998 98.5996 40.2998c-57.5 -10.7998 -139.6 -10.7998 -197.1 0
c21.5 -24 63.5 -40.2998 98.5 -40.2998z" />
    <glyph glyph-name="grin-beam" unicode="&#xf582;" 
d="M117.7 200.3c-3.60059 1.10059 -6 4.60059 -5.7002 8.2998c3.2998 42.1006 32.2002 71.4004 56 71.4004s52.7002 -29.2998 56 -71.4004c0.299805 -3.7998 -2.09961 -7.19922 -5.7002 -8.2998c-3.09961 -1 -7.2002 0 -9.2998 3.7002l-9.5 17
c-7.7002 13.7002 -19.2002 21.5996 -31.5 21.5996s-23.7998 -7.89941 -31.5 -21.5996l-9.5 -17c-1.90039 -3.2002 -5.90039 -4.7998 -9.2998 -3.7002zM277.7 200.3c-3.60059 1.10059 -6 4.60059 -5.7002 8.2998c3.2998 42.1006 32.2002 71.4004 56 71.4004
s52.7002 -29.2998 56 -71.4004c0.299805 -3.7998 -2.09961 -7.19922 -5.7002 -8.2998c-3.09961 -1 -7.2002 0 -9.2998 3.7002l-9.5 17c-7.7002 13.7002 -19.2002 21.5996 -31.5 21.5996s-23.7998 -7.89941 -31.5 -21.5996l-9.5 -17
c-1.90039 -3.2002 -5.90039 -4.7998 -9.2998 -3.7002zM371.1 127.2c5.30078 1.7998 11.2002 0.599609 15.5 -3.10059c4.2002 -3.69922 6.2002 -9.2998 5.30078 -14.7998c-9.30078 -55 -83.2002 -93.2998 -143.801 -93.2998c-60.5996 0 -134.6 38.2998 -143.8 93.2998
c-0.899414 5.60059 1.10059 11.1006 5.2998 14.7998c4.2002 3.60059 10 4.80078 15.3008 3.10059c30.1992 -9.7002 75.0996 -15.2002 123.1 -15.2002s92.9004 5.5 123.1 15.2002zM248 48c35 0 77 16.2998 98.5996 40.2998c-57.5 -10.7998 -139.6 -10.7998 -197.1 0
c21.5 -24 63.5 -40.2998 98.5 -40.2998zM248 440c137 0 248 -111 248 -248s-111 -248 -248 -248s-248 111 -248 248s111 248 248 248zM248 -24c119.1 0 216 96.9004 216 216s-96.9004 216 -216 216s-216 -96.9004 -216 -216s96.9004 -216 216 -216z" />
    <glyph glyph-name="grin-beam-sweat" unicode="&#xf583;" horiz-adv-x="504" 
d="M277.7 200.3c-3.60059 1.10059 -6 4.60059 -5.7002 8.2998c3.2998 42.1006 32.2002 71.4004 56 71.4004s52.7002 -29.2998 56 -71.4004c0.299805 -3.7998 -2.09961 -7.19922 -5.7002 -8.2998c-3.09961 -1 -7.2002 0 -9.2998 3.7002l-9.5 17
c-7.7002 13.7002 -19.2002 21.5996 -31.5 21.5996s-23.7998 -7.89941 -31.5 -21.5996l-9.5 -17c-1.90039 -3.2002 -5.90039 -4.7998 -9.2998 -3.7002zM117.7 200.3c-3.60059 1.10059 -6 4.60059 -5.7002 8.2998c3.2998 42.1006 32.2002 71.4004 56 71.4004
s52.7002 -29.2998 56 -71.4004c0.299805 -3.7998 -2.09961 -7.19922 -5.7002 -8.2998c-3.09961 -1 -7.2002 0 -9.2998 3.7002l-9.5 17c-7.7002 13.7002 -19.2002 21.5996 -31.5 21.5996s-23.7998 -7.89941 -31.5 -21.5996l-9.5 -17
c-1.90039 -3.2002 -5.90039 -4.7998 -9.2998 -3.7002zM371.1 127.2c5.30078 1.7998 11.2002 0.599609 15.5 -3.10059c4.2002 -3.69922 6.2002 -9.2998 5.30078 -14.7998c-9.30078 -55 -83.2002 -93.2998 -143.801 -93.2998c-60.5996 0 -134.6 38.2998 -143.8 93.2998
c-0.899414 5.60059 1.10059 11.1006 5.2998 14.7998c4.2002 3.60059 10 4.80078 15.3008 3.10059c30.1992 -9.7002 75.0996 -15.2002 123.1 -15.2002s92.9004 5.5 123.1 15.2002zM248 48c35 0 77 16.2998 98.5996 40.2998c-57.5 -10.7998 -139.6 -10.7998 -197.1 0
c21.5 -24 63.5 -40.2998 98.5 -40.2998zM504 330.7c0 -21.5 -8.90039 -40.7998 -23 -54.4004c9.5 -26.3994 15 -54.7002 15 -84.2998c0 -137 -111 -248 -248 -248s-248 111 -248 248s111 248 248 248c51.0996 0 98.5996 -15.5 138.1 -42
c8 13.7002 16.9004 27.2002 25.3008 39.2002c3.7998 5.39941 12.1992 10.7998 20.5996 10.7998s16.7998 -5.40039 20.5996 -10.9004c23.4004 -33.5 51.4004 -79.1992 51.4004 -106.399zM248 -24c119.1 0 216 96.9004 216 216c0 23.5996 -4 46.2998 -11 67.5996
c-6.7002 -2.09961 -13.5996 -3.59961 -21 -3.59961c-39.7002 0 -72 33.5 -72 74.7002c0 10.5996 4.40039 24.0996 11 38.5996c-35 24.2998 -77.2998 38.7002 -123 38.7002c-119.1 0 -216 -96.9004 -216 -216s96.9004 -216 216 -216zM432 288
c22.0996 0 40 19.2002 40 42.7002c0 12.8994 -15.5 43.7002 -40 79.8994c-24.5 -36.0996 -40 -67 -40 -79.8994c0 -23.5 17.9004 -42.7002 40 -42.7002z" />
    <glyph glyph-name="grin-hearts" unicode="&#xf584;" 
d="M248 440c137 0 248 -111 248 -248s-111 -248 -248 -248s-248 111 -248 248s111 248 248 248zM248 -24c119.1 0 216 96.9004 216 216s-96.9004 216 -216 216s-216 -96.9004 -216 -216s96.9004 -216 216 -216zM371.1 127.2
c11.7002 3.7002 22.6006 -6.2998 20.7002 -17.9004c-9.2998 -55 -83.2002 -93.2998 -143.8 -93.2998s-134.6 38.2998 -143.8 93.2998c-1.90039 11.6006 9.09961 21.6006 20.7002 17.9004c30.1992 -9.7002 75.0996 -15.2002 123.1 -15.2002s92.9004 5.5 123.1 15.2002z
M248 48c35 0 77 16.2998 98.5996 40.2998c-57.5 -10.7998 -139.6 -10.7998 -197.1 0c21.5 -24 63.5 -40.2998 98.5 -40.2998zM186.2 176.8l-74.2002 19.2998c-14.7998 3.80078 -27.2998 13.7002 -34.2002 27.2002c-7 13.5 -7.7998 29.4004 -2.2998 43.7998
c8.90039 23.3008 33.9004 37.3008 59.0996 34.3008c9.90039 23.2998 34.1006 38.0996 59.3008 34c15.1992 -2.40039 28.5996 -11.1006 36.7998 -23.9004s10.5996 -28.5 6.5 -43.2002l-20.5 -73.8994c-3.2998 -12.1006 -16.2002 -21.3008 -30.5 -17.6006zM105.5 255.6
c-4.7998 -12.6992 2.5 -25.5 14.5996 -28.5996l67.6006 -17.5l18.7002 67.2998c3.39941 12.4004 -4.40039 24.9004 -17.5 27c-11.2002 1.7002 -22.6006 -6.09961 -25.9004 -18l-6.2002 -22.7002l-22.7998 5.90039c-8.09961 2.09961 -23.2998 0.400391 -28.5 -13.4004z
M420.4 267c5.5 -14.2998 4.59961 -30.2998 -2.30078 -43.7998c-6.92188 -13.3633 -19.3066 -23.3828 -34.1992 -27.2002l-74.2002 -19.2002c-14 -3.7002 -27.1006 5.2998 -30.5 17.6006l-20.4004 73.7998c-4.09961 14.7002 -1.7002 30.3994 6.5 43.2002
c8.2002 12.7998 21.6006 21.5 36.7998 23.8994c24.6006 4.2002 49.4004 -10.7002 59.3008 -34c24.8994 3 50.0996 -11 59 -34.2998zM375.9 227c12.0996 3.09961 19.3994 15.9004 14.5996 28.5996c-4 10.6006 -16.5 16.5 -28.5 13.4004l-23 -5.7998l-6.2002 22.7002
c-2.39941 8.89941 -12.0996 20.0996 -25.7998 17.8994c-13.0996 -2.09961 -20.9004 -14.7002 -17.5 -27l18.7002 -67.2998z" />
    <glyph glyph-name="grin-squint" unicode="&#xf585;" 
d="M248 440c137 0 248 -111 248 -248s-111 -248 -248 -248s-248 111 -248 248s111 248 248 248zM248 -24c119.1 0 216 96.9004 216 216s-96.9004 216 -216 216s-216 -96.9004 -216 -216s96.9004 -216 216 -216zM118.9 184.2c-3.80078 4.39941 -3.90039 11 -0.100586 15.5
l33.6006 40.2998l-33.6006 40.2998c-3.7002 4.5 -3.7002 11 0.100586 15.5c3.7998 4.40039 10.1992 5.5 15.2998 2.5l80 -48c3.59961 -2.2002 5.7998 -6.09961 5.7998 -10.2998s-2.2002 -8.09961 -5.7998 -10.2998l-80 -48c-5.40039 -3.2002 -11.7002 -1.7002 -15.2998 2.5z
M361.8 181.7l-80 48c-3.59961 2.2002 -5.7998 6.09961 -5.7998 10.2998s2.2002 8.09961 5.7998 10.2998l80 48c5 2.90039 11.4004 1.90039 15.2998 -2.5c3.80078 -4.5 3.90039 -11 0.100586 -15.5l-33.6006 -40.2998l33.6006 -40.2998
c3.7002 -4.5 3.7002 -11 -0.100586 -15.5c-3.59961 -4.2002 -9.89941 -5.7002 -15.2998 -2.5zM371.1 127.2c5.30078 1.7998 11.2002 0.599609 15.5 -3.10059c4.2002 -3.69922 6.2002 -9.2998 5.30078 -14.7998c-9.30078 -55 -83.2002 -93.2998 -143.801 -93.2998
c-60.5996 0 -134.6 38.2998 -143.8 93.2998c-0.899414 5.60059 1.10059 11.1006 5.2998 14.7998c4.10059 3.60059 10 4.80078 15.3008 3.10059c30.1992 -9.7002 75.0996 -15.2002 123.1 -15.2002s92.9004 5.5 123.1 15.2002zM248 48c35 0 77 16.2998 98.5996 40.2998
c-57.5 -10.7998 -139.6 -10.7998 -197.1 0c21.5 -24 63.5 -40.2998 98.5 -40.2998z" />
    <glyph glyph-name="grin-stars" unicode="&#xf587;" 
d="M248 440c137 0 248 -111 248 -248s-111 -248 -248 -248s-248 111 -248 248s111 248 248 248zM248 -24c119.1 0 216 96.9004 216 216s-96.9004 216 -216 216s-216 -96.9004 -216 -216s96.9004 -216 216 -216zM371.1 127.2
c11.7002 3.7002 22.6006 -6.2998 20.7002 -17.9004c-9.2998 -55 -83.2002 -93.2998 -143.8 -93.2998s-134.6 38.2998 -143.8 93.2998c-1.90039 11.6006 9.09961 21.6006 20.7002 17.9004c30.1992 -9.7002 75.0996 -15.2002 123.1 -15.2002s92.9004 5.5 123.1 15.2002z
M248 48c35 0 77 16.2998 98.5996 40.2998c-57.5 -10.7998 -139.6 -10.7998 -197.1 0c21.5 -24 63.5 -40.2998 98.5 -40.2998zM410.1 300c20.7002 -3.09961 29.3008 -28.5 14.4004 -43.4004l-25.9004 -25.0996l6.10059 -35.4004
c3.39941 -21.3994 -18.7002 -36.7998 -37.2002 -26.5996l-31.5 16.2998l-31.7998 -16.5c-17.7002 -9.7998 -40.2998 5.10059 -36.9004 26.5l6.10059 35.6006l-25.4004 24.5996l-25.4004 -24.5l6.10059 -35.4004c3.39941 -21.3994 -18.7002 -36.7998 -37.2002 -26.5996
l-31.5 16.2998l-31.7998 -16.5c-17.7002 -9.7998 -40.2998 5.10059 -36.9004 26.5l6.10059 35.6006l-25.7002 24.8994c-15.5 15.5 -6.10059 40.7002 14.0996 43.7002l35.5 5.09961l15.7998 32.1006c9.60059 18.8994 36.4004 18.7998 45.9004 0l15.7998 -32.1006
l35.2998 -5.09961c5.5 -0.799805 10.1006 -3.59961 13.9004 -7.40039c3.7998 3.80078 8.40039 6.60059 13.7998 7.40039l35.5 5.09961l15.7998 32.1006c9.60059 18.8994 36.4004 18.7998 45.9004 0l15.7998 -32.1006zM188.2 242.5l28.5 27.7998l-39.2002 5.60059l-17.5 35.5
l-17.5 -35.5l-39.2002 -5.60059l28.5 -27.7002l-6.7002 -38.8994l34.9004 18.0996l34.9004 -18.2002zM364.2 242.5l28.5 27.7998l-39.2002 5.60059l-17.5 35.5l-17.5 -35.5l-39.2002 -5.60059l28.5 -27.7002l-6.7002 -38.8994l34.9004 18.0996l34.9004 -18.2002z" />
    <glyph glyph-name="grin-tongue" unicode="&#xf589;" 
d="M168 272c17.7002 0 32 -14.2998 32 -32s-14.2998 -32 -32 -32s-32 14.2998 -32 32s14.2998 32 32 32zM248 440c137 0 248 -111 248 -248c0 -121.1 -86.7998 -221.8 -201.6 -243.5c-13.8008 -7.7002 -29.5 -12.5 -46.4004 -12.5s-32.5996 4.7998 -46.4004 12.5
c-114.8 21.7002 -201.6 122.4 -201.6 243.5c0 137 111 248 248 248zM312 32h0.0996094v32c-19.0996 9.5 -22.7998 12.2002 -32 12.2002h-0.299805c-9.7998 -0.100586 -18.2002 -7 -20.3994 -16.6006l-2.7002 -11.5996c-2.10059 -9.2002 -15.2002 -9.2002 -17.2998 0
l-2.7002 11.5996c-2.2002 9.60059 -10.6006 16.5 -20.4004 16.6006h-0.299805c-9.2998 0 -13.0996 -2.7002 -32 -12.2002v-31c0 -35.2002 28 -64.5 63.0996 -65c35.8008 -0.5 64.9004 28.4004 64.9004 64zM336.6 -4.7998c75 33.8994 127.4 109.3 127.4 196.8
c0 119.1 -96.9004 216 -216 216s-216 -96.9004 -216 -216c0 -87.5 52.4004 -162.9 127.4 -196.8c-4.7002 11.3994 -7.40039 23.7998 -7.40039 36.7998v13.5c-24.7998 16.2002 -43.5 38 -47.7998 63.7998c-1.90039 11.6006 9.09961 21.6006 20.7002 17.9004
c30.1992 -9.7002 75.0996 -15.2002 123.1 -15.2002s92.9004 5.5 123.1 15.2998c11.7002 3.7002 22.7002 -6.2998 20.7002 -17.8994c-4.39941 -25.8008 -23.0996 -47.7002 -47.7998 -63.8008v-13.5996c0 -13.0996 -2.7002 -25.5 -7.40039 -36.7998zM328 272
c17.7002 0 32 -14.2998 32 -32s-14.2998 -32 -32 -32s-32 14.2998 -32 32s14.2998 32 32 32z" />
    <glyph glyph-name="grin-tongue-squint" unicode="&#xf58a;" 
d="M248 440c137 0 248 -111 248 -248c0 -121.1 -86.7998 -221.8 -201.6 -243.5c-13.8008 -7.7002 -29.5 -12.5 -46.4004 -12.5s-32.5996 4.7998 -46.4004 12.5c-114.8 21.7002 -201.6 122.4 -201.6 243.5c0 137 111 248 248 248zM312 32h0.0996094v32
c-19.0996 9.5 -22.7998 12.2002 -32 12.2002h-0.299805c-9.7998 -0.100586 -18.2002 -7 -20.3994 -16.6006l-2.7002 -11.5996c-2.10059 -9.2002 -15.2002 -9.2002 -17.2998 0l-2.7002 11.5996c-2.2002 9.60059 -10.6006 16.5 -20.4004 16.6006h-0.299805
c-9.2998 0 -13.0996 -2.7002 -32 -12.2002v-31c0 -35.2002 28 -64.5 63.0996 -65c35.8008 -0.5 64.9004 28.4004 64.9004 64zM336.6 -4.7998c75 33.8994 127.4 109.3 127.4 196.8c0 119.1 -96.9004 216 -216 216s-216 -96.9004 -216 -216
c0 -87.5 52.4004 -162.9 127.4 -196.8c-4.7002 11.3994 -7.40039 23.7998 -7.40039 36.7998v13.5c-24.7998 16.2002 -43.5 38 -47.7998 63.7998c-1.90039 11.6006 9.09961 21.6006 20.7002 17.9004c30.1992 -9.7002 75.0996 -15.2002 123.1 -15.2002
s92.9004 5.5 123.1 15.2998c11.7002 3.7002 22.7002 -6.2998 20.7002 -17.8994c-4.39941 -25.8008 -23.0996 -47.7002 -47.7998 -63.8008v-13.5996c0 -13.0996 -2.7002 -25.5 -7.40039 -36.7998zM377.1 295.8c3.80078 -4.39941 3.90039 -11 0.100586 -15.5
l-33.6006 -40.2998l33.6006 -40.2998c3.7002 -4.5 3.7002 -11 -0.100586 -15.5c-3.59961 -4.2002 -9.89941 -5.7002 -15.2998 -2.5l-80 48c-3.59961 2.2002 -5.7998 6.09961 -5.7998 10.2998s2.2002 8.09961 5.7998 10.2998l80 48c5.10059 3 11.5 1.90039 15.2998 -2.5z
M214.2 250.3c3.59961 -2.2002 5.7998 -6.09961 5.7998 -10.2998s-2.2002 -8.09961 -5.7998 -10.2998l-80 -48c-5.40039 -3.2002 -11.7002 -1.7002 -15.2998 2.5c-3.80078 4.5 -3.90039 11 -0.100586 15.5l33.6006 40.2998l-33.6006 40.2998
c-3.7002 4.5 -3.7002 11 0.100586 15.5c3.89941 4.5 10.2998 5.5 15.2998 2.5z" />
    <glyph glyph-name="grin-wink" unicode="&#xf58c;" 
d="M248 440c137 0 248 -111 248 -248s-111 -248 -248 -248s-248 111 -248 248s111 248 248 248zM400.7 39.2998c19.8994 19.7998 35.5 42.9004 46.2998 68.7002c11.2998 26.5996 17 54.9004 17 84.0996c0 29.2002 -5.7002 57.5 -17 84.1006
c-10.9004 25.7002 -26.4004 48.8994 -46.2998 68.7002c-19.9004 19.7998 -43 35.3994 -68.7002 46.2998c-26.5996 11.2998 -54.9004 17 -84.0996 17c-29.2002 0 -57.5 -5.7002 -84.1006 -17c-25.7002 -10.9004 -48.8994 -26.4004 -68.7002 -46.2998
c-19.7998 -19.9004 -35.3994 -43 -46.2998 -68.7002c-11.2998 -26.6006 -17 -54.9004 -17 -84.1006c0 -29.1992 5.7002 -57.5 17 -84.0996c10.9004 -25.7002 26.4004 -48.9004 46.2998 -68.7002c19.9004 -19.7998 43 -35.3994 68.7002 -46.2998
c26.6006 -11.2998 54.9004 -17 84.1006 -17c29.1992 0 57.5 5.7002 84.0996 17c25.7002 10.9004 48.9004 26.5 68.7002 46.2998zM168 208c-17.7002 0 -32 14.2998 -32 32s14.2998 32 32 32s32 -14.2998 32 -32s-14.2998 -32 -32 -32zM288 215
c-8.40039 -7.40039 -21.5996 -0.299805 -20 10.7998c4 25.2002 34.2002 42.1006 59.9004 42.1006c25.6992 0 55.8994 -16.9004 59.8994 -42.1006c1.7998 -11.0996 -11.2998 -18.2002 -19.7998 -10.7998l-9.5 8.5c-14.7998 13.2002 -46.2002 13.2002 -61 0zM376.1 128
c9.40039 0 17.4004 -8.5 15.8008 -18.7002c-9.30078 -55 -83.2002 -93.2998 -143.801 -93.2998c-60.5996 0 -134.6 38.2998 -143.8 93.2998c-1.7002 10.1006 6.2998 18.7002 15.7002 18.7002c1.59961 0 3.2002 -0.299805 4.90039 -0.799805
c30.1992 -9.7002 75.0996 -15.2002 123.1 -15.2002s92.9004 5.5 123.2 15.2002c1.59961 0.5 3.2998 0.799805 4.89941 0.799805zM322.6 69.4004c9.40039 5.69922 17.3008 12.0996 23.3008 18.7998c-28.6006 -5.2998 -62.6006 -8.2002 -98 -8.2002
c-35.3008 0 -69.4004 2.90039 -98 8.2002c6.19922 -6.7002 14.0996 -13.1006 23.5 -18.7998c22.1992 -13.4004 50.0996 -21.4004 74.5996 -21.4004s52.4004 8 74.5996 21.4004z" />
    <glyph glyph-name="kiss" unicode="&#xf596;" 
d="M248 440c137 0 248 -111 248 -248s-111 -248 -248 -248s-248 111 -248 248s111 248 248 248zM248 -24c119.1 0 216 96.9004 216 216s-96.9004 216 -216 216s-216 -96.9004 -216 -216s96.9004 -216 216 -216zM304 140c0 -13 -13.4004 -27.2998 -35.0996 -36.4004
c21.7998 -8.69922 35.1992 -23 35.1992 -36c0 -19.1992 -28.6992 -41.5 -71.5 -44h-0.5c-3.69922 0 -7 2.60059 -7.7998 6.2002c-0.899414 3.7998 1.10059 7.7002 4.7002 9.2002l17 7.2002c12.9004 5.5 20.7002 13.5 20.7002 21.5s-7.7998 16 -20.7998 21.5l-16.9004 7.2002
c-6 2.59961 -5.7002 12.3994 0 14.7998l17 7.2002c12.9004 5.5 20.7002 13.5 20.7002 21.5s-7.7998 16 -20.7998 21.5l-16.9004 7.19922c-3.59961 1.5 -5.59961 5.40039 -4.7002 9.2002c0.799805 3.7998 4.40039 6.60059 8.2002 6.2002c42.7002 -2.5 71.5 -24.7998 71.5 -44
zM168 272c17.7002 0 32 -14.2998 32 -32s-14.2998 -32 -32 -32s-32 14.2998 -32 32s14.2998 32 32 32zM328 272c17.7002 0 32 -14.2998 32 -32s-14.2998 -32 -32 -32s-32 14.2998 -32 32s14.2998 32 32 32z" />
    <glyph glyph-name="kiss-beam" unicode="&#xf597;" 
d="M248 440c137 0 248 -111 248 -248s-111 -248 -248 -248s-248 111 -248 248s111 248 248 248zM248 -24c119.1 0 216 96.9004 216 216s-96.9004 216 -216 216s-216 -96.9004 -216 -216s96.9004 -216 216 -216zM304 140c0 -13 -13.4004 -27.2998 -35.0996 -36.4004
c21.7998 -8.69922 35.1992 -23 35.1992 -36c0 -19.1992 -28.6992 -41.5 -71.5 -44h-0.5c-3.69922 0 -7 2.60059 -7.7998 6.2002c-0.899414 3.7998 1.10059 7.7002 4.7002 9.2002l17 7.2002c12.9004 5.5 20.7002 13.5 20.7002 21.5s-7.7998 16 -20.7998 21.5l-16.9004 7.2002
c-6 2.59961 -5.7002 12.3994 0 14.7998l17 7.2002c12.9004 5.5 20.7002 13.5 20.7002 21.5s-7.7998 16 -20.7998 21.5l-16.9004 7.19922c-3.59961 1.5 -5.59961 5.40039 -4.7002 9.2002c0.799805 3.7998 4.40039 6.60059 8.2002 6.2002c42.7002 -2.5 71.5 -24.7998 71.5 -44
zM168 296c23.7998 0 52.7002 -29.2998 55.7998 -71.4004c0.299805 -3.7998 -2 -7.19922 -5.59961 -8.2998c-3.10059 -1 -7.2002 0 -9.2998 3.7002l-9.5 17c-7.7002 13.7002 -19.2002 21.5996 -31.5 21.5996c-12.3008 0 -23.8008 -7.89941 -31.5 -21.5996l-9.5 -17
c-1.80078 -3.2002 -5.80078 -4.7002 -9.30078 -3.7002c-3.59961 1.10059 -5.89941 4.60059 -5.59961 8.2998c3.2998 42.1006 32.2002 71.4004 56 71.4004zM328 296c23.7998 0 52.7002 -29.2998 55.7998 -71.4004c0.299805 -3.7998 -2 -7.19922 -5.59961 -8.2998
c-3.10059 -1 -7.2002 0 -9.2998 3.7002l-9.5 17c-7.7002 13.7002 -19.2002 21.5996 -31.5 21.5996c-12.3008 0 -23.8008 -7.89941 -31.5 -21.5996l-9.5 -17c-1.80078 -3.2002 -5.80078 -4.7002 -9.30078 -3.7002c-3.59961 1.10059 -5.89941 4.60059 -5.59961 8.2998
c3.2998 42.1006 32.2002 71.4004 56 71.4004z" />
    <glyph glyph-name="kiss-wink-heart" unicode="&#xf598;" horiz-adv-x="504" 
d="M499.6 55.7002c14 -36.6006 -6.7998 -76.6006 -44.2998 -86.4004l-65.3994 -16.8994c-16 -4.10059 -31.2002 2.09961 -40.7002 13.6992c-31 -14 -65.1006 -22.0996 -101.2 -22.0996c-137 0 -248 111 -248 248s111 248 248 248s248 -111 248 -248
c0 -37.5 -8.7998 -72.7002 -23.7998 -104.5c12.2002 -7.5 22.2002 -18.2002 27.3994 -31.7998zM323.2 45.5996c-11.7998 42.6006 20.7998 82.4004 62.7002 82.4004c37.5 0 55.0996 -30.2998 56.0996 -30.4004c14 28.5 22 60.5 22 94.4004c0 119.1 -96.9004 216 -216 216
s-216 -96.9004 -216 -216s96.9004 -216 216 -216c31.7998 0 61.7998 7.2002 89 19.7002zM447.2 0.299805c19 5 29.7002 25.1006 22.5 43.9004c-7.10059 18.7002 -27.5 24.0996 -41.7998 20.3994l-6.7002 -1.69922l-1.7998 6.59961
c-4.60059 16.5 -20.9004 28.7998 -38.6006 26c-19.8994 -3.09961 -32 -22.5 -26.7998 -41.4004l18 -65.0996c1.2998 -4.2998 5.7998 -6.7002 9.7998 -5.59961zM304 140c0 -13 -13.4004 -27.2998 -35.2998 -36.4004c21.7998 -8.69922 35.2002 -23 35.2002 -36
c0 -19.1992 -28.7002 -41.5 -71.5 -44h-0.5c-3.7002 0 -7 2.60059 -7.80078 6.2002c-0.899414 3.7998 1.10059 7.7002 4.7002 9.2002l17 7.2002c13 5.5 20.7002 13.5 20.7002 21.5s-7.7002 16 -20.7002 21.5l-16.8994 7.2002c-6 2.59961 -5.7002 12.3994 0 14.7998
l17 7.2002c13 5.5 20.6992 13.5 20.6992 21.5s-7.69922 16 -20.6992 21.5l-16.9004 7.19922c-3.59961 1.5 -5.59961 5.40039 -4.7002 9.2002c0.799805 3.7998 4.40039 6.60059 8.2002 6.2002c42.7998 -2.5 71.5 -24.7998 71.5 -44zM168 272c17.7002 0 32 -14.2998 32 -32
s-14.2998 -32 -32 -32s-32 14.2998 -32 32s14.2998 32 32 32zM403.8 225.9c1.7998 -11 -11.2002 -18.3008 -19.7998 -10.8008l-9.5 8.5c-14.7998 13.2002 -46.2002 13.2002 -61 0l-9.5 -8.5c-8.5 -7.59961 -21.5996 -0.0996094 -19.7998 10.8008
c3.89941 25.1992 34.2002 42.0996 59.7998 42.0996s55.7998 -16.9004 59.7998 -42.0996z" />
    <glyph glyph-name="laugh" unicode="&#xf599;" 
d="M248 440c137 0 248 -111 248 -248s-111 -248 -248 -248s-248 111 -248 248s111 248 248 248zM400.7 39.2998c19.8994 19.7998 35.5 42.9004 46.2998 68.7002c11.2998 26.5996 17 54.9004 17 84.0996c0 29.2002 -5.7002 57.5 -17 84.1006
c-10.9004 25.7002 -26.5 48.8994 -46.2998 68.7002c-19.9004 19.7998 -43 35.3994 -68.7002 46.2998c-26.5996 11.2998 -54.9004 17 -84.0996 17c-29.2002 0 -57.5 -5.7002 -84.1006 -17c-25.7002 -10.9004 -48.8994 -26.5 -68.7002 -46.2998
c-19.7998 -19.9004 -35.3994 -43 -46.2998 -68.7002c-11.2998 -26.6006 -17 -54.9004 -17 -84.1006c0 -29.1992 5.7002 -57.5 17 -84.0996c10.9004 -25.7002 26.5 -48.9004 46.2998 -68.7002c19.9004 -19.7998 43 -35.3994 68.7002 -46.2998
c26.6006 -11.2998 54.9004 -17 84.1006 -17c29.1992 0 57.5 5.7002 84.0996 17c25.7002 10.9004 48.9004 26.5 68.7002 46.2998zM328 224c-17.7002 0 -32 14.2998 -32 32s14.2998 32 32 32s32 -14.2998 32 -32s-14.2998 -32 -32 -32zM168 224c-17.7002 0 -32 14.2998 -32 32
s14.2998 32 32 32s32 -14.2998 32 -32s-14.2998 -32 -32 -32zM383 160c9.59961 0 17.0996 -8.40039 15.9004 -18c-8.90039 -71 -69.5 -126 -142.9 -126h-16c-73.5 0 -134.1 55 -142.9 126c-1.19922 9.59961 6.30078 18 15.9004 18h270zM256 48
c50.2002 0 93.5 33.2998 107.4 80h-230.801c13.9004 -46.7002 57.2002 -80 107.4 -80h16z" />
    <glyph glyph-name="laugh-beam" unicode="&#xf59a;" 
d="M248 440c137 0 248 -111 248 -248s-111 -248 -248 -248s-248 111 -248 248s111 248 248 248zM400.7 39.2998c19.8994 19.7998 35.5 42.9004 46.2998 68.7002c11.2998 26.5996 17 54.9004 17 84.0996c0 29.2002 -5.7002 57.5 -17 84.1006
c-10.9004 25.7002 -26.5 48.8994 -46.2998 68.7002c-19.9004 19.7998 -43 35.3994 -68.7002 46.2998c-26.5996 11.2998 -54.9004 17 -84.0996 17c-29.2002 0 -57.5 -5.7002 -84.1006 -17c-25.7002 -10.9004 -48.8994 -26.5 -68.7002 -46.2998
c-19.7998 -19.9004 -35.3994 -43 -46.2998 -68.7002c-11.2998 -26.6006 -17 -54.9004 -17 -84.1006c0 -29.1992 5.7002 -57.5 17 -84.0996c10.9004 -25.7002 26.5 -48.9004 46.2998 -68.7002c19.9004 -19.7998 43 -35.3994 68.7002 -46.2998
c26.6006 -11.2998 54.9004 -17 84.1006 -17c29.1992 0 57.5 5.7002 84.0996 17c25.7002 10.9004 48.9004 26.5 68.7002 46.2998zM287 220.1c-4.09961 -7.39941 -15.7002 -4.09961 -15.0996 4.5c3.2998 42.1006 32.1992 71.4004 56 71.4004
c23.7998 0 52.6992 -29.2998 56 -71.4004c0.699219 -8.5 -10.8008 -11.8994 -14.9004 -4.5l-9.5 17c-7.7002 13.7002 -19.2002 21.6006 -31.5 21.6006s-23.7998 -7.90039 -31.5 -21.6006zM127 220.1c-4.2002 -7.39941 -15.7002 -4 -15.0996 4.5
c3.2998 42.1006 32.1992 71.4004 56 71.4004c23.7998 0 52.6992 -29.2998 56 -71.4004c0.699219 -8.5 -10.8008 -11.8994 -14.9004 -4.5l-9.5 17c-7.7002 13.7002 -19.2002 21.6006 -31.5 21.6006s-23.7998 -7.90039 -31.5 -21.6006zM383 160
c9.59961 0 17.0996 -8.40039 15.9004 -18c-8.90039 -71 -69.5 -126 -142.9 -126h-16c-73.5 0 -134.1 55 -142.9 126c-1.19922 9.59961 6.30078 18 15.9004 18h270zM256 48c50.2002 0 93.5 33.2998 107.4 80h-230.801c13.9004 -46.7002 57.2002 -80 107.4 -80h16z" />
    <glyph glyph-name="laugh-squint" unicode="&#xf59b;" 
d="M248 440c137 0 248 -111 248 -248s-111 -248 -248 -248s-248 111 -248 248s111 248 248 248zM400.7 39.2998c19.8994 19.7998 35.5 42.9004 46.2998 68.7002c11.2998 26.5996 17 54.9004 17 84.0996c0 29.2002 -5.7002 57.5 -17 84.1006
c-10.9004 25.7002 -26.5 48.8994 -46.2998 68.7002c-19.9004 19.7998 -43 35.3994 -68.7002 46.2998c-26.5996 11.2998 -54.9004 17 -84.0996 17c-29.2002 0 -57.5 -5.7002 -84.1006 -17c-25.7002 -10.9004 -48.8994 -26.5 -68.7002 -46.2998
c-19.7998 -19.9004 -35.3994 -43 -46.2998 -68.7002c-11.2998 -26.6006 -17 -54.9004 -17 -84.1006c0 -29.1992 5.7002 -57.5 17 -84.0996c10.9004 -25.7002 26.5 -48.9004 46.2998 -68.7002c19.9004 -19.7998 43 -35.3994 68.7002 -46.2998
c26.6006 -11.2998 54.9004 -17 84.1006 -17c29.1992 0 57.5 5.7002 84.0996 17c25.7002 10.9004 48.9004 26.5 68.7002 46.2998zM281.8 241.7c-7.7002 4.7002 -7.7002 15.8994 0 20.5996l80 48c11.6006 6.7998 24 -7.7002 15.4004 -18l-33.6006 -40.2998l33.6006 -40.2998
c8.59961 -10.4004 -3.90039 -24.7998 -15.4004 -18zM134.2 193.7c-11.6006 -6.7998 -24.1006 7.59961 -15.4004 18l33.6006 40.2998l-33.6006 40.2998c-8.59961 10.2998 3.7998 24.9004 15.4004 18l80 -48c7.7998 -4.7002 7.7998 -15.8994 0 -20.5996zM383 160
c9.59961 0 17.0996 -8.40039 15.9004 -18c-8.90039 -71 -69.5 -126 -142.9 -126h-16c-73.5 0 -134.1 55 -142.9 126c-1.19922 9.59961 6.30078 18 15.9004 18h270zM256 48c50.2002 0 93.5 33.2998 107.4 80h-230.801c13.9004 -46.7002 57.2002 -80 107.4 -80h16z" />
    <glyph glyph-name="laugh-wink" unicode="&#xf59c;" 
d="M248 440c137 0 248 -111 248 -248s-111 -248 -248 -248s-248 111 -248 248s111 248 248 248zM400.7 39.2998c19.8994 19.7998 35.5 42.9004 46.2998 68.7002c11.2998 26.5996 17 54.9004 17 84.0996c0 29.2002 -5.7002 57.5 -17 84.1006
c-10.9004 25.7002 -26.4004 48.8994 -46.2998 68.7002c-19.9004 19.7998 -43 35.3994 -68.7002 46.2998c-26.5996 11.2998 -54.9004 17 -84.0996 17c-29.2002 0 -57.5 -5.7002 -84.1006 -17c-25.7002 -10.9004 -48.8994 -26.4004 -68.7002 -46.2998
c-19.7998 -19.9004 -35.3994 -43 -46.2998 -68.7002c-11.2998 -26.6006 -17 -54.9004 -17 -84.1006c0 -29.1992 5.7002 -57.5 17 -84.0996c10.9004 -25.7002 26.4004 -48.9004 46.2998 -68.7002c19.9004 -19.7998 43 -35.3994 68.7002 -46.2998
c26.6006 -11.2998 54.9004 -17 84.1006 -17c29.1992 0 57.5 5.7002 84.0996 17c25.7002 10.9004 48.9004 26.5 68.7002 46.2998zM288 231c-8.40039 -7.40039 -21.5996 -0.299805 -20 10.7998c4 25.2002 34.2002 42.1006 59.9004 42.1006
c25.6992 0 55.8994 -16.9004 59.8994 -42.1006c1.7998 -11.0996 -11.2998 -18.2002 -19.7998 -10.7998l-9.5 8.5c-14.7998 13.2002 -46.2002 13.2002 -61 0zM168 224c-17.7002 0 -32 14.2998 -32 32s14.2998 32 32 32s32 -14.2998 32 -32s-14.2998 -32 -32 -32zM383 160
c9.59961 0 17.0996 -8.40039 15.9004 -18c-8.90039 -71 -69.5 -126 -142.9 -126h-16c-73.5 0 -134.1 55 -142.9 126c-1.19922 9.59961 6.30078 18 15.9004 18h270zM256 48c50.2002 0 93.5 33.2998 107.4 80h-230.801c13.9004 -46.7002 57.2002 -80 107.4 -80h16z" />
    <glyph glyph-name="meh-blank" unicode="&#xf5a4;" 
d="M248 440c137 0 248 -111 248 -248s-111 -248 -248 -248s-248 111 -248 248s111 248 248 248zM248 -24c119.1 0 216 96.9004 216 216s-96.9004 216 -216 216s-216 -96.9004 -216 -216s96.9004 -216 216 -216zM168 272c17.7002 0 32 -14.2998 32 -32s-14.2998 -32 -32 -32
s-32 14.2998 -32 32s14.2998 32 32 32zM328 272c17.7002 0 32 -14.2998 32 -32s-14.2998 -32 -32 -32s-32 14.2998 -32 32s14.2998 32 32 32z" />
    <glyph glyph-name="meh-rolling-eyes" unicode="&#xf5a5;" 
d="M224 224c0 -39.7998 -32.2002 -72 -72 -72s-72 32.2002 -72 72s32.2002 72 72 72s72 -32.2002 72 -72zM152 184c22.0996 0 40 17.9004 40 40c0 13.5996 -7.2998 25.0996 -17.7002 32.2998c1 -2.59961 1.7002 -5.39941 1.7002 -8.2998c0 -13.2998 -10.7002 -24 -24 -24
s-24 10.7002 -24 24c0 3 0.700195 5.7002 1.7002 8.2998c-10.4004 -7.2002 -17.7002 -18.7002 -17.7002 -32.2998c0 -22.0996 17.9004 -40 40 -40zM344 296c39.7998 0 72 -32.2002 72 -72s-32.2002 -72 -72 -72s-72 32.2002 -72 72s32.2002 72 72 72zM344 184
c22.0996 0 40 17.9004 40 40c0 13.5996 -7.2998 25.0996 -17.7002 32.2998c1 -2.59961 1.7002 -5.39941 1.7002 -8.2998c0 -13.2998 -10.7002 -24 -24 -24s-24 10.7002 -24 24c0 3 0.700195 5.7002 1.7002 8.2998c-10.4004 -7.2002 -17.7002 -18.7002 -17.7002 -32.2998
c0 -22.0996 17.9004 -40 40 -40zM248 440c137 0 248 -111 248 -248s-111 -248 -248 -248s-248 111 -248 248s111 248 248 248zM248 -24c119.1 0 216 96.9004 216 216s-96.9004 216 -216 216s-216 -96.9004 -216 -216s96.9004 -216 216 -216zM312 80
c8.7998 0 16 -7.2002 16 -16s-7.2002 -16 -16 -16h-128c-8.7998 0 -16 7.2002 -16 16s7.2002 16 16 16h128z" />
    <glyph glyph-name="sad-cry" unicode="&#xf5b3;" 
d="M248 440c137 0 248 -111 248 -248s-111 -248 -248 -248s-248 111 -248 248s111 248 248 248zM376 18.4004c53.2998 39.3994 88 102.399 88 173.6c0 119.1 -96.9004 216 -216 216s-216 -96.9004 -216 -216c0 -71.2002 34.7002 -134.2 88 -173.6v157.6
c0 8.7998 7.2002 16 16 16s16 -7.2002 16 -16v-177.2c29 -14.5 61.5 -22.7998 96 -22.7998s67 8.2998 96 22.7998v177.2c0 8.7998 7.2002 16 16 16s16 -7.2002 16 -16v-157.6zM205.8 213.5c-5.7998 -3.2002 -11.2002 -0.700195 -13.7002 1.59961l-9.5 8.5
c-14.7998 13.2002 -46.1992 13.2002 -61 0l-9.5 -8.5c-3.7998 -3.39941 -9.2998 -4 -13.6992 -1.59961c-4.40039 2.40039 -6.90039 7.40039 -6.10059 12.4004c3.90039 25.1992 34.2002 42.0996 59.7998 42.0996c25.6006 0 55.8008 -16.9004 59.8008 -42.0996
c0.799805 -5 -1.7002 -10 -6.10059 -12.4004zM344 268c25.7002 0 55.9004 -16.9004 59.7998 -42.0996c0.799805 -5 -1.7002 -10 -6.09961 -12.4004c-5.7002 -3.09961 -11.2002 -0.599609 -13.7002 1.59961l-9.5 8.5c-14.7998 13.2002 -46.2002 13.2002 -61 0l-9.5 -8.5
c-3.7998 -3.39941 -9.2998 -4 -13.7002 -1.59961c-4.39941 2.40039 -6.89941 7.40039 -6.09961 12.4004c3.89941 25.1992 34.0996 42.0996 59.7998 42.0996zM248 160c30.9004 0 56 -28.7002 56 -64s-25.0996 -64 -56 -64s-56 28.7002 -56 64s25.0996 64 56 64zM248 64
c13 0 24 14.7002 24 32s-11 32 -24 32s-24 -14.7002 -24 -32s11 -32 24 -32z" />
    <glyph glyph-name="sad-tear" unicode="&#xf5b4;" 
d="M168 208c-17.7002 0 -32 14.2998 -32 32s14.2998 32 32 32s32 -14.2998 32 -32s-14.2998 -32 -32 -32zM328 208c-17.7002 0 -32 14.2998 -32 32s14.2998 32 32 32s32 -14.2998 32 -32s-14.2998 -32 -32 -32zM248 440c137 0 248 -111 248 -248s-111 -248 -248 -248
s-248 111 -248 248s111 248 248 248zM248 -24c119.1 0 216 96.9004 216 216s-96.9004 216 -216 216s-216 -96.9004 -216 -216s96.9004 -216 216 -216zM248 128c44.4004 0 86.2002 -19.5996 114.7 -53.7002c5.7002 -6.7002 4.7998 -16.7998 -2 -22.5
c-7.10059 -6 -17.2002 -4.39941 -22.5 2c-22.4004 26.7998 -55.2998 42.2002 -90.2002 42.2002c-6.40039 0 -12.5996 -0.700195 -18.7002 -1.90039c1.7002 -5.59961 2.7002 -10.6992 2.7002 -15.0996c0 -34.7002 -28.7002 -63 -64 -63s-64 28.2998 -64 63
c0 18.2998 15.0996 47.7002 44.7998 87.2998c9 12 29.4004 12.1006 38.4004 0c12 -15.8994 20.8994 -29.7998 28.0996 -42.3994c10.7002 2.39941 21.5 4.09961 32.7002 4.09961zM168 48c17.7002 0 32 13.9004 32 31c0 7.7002 -10 28.7998 -32 59.5
c-22 -30.7002 -32 -51.7998 -32 -59.5c0 -17.0996 14.2998 -31 32 -31z" />
    <glyph glyph-name="smile-beam" unicode="&#xf5b8;" 
d="M168 242.6c-12.2998 0 -23.7998 -7.7998 -31.5 -21.5996l-9.5 -17c-1.90039 -3.2002 -5.90039 -4.7998 -9.2998 -3.7002c-3.60059 1.10059 -6 4.60059 -5.7002 8.2998c3.2998 42.1006 32.2002 71.4004 56 71.4004s52.7002 -29.2998 56 -71.4004
c0.299805 -3.7998 -2.09961 -7.19922 -5.7002 -8.2998c-3.09961 -1 -7.2002 0 -9.2998 3.7002l-9.5 17c-7.7002 13.7002 -19.2002 21.5996 -31.5 21.5996zM248 440c137 0 248 -111 248 -248s-111 -248 -248 -248s-248 111 -248 248s111 248 248 248zM248 -24
c119.1 0 216 96.9004 216 216s-96.9004 216 -216 216s-216 -96.9004 -216 -216s96.9004 -216 216 -216zM328 280c23.7998 0 52.7002 -29.2998 56 -71.4004c0.299805 -3.7998 -2.09961 -7.19922 -5.7002 -8.2998c-3.09961 -1 -7.2002 0 -9.2998 3.7002l-9.5 17
c-7.7002 13.7002 -19.2002 21.5996 -31.5 21.5996s-23.7998 -7.89941 -31.5 -21.5996l-9.5 -17c-1.90039 -3.2002 -5.90039 -4.7998 -9.2998 -3.7002c-3.60059 1.10059 -6 4.60059 -5.7002 8.2998c3.2998 42.1006 32.2002 71.4004 56 71.4004zM338.2 122.2
c5.7002 6.7998 15.7002 7.7002 22.5996 2.09961c6.7998 -5.59961 7.7002 -15.7002 2 -22.5c-28.5 -34.2002 -70.3994 -53.7998 -114.8 -53.7998s-86.2998 19.5996 -114.7 53.7002c-5.7002 6.7998 -4.7998 16.7998 2 22.5c6.7002 5.7002 16.7998 4.7998 22.5 -2
c22.4004 -26.7998 55.2998 -42.2002 90.2002 -42.2002s67.7998 15.4004 90.2002 42.2002z" />
    <glyph glyph-name="star-half-alt" unicode="&#xf5c0;" horiz-adv-x="536" 
d="M417.28 289.78l-4.62012 -31.6699l-71.7803 10.4395l-32.0996 64.9404l28.7393 14.1602l24.6406 -49.8408zM404.41 22.6904l31.6094 5.40918l9.89062 -60.2793c0 -7.5 -2.57031 -14.5 -7.44043 -20.2207c-6.10938 -7.22949 -15.3594 -11.5596 -24.71 -11.5596
c-5.10938 0 -10.0898 1.25 -14.79 3.7002l-49.0195 25.7197l14.8994 28.3096l49 -25.6992zM275.3 40.4199l0.140625 0.259766l56.7695 -29.7793l-14.9004 -28.3105l-49.3193 25.8701l-130.95 -68.7002c-4.78027 -2.5 -9.75977 -3.75 -14.8604 -3.75
c-9.33008 0 -18.5498 4.33008 -24.6699 11.5801c-6.08984 7.2002 -8.56934 16.3906 -6.96973 25.8398l25.0596 145.5l-105.899 103c-8.79004 8.53027 -11.9102 21.1104 -8.12012 32.7803c3.82031 11.6904 13.7197 20.0303 25.8203 21.8096l146.42 21.29l65.4102 132.381
c5.5293 11.1494 16.2295 17.8096 28.6797 17.8096c12.3301 0 23.3701 -6.83008 28.8203 -17.8203l20.46 -41.4102l-28.7402 -14.1592l-20.46 41.3896v0.0195312c-0.0302734 0 -0.0498047 -0.0195312 -0.0800781 -0.0195312l-72.7998 -147.44l-163.04 -23.6992
l117.979 -114.78l-27.8994 -162.03l138.38 72.6201c4.85938 2.54004 10.2695 2.09961 14.7695 -0.25zM534.37 254.7c1.07031 -3.21973 1.62988 -6.62012 1.63965 -10.04c0 -8.62988 -3.47949 -16.7197 -9.79004 -22.7998l-39.6094 -38.5303l-22.3906 22.9102
l39.6699 38.5898l-54.9492 8.01953l4.62988 31.6602l54.9492 -8c12.1709 -1.7793 22.0801 -10.1396 25.8506 -21.8096zM385.92 130.08l51.9404 50.5596l22.3896 -22.9092l-39.8896 -38.8008l9.43945 -54.7998l-31.5898 -5.41016z" />
    <glyph glyph-name="surprise" unicode="&#xf5c2;" 
d="M248 440c137 0 248 -111 248 -248s-111 -248 -248 -248s-248 111 -248 248s111 248 248 248zM248 -24c119.1 0 216 96.9004 216 216s-96.9004 216 -216 216s-216 -96.9004 -216 -216s96.9004 -216 216 -216zM248 160c35.2998 0 64 -28.7002 64 -64s-28.7002 -64 -64 -64
s-64 28.7002 -64 64s28.7002 64 64 64zM248 64c17.5996 0 32 14.4004 32 32s-14.4004 32 -32 32s-32 -14.4004 -32 -32s14.4004 -32 32 -32zM200 240c0 -17.7002 -14.2998 -32 -32 -32s-32 14.2998 -32 32s14.2998 32 32 32s32 -14.2998 32 -32zM328 272
c17.7002 0 32 -14.2998 32 -32s-14.2998 -32 -32 -32s-32 14.2998 -32 32s14.2998 32 32 32z" />
    <glyph glyph-name="swatchbook" unicode="&#xf5c3;" horiz-adv-x="512" 
d="M96 16c-8.83984 0 -16 7.16016 -16 16s7.16016 16 16 16s16 -7.16016 16 -16s-7.16016 -16 -16 -16zM480 128c17.6699 0 32 -14.3301 32 -32v-128c0 -17.6699 -14.3301 -32 -32 -32h-384c-53.0195 0 -96 42.9805 -96 96v384c0 17.6699 14.3301 32 32 32h128
c17.6699 0 32 -14.3301 32 -32v-152.23l107.64 107.641c6.25 6.25 14.4404 9.37012 22.6299 9.37012c8.19043 0 16.3809 -3.12012 22.6309 -9.37012l90.5195 -90.5c12.5 -12.5 12.5 -32.7598 0 -45.2598l-107.65 -107.65h152.23zM160 32v128h-128v-128
c0 -35.29 28.71 -64 64 -64s64 28.71 64 64zM160 192v96h-128v-96h128zM160 320v96h-128v-96h128zM192 218.53v-181.04l220.78 220.779l-90.5107 90.5107h-0.0292969zM480 -32v128h-184.24l-128 -128h312.24z" />
    <glyph glyph-name="tired" unicode="&#xf5c8;" 
d="M248 440c137 0 248 -111 248 -248s-111 -248 -248 -248s-248 111 -248 248s111 248 248 248zM248 -24c119.1 0 216 96.9004 216 216s-96.9004 216 -216 216s-216 -96.9004 -216 -216s96.9004 -216 216 -216zM361.8 298.3c11.6006 6.7998 24 -7.7002 15.4004 -18
l-33.6006 -40.2998l33.6006 -40.2998c8.59961 -10.2998 -3.7998 -24.9004 -15.4004 -18l-80 48c-7.7998 4.7002 -7.7998 15.8994 0 20.5996zM134.2 181.7c-11.6006 -6.90039 -24 7.7002 -15.4004 18l33.6006 40.2998l-33.6006 40.2998
c-8.59961 10.2998 3.7998 24.9004 15.4004 18l80 -48c7.7998 -4.7002 7.7998 -15.8994 0 -20.5996zM248 176c51.9004 0 115.3 -43.7998 123.4 -106.7c0.699219 -6.2998 -1 -12.7002 -4.60059 -16.8994c-2.7002 -3.10059 -7.7002 -6 -13.2002 -3.60059
c-25.8994 11.1006 -64.3994 17.4004 -105.5 17.4004c-41.0996 0 -79.5996 -6.2998 -105.5 -17.4004c-7.39941 -3.09961 -12.5996 2.90039 -13.1992 3.60059c-3.7002 4.19922 -5.40039 10.5996 -4.60059 16.8994c7.90039 62.9004 71.2998 106.7 123.2 106.7zM248 98.2998
c30.7002 0 59.5 -3.2002 84.2998 -9.09961c-15.7998 32.5 -53 54.7998 -84.2998 54.7998s-68.5 -22.2998 -84.2998 -54.7998c24.7998 5.89941 53.7002 9.09961 84.2998 9.09961z" />
    <glyph glyph-name="wine-glass-alt" unicode="&#xf5ce;" horiz-adv-x="288" 
d="M213.34 -32c14.7197 0 26.6602 -11.9404 26.6602 -26.6699c0 -2.94043 -2.37988 -5.33008 -5.33008 -5.33008h-181.34c-2.94043 0 -5.33008 2.37988 -5.33008 5.33008c0 14.7295 11.9404 26.6699 26.6699 26.6699h53.3301v129.73
c-76.7305 8.71973 -134.57 77.5996 -127.4 157.609l15.96 178.11c0.730469 8.24023 7.55078 14.5498 15.7002 14.5498h223.48c8.16016 0 14.9697 -6.30957 15.7002 -14.5498l15.96 -178.11c7.16992 -80.0098 -50.6699 -148.89 -127.4 -157.609v-129.73h53.3398zM240.88 416
h-193.76l-8.60059 -96h210.961zM32.4697 252.49c-1.7998 -20.1602 1.58008 -39.4805 9.08984 -56.6006c17.71 -40.4795 58.2705 -66.1494 102.45 -66.1494c44.1807 0 84.7402 25.6699 102.45 66.1494c7.49023 17.1201 10.8799 36.4404 9.07031 56.6006l-3.18066 35.5098
h-216.689z" />
    <glyph glyph-name="car-alt" unicode="&#xf5de;" horiz-adv-x="480" 
d="M423.18 252.19c32.8008 -9.98047 56.8203 -40.1104 56.8203 -76.1807v-128.01c0 -26.4697 -21.5303 -48 -48 -48h-16c-26.4697 0 -48 21.5303 -48 48v16h-256v-16c0 -26.4697 -21.5303 -48 -48 -48h-16c-26.4697 0 -48 21.5303 -48 48v128.01
c0 36.0703 24.0195 66.2002 56.8203 76.1904l24.9395 76.5801c10.7305 32.9297 41.4307 55.2197 76.0703 55.2197h164.34c34.6396 0 65.3398 -22.29 76.0703 -55.2305zM112.19 318.86l-20.4707 -62.8408h296.561l-20.4707 62.8506
c-6.45996 19.8096 -24.7998 33.1299 -45.6396 33.1299h-164.34c-20.8398 0 -39.1797 -13.3203 -45.6396 -33.1396zM80 48v16h-48v-16c0 -8.83008 7.19043 -16 16 -16h16c8.80957 0 16 7.16992 16 16zM448 48v16h-48v-16c0 -8.83008 7.19043 -16 16 -16h16
c8.80957 0 16 7.16992 16 16zM448 128.01v48c0 26.4707 -21.5303 48 -48 48h-320c-26.4697 0 -48 -21.5293 -48 -48v-80h416v32zM104.8 200c24.1006 0 55.2002 -23.2402 55.2002 -47.9199c0 -11.9805 -5.84961 -32.0801 -45.0596 -32.0801l-10.1406 0.0996094
c-25.96 0 -44.7998 16.8008 -44.7998 39.9502c0 23.1504 18.8398 39.9502 44.7998 39.9502zM114.94 144c10.5293 0 21.0596 0.900391 21.0596 8.07031c0 9.56934 -18.7197 23.9297 -31.2002 23.9297c-12.4795 0 -20.7998 -6.37988 -20.7998 -15.9502
c0 -9.56934 8.32031 -15.9502 20.7998 -15.9502c3.12012 0 6.62988 -0.0996094 10.1406 -0.0996094zM375.2 200c25.96 0 44.7998 -16.7998 44.7998 -39.96c0 -23.1504 -18.8398 -39.9502 -44.7998 -39.9502l-10.1406 -0.0996094c-39.21 0 -45.0596 20.0996 -45.0596 32.0801
c0 24.6895 31.0996 47.9297 55.2002 47.9297zM375.2 144.1c12.4795 0 20.7998 6.38086 20.7998 15.9502c0 9.57031 -8.32031 15.9502 -20.7998 15.9502c-12.4805 0 -31.2002 -14.3604 -31.2002 -23.9297c0 -7.16992 10.5303 -8.07031 21.0596 -8.07031
c3.51074 0 7.02051 0.0996094 10.1406 0.0996094z" />
    <glyph glyph-name="car-wash" unicode="&#xf5e6;" horiz-adv-x="448" 
d="M80 320c-26.4697 0 -48 21.5996 -48 48.1602c0 20.5195 24.3799 58.1201 34.8496 73.3203c5.93066 8.68945 20.3701 8.68945 26.3105 0c10.46 -15.2002 34.8398 -52.8008 34.8398 -73.3203c0 -26.5605 -21.5303 -48.1602 -48 -48.1602zM80 402.61
c-9.21973 -15.5703 -15.8799 -29.5605 -16 -34.4502c0 -8.83984 7.19043 -16.04 16 -16.04s16 7.18945 16 16.0498c-0.120117 4.88965 -6.78027 18.8701 -16 34.4404zM224 320c-26.4697 0 -48 21.5996 -48 48.1602c0 20.5195 24.3799 58.1201 34.8496 73.3203
c5.93066 8.68945 20.3701 8.68945 26.3105 0c10.46 -15.2002 34.8398 -52.8008 34.8398 -73.3203c0 -26.5605 -21.5303 -48.1602 -48 -48.1602zM224 402.61c-9.21973 -15.5703 -15.8799 -29.5605 -16 -34.4502c0 -8.83984 7.19043 -16.04 16 -16.04s16 7.18945 16 16.0498
c-0.120117 4.88965 -6.78027 18.8701 -16 34.4404zM368 320c-26.4697 0 -48 21.5996 -48 48.1602c0 20.5195 24.3799 58.1201 34.8496 73.3203c5.93066 8.68945 20.3701 8.68945 26.3105 0c10.46 -15.2002 34.8398 -52.8008 34.8398 -73.3203
c0 -26.5605 -21.5303 -48.1602 -48 -48.1602zM368 402.61c-9.21973 -15.5703 -15.8799 -29.5605 -16 -34.4502c0 -8.83984 7.19043 -16.04 16 -16.04s16 7.18945 16 16.0498c-0.120117 4.88965 -6.78027 18.8701 -16 34.4404zM397.38 186.26
c29.6104 -11.7295 50.6201 -40.4795 50.6201 -74.2598v-128c0 -26.4697 -21.5303 -48 -48 -48h-16c-26.4697 0 -48 21.5303 -48 48v16h-224v-16c0 -26.4697 -21.5303 -48 -48 -48h-16c-26.4697 0 -48 21.5303 -48 48v128c0 33.7803 21.0098 62.5303 50.6104 74.2598
l15.1494 46.5c10.7305 32.9307 41.4307 55.2207 76.0703 55.2207h164.33c34.6396 0 65.3398 -22.29 76.0703 -55.2207zM96.1904 222.85l-10.0508 -30.8496h275.721l-10.0508 30.8496c-6.45996 19.8105 -24.7998 33.1309 -45.6396 33.1309h-164.34
c-0.0283203 0 -0.0429688 0.00488281 -0.0712891 0.00488281c-21.2832 0 -39.3428 -13.915 -45.5684 -33.1357zM80 -16v16h-48v-16c0 -8.83008 7.19043 -16 16 -16h16c8.80957 0 16 7.16992 16 16zM416 -16v16h-48v-16c0 -8.83008 7.19043 -16 16 -16h16
c8.80957 0 16 7.16992 16 16zM416 64v48c0 26.4697 -21.5303 48 -48 48h-288c-26.4697 0 -48 -21.5303 -48 -48v-80h384v32zM343.2 135.99c25.96 0 44.7998 -16.7998 44.7998 -39.9502s-18.8398 -39.9502 -44.7998 -39.9502l-10.1406 -0.0996094
c-39.21 0 -45.0596 20.0898 -45.0596 32.0693c0 24.6904 31.0996 47.9307 55.2002 47.9307zM343.2 80.0898c12.4795 0 20.7998 6.37988 20.7998 15.9502s-8.32031 15.9502 -20.7998 15.9502c-12.4805 0 -31.2002 -14.3604 -31.2002 -23.9307
c0 -7.16992 10.5303 -8.06934 21.0596 -8.06934c3.51074 0 7.02051 0.0996094 10.1406 0.0996094zM104.8 135.99c24.1006 0 55.2002 -23.2402 55.2002 -47.9307c0 -11.9697 -5.84961 -32.0693 -45.0596 -32.0693l-10.1406 0.0996094
c-25.96 0 -44.7998 16.7998 -44.7998 39.9502s18.8398 39.9502 44.7998 39.9502zM114.94 79.9902c10.5293 0 21.0596 0.899414 21.0596 8.06934c0 9.57031 -18.7197 23.9307 -31.2002 23.9307c-12.4795 0 -20.7998 -6.37988 -20.7998 -15.9502
s8.32031 -15.9502 20.7998 -15.9502c3.12012 0 6.62988 -0.0996094 10.1406 -0.0996094z" />
    <glyph glyph-name="do-not-enter" unicode="&#xf5ec;" 
d="M394.67 256c7.36035 0 13.3301 -7.16016 13.3203 -16v-96c0 -8.83984 -5.9707 -16 -13.3301 -16h-293.33c-7.36035 0 -13.3301 7.16016 -13.3301 16v96c0 8.83984 5.96973 16 13.3301 16h293.34zM376 160v64h-256v-64h256zM248 440c136.97 0 248 -111.03 248 -248
s-111.03 -248 -248 -248s-248 111.03 -248 248s111.03 248 248 248zM248 -24c119.1 0 216 96.9004 216 216s-96.9004 216 -216 216s-216 -96.9004 -216 -216s96.9004 -216 216 -216z" />
    <glyph glyph-name="location-circle" unicode="&#xf602;" 
d="M307.75 301c14.2803 5.94043 30.0898 2.58984 41 -8.33008c10.8398 -10.8604 14.1904 -26.7002 8.5 -40.3398l-0.25 -0.549805l-83.9805 -181.9c-6.39941 -13.7695 -19.3096 -21.9102 -33.6191 -21.9102c-2.75 0 -5.60059 0.320312 -8.44043 0.94043
c-17.3701 3.83984 -29.0303 18.3398 -29.0303 36.0596v60.9502h-60.9697c-17.7197 0 -32.1797 11.6699 -36.0596 29.0303c-3.87012 17.5195 4.5293 34.4102 20.9092 42.0498zM244 83.3301l83.7803 181.49c0.870117 2.41992 -1.07031 4.62988 -1.69043 5.25
c-0.530273 0.529297 -2.08984 1.91992 -4 1.91992c-0.5 0 -0.969727 -0.0800781 -1.5 -0.299805l-181.31 -83.7207c-2.68066 -1.23926 -3.74023 -3.2998 -3.12012 -6.08008c0.589844 -2.63965 2.21973 -3.96973 4.80957 -3.96973h92.9707v-92.9502
c0 -2.60938 1.34961 -4.22949 3.93945 -4.80957c2.83984 -0.719727 4.83984 0.450195 6.12012 3.16992zM248 440c136.97 0 248 -111.03 248 -248s-111.03 -248 -248 -248s-248 111.03 -248 248s111.03 248 248 248zM248 -24c119.1 0 216 96.9004 216 216
s-96.9004 216 -216 216s-216 -96.9004 -216 -216s96.9004 -216 216 -216z" />
    <glyph glyph-name="parking-circle" unicode="&#xf615;" 
d="M268.1 320.09c45.9307 0 87.0205 -33.5098 91.4707 -79.2197c5.10938 -52.46 -36.1406 -96.7803 -87.5703 -96.7803h-72v-72c0 -4.41992 -3.58008 -8 -8 -8h-16c-4.41992 0 -8 3.58008 -8 8v240c0 4.41992 3.58008 8 8 8h92.0996zM272 176.09c30.8799 0 56 25.1201 56 56
s-25.1201 56 -56 56h-72v-112h72zM248 440c136.97 0 248 -111.03 248 -248s-111.03 -248 -248 -248s-248 111.03 -248 248s111.03 248 248 248zM248 -24c119.1 0 216 96.9004 216 216s-96.9004 216 -216 216s-216 -96.9004 -216 -216s96.9004 -216 216 -216z" />
    <glyph glyph-name="parking-circle-slash" unicode="&#xf616;" 
d="M248 440c136.97 0 248 -111.03 248 -248s-111.03 -248 -248 -248s-248 111.03 -248 248s111.03 248 248 248zM248 -24c62.96 0 119.54 27.25 159.06 70.3799l-338.14 266.271c-23.2998 -34.4805 -36.9199 -76 -36.9199 -120.65c0 -119.1 96.9004 -216 216 -216z
M200 250.17l89.9805 -70.8604c22.0293 7.54004 38.0195 28.2207 38.0195 52.7705c0 30.8799 -25.1201 56 -56 56h-72v-37.9102zM317.54 157.62l109.54 -86.2598c23.2998 34.4697 36.9199 75.9893 36.9199 120.64c0 119.1 -96.9004 216 -216 216
c-62.96 0 -119.54 -27.25 -159.06 -70.3701l79.0596 -62.2598v36.7197c0 4.41992 3.58008 8 8 8h92.0898c45.9404 0 87.0303 -33.5 91.4805 -79.2197c3.43945 -35.3506 -14.4102 -66.5 -42.0303 -83.25zM168 72.0898v121.8l63.25 -49.7998h-31.25v-72
c0 -4.41992 -3.58008 -8 -8 -8h-16c-4.41992 0 -8 3.58008 -8 8z" />
    <glyph glyph-name="steering-wheel" unicode="&#xf622;" 
d="M248 440c136.97 0 248 -111.03 248 -248s-111.03 -248 -248 -248s-248 111.03 -248 248s111.03 248 248 248zM248 408c-119.1 0 -215.99 -96.8896 -216 -215.98h105.62c7.43945 36.4609 39.7402 63.9805 78.3799 63.9805h64c38.6396 0 70.9404 -27.5195 78.3799 -63.9805
h105.62c-0.00976562 119.091 -96.9004 215.98 -216 215.98zM242.34 108.3c1.44824 -1.4502 3.45215 -2.34863 5.66113 -2.34863c2.20996 0 4.21094 0.898438 5.65918 2.34863l67.5 67.4805c4.62012 4.62012 5.93945 11.5898 3.5498 17.6797
c-7 17.8604 -24.4102 30.54 -44.71 30.54h-64c-20.2998 0 -37.71 -12.6797 -44.71 -30.54c-2.38965 -6.08008 -1.07031 -13.0596 3.5498 -17.6797zM34.6396 160.02c14.7607 -98.7598 96.4199 -175.75 197.36 -183.21v96.5801l-86.6396 86.6299h-110.721zM264 -23.1904
c100.94 7.45996 182.6 84.4502 197.36 183.21h-110.721l-86.6396 -86.6299v-96.5801z" />
    <glyph glyph-name="bullseye-arrow" unicode="&#xf648;" 
d="M305.05 349.26c-0.678711 2.04102 -1.05371 4.22949 -1.05371 6.49707c0 5.67578 2.30273 10.8184 6.02344 14.543l63.6709 63.6699c4.10938 4.11035 9.3291 6.03027 14.4697 6.03027c8.37988 0 16.5703 -5.08008 19.5498 -14.0703l18.5498 -55.6494l55.6602 -18.5498
c14.5 -4.84082 18.8398 -23.2402 8.04004 -34.04l-63.6699 -63.6709c-3.71973 -3.71875 -8.8623 -6.0127 -14.5332 -6.0127c-2.27344 0 -4.46191 0.370117 -6.50684 1.05273l-53.6201 23.96l-92.3301 -92.3291c-3.12012 -3.13086 -7.21973 -4.69043 -11.3096 -4.69043
s-8.19043 1.57031 -11.3105 4.69043c-6.25 6.23926 -6.25 16.3691 0 22.6191l92.3301 92.3301zM383.23 398.25l-44.9209 -44.9404l21.9307 -49.0898l49.0898 -21.9297l44.9297 44.9297l-38.0898 12.7002l-15.1797 5.06055l-5.06055 15.1797zM484.43 266.9
c7.48047 -23.6406 11.5703 -48.79 11.5703 -74.9004c0 -136.97 -111.03 -248 -248 -248s-248 111.03 -248 248s111.03 248 248 248c0.0195312 0 0.0507812 -0.0546875 0.0703125 -0.0546875c26.0752 0 51.2158 -4.03516 74.8301 -11.5156l-26.1807 -26.1797
c-15.6797 3.63965 -31.9395 5.75 -48.7197 5.75c-119.1 0 -216 -96.9004 -216 -216s96.9004 -216 216 -216s216 96.9004 216 216c0 16.7695 -2.12012 33.0303 -5.75 48.7197zM274.7 339.15c0.709961 -2.14062 -0.620117 1 9.06934 -20.7002
c-11.4492 3.25 -23.2891 5.5498 -35.7695 5.5498c-72.79 0 -132 -59.21 -132 -132s59.21 -132 132 -132s132 59.21 132 132c0 12.4805 -2.2998 24.3203 -5.5498 35.7695c21.71 -9.68945 18.5693 -8.35938 20.6895 -9.06934
c4.65039 -1.5498 9.52051 -2.12988 14.4102 -2.33984c1.2002 -8.01074 2.4502 -16.0107 2.4502 -24.3604c0 -90.6396 -73.3496 -164 -164 -164c-90.6396 0 -164 73.3496 -164 164c0 90.6396 73.3496 164 164 164c8.23047 0 16.1201 -1.25 24.0195 -2.41016
c0.224609 -5.00977 1.15918 -9.88379 2.68066 -14.4395zM248 272c3.76953 0 7.37988 -0.610352 11.0098 -1.11035l-44.9502 -44.9492l0.0107422 -0.0107422c-8.69043 -8.69922 -14.0703 -20.6992 -14.0703 -33.9297c0 -26.4697 21.5303 -48 48 -48
c13.2305 0 25.2305 5.37988 33.9297 14.0703l0.0107422 -0.0107422l44.9492 44.9502c0.5 -3.62988 1.11035 -7.24023 1.11035 -11.0098c0 -44.1104 -35.8896 -80 -80 -80s-80 35.8896 -80 80s35.8896 80 80 80z" />
    <glyph glyph-name="bullseye-pointer" unicode="&#xf649;" 
d="M241.5 207.3c13.29 3.78027 25.5898 -8.49023 21.8203 -21.79l-62.7207 -220.67c-2.39941 -8.41992 -9.69922 -12.8301 -17.04 -12.8301c-6.2998 0 -12.6094 3.25 -15.8594 10.0098l-26.54 55.2705l-60.5898 -60.5898c-6.25 -6.25 -14.4404 -9.37012 -22.6299 -9.37012
c-8.19043 0 -16.3809 3.12012 -22.6309 9.37012l-22.6191 22.6201c-12.5 12.4893 -12.5 32.75 0 45.25l60.5898 60.5898l-55.2705 26.54c-14.6396 7.03027 -12.8096 28.4502 2.82031 32.8896zM180.15 9.98047l45.3398 159.51l-159.5 -45.3301l61.8398 -29.71
l-92.5098 -92.5098l22.6201 -22.6201l92.5098 92.5098zM328 192c0 -33.7402 -21.0703 -62.5303 -50.6904 -74.2598c15.5908 54.8193 18.6904 63 18.6904 74.2598c0 26.4697 -21.5303 48 -48 48c-11.3301 0 -19.9297 -3.24023 -74.2598 -18.6904
c11.7295 29.6201 40.5195 50.6904 74.2598 50.6904c44.1104 0 80 -35.8896 80 -80zM251.92 28.3896l9.37012 32.9502c66.4697 6.78027 118.71 62.4297 118.71 130.66c0 72.79 -59.21 132 -132 132c-68.2402 0 -123.88 -52.2305 -130.66 -118.72l-32.9502 -9.36035
c2.14062 88.7803 74.3008 160.08 163.61 160.08c90.6396 0 164 -73.3496 164 -164c0 -89.29 -71.29 -161.47 -160.08 -163.61zM248 440c136.97 0 248 -111.02 248 -247.99c0 -136.97 -111.03 -248 -248 -248c-7.34961 0 -14.5801 0.470703 -21.7695 1.10059
c1.98926 3.47949 4 6.95996 5.13965 10.9795l5.82031 20.46c3.59961 -0.179688 7.15918 -0.549805 10.8096 -0.549805c119.1 0 216 96.9004 216 216s-96.9004 216 -216 216s-216 -96.9004 -216 -216c0 -3.65039 0.370117 -7.20996 0.549805 -10.8096l-20.4697 -5.82031
c-3.99023 -1.12988 -7.53027 -3.03027 -10.9902 -5c-0.620117 7.13965 -1.08984 14.3301 -1.08984 21.6299c0 136.97 111.03 248 248 248z" />
    <glyph glyph-name="peace" unicode="&#xf67c;" 
d="M248 440c136.97 0 248 -111.03 248 -248s-111.03 -248 -248 -248s-248 111.03 -248 248s111.03 248 248 248zM464 192c0 113.7 -88.3701 206.95 -200 215.19v-207.49l162.1 -129.67c23.8604 34.7393 37.9004 76.7295 37.9004 121.97zM232 407.19
c-111.63 -8.24023 -200 -101.49 -200 -215.19c0 -45.2402 14.04 -87.2305 37.9004 -121.97l162.1 129.67v207.49zM90.0498 45.1504c36.0498 -38.75 86.0205 -64.21 141.95 -68.3408v181.891zM264 -23.1904c55.9297 4.13086 105.9 29.5908 141.95 68.3408l-141.95 113.55
v-181.891z" />
    <glyph glyph-name="star-of-david" unicode="&#xf69a;" horiz-adv-x="464" 
d="M405.68 192l53.2207 -89.3896c14.4092 -24.21 -3.41016 -54.6104 -32.0107 -54.6104h-106.93l-55.9502 -93.9805c-7.14941 -12.0098 -19.5801 -18.0195 -32.0098 -18.0195s-24.8604 6.00977 -32.0098 18.0195l-55.9502 93.9805h-106.93
c-28.6006 0 -46.4199 30.4004 -32.0107 54.6104l53.2207 89.3896l-53.2207 89.3896c-14.4092 24.21 3.41016 54.6104 32.0107 54.6104h106.93l55.9502 93.9805c7.14941 12.0098 19.5801 18.0195 32.0098 18.0195s24.8604 -6.00977 32.0098 -18.0195l55.9502 -93.9805h106.92
c28.6006 0 46.4199 -30.4004 32.0098 -54.6104zM426.89 304h-87.8799l48.0605 -80.7197l44.3398 74.4795c0.359375 0.620117 1.12012 1.89062 0.0400391 3.78027c-0.930664 1.62988 -2.45996 2.45996 -4.56055 2.45996zM368.44 192l-66.6709 112h-139.539l-66.6709 -112
l66.6709 -112h139.539zM227.49 413.62l-46.21 -77.6201h101.439l-46.21 77.6201c-0.939453 1.58008 -2.45996 2.37988 -4.50977 2.37988s-3.57031 -0.799805 -4.50977 -2.37988zM32.5996 297.76l44.3408 -74.4795l48.0498 80.7197h-87.8799
c-2.10059 0 -3.62988 -0.820312 -4.56055 -2.45996c-1.06934 -1.90039 -0.319336 -3.16992 0.0498047 -3.78027zM37.1104 80h87.8799l-48.0605 80.7197l-44.3398 -74.4795c-0.359375 -0.610352 -1.12012 -1.89062 -0.0400391 -3.78027
c0.930664 -1.62988 2.45996 -2.45996 4.56055 -2.45996zM236.51 -29.6104l46.21 77.6104h-101.439l46.21 -77.6201c0.939453 -1.58008 2.45996 -2.37988 4.50977 -2.37988s3.57031 0.80957 4.50977 2.38965zM431.45 82.46
c1.06934 1.90039 0.30957 3.16992 -0.0498047 3.78027l-44.3408 74.4795l-48.0498 -80.7197h87.8799c2.10059 0 3.62988 0.830078 4.56055 2.45996z" />
    <glyph glyph-name="wifi-1" unicode="&#xf6aa;" horiz-adv-x="640" 
d="M320 128c44.1797 0 80 -35.8203 80 -80c0 -44.1602 -35.8096 -80 -80 -80c-44.1699 0 -80 35.8096 -80 80c0 44.1797 35.8203 80 80 80zM320 0c26.4697 0 48 21.5303 48 48s-21.5303 48 -48 48s-48 -21.5303 -48 -48s21.5303 -48 48 -48z" />
    <glyph glyph-name="wifi-2" unicode="&#xf6ab;" horiz-adv-x="640" 
d="M526.02 177.69c5.05078 -4.5 5.32031 -12.3105 0.670898 -17.2002l-5.53027 -5.79004c-4.46973 -4.68066 -11.8301 -4.95996 -16.6602 -0.669922c-104.98 93.21 -263.81 93.3799 -368.98 0c-4.83984 -4.29004 -12.1992 -4 -16.6592 0.669922l-5.53027 5.79004
c-4.66992 4.88965 -4.40039 12.7002 0.650391 17.2002c117.18 104.34 294.699 104.479 412.039 0zM320 128c44.1797 0 80 -35.8203 80 -80c0 -44.1602 -35.8096 -80 -80 -80c-44.1699 0 -80 35.8096 -80 80c0 44.1797 35.8203 80 80 80zM320 0c26.4697 0 48 21.5303 48 48
s-21.5303 48 -48 48s-48 -21.5303 -48 -48s21.5303 -48 48 -48z" />
    <glyph glyph-name="yin-yang" unicode="&#xf6ad;" 
d="M232 256c-26.4697 0 -48 21.5303 -48 48s21.5303 48 48 48s48 -21.5303 48 -48s-21.5303 -48 -48 -48zM232 320c-8.80957 0 -16 -7.16992 -16 -16s7.19043 -16 16 -16s16 7.16992 16 16s-7.19043 16 -16 16zM264 128c26.4697 0 48 -21.5303 48 -48s-21.5303 -48 -48 -48
s-48 21.5303 -48 48s21.5303 48 48 48zM264 64c8.80957 0 16 7.16992 16 16s-7.19043 16 -16 16s-16 -7.16992 -16 -16s7.19043 -16 16 -16zM248 440c136.75 0 248 -111.25 248 -248s-111.25 -248 -248 -248c-136.97 0 -248 111.03 -248 248s111.03 248 248 248zM32 192
c0 -77.8398 41.5303 -145.99 103.46 -184.01c-12.0898 19.9297 -19.46 43.0498 -19.46 68.0098c0 72.7803 59.2197 132 132 132c55.1201 0 100 44.8604 100 100s-44.8799 100 -100 100c-119.1 0 -216 -96.9004 -216 -216zM248 -24c119.09 0 216 96.8896 216 216
c0 77.6602 -41.1904 145.86 -102.84 183.94c11.96 -19.8604 18.8398 -43.1104 18.8398 -67.9404c0 -72.7803 -59.2197 -132 -132 -132c-55.1201 0 -100 -44.8604 -100 -100s44.8799 -100 100 -100z" />
    <glyph glyph-name="globe-europe" unicode="&#xf7a2;" 
d="M184 328.8h-0.0996094v-18.0996c0 -3.2998 -1.30078 -6.5 -3.7002 -8.90039l-10.5 -10.5c-2.2998 -2.39941 -5.5 -3.7002 -8.90039 -3.7002h-18c-7 0 -12.7002 5.7002 -12.7002 12.7002v0.100586c0 3.2998 1.30078 6.5 3.7002 8.89941l28.5 28.5
c2.2998 2.40039 5.5 3.7002 8.90039 3.7002h0.0996094c7 0 12.7002 -5.7002 12.7002 -12.7002zM248 440c137 0 248 -111 248 -248s-111 -248 -248 -248s-248 111 -248 248s111 248 248 248zM296 -18.4004c57.5996 13.1006 106.4 49.3008 136.3 98.4004h-16.7998
c-13.4004 0 -26 5.2002 -35.5 14.7002l-17.2998 17.2998h-30.2002l-52.2002 44.7998c-2.5 2 -5.59961 3.2002 -8.7998 3.2002h-31.2002c-2.39941 0 -4.7998 -0.599609 -6.89941 -1.90039l-42.9004 -25.6992c-4 -2.5 -6.5 -6.90039 -6.5 -11.6006v-23.8994
c0 -4.2002 2 -8.30078 5.40039 -10.8008l22.1992 -16.6992c3.10059 -2.30078 12.3008 -5.40039 16.2002 -5.40039h20.2002c26.5 0 48 -21.5 48 -48v-34.4004zM448.5 112c4 10.2002 7.2998 20.7002 9.7002 31.5h-27.7002c-12.0996 0 -24 5 -32.7002 13.9004l-18.2002 19.0996
c-11 11.2998 -14.3994 27.4004 -10.0996 41.5996c-10 3.30078 -18.4004 10.4004 -23.5 19.5c-3.90039 -1.2998 -10.5 -21.5 -36.0996 -21.5h-13.4004c-4.40039 0 -8.7002 0.700195 -12.5996 2.10059c-8 -6.7002 -18.2002 -10.6006 -29.2002 -10.6006h-25.2998
c-25 0 -45.4004 20.4004 -45.4004 45.4004v16.4004c0 12.0996 4.7002 23.5 13.2998 32.0996c3.5 3.5 23.7998 16.4004 24.6006 18.5c-2.80078 5.2998 -5.90039 15.9004 -5.90039 22.2998v23.2002c0 12.2002 5.7998 23.7002 16 31.4004l15.4004 11.0996
c-118.801 -0.400391 -215.301 -97.0996 -215.301 -216c0 -119.1 96.9004 -216 216 -216c5.40039 0 10.7002 0.400391 16 0.799805v39.2002c0 8.7998 -7.19922 16 -16 16h-20.1992c-10.8008 0 -26.8008 5.2998 -35.4004 11.7998l-22.2002 16.7002
c-11.5 8.59961 -18.2002 22.0996 -18.2002 36.4004v23.8994c0 16 8.40039 30.7998 22.1006 39l42.8994 25.7002c7.10059 4.2998 15.2002 6.5 23.4004 6.5h31.2002c10.8994 0 21.3994 -3.7998 29.5996 -10.9004l43.2002 -37.0996h18.2998
c8.5 0 16.6006 -3.40039 22.6006 -9.40039l17.2998 -17.2998c3.39941 -3.39941 8.09961 -5.2998 12.8994 -5.2998h32.9004zM430.7 175.6h32.5c0.399414 5.40039 0.799805 10.9004 0.799805 16.4004c0 103 -72.5996 189.3 -169.3 210.8l-44 -31.8994
c-1.7002 -1.30078 -2.7002 -3.30078 -2.7002 -5.40039v-23.2002c0 -3.7002 3 -6.7002 6.7002 -6.7002h15c3.7002 0 6.7002 3 6.7002 6.7002v6.7002l13.3994 18.9004h17.4004c10.2002 0 11.7002 -9.90039 6.7002 -14.9004l-22.5 -22.5
c-1 -1.09961 -2.30078 -1.7998 -3.7002 -2.2998l-33.6006 -11.2002c-2.7998 -0.900391 -4.59961 -3.5 -4.59961 -6.40039c0 -13.8994 -10.0996 -17.5 -29.5996 -31.5c-2.5 -2.5 -3.90039 -5.89941 -3.90039 -9.5v-16.3994c0 -7.40039 6 -13.4004 13.4004 -13.4004h25.2998
c8.39941 0 10.8994 5.7998 19.8994 18.2002c2.80078 5.59961 15.3008 5.40039 15.3008 -3c0 -3.7002 3 -6.7002 6.69922 -6.7002h13.4004c3.7002 0 6.7002 3 6.7002 6.7002c0 3.2002 0.299805 6.7998 4.59961 8.2002l26.5 8.7998c5.5 1.7998 9.2002 6.90039 9.2002 12.7002
v5.59961c0 7.40039 6 13.4004 13.4004 13.4004h28.1992c5.30078 0 9.5 -4.2998 9.5 -9.5v-10.2002c0 -5.2998 -4.2998 -9.5 -9.5 -9.5h-8.2998c-2.5 0 -4.89941 -1 -6.7002 -2.7998l-7.89941 -7.2998c-5.90039 -5.90039 -1.7998 -16.2002 6.7002 -16.2002h13.3994
c2.5 0 4.90039 -1 6.7002 -2.7998l7.90039 -7.90039c1.7998 -1.7998 2.7998 -4.2002 2.7998 -6.7002c0 -9.2002 2.09961 -5.2002 -10.5 -17.7998c-1.81445 -1.7998 -2.93848 -4.29688 -2.93848 -7.05176c0 -2.7041 1.08301 -5.15723 2.83789 -6.94824l18.5 -19.4004
c2.5 -2.5 6 -4 9.60059 -4z" />
    <glyph glyph-name="grip-lines-vertical" unicode="&#xf7a5;" horiz-adv-x="256" 
d="M192 -24c0 -4.40039 -3.59961 -8 -8 -8h-16c-4.40039 0 -8 3.59961 -8 8v432c0 4.40039 3.59961 8 8 8h16c4.40039 0 8 -3.59961 8 -8v-432zM96 -24c0 -4.40039 -3.59961 -8 -8 -8h-16c-4.40039 0 -8 3.59961 -8 8v432c0 4.40039 3.59961 8 8 8h16
c4.40039 0 8 -3.59961 8 -8v-432z" />
    </font>
</defs>
</svg>
