<?xml version="1.0" standalone="no"?>
<!DOCTYPE svg PUBLIC "-//W3C//DTD SVG 1.1//EN" "http://www.w3.org/Graphics/SVG/1.1/DTD/svg11.dtd" >
<svg xmlns="http://www.w3.org/2000/svg" xmlns:xlink="http://www.w3.org/1999/xlink" version="1.1">
<metadata>
Created by FontForge 20201107 at Tue Mar 16 10:16:43 2021
 By Robert Madole
Copyright (c) Font Awesome
</metadata>
<!-- Font Awesome Pro 5.15.3 by @fontawesome - https://fontawesome.com License - https://fontawesome.com/license (Commercial License) --><defs>
<font id="FontAwesome5Pro-Regular" horiz-adv-x="640" >
  <font-face 
    font-family="Font Awesome 5 Pro Regular"
    font-weight="400"
    font-stretch="normal"
    units-per-em="512"
    panose-1="2 0 5 3 0 0 0 0 0 0"
    ascent="448"
    descent="-64"
    bbox="-0.050293 -64.2181 640.01 448.037"
    underline-thickness="25"
    underline-position="-50"
    unicode-range="U+0020-F8FF"
  />
    <missing-glyph />
    <glyph glyph-name="search-minus" unicode="&#xf010;" horiz-adv-x="512" 
d="M312 252v-24c0 -6.59961 -5.40039 -12 -12 -12h-184c-6.59961 0 -12 5.40039 -12 12v24c0 6.59961 5.40039 12 12 12h184c6.59961 0 12 -5.40039 12 -12zM508.5 -37.9004l-22.5996 -22.5996c-4.7002 -4.7002 -12.3008 -4.7002 -17 0l-121.4 121.4
c-2.2998 2.2998 -3.5 5.2998 -3.5 8.5v13.1992c-36.5 -31.5 -84 -50.5996 -136 -50.5996c-114.9 0 -208 93.0996 -208 208s93.0996 208 208 208s208 -93.0996 208 -208c0 -52 -19.0996 -99.5 -50.5996 -136h13.1992c3.2002 0 6.2002 -1.2998 8.5 -3.5l121.4 -121.4
c4.7002 -4.69922 4.7002 -12.2998 0 -17zM368 240c0 88.4004 -71.5996 160 -160 160s-160 -71.5996 -160 -160s71.5996 -160 160 -160s160 71.5996 160 160z" />
    <glyph glyph-name="plus" unicode="&#xf067;" horiz-adv-x="384" 
d="M368 224c8.83984 0 16 -7.16016 16 -16v-32c0 -8.83984 -7.16016 -16 -16 -16h-144v-144c0 -8.83984 -7.16016 -16 -16 -16h-32c-8.83984 0 -16 7.16016 -16 16v144h-144c-8.83984 0 -16 7.16016 -16 16v32c0 8.83984 7.16016 16 16 16h144v144
c0 8.83984 7.16016 16 16 16h32c8.83984 0 16 -7.16016 16 -16v-144h144z" />
    <glyph glyph-name="plane" unicode="&#xf072;" horiz-adv-x="576" 
d="M239.57 400h-37.1406l50.29 -176h-116.72l-36 48h-41.3203l23.3203 -80l-23.3203 -80h41.3203l36 48h116.72l-50.29 -176h37.1406l100.569 176h115.86c26.0303 0 62.8701 19.7305 71.0996 32c-8.22949 12.2695 -45.0693 32 -71.0996 32h-115.86zM258.14 448
c5.94922 0 11.1338 -3.23633 13.8906 -8.05957l95.9697 -167.94h88c44.1797 0 120 -35.8096 120 -80c0 -44.1797 -75.8203 -80 -120 -80h-88l-95.9805 -167.94c-2.84961 -4.97949 -8.14941 -8.05957 -13.8896 -8.05957h-98.1299
c-10.6299 0 -18.2998 10.1797 -15.3799 20.4004l44.46 155.6h-29.0801l-31.2002 -41.5996c-3.01953 -4.03027 -7.75977 -6.40039 -12.7998 -6.40039h-99.9902c-10.4102 0 -18.0498 9.78027 -15.5195 19.8799l31.5098 108.12l-31.5098 108.12
c-2.53027 10.0996 5.10938 19.8799 15.5195 19.8799h99.9902c5.03027 0 9.78027 -2.37012 12.7998 -6.40039l31.2002 -41.5996h29.0801l-44.4502 155.61c-2.91992 10.2197 4.75 20.3896 15.3799 20.3896h98.1299z" />
    <glyph glyph-name="wrench" unicode="&#xf0ad;" horiz-adv-x="512" 
d="M507.48 330.82c13.0293 -52.3506 -2.57031 -108.521 -40.6602 -146.62c-37.8506 -37.79 -91.7002 -52.7998 -143.49 -40.9307l-183.34 -183.26c-15.5098 -15.4795 -36.1006 -24.0098 -57.9805 -24.0098c-21.9102 0 -42.5 8.53027 -57.9697 24.0098
c-15.5098 15.4805 -24.04 36.0703 -24.04 57.9707c0 21.8994 8.53027 42.4893 24.04 57.96l183.52 183.439c-11.8799 51.9004 3.09082 105.65 40.7207 143.271c38.6299 38.6191 93.4502 53.8799 146.54 40.6895c12.2295 -3.03027 21.9102 -12.4199 25.29 -24.5303
c3.37012 -12.0693 -0.0703125 -25.0996 -8.91016 -33.9893l-58.6699 -58.6406l5.37988 -32.4102l32.4395 -5.39941l58.6602 58.6299c8.81055 8.86035 21.8701 12.3096 33.9707 8.96973c12.0898 -3.35938 21.5 -12.9795 24.5 -25.1494zM432.87 218.13
c20.6299 20.6201 31.5703 47.8799 31.25 76.1396l-57.3506 -57.2891l-90.5693 15.0898l-15.1299 90.5898l57.3193 57.2998h-1.12012c-27.8496 0 -54.6895 -10.9199 -75.0391 -31.2402c-28.2607 -28.2793 -37.8506 -70 -25.04 -108.899l4.62988 -14.0303l-203.84 -203.78
c-6.44043 -6.41992 -9.9707 -14.9502 -9.9707 -24.0293c0 -9.08008 3.53027 -17.6201 9.9707 -24.04c12.7793 -12.8105 35.2197 -12.8408 48.0693 0l203.75 203.67l14.0605 -4.69043c38.8096 -12.8896 80.54 -3.25 109.01 25.21zM88.0098 39.9805
c8.83984 0 16 -7.16016 16 -16c0 -8.84082 -7.16016 -16 -16 -16s-16 7.15918 -16 16c0 8.83984 7.16016 16 16 16z" />
    <glyph glyph-name="money-bill" unicode="&#xf0d6;" 
d="M608 384c17.6699 0 32 -14.3301 32 -32v-320c0 -17.6699 -14.3301 -32 -32 -32h-576c-17.6699 0 -32 14.3301 -32 32v320c0 17.6699 14.3301 32 32 32h576zM592 112v160c-35.3496 0 -64 28.6504 -64 64h-416c0 -35.3496 -28.6504 -64 -64 -64v-160
c35.3496 0 64 -28.6504 64 -64h416c0 35.3496 28.6504 64 64 64zM320 288c44.1797 0 80 -42.9805 80 -96c0 -53.0303 -35.8301 -96 -80 -96c-44.1904 0 -80 42.9902 -80 96c0 53.0195 35.8203 96 80 96z" />
    <glyph glyph-name="sitemap" unicode="&#xf0e8;" 
d="M104 176v-48h-48v57.5898c0 21.1797 17.2197 38.4102 38.4102 38.4102h201.59v64h-40c-8.83984 0 -16.8398 3.58008 -22.6299 9.37012s-9.37012 13.79 -9.37012 22.6299v96c0 17.6699 14.3301 32 32 32h128c17.6699 0 32 -14.3301 32 -32v-96
c0 -17.6699 -14.3301 -32 -32 -32h-40v-64h201.59c21.1904 0 38.4102 -17.2402 38.4102 -38.4102v-57.5898h-48v48h-192v-48h-48v48h-192zM272 336h96v64h-96v-64zM608 96c17.6699 0 32 -14.3301 32 -32v-96c0 -17.6699 -14.3301 -32 -32 -32h-96
c-17.6699 0 -32 14.3301 -32 32v96c0 17.6699 14.3301 32 32 32h96zM592 -16v64h-64v-64h64zM368 96c17.6699 0 32 -14.3301 32 -32v-96c0 -17.6699 -14.3301 -32 -32 -32h-96c-17.6699 0 -32 14.3301 -32 32v96c0 17.6699 14.3301 32 32 32h96zM352 -16v64h-64v-64h64z
M128 96c17.6699 0 32 -14.3301 32 -32v-96c0 -17.6699 -14.3301 -32 -32 -32h-96c-17.6699 0 -32 14.3301 -32 32v96c0 17.6699 14.3301 32 32 32h96zM112 -16v64h-64v-64h64z" />
    <glyph glyph-name="microphone" unicode="&#xf130;" horiz-adv-x="352" 
d="M336 256c8.83984 0 16 -7.16016 16 -16v-48c0 -88.9004 -66.29 -162.47 -152 -174.23v-33.7695h56c8.83984 0 16 -7.16016 16 -16v-16c0 -8.83984 -7.16016 -16 -16 -16h-160c-8.83984 0 -16 7.16016 -16 16v16c0 8.83984 7.16016 16 16 16h56v34.1504
c-88.0303 12.1396 -152 92.0498 -152 181.689v40.1602c0 8.83984 7.16016 16 16 16h16c8.83984 0 16 -7.16016 16 -16v-42.2998c0 -66.8105 48.71 -126.59 115.21 -133.08c76.2998 -7.44043 140.79 52.5801 140.79 127.38v48c0 8.83984 7.16016 16 16 16h16zM176 96
c-53.0195 0 -96 42.9805 -96 96v160c0 53.0195 42.9805 96 96 96s96 -42.9805 96 -96v-160c0 -53.0195 -42.9805 -96 -96 -96zM128 352v-160c0 -26.4697 21.5303 -48 48 -48s48 21.5303 48 48v160c0 26.4697 -21.5303 48 -48 48s-48 -21.5303 -48 -48z" />
    <glyph glyph-name="microphone-slash" unicode="&#xf131;" 
d="M633.99 -23.0195c6.91016 -5.52051 8.01953 -15.5908 2.5 -22.4902l-10 -12.4902c-5.53027 -6.88965 -15.5898 -8.00977 -22.4902 -2.49023l-598 467.51c-6.90039 5.52051 -8.01953 15.5908 -2.49023 22.4902l10 12.4902
c5.52051 6.90039 15.5898 8.00977 22.4902 2.49023zM496 192c0 -14.4805 -2.33008 -28.3203 -5.65039 -41.79l-43.21 33.7803c0.169922 2.7002 0.860352 5.25977 0.860352 8.00977v48c0 8.83984 7.16016 16 16 16h16c8.83984 0 16 -7.16016 16 -16v-48zM400 -16
c8.83984 0 16 -7.16016 16 -16v-16c0 -8.83984 -7.16016 -16 -16 -16h-160c-8.83984 0 -16 7.16016 -16 16v16c0 8.83984 7.16016 16 16 16h56v34.1504c-88.0303 12.1396 -152 92.0498 -152 181.689v38.3701l48 -37.5303v-2.97949
c0 -66.8105 48.7197 -126.59 115.21 -133.08c18.1299 -1.77051 35.5 0.509766 51.5898 5.64941l43.1006 -33.6895c-17.7607 -9.37988 -37.2207 -15.9697 -57.9004 -18.8105v-33.7695h56zM272 352v-31.0801l-47.4004 37.0498
c3.14062 50.1807 44.4307 90.0303 95.4004 90.0303c53.0195 0 96 -42.9805 96 -96v-143.67l-48 37.5303v106.14c0 26.4697 -21.5303 48 -48 48s-48 -21.5303 -48 -48z" />
    <glyph glyph-name="balance-scale" unicode="&#xf24e;" 
d="M256 112c0 -44.1797 -57.3096 -80 -128 -80s-128 35.8203 -128 80h0.0195312c0 15.6699 -2.0791 7.25 85.04 181.51c8.84082 17.6699 25.8809 26.4902 42.9209 26.4902c17.0596 0 34.1191 -8.83984 42.9492 -26.4902c86.3906 -172.779 85.0508 -165.33 85.0508 -181.51
h0.0195312zM83.2402 182.87c-12.1699 -24.1797 -21.21 -42.1904 -27.4102 -54.8701h144.43c-5.84961 11.96 -14.2695 28.7002 -25.5498 51.0801c-11.6699 23.1504 -26.8799 53.3203 -46.7002 92.96l-0.0195312 -0.0400391
c-0.160156 0 -0.259766 -0.0195312 -0.290039 -0.0302734c-18.4404 -37.4102 -33.0605 -66.4502 -44.46 -89.0996zM528 -16c8.83984 0 16 -7.16016 16 -16v-16c0 -8.83984 -7.16016 -16 -16 -16h-416c-8.83984 0 -16 7.16016 -16 16v16c0 8.83984 7.16016 16 16 16h184
v308.07c-27.4199 8.66992 -48.5898 31.3594 -54.3896 59.9297h-129.61c-8.83984 0 -16 7.16016 -16 16v16c0 8.83984 7.16016 16 16 16h134.75c12.3604 28.2305 40.46 48 73.25 48s60.8896 -19.7695 73.25 -48h134.75c8.83984 0 16 -7.16016 16 -16v-16
c0 -8.83984 -7.16016 -16 -16 -16h-129.61c-5.7998 -28.5703 -26.9697 -51.2598 -54.3896 -59.9297v-308.07h184zM320 336c17.6396 0 32 14.3604 32 32s-14.3604 32 -32 32s-32 -14.3604 -32 -32s14.3604 -32 32 -32zM639.98 112c0 -44.1797 -57.29 -80 -127.98 -80
s-128 35.8203 -128 80h0.0195312c0 15.6699 -2.0791 7.25 85.04 181.51c8.84082 17.6699 25.8809 26.4902 42.9209 26.4902c17.0596 0 34.1191 -8.83984 42.9492 -26.4902c86.3906 -172.779 85.0508 -165.33 85.0508 -181.51zM439.83 128h144.42
c-5.84961 11.96 -14.2695 28.7002 -25.5498 51.0801c-11.6699 23.1504 -26.8799 53.3203 -46.7002 92.96l-0.0195312 -0.0400391c-0.160156 0 -0.260742 -0.0195312 -0.290039 -0.0302734c-18.4404 -37.4102 -33.0605 -66.4502 -44.46 -89.0996
c-12.1709 -24.1797 -21.2109 -42.1904 -27.4004 -54.8701z" />
    <glyph glyph-name="microphone-alt" unicode="&#xf3c9;" horiz-adv-x="352" 
d="M336 256c8.83984 0 16 -7.16016 16 -16v-48c0 -88.9004 -66.29 -162.47 -152 -174.23v-33.7695h56c8.83984 0 16 -7.16016 16 -16v-16c0 -8.83984 -7.16016 -16 -16 -16h-160c-8.83984 0 -16 7.16016 -16 16v16c0 8.83984 7.16016 16 16 16h56v34.1504
c-88.0303 12.1396 -152 92.0498 -152 181.689v40.1602c0 8.83984 7.16016 16 16 16h16c8.83984 0 16 -7.16016 16 -16v-42.2998c0 -66.8105 48.71 -126.59 115.21 -133.08c76.2998 -7.44043 140.79 52.5801 140.79 127.38v48c0 8.83984 7.16016 16 16 16h16zM176 96
c-53.0195 0 -96 42.9805 -96 96v160c0 53.0195 42.9805 96 96 96s96 -42.9805 96 -96v-160c0 -53.0195 -42.9805 -96 -96 -96zM128 352v-160c0 -26.4697 21.5303 -48 48 -48s48 21.5303 48 48h-40c-4.41992 0 -8 3.58008 -8 8v16c0 4.41992 3.58008 8 8 8h40v32h-40
c-4.41992 0 -8 3.58008 -8 8v16c0 4.41992 3.58008 8 8 8h40v32h-40c-4.41992 0 -8 3.58008 -8 8v16c0 4.41992 3.58008 8 8 8h40c0 26.4697 -21.5303 48 -48 48s-48 -21.5303 -48 -48z" />
    <glyph glyph-name="money-bill-alt" unicode="&#xf3d1;" 
d="M320 304c53.0195 0 96 -50.1396 96 -112c0 -61.8701 -43 -112 -96 -112c-53.0195 0 -96 50.1504 -96 112c0 61.8604 42.9805 112 96 112zM360 136v16c0 4.41992 -3.58008 8 -8 8h-16v88c0 4.41992 -3.58008 8 -8 8h-13.5801
c-4.91113 0 -9.50586 -1.49316 -13.3096 -4.03027l-15.3301 -10.2197c-2.15332 -1.43262 -3.55957 -3.88379 -3.55957 -6.66113c0 -1.6377 0.493164 -3.16113 1.33887 -4.42871l8.88086 -13.3105c1.43164 -2.15234 3.88379 -3.55957 6.66113 -3.55957
c1.6377 0 3.16016 0.494141 4.42871 1.33984l0.469727 0.310547v-55.4404h-16c-4.41992 0 -8 -3.58008 -8 -8v-16c0 -4.41992 3.58008 -8 8 -8h64c4.41992 0 8 3.58008 8 8zM608 384c17.6699 0 32 -14.3301 32 -32v-320c0 -17.6699 -14.3301 -32 -32 -32h-576
c-17.6699 0 -32 14.3301 -32 32v320c0 17.6699 14.3301 32 32 32h576zM592 112v160c-35.3496 0 -64 28.6504 -64 64h-416c0 -35.3496 -28.6504 -64 -64 -64v-160c35.3496 0 64 -28.6504 64 -64h416c0 35.3496 28.6504 64 64 64z" />
    <glyph glyph-name="blender" unicode="&#xf517;" horiz-adv-x="512" 
d="M425.91 117.99c31.9199 -15.6006 54.0898 -48.0703 54.0898 -85.9902v-64c0 -17.6699 -14.3301 -32 -32 -32h-320c-17.6699 0 -32 14.3301 -32 32v64c0 40.4297 25.0596 74.8604 60.4297 89.0098l-6.16992 70.9902h-102.26c-26.5098 0 -48 21.4902 -48 48v160
c0 26.5098 21.4902 48 48 48h464zM48 240h98.0801l-13.9102 160h-84.1699v-160zM449.87 400h-269.51l23.6494 -272h174.91l25.04 96h-107.96c-4.41992 0 -8 3.58008 -8 8v16c0 4.41992 3.58008 8 8 8h116.3l16.7002 64h-133c-4.41992 0 -8 3.58008 -8 8v16
c0 4.41992 3.58008 8 8 8h141.35zM432 -16v48c0 26.4697 -21.5303 48 -48 48h-192c-26.4697 0 -48 -21.5303 -48 -48v-48h288zM288 56c13.2598 0 24 -10.7402 24 -24c0 -13.25 -10.7402 -24 -24 -24s-24 10.75 -24 24c0 13.2598 10.7402 24 24 24z" />
    <glyph glyph-name="broadcast-tower" unicode="&#xf519;" 
d="M168.67 256h-17.7295c-7.01074 0 -13.46 4.5 -15.4004 11.2402c-4.90039 16.9697 -7.54004 34.6396 -7.54004 52.7598s2.63965 35.79 7.53027 52.7695c1.9502 6.74023 8.39941 11.2305 15.4102 11.2305h17.7295c11.0098 0 18.6201 -10.8301 14.8496 -21.1797
c-4.92969 -13.5801 -7.5498 -27.9805 -7.5498 -42.8203s2.62012 -29.2402 7.5498 -42.8203c3.76074 -10.3496 -3.84961 -21.1797 -14.8496 -21.1797zM47.8701 320c0 -37.8398 9.55957 -73.3896 26.2295 -104.62c5.66016 -10.6299 -1.91992 -23.3701 -13.9395 -23.3701
h-18.8701c-6.2002 0 -11.9902 3.50977 -14.6104 9.14062c-15.75 33.79 -25.29 70.8398 -26.5293 109.729c-1.45996 45.71 8.06934 88.9902 25.7295 127.811c2.60059 5.71973 8.45996 9.30957 14.7305 9.30957h19.3594c12 0 19.5898 -12.7197 13.9502 -23.3398
c-16.5898 -31.25 -26.0498 -66.8506 -26.0498 -104.66zM614.07 438.71c16.5098 -36.2295 25.9297 -76.3496 25.9297 -118.71s-9.42969 -82.4805 -25.96 -118.71c-2.59961 -5.70996 -8.45996 -9.29004 -14.7305 -9.29004h-19.2393
c-12.1104 0 -19.6299 12.8398 -13.9102 23.5195c9.76953 18.2207 17.0996 37.8506 21.2598 58.5703c11.0303 54.8301 1.73047 106.99 -21.5303 150.66c-5.63965 10.5898 2.04004 23.25 14.0205 23.25h19.4297c6.27051 0 12.1201 -3.58008 14.7305 -9.29004zM489.06 384
c7.01074 0 13.46 -4.49023 15.4004 -11.2402c4.90039 -16.9697 7.54004 -34.6396 7.54004 -52.7598s-2.62988 -35.79 -7.53027 -52.7598c-1.9502 -6.75 -8.39941 -11.2402 -15.4102 -11.2402h-17.7295c-11.0098 0 -18.6201 10.8301 -14.8604 21.1797
c4.93066 13.5801 7.5498 27.9805 7.5498 42.8203s-2.61914 29.2402 -7.5498 42.8203c-3.75 10.3496 3.85059 21.1797 14.8604 21.1797h17.7295zM372.7 260.24l123.319 -295.931c3.39062 -8.14941 -0.459961 -17.5195 -8.61914 -20.9199l-14.7803 -6.15918
c-8.16016 -3.40039 -17.5303 0.459961 -20.9297 8.61914l-56.96 134.15h-149.471l-56.9502 -134.14c-3.39941 -8.16016 -12.7695 -12.0205 -20.9297 -8.62012l-14.7803 6.16016c-8.15918 3.39941 -12.0195 12.7598 -8.61914 20.9199l123.409 296.16
c-16.5693 14.6592 -27.3994 35.6592 -27.3994 59.5195c0 27.6201 13.9902 51.96 35.2695 66.3398c8.47266 5.73145 18.2441 9.91797 28.6104 12.04c5.2002 1.06055 10.5996 1.62012 16.1201 1.62012c44.1895 0 80.0098 -35.8203 80.0098 -80
c0 -23.8896 -10.6904 -45.0996 -27.2998 -59.7598zM320 352c-17.6504 0 -32 -14.3604 -32 -32s14.3604 -32 32 -32s32 14.3604 32 32s-14.3496 32 -32 32zM265.65 128h108.699l-47.8301 112.66c-2.18945 -0.179688 -4.28906 -0.660156 -6.51953 -0.660156
s-4.32031 0.480469 -6.50977 0.660156z" />
    <glyph glyph-name="broom" unicode="&#xf51a;" 
d="M636.52 416.98c5.5 -6.91016 4.36035 -16.9502 -2.55957 -22.4502l-230.729 -177.9l35.3398 -44.3398c4.83984 -6.07031 2.72949 -15.0596 -4.29004 -18.3496l-84.3398 -39.5205c-7.79004 -30.2402 -30.0801 -99.7598 -77.79 -137.63
c-59.7803 -47.4502 -257.051 -40.7598 -272.15 -40.0996c0 0 38.2803 206.319 100.37 255.59c47.8896 38.0098 120.78 43.9199 151.87 44.6602l57.6094 73.1797c4.78027 6.08008 13.9902 6.11035 18.8105 0.0595703l34.7197 -43.5596l230.73 177.92
c6.91992 5.49023 16.9893 4.33984 22.4893 -2.55957zM242.27 14.2695c29.3906 23.3301 48.0908 68.0801 57.5303 99.0205l-59.8096 75.0303c-38.4199 -2.49023 -82.7002 -12.0703 -109.74 -33.5303c-12.9902 -10.3096 -27.29 -38.0801 -40.7197 -73.3604l26.0596 5.5
c6.2002 1.31055 9.92969 -6.62988 4.96973 -10.5693l-45.29 -35.9502c-5.69922 -18.1699 -11.0391 -37.25 -15.7998 -56.3506c108.511 1.7002 166.16 17 182.8 30.21zM330.33 158.15l35.4697 16.6299c3.52051 1.63965 4.57031 6.13965 2.15039 9.16992l-43.7705 54.9102
c-2.41016 3.01953 -7.01953 3.00977 -9.41016 -0.0302734l-24.2197 -30.7705z" />
    <glyph glyph-name="chalkboard" unicode="&#xf51b;" 
d="M80 400v-368h-48v376c0 22.0596 17.9404 40 40 40h496c22.0596 0 40 -17.9404 40 -40v-376h-48v368h-480zM624 -16c8.83984 0 16 -7.16016 16 -16v-16c0 -8.83984 -7.16016 -16 -16 -16h-608c-8.83984 0 -16 7.16016 -16 16v16c0 8.83984 7.16016 16 16 16h240v80
c0 17.6699 14.3301 32 32 32h192c17.6699 0 32 -14.3301 32 -32v-80h112zM464 -16v64h-160v-64h160z" />
    <glyph glyph-name="chalkboard-teacher" unicode="&#xf51c;" 
d="M226.79 105.98c62.6299 0 93.21 -49.9307 93.21 -92.6504v-37.3301c0 -22.0898 -17.9102 -40 -40 -40h-240c-22.0898 0 -40 17.9102 -40 40v37.3301c0 31.6699 21.1201 92.6504 93.21 92.6504c27.8398 0 34.8203 -9.98047 66.79 -9.98047
c32.0195 0 39 9.98047 66.79 9.98047zM272 -16v29.3301c0 14.0703 -8.19043 44.6504 -45.21 44.6504c-17.2998 0 -29.4199 -9.98047 -66.79 -9.98047c-37.2305 0 -49.5498 9.98047 -66.79 9.98047c-37.0596 0 -45.21 -30.6406 -45.21 -44.6504v-29.3301h224zM160 128
c-53.0195 0 -96 42.9805 -96 96s42.9805 96 96 96s96 -42.9805 96 -96s-42.9805 -96 -96 -96zM160 272c-26.4697 0 -48 -21.5303 -48 -48s21.5303 -48 48 -48s48 21.5303 48 48s-21.5303 48 -48 48zM592 448c26.4697 0 48 -22.25 48 -49.5898v-316.82
c0 -27.3398 -21.5303 -49.5898 -48 -49.5898h-240v96c0 17.6699 14.3301 32 32 32h128c17.6699 0 32 -14.3301 32 -32v-48h48v320h-384v-57.5195c-15.7305 6.38965 -38.3096 9.51953 -48 9.51953v46.4102c0 27.3398 21.5303 49.5898 48 49.5898h384zM496 80v32h-96v-32h96z
" />
    <glyph glyph-name="church" unicode="&#xf51d;" horiz-adv-x="576" 
d="M281.71 127.7c38.1699 3.63965 70.29 -26.2803 70.29 -63.7002v-112c0 -8.83984 -7.16016 -16 -16 -16h-96c-8.83984 0 -16 7.16016 -16 16v109.25c0 33.4297 24.4404 63.2803 57.71 66.4502zM558.57 108.01c10.4697 -5 17.4297 -17.8994 17.4297 -32.3301v-122.449
c0 -9.52051 -5.95996 -17.2305 -13.3301 -17.2305h-18.6699c-8.83984 0 -16 7.16016 -16 16v116.89l-80 34.3008v-151.19c0 -8.83984 -7.16016 -16 -16 -16h-16c-8.83984 0 -16 7.16016 -16 16v228.83l-112 67.2002l-112 -67.2002v-228.83c0 -8.83984 -7.16016 -16 -16 -16
h-16c-8.83984 0 -16 7.16016 -16 16v151.19l-80 -34.3008v-116.89c0 -8.83984 -7.16016 -16 -16 -16h-18.6699c-7.36035 0 -13.3301 7.71973 -13.3301 17.2402v122.439c0 14.4307 6.95996 27.3301 17.4297 32.3301l110.57 47.4004v34.4697
c0 11.6572 6.21387 21.8467 15.54 27.4404l120.46 72.2793v46.4004h-60c-6.62988 0 -12 5.37012 -12 12v24c0 6.62988 5.37012 12 12 12h60v52c0 6.62988 5.37012 12 12 12h24c6.62988 0 12 -5.37012 12 -12v-52h60c6.62988 0 12 -5.37012 12 -12v-24
c0 -6.62988 -5.37012 -12 -12 -12h-60v-46.4004l120.46 -72.2793c9.63965 -5.78027 15.54 -16.2002 15.54 -27.4404v-34.46z" />
    <glyph glyph-name="coins" unicode="&#xf51e;" horiz-adv-x="512" 
d="M320 448c106 0 192 -35.7998 192 -80v-224c0 -34.7998 -53.5 -64.2998 -128 -75.2998v-52.7002c0 -44.2002 -86 -80 -192 -80s-192 35.7998 -192 80v224c0 34.7998 53.5 64.4004 128 75.4004v52.5996c0 44.2002 86 80 192 80zM336 19.7002v39.5
c-35.2002 -16.6006 -86.5996 -27.2002 -144 -27.2002s-108.8 10.5996 -144 27.2002v-39.5c10 -11.7002 60.4004 -35.7002 144 -35.7002s134 24 144 35.7002zM336 115.7v44.8994c-35.2002 -19.8994 -86.5996 -32.5996 -144 -32.5996s-108.8 12.5996 -144 32.5996v-44.8994
c10 -11.7002 60.4004 -35.7002 144 -35.7002s134 24 144 35.7002zM192 176c79.5 0 144 21.5 144 48s-64.5 48 -144 48s-144 -21.5 -144 -48s64.5 -48 144 -48zM464 147.7v39.5c-21.2998 -10.1006 -49 -17.6006 -80 -22.2002v-47.7002
c45.0996 7.7998 72.9004 22.1006 80 30.4004zM464 243.7v45c-22.7998 -13 -53 -22.5 -86.7998 -27.7998c4.2998 -6.7002 6.7998 -13.7002 6.7998 -20.9004v-26.7002c45.0996 7.7998 72.9004 22.1006 80 30.4004zM320 304c79.5 0 144 21.5 144 48s-64.5 48 -144 48
s-144 -21.5 -144 -48c0 -12.5996 15 -24 38.9004 -32.5996c33.5996 -1.7002 64.3994 -7 90.3994 -14.9004c4.90039 -0.200195 9.7002 -0.5 14.7002 -0.5z" />
    <glyph glyph-name="crow" unicode="&#xf520;" 
d="M448 376c13.25 0 24 -10.7402 24 -24c0 -13.25 -10.75 -24 -24 -24s-24 10.75 -24 24c0 13.2598 10.75 24 24 24zM544 416c53.0195 0 96 -28.6504 96 -64l-96 -16v-80c0 -87.2598 -58.2598 -160.8 -137.97 -184.14l41.2393 -111.53
c2.27051 -6.23047 -0.939453 -13.1104 -7.16992 -15.3799l-22.5498 -8.20996c-6.22949 -2.27051 -13.1094 0.939453 -15.3799 7.16992l-44.5098 120.38c-1.90039 -0.0595703 -3.75 -0.290039 -5.66016 -0.290039h-39.0596l38.3291 -103.68
c2.27051 -6.23047 -0.939453 -13.1104 -7.16992 -15.3799l-22.5498 -8.20996c-6.22949 -2.27051 -13.1094 0.939453 -15.3799 7.16992l-44.4102 120.1h-96.4902l-121.539 -60.7695c-4.4209 -2.21094 -9.02051 -3.23047 -13.5 -3.23047
c-15.8604 0 -30.2305 12.7402 -30.2305 30.2598c0.00195312 9.8877 4.7373 18.6572 12.0898 24.1699l339.91 267.41v30.1602c0 53.0195 42.9805 96 96 96c28.3203 0 53.5098 -12.4902 71.0898 -32h24.9102zM496 256v96c0 26.4697 -21.5303 48 -48 48s-48 -21.5303 -48 -48
v-53.4697l-18.3301 -14.4102l-215.83 -169.8l144.93 41.4102c39.4707 11.2598 72.6006 38.7598 90.9102 75.4199c3.9707 7.88965 13.5605 11.0693 21.4707 7.15918c7.90918 -3.94922 11.0996 -13.5596 7.15918 -21.4697
c-22.3096 -44.6602 -62.6895 -78.1602 -110.72 -91.8896l-45.3301 -12.9502h77.7402c79.4004 0 144 64.5996 144 144z" />
    <glyph glyph-name="crown" unicode="&#xf521;" 
d="M528 -16c8.7998 0 16 -7.2002 16 -16v-16c0 -8.7998 -7.2002 -16 -16 -16h-416c-8.7998 0 -16 7.2002 -16 16v16c0 8.7998 7.2002 16 16 16h416zM592 320c26.5 0 48 -21.5 48 -48s-21.5 -48 -48 -48c-2.59961 0 -5.2002 0.400391 -7.7002 0.799805l-72.2998 -192.8h-384
l-72.2998 192.8c-2.5 -0.399414 -5.10059 -0.799805 -7.7002 -0.799805c-26.5 0 -48 21.5 -48 48s21.5996 48.0996 48.0996 48.0996s48 -21.5 48 -48c0 -7.09961 -1.69922 -13.7998 -4.39941 -19.7998l72.2998 -43.3994c5.09961 -3.10059 10.7998 -4.60059 16.4004 -4.60059
c11.0996 0 21.8994 5.7002 27.7998 16.1006l81.5 142.6c-10.7002 8.7998 -17.7002 22 -17.7002 37c0 26.5 21.5 48 48 48s48 -21.5 48 -48c0 -15 -7 -28.2002 -17.7002 -37l81.5 -142.7c5.90039 -10.2998 16.7002 -16.0996 27.7998 -16.0996
c5.60059 0 11.2002 1.5 16.4004 4.59961l72.4004 43.4004c-2.80078 6.09961 -4.40039 12.7002 -4.40039 19.7998c0 26.5 21.5 48 48 48zM478.7 80l36 96.0996l-14 -8.39941c-12.4004 -7.5 -26.6006 -11.4004 -41.1006 -11.4004c-28.6992 0 -55.2998 15.4004 -69.5 40.2998
l-70.0996 122.7l-70.0996 -122.7c-14.2002 -24.8994 -40.8008 -40.2998 -69.5 -40.2998c-14.4004 0 -28.7002 3.90039 -41.1006 11.4004l-14 8.39941l36 -96.0996h317.4z" />
    <glyph glyph-name="dice" unicode="&#xf522;" 
d="M480 120c13.25 0 24 -10.7402 24 -24c0 -13.25 -10.75 -24 -24 -24s-24 10.75 -24 24c0 13.2598 10.75 24 24 24zM576 256c35.3496 0 64 -28.6504 64 -64v-192c0 -35.3496 -28.6504 -64 -64 -64h-192c-35.3496 0 -64 28.6504 -64 64v68.7402l-49.46 -49.46
c-12.8496 -12.8506 -29.7002 -19.2803 -46.54 -19.2803s-33.6904 6.42969 -46.54 19.2803l-158.18 158.18c-25.7002 25.7002 -25.7002 67.3799 0 93.0801l158.18 158.18c12.8496 12.8604 29.7002 19.2803 46.54 19.2803s33.6904 -6.41992 46.54 -19.2803l158.18 -158.18
c4.40039 -4.40039 7.77051 -9.37988 10.6602 -14.5498v0.00976562h136.62zM235.63 54.1797l158.19 158.19c6.41992 6.41992 6.41992 16.8604 0 23.2695l-158.19 158.181c-4.18945 4.18945 -9.08984 4.81934 -11.6299 4.81934s-7.44043 -0.629883 -11.6299 -4.81934
l-158.19 -158.181c-6.41992 -6.40918 -6.41992 -16.8496 0 -23.2695l158.19 -158.19c4.18945 -4.18945 9.08984 -4.81934 11.6299 -4.81934s7.44043 0.629883 11.6299 4.81934zM592 0v192c0 8.82031 -7.17969 16 -16 16h-130.23
c-2.78906 -11.1699 -8.31934 -21.8096 -17.0498 -30.54l-60.7197 -60.7197v-116.74c0 -8.82031 7.17969 -16 16 -16h192c8.82031 0 16 7.17969 16 16zM224 248c13.25 0 24 -10.7402 24 -24c0 -13.25 -10.75 -24 -24 -24s-24 10.75 -24 24c0 13.2598 10.75 24 24 24zM320 248
c13.25 0 24 -10.7402 24 -24c0 -13.25 -10.75 -24 -24 -24s-24 10.75 -24 24c0 13.2598 10.75 24 24 24zM128 248c13.25 0 24 -10.7402 24 -24c0 -13.25 -10.75 -24 -24 -24s-24 10.75 -24 24c0 13.2598 10.75 24 24 24zM224 152c13.25 0 24 -10.7402 24 -24
c0 -13.25 -10.75 -24 -24 -24s-24 10.75 -24 24c0 13.2598 10.75 24 24 24zM224 344c13.25 0 24 -10.7402 24 -24c0 -13.25 -10.75 -24 -24 -24s-24 10.75 -24 24c0 13.2598 10.75 24 24 24z" />
    <glyph glyph-name="dice-five" unicode="&#xf523;" horiz-adv-x="448" 
d="M384 416c35.3496 0 64 -28.6504 64 -64v-320c0 -35.3496 -28.6504 -64 -64 -64h-320c-35.3496 0 -64 28.6504 -64 64v320c0 35.3496 28.6504 64 64 64h320zM400 32v320c0 8.82031 -7.17969 16 -16 16h-320c-8.82031 0 -16 -7.17969 -16 -16v-320
c0 -8.82031 7.17969 -16 16 -16h320c8.82031 0 16 7.17969 16 16zM128 320c17.6699 0 32 -14.3301 32 -32s-14.3301 -32 -32 -32s-32 14.3301 -32 32s14.3301 32 32 32zM224 224c17.6699 0 32 -14.3301 32 -32s-14.3301 -32 -32 -32s-32 14.3301 -32 32s14.3301 32 32 32z
M128 128c17.6699 0 32 -14.3301 32 -32s-14.3301 -32 -32 -32s-32 14.3301 -32 32s14.3301 32 32 32zM320 320c17.6699 0 32 -14.3301 32 -32s-14.3301 -32 -32 -32s-32 14.3301 -32 32s14.3301 32 32 32zM320 128c17.6699 0 32 -14.3301 32 -32s-14.3301 -32 -32 -32
s-32 14.3301 -32 32s14.3301 32 32 32z" />
    <glyph glyph-name="dice-four" unicode="&#xf524;" horiz-adv-x="448" 
d="M384 416c35.3496 0 64 -28.6504 64 -64v-320c0 -35.3496 -28.6504 -64 -64 -64h-320c-35.3496 0 -64 28.6504 -64 64v320c0 35.3496 28.6504 64 64 64h320zM400 32v320c0 8.82031 -7.17969 16 -16 16h-320c-8.82031 0 -16 -7.17969 -16 -16v-320
c0 -8.82031 7.17969 -16 16 -16h320c8.82031 0 16 7.17969 16 16zM128 320c17.6699 0 32 -14.3301 32 -32s-14.3301 -32 -32 -32s-32 14.3301 -32 32s14.3301 32 32 32zM128 128c17.6699 0 32 -14.3301 32 -32s-14.3301 -32 -32 -32s-32 14.3301 -32 32s14.3301 32 32 32z
M320 320c17.6699 0 32 -14.3301 32 -32s-14.3301 -32 -32 -32s-32 14.3301 -32 32s14.3301 32 32 32zM320 128c17.6699 0 32 -14.3301 32 -32s-14.3301 -32 -32 -32s-32 14.3301 -32 32s14.3301 32 32 32z" />
    <glyph glyph-name="dice-one" unicode="&#xf525;" horiz-adv-x="448" 
d="M384 416c35.3496 0 64 -28.6504 64 -64v-320c0 -35.3496 -28.6504 -64 -64 -64h-320c-35.3496 0 -64 28.6504 -64 64v320c0 35.3496 28.6504 64 64 64h320zM400 32v320c0 8.82031 -7.17969 16 -16 16h-320c-8.82031 0 -16 -7.17969 -16 -16v-320
c0 -8.82031 7.17969 -16 16 -16h320c8.82031 0 16 7.17969 16 16zM224 224c17.6699 0 32 -14.3301 32 -32s-14.3301 -32 -32 -32s-32 14.3301 -32 32s14.3301 32 32 32z" />
    <glyph glyph-name="dice-six" unicode="&#xf526;" horiz-adv-x="448" 
d="M384 416c35.3496 0 64 -28.6504 64 -64v-320c0 -35.3496 -28.6504 -64 -64 -64h-320c-35.3496 0 -64 28.6504 -64 64v320c0 35.3496 28.6504 64 64 64h320zM400 32v320c0 8.82031 -7.17969 16 -16 16h-320c-8.82031 0 -16 -7.17969 -16 -16v-320
c0 -8.82031 7.17969 -16 16 -16h320c8.82031 0 16 7.17969 16 16zM128 320c17.6699 0 32 -14.3301 32 -32s-14.3301 -32 -32 -32s-32 14.3301 -32 32s14.3301 32 32 32zM128 224c17.6699 0 32 -14.3301 32 -32s-14.3301 -32 -32 -32s-32 14.3301 -32 32s14.3301 32 32 32z
M320 224c17.6699 0 32 -14.3301 32 -32s-14.3301 -32 -32 -32s-32 14.3301 -32 32s14.3301 32 32 32zM128 128c17.6699 0 32 -14.3301 32 -32s-14.3301 -32 -32 -32s-32 14.3301 -32 32s14.3301 32 32 32zM320 320c17.6699 0 32 -14.3301 32 -32s-14.3301 -32 -32 -32
s-32 14.3301 -32 32s14.3301 32 32 32zM320 128c17.6699 0 32 -14.3301 32 -32s-14.3301 -32 -32 -32s-32 14.3301 -32 32s14.3301 32 32 32z" />
    <glyph glyph-name="dice-three" unicode="&#xf527;" horiz-adv-x="448" 
d="M384 416c35.3496 0 64 -28.6504 64 -64v-320c0 -35.3496 -28.6504 -64 -64 -64h-320c-35.3496 0 -64 28.6504 -64 64v320c0 35.3496 28.6504 64 64 64h320zM400 32v320c0 8.82031 -7.17969 16 -16 16h-320c-8.82031 0 -16 -7.17969 -16 -16v-320
c0 -8.82031 7.17969 -16 16 -16h320c8.82031 0 16 7.17969 16 16zM128 320c17.6699 0 32 -14.3301 32 -32s-14.3301 -32 -32 -32s-32 14.3301 -32 32s14.3301 32 32 32zM224 224c17.6699 0 32 -14.3301 32 -32s-14.3301 -32 -32 -32s-32 14.3301 -32 32s14.3301 32 32 32z
M320 128c17.6699 0 32 -14.3301 32 -32s-14.3301 -32 -32 -32s-32 14.3301 -32 32s14.3301 32 32 32z" />
    <glyph glyph-name="dice-two" unicode="&#xf528;" horiz-adv-x="448" 
d="M384 416c35.3496 0 64 -28.6504 64 -64v-320c0 -35.3496 -28.6504 -64 -64 -64h-320c-35.3496 0 -64 28.6504 -64 64v320c0 35.3496 28.6504 64 64 64h320zM400 32v320c0 8.82031 -7.17969 16 -16 16h-320c-8.82031 0 -16 -7.17969 -16 -16v-320
c0 -8.82031 7.17969 -16 16 -16h320c8.82031 0 16 7.17969 16 16zM128 320c17.6699 0 32 -14.3301 32 -32s-14.3301 -32 -32 -32s-32 14.3301 -32 32s14.3301 32 32 32zM320 128c17.6699 0 32 -14.3301 32 -32s-14.3301 -32 -32 -32s-32 14.3301 -32 32s14.3301 32 32 32z
" />
    <glyph glyph-name="divide" unicode="&#xf529;" horiz-adv-x="384" 
d="M192 288c-26.5098 0 -48 21.4902 -48 48s21.4902 48 48 48s48 -21.4902 48 -48s-21.4902 -48 -48 -48zM368 224c8.83984 0 16 -7.16016 16 -16v-32c0 -8.83984 -7.16016 -16 -16 -16h-352c-8.83984 0 -16 7.16016 -16 16v32c0 8.83984 7.16016 16 16 16h352zM192 96
c26.5098 0 48 -21.4902 48 -48s-21.4902 -48 -48 -48s-48 21.4902 -48 48s21.4902 48 48 48z" />
    <glyph glyph-name="door-closed" unicode="&#xf52a;" 
d="M624 -16c8.83984 0 16 -7.16016 16 -16v-16c0 -8.83984 -7.16016 -16 -16 -16h-608c-8.83984 0 -16 7.16016 -16 16v16c0 8.83984 7.16016 16 16 16h112v432c0 17.6699 14.3301 32 32 32h320c17.6699 0 32 -14.3301 32 -32v-432h112zM464 -16v416h-288v-416h288zM400 160
c-17.6699 0 -32 14.3301 -32 32s14.3301 32 32 32s32 -14.3301 32 -32s-14.3301 -32 -32 -32z" />
    <glyph glyph-name="door-open" unicode="&#xf52b;" 
d="M288 160c-13.25 0 -24 14.3301 -24 32s10.75 32 24 32s24 -14.3301 24 -32s-10.75 -32 -24 -32zM624 -16c8.83984 0 16 -7.16016 16 -16v-16c0 -8.83984 -7.16016 -16 -16 -16h-608c-8.83984 0 -16 7.16016 -16 16v16c0 8.83984 7.16016 16 16 16h112v381.08
c0 15.2197 9.99023 28.4795 24.2305 32.1699l192 49.7402c2.63965 0.689453 5.25977 1.00977 7.8291 1.00977c17.1504 0 31.9404 -14.4199 31.9404 -33.1797v-30.8203h80c26.4697 0 48 -22.1904 48 -49.4502v-350.55h112zM336 -16v411.27l-160 -41.4492v-369.82h160z
M464 -16v352h-80v-352h80z" />
    <glyph glyph-name="equals" unicode="&#xf52c;" horiz-adv-x="384" 
d="M368 144c8.83984 0 16 -7.16016 16 -16v-32c0 -8.83984 -7.16016 -16 -16 -16h-352c-8.83984 0 -16 7.16016 -16 16v32c0 8.83984 7.16016 16 16 16h352zM368 304c8.83984 0 16 -7.16016 16 -16v-32c0 -8.83984 -7.16016 -16 -16 -16h-352c-8.83984 0 -16 7.16016 -16 16
v32c0 8.83984 7.16016 16 16 16h352z" />
    <glyph glyph-name="frog" unicode="&#xf52e;" horiz-adv-x="576" 
d="M576 258.06c-0.00390625 -21.792 -11.9531 -40.7646 -29.71 -50.7295l-154.44 -86.6504l98.5205 -104.68h53.6299c17.6699 0 32 -14.3301 32 -32c0 -8.83984 -7.16016 -16 -16 -16h-90.3799l-111.34 118.3c-2.4502 -15.5801 -7.86035 -30.8896 -17.1504 -44.8193
l-18.8701 -25.4805h29.7402c17.6699 0 32 -14.3301 32 -32c0 -8.83984 -7.16016 -16 -16 -16h-304c-34.9199 0 -63.8896 28.1104 -64 63.0195c-0.490234 162.49 120.27 296.461 276.84 317.631c12.25 38.9297 48.1904 67.3496 91.1602 67.3496
c43.9805 0 80.6396 -29.7402 92.0098 -70.0898c19.5703 -6.92969 56.8301 -20.9102 85.5098 -36.6201c18.7607 -10.2803 30.4805 -29.8301 30.4805 -51.2305zM522.81 249.19c3.2002 1.7998 5.19043 5.19922 5.19043 8.86914c0 3.82031 -2.07031 7.24023 -5.54004 9.14062
c-25.5596 14 -60.1396 26.9795 -78.4697 33.4697l-23.4404 8.2998l-6.74023 23.9307c-5.81934 20.6699 -24.6592 35.0996 -45.8096 35.0996c-20.79 0 -39.0195 -13.5596 -45.3701 -33.75l-9.14941 -29.0801l-30.2109 -4.08008
c-134.529 -18.1895 -235.68 -134.229 -235.27 -269.92c0.0302734 -8.21973 7.34961 -15.1699 16 -15.1699h198.56l39.3105 53.0703c18.2197 27.3896 11.6895 65.6094 -15.5898 86.0596c-22.6504 17.0205 -54.3701 17.0801 -77.0898 0l-34.7803 -26.0898
c-10.5898 -7.96973 -25.6201 -5.79004 -33.5898 4.7998c-7.9707 10.6104 -5.81055 25.6602 4.7793 33.6104l34.7803 26.0898c39.7197 29.75 95.0605 29.7197 134.72 0c14.6006 -10.9502 25.3604 -25.0098 32.9199 -40.4004zM368 328c13.25 0 24 -10.7402 24 -24
c0 -13.25 -10.75 -24 -24 -24s-24 10.75 -24 24c0 13.2598 10.75 24 24 24z" />
    <glyph glyph-name="glasses" unicode="&#xf530;" horiz-adv-x="576" 
d="M574.1 167.63c1.26074 -5.07031 1.90039 -10.2695 1.90039 -15.5v-70.25c0 -62.8896 -51.5801 -113.88 -115.2 -113.88h-37.1201c-60.2793 0 -110.37 45.9404 -114.87 105.37l-2.92969 38.6299h-35.75l-2.92969 -38.6299
c-4.50977 -59.4297 -54.6006 -105.37 -114.88 -105.37h-37.1201c-63.6201 0 -115.2 50.9902 -115.2 113.89v70.25c0.000976562 5.35059 0.663086 10.5205 1.90039 15.4902l45.3398 181.73c5.91016 23.6895 21.5898 44.0293 43 55.7998
c21.4395 11.7402 46.9697 14.1094 70.1895 6.33008l15.25 -5.08008c8.39062 -2.79004 12.9199 -11.8604 10.1201 -20.2402l-5.05957 -15.1797c-2.79004 -8.37988 -11.8506 -12.9102 -20.2305 -10.1201l-13.1699 4.38965
c-10.8701 3.62012 -22.9902 3.57031 -33.1494 -1.72949c-10.29 -5.36035 -17.5908 -14.5605 -20.3809 -25.8105l-38.46 -153.83c22.1904 6.81055 49.79 12.46 81.21 12.46c39.9102 0 85.6309 -9.19922 133.04 -36.3496h36.8105
c47.4102 27.1396 93.1396 36.3398 133.04 36.3398c31.4102 0 59.0098 -5.64941 81.2002 -12.46l-38.46 153.82c-2.80078 11.2598 -10.0801 20.4502 -20.3701 25.8193c-10.1602 5.30078 -22.29 5.35059 -33.1602 1.73047l-13.1797 -4.38965
c-8.38086 -2.79004 -17.4404 1.73926 -20.2305 10.1201l-5.05957 15.1797c-2.80078 8.37988 1.72949 17.4502 10.1191 20.2402l15.25 5.08008c23.2207 7.7793 48.75 5.39941 70.1904 -6.33008c21.4102 -11.7607 37.0898 -32.1104 43 -55.8105zM219.33 77l4.00977 52.8301
c-27.8994 12.3096 -56.9795 18.5303 -86.7598 18.5303c-37.3496 -0.0107422 -68.8105 -9.81055 -88.5801 -18v-48.4707c0 -36.3301 30.1504 -65.8896 67.2002 -65.8896h37.1094c34.9902 0 64.4209 26.7998 67.0205 61zM528 81.8799v48.4902
c-19.71 8.16016 -51.1797 17.9795 -88.5498 17.9795c-29.79 0 -58.8799 -6.21973 -86.79 -18.5293l4.00977 -52.8203c2.58984 -34.21 32.0303 -61 67.0098 -61h37.1201c37.0498 0 67.2002 29.5498 67.2002 65.8799z" />
    <glyph glyph-name="greater-than" unicode="&#xf531;" horiz-adv-x="320" 
d="M311.16 229.47c5.41992 -2.70996 8.83984 -8.25 8.83008 -14.3193v-46.3105c0 -6.05957 -3.41992 -11.5996 -8.83984 -14.3096l-273.681 -136.84c-7.91016 -3.9502 -17.5195 -0.740234 -21.4697 7.15918l-14.3096 28.6309
c-3.9502 7.89941 -0.740234 17.5098 7.15918 21.46l234.11 117.06l-234.11 117.06c-7.90918 3.9502 -11.1094 13.5605 -7.15918 21.46l14.3096 28.6309c3.9502 7.90918 13.5703 11.1094 21.4697 7.15918z" />
    <glyph glyph-name="greater-than-equal" unicode="&#xf532;" horiz-adv-x="384" 
d="M368 32c8.83984 0 16 -7.16016 16 -16v-32c0 -8.83984 -7.16016 -16 -16 -16h-352c-8.83984 0 -16 7.16016 -16 16v32c0 8.83984 7.16016 16 16 16h352zM33.1504 137.63c-3.28027 8.58008 0.709961 18.3203 8.90918 21.7598l230.851 96.6104l-230.851 96.6104
c-8.20996 3.43945 -12.1992 13.1797 -8.91992 21.7598l11.8799 31.0996c3.28027 8.58984 12.5908 12.7607 20.8008 9.33008l276.13 -115.56c6.08008 -2.54004 10.0596 -8.7002 10.0596 -15.54v-55.4004c0 -6.83984 -3.97949 -13 -10.0596 -15.54l-276.12 -115.56
c-8.20996 -3.44043 -17.5205 0.740234 -20.7998 9.33008z" />
    <glyph glyph-name="helicopter" unicode="&#xf533;" 
d="M316.5 31.9805c-17.5703 0 -34.3496 8.36914 -44.9004 22.3994l-70.4697 93.8203l-164.93 65.8496l-34.8105 119.36c-3.29004 12.9199 -0.629883 25.4199 7.01074 35.2002c7.63965 9.7793 19.1592 15.3896 31.5898 15.3896h40.0693
c12.5205 0 24.5205 -5.96973 32.0605 -15.9805l36.0703 -48.0195h179.77v80h-184.03c-8.83008 0 -16 7.16016 -16 16v16c0 8.83984 7.16016 16 16 16h416.061c8.83008 0 16 -7.16016 16 -16v-16c0 -8.83984 -7.16016 -16 -16 -16h-184.03v-80.75
c121.5 -7.62988 222.01 -104.44 231.95 -226.98c1.21973 -15.3799 -4.12988 -30.7197 -14.6797 -42.1299c-10.7002 -11.5293 -25.8203 -18.1592 -41.5107 -18.1592h-235.22zM407.97 266.01v-186.02h143.74c3.16992 0 5.23047 1.70996 6.16992 2.72949
c1.07031 1.14062 2.29004 3.06055 2.07031 5.7207c-7.02051 86.6992 -70.3506 157.39 -151.98 177.569zM75.8398 249.93l155.66 -62.1602l78.5801 -104.579c1.5 -2.01074 3.91016 -3.2002 6.41992 -3.2002h43.4697v192.01h-235.819l-48.0908 64h-25.3594zM637.72 -24.5596
c1.53027 -1.55078 2.33984 -3.64062 2.28027 -5.88086c-0.0986328 -2.42285 -1.20215 -4.5918 -2.91016 -6.08984c-31.3701 -27.4697 -49.75 -27.4697 -63.1602 -27.4697h-333.979c-8.7998 0 -16 7.2002 -16 16v16c0 8.7998 7.2002 16 16 16h333.979
c14.2705 0 23.0205 6.58984 30.4102 13.6504c3.16016 3.01953 8.12988 3.01953 11.2197 -0.0703125z" />
    <glyph glyph-name="kiwi-bird" unicode="&#xf535;" horiz-adv-x="576" 
d="M575.83 230.02c0.229492 -4.2998 0.160156 9.94043 0.160156 -246.01c0 -9.22949 -7.58984 -16 -16 -16c-5.75 0 -11.1904 3.11035 -14.0303 8.33984l-74.4199 136.44c-2.5498 -0.179688 -4.95996 -0.790039 -7.5498 -0.790039h-15.5098
c-54.6006 0 -106.4 -19.25 -152.15 -49.0596c-12.4502 -8.11035 -26.0996 -14.4209 -40.3398 -19.4805v-59.46c0 -8.83984 -7.16992 -16 -16 -16h-16c-8.83984 0 -16 7.16016 -16 16v49.1797c-5.32031 -0.449219 -10.5605 -1.17969 -16 -1.17969
c-16.6006 0 -32.6299 2.2998 -48 6.25977v-54.2598c0 -8.83984 -7.16016 -16 -16 -16h-16c-8.83984 0 -16 7.16016 -16 16v73.9902c-57.3105 33.21 -95.9502 95.0596 -95.9902 166.01c-0.0498047 102.16 80.3604 192 191.99 192c40.3301 0 77.7002 -12.4805 108.55 -33.7598
c43.4795 -29.9902 94.9102 -46.2402 147.74 -46.2402h9.37012c60.6494 0 115.01 -45.4102 118.18 -105.98zM96.3301 57.79c0.00976562 0 0.00976562 -0.00976562 0.0195312 -0.00976562c-0.00976562 -0.0498047 -0.00976562 -0.0400391 -0.0195312 0.00976562zM463.99 160
c36.2998 0 65.8594 30.25 63.9102 67.5098c-1.75 33.3604 -33.2607 60.4902 -70.25 60.4902h-9.37012c-62.5703 0 -123.08 18.9297 -175 54.7305c-23.9707 16.5293 -52.0801 25.2695 -81.29 25.2695c-77.3506 0 -143.88 -60.29 -144.03 -144
c-0.150391 -81.1201 66.2803 -144 144.03 -144c27.8701 0 54.8896 8.00977 78.1396 23.1602c57.8896 37.7197 117.9 56.8398 178.351 56.8398h15.5098zM543.99 46.75v99.0596c-11.1299 -11.3799 -24.75 -20.1494 -39.8701 -25.9795zM463.99 248c13.25 0 24 -10.7402 24 -24
c0 -13.25 -10.75 -24 -24 -24s-24 10.75 -24 24c0 13.2598 10.75 24 24 24z" />
    <glyph glyph-name="less-than" unicode="&#xf536;" horiz-adv-x="320" 
d="M311.15 74.9404c7.89941 -3.9502 11.1094 -13.5605 7.14941 -21.46l-14.3096 -28.6309c-3.9502 -7.90918 -13.5703 -11.1094 -21.4707 -7.15918l-273.68 136.84c-5.41992 2.70996 -8.83984 8.25 -8.83984 14.3096v46.3105
c0 0.00390625 -0.015625 -0.00195312 -0.015625 0.00195312c0 6.26367 3.60742 11.6914 8.85547 14.3174l273.69 136.84c7.91016 3.9502 17.5195 0.740234 21.4697 -7.15918l14.3096 -28.6309c3.9502 -7.89941 0.740234 -17.5098 -7.15918 -21.46l-234.11 -117.06z" />
    <glyph glyph-name="less-than-equal" unicode="&#xf537;" horiz-adv-x="384" 
d="M368 32c8.83984 0 16 -7.16016 16 -16v-32c0 -8.83984 -7.16016 -16 -16 -16h-352c-8.83984 0 -16 7.16016 -16 16v32c0 8.83984 7.16016 16 16 16h352zM42.0596 212.76c-6.0791 2.54004 -10.0596 8.7002 -10.0596 15.5498v55.3906c0 6.83984 3.98047 13 10.0596 15.54
l276.12 115.569c8.20996 3.43066 17.5205 -0.739258 20.8008 -9.3291l11.8799 -31.1006c3.26953 -8.58984 -0.720703 -18.3301 -8.91992 -21.7598l-230.851 -96.6201l230.851 -96.6104c8.20996 -3.43945 12.1992 -13.1797 8.91992 -21.7598l-11.8799 -31.0996
c-3.28027 -8.58984 -12.5908 -12.7705 -20.8008 -9.33008z" />
    <glyph glyph-name="memory" unicode="&#xf538;" 
d="M480 288v-128h-64v128h64zM352 288v-128h-64v128h64zM224 288v-128h-64v128h64zM632 288c-13.25 0 -24 -10.7402 -24 -24c0 -13.25 10.75 -24 24 -24h8v-240h-640v240h8c13.2598 0 24 10.75 24 24c0 13.2598 -10.7402 24 -24 24h-8v64c0 17.6699 14.3301 32 32 32h576
c17.6699 0 32 -14.3301 32 -32v-64h-8zM592 48v48h-544v-48h64c0 8.83984 7.16016 16 16 16s16 -7.16016 16 -16h96c0 8.83984 7.16016 16 16 16s16 -7.16016 16 -16h96c0 8.83984 7.16016 16 16 16s16 -7.16016 16 -16h96c0 8.83984 7.16016 16 16 16s16 -7.16016 16 -16
h64zM592 323.84v12.1602h-544v-12.1602c19.29 -12.9297 32 -34.9297 32 -59.8398s-12.71 -46.9102 -32 -59.8398v-76.1602h544v76.1602c-19.29 12.9297 -32 34.9297 -32 59.8398s12.71 46.9102 32 59.8398z" />
    <glyph glyph-name="microphone-alt-slash" unicode="&#xf539;" 
d="M633.99 -23.0195c6.91016 -5.52051 8.01953 -15.5908 2.5 -22.4902l-10 -12.4902c-5.53027 -6.88965 -15.5898 -8.00977 -22.4902 -2.49023l-598 467.51c-6.90039 5.52051 -8.01953 15.5908 -2.49023 22.4902l10 12.4902
c5.52051 6.90039 15.5898 8.00977 22.4902 2.49023zM496 192c0 -14.4805 -2.33008 -28.3203 -5.65039 -41.79l-43.21 33.7803c0.169922 2.70996 0.860352 5.25977 0.860352 8.00977v48c0 8.83984 7.16016 16 16 16h16c8.83984 0 16 -7.16016 16 -16v-48zM400 -16
c8.83984 0 16 -7.16016 16 -16v-16c0 -8.83984 -7.16016 -16 -16 -16h-160c-8.83984 0 -16 7.16016 -16 16v16c0 8.83984 7.16016 16 16 16h56v34.1504c-88.0303 12.1396 -152 92.0498 -152 181.689v38.3701l48 -37.5303v-2.97949
c0 -66.8105 48.7197 -126.59 115.21 -133.08c18.1299 -1.77051 35.5 0.509766 51.5898 5.64941l43.1006 -33.6895c-17.7607 -9.37988 -37.2207 -15.9697 -57.9004 -18.8105v-33.7695h56zM272 352v-31.0898l-47.4004 37.0596
c3.14062 50.1807 44.4307 90.0303 95.4004 90.0303c53.0195 0 96 -42.9805 96 -96v-143.67l-48 37.5303v10.1396h-12.9697l-33.9707 26.5596c1.15039 3.02051 3.52051 5.44043 6.94043 5.44043h40v32h-40c-4.41992 0 -8 3.58008 -8 8v16c0 4.41992 3.58008 8 8 8h40
c0 26.4697 -21.5303 48 -48 48s-48 -21.5303 -48 -48z" />
    <glyph glyph-name="money-bill-wave" unicode="&#xf53a;" 
d="M320 287.45c44.1797 0 80 -43.1602 80 -96.4102c0 -53.2598 -35.8301 -96.4102 -80 -96.4102c-44.1904 0 -80 43.1699 -80 96.4102c0 53.25 35.8203 96.4102 80 96.4102zM621.16 393.54c11.6094 -4.87012 18.8398 -16.8301 18.8496 -29.4697v-317.25
c0 -18.4902 -15.04 -31.8105 -32.25 -31.8105c-3.39941 0 -6.87988 0.520508 -10.3496 1.62012c-30.8906 9.7998 -61.7598 13.7197 -92.6504 13.7197c-123.17 0 -246.34 -62.3496 -369.51 -62.3496c-38.7998 0 -77.6201 6.19043 -116.41 22.4697
c-11.6094 4.86035 -18.8398 16.8301 -18.8398 29.46v317.261c0 18.4893 15.04 31.8096 32.25 31.8096c3.40039 0 6.87988 -0.519531 10.3496 -1.62012c30.8906 -9.7998 61.7607 -13.7197 92.6504 -13.7197c123.17 0 246.33 62.3496 369.5 62.3398
c38.7998 0 77.6201 -6.19043 116.41 -22.46zM592 125.95v178.38c-30.96 3.91992 -54.9805 29.7998 -55.8301 61.7598c-10.2002 1.12988 -20.5801 1.91016 -31.4199 1.91016c-55.6104 0 -112.62 -14.4297 -172.97 -29.7002
c-63.4004 -16.0498 -128.96 -32.6396 -196.521 -32.6396c-8.42969 0 -16.3701 0.889648 -24.5098 1.39941c-5.80957 -29.5 -31.6699 -51.75 -62.7402 -51.75v-176.76c34.4404 0 62.3105 -27.3799 63.7305 -61.6094c7.66016 -0.620117 15.4902 -0.94043 23.5098 -0.94043
c55.5996 0 112.61 14.4297 172.97 29.71c63.4004 16.0498 128.971 32.6396 196.53 32.6396c11.3096 0 22.0703 -0.959961 32.8701 -1.87988c5.7998 26.1699 27.4902 46.0801 54.3799 49.4805z" />
    <glyph glyph-name="money-bill-wave-alt" unicode="&#xf53b;" 
d="M320 287.45c44.1797 0 80 -43.1602 80 -96.4102c0 -53.2598 -35.8301 -96.4102 -80 -96.4102c-44.1904 0 -80 43.1699 -80 96.4102c0 53.25 35.8203 96.4102 80 96.4102zM621.16 393.54c11.6094 -4.87012 18.8398 -16.8301 18.8496 -29.4697v-317.25
c0 -18.4902 -15.04 -31.8105 -32.25 -31.8105c-3.39941 0 -6.87988 0.520508 -10.3496 1.62012c-30.8906 9.7998 -61.7598 13.7197 -92.6504 13.7197c-123.17 0 -246.34 -62.3496 -369.51 -62.3496c-38.7998 0 -77.6201 6.19043 -116.41 22.4697
c-11.6094 4.86035 -18.8398 16.8301 -18.8398 29.46v317.261c0 18.4893 15.04 31.8096 32.25 31.8096c3.40039 0 6.87988 -0.519531 10.3496 -1.62012c30.8906 -9.7998 61.7607 -13.7197 92.6504 -13.7197c123.17 0 246.33 62.3496 369.5 62.3398
c38.7998 0 77.6201 -6.19043 116.41 -22.46zM592 68.0195v285.4c-26.96 9.7998 -55.6201 14.5801 -87.25 14.5801c-55.6104 0 -112.62 -14.4297 -172.98 -29.7002c-63.3994 -16.0498 -128.96 -32.6396 -196.52 -32.6396c-30.8096 0 -59.5498 3.38965 -87.25 10.3203v-285.4
c26.9697 -9.7998 55.6299 -14.5801 87.25 -14.5801c55.5996 0 112.61 14.4297 172.97 29.7002c63.4004 16.0498 128.971 32.6396 196.53 32.6396c30.8096 0 59.5498 -3.38965 87.25 -10.3203z" />
    <glyph glyph-name="money-check" unicode="&#xf53c;" 
d="M624 416c8.83984 0 16 -7.16016 16 -16v-400c0 -17.6699 -14.3301 -32 -32 -32h-576c-17.6699 0 -32 14.3301 -32 32v400c0 8.83984 7.16016 16 16 16h608zM592 16v256h-544v-256h544zM592 320v48h-544v-48h544zM104 64c-4.41992 0 -8 3.58008 -8 8v32
c0 4.41992 3.58008 8 8 8h144c4.41992 0 8 -3.58008 8 -8v-32c0 -4.41992 -3.58008 -8 -8 -8h-144zM456 64c-4.41992 0 -8 3.58008 -8 8v32c0 4.41992 3.58008 8 8 8h80c4.41992 0 8 -3.58008 8 -8v-32c0 -4.41992 -3.58008 -8 -8 -8h-80zM104 160
c-4.41992 0 -8 3.58008 -8 8v32c0 4.41992 3.58008 8 8 8h272c4.41992 0 8 -3.58008 8 -8v-32c0 -4.41992 -3.58008 -8 -8 -8h-272zM464 160c-8.83984 0 -16 7.16016 -16 16v32c0 8.83984 7.16016 16 16 16h64c8.83984 0 16 -7.16016 16 -16v-32
c0 -8.83984 -7.16016 -16 -16 -16h-64z" />
    <glyph glyph-name="money-check-alt" unicode="&#xf53d;" 
d="M608 416c17.6699 0 32 -14.3301 32 -32v-384c0 -17.6699 -14.3301 -32 -32 -32h-576c-17.6699 0 -32 14.3301 -32 32v384c0 17.6699 14.3301 32 32 32h576zM592 16v352h-544v-352h544zM296 128c-4.41992 0 -8 3.58008 -8 8v32c0 4.41992 3.58008 8 8 8h80
c4.41992 0 8 -3.58008 8 -8v-32c0 -4.41992 -3.58008 -8 -8 -8h-80zM536 176c4.41992 0 8 -3.58008 8 -8v-32c0 -4.41992 -3.58008 -8 -8 -8h-80c-4.41992 0 -8 3.58008 -8 8v32c0 4.41992 3.58008 8 8 8h80zM296 208c-4.41992 0 -8 3.58008 -8 8v32
c0 4.41992 3.58008 8 8 8h240c4.41992 0 8 -3.58008 8 -8v-32c0 -4.41992 -3.58008 -8 -8 -8h-240zM134.72 190.28c-18.0996 4.88965 -30.7197 21 -30.7197 39.1699c0 21.7295 17.8203 39.2002 40 40.2998v10.25c0 4.41992 3.58008 8 8 8h16c4.41992 0 8 -3.58008 8 -8
v-10.1699c10.29 -0.639648 20.0498 -3.87012 28.3496 -9.52051c3.73047 -2.5498 4.24023 -7.90918 1.13086 -11.1895l-12.0703 -12.7305c-2.40039 -2.5498 -6.16016 -2.83984 -9.24023 -1.17969c-3.54004 1.91016 -7.62012 2.9502 -11.7695 2.9502h-26.3408
c-5.55957 0 -10.0596 -3.90039 -10.0596 -8.7002c0 -3.75 2.90039 -7.16016 7.08984 -8.2998l42.1904 -11.4404c18.0996 -4.88965 30.7197 -21 30.7197 -39.1699c0 -21.7295 -17.8203 -39.2002 -40 -40.2998v-10.25c0 -4.41992 -3.58008 -8 -8 -8h-16
c-4.41992 0 -8 3.58008 -8 8v10.1699c-10.29 0.639648 -20.0498 3.87012 -28.3496 9.52051c-3.73047 2.5498 -4.24023 7.90918 -1.13086 11.1895l12.0703 12.7305c2.40039 2.5498 6.16016 2.84961 9.24023 1.17969c3.54004 -1.91016 7.62012 -2.9502 11.7695 -2.9502
h26.3408c5.55957 0 10.0596 3.90039 10.0596 8.7002c0 3.75 -2.90039 7.16016 -7.08984 8.2998z" />
    <glyph glyph-name="not-equal" unicode="&#xf53e;" horiz-adv-x="384" 
d="M368 240h-95.0303l-79.0693 -96h174.1c8.83984 0 16 -7.16016 16 -16v-32c0 -8.83984 -7.16016 -16 -16 -16h-226.81l-87.0801 -105.73c-5.37012 -7.00977 -15.4102 -8.34961 -22.4307 -2.96973l-25.4102 19.46c-7.00977 5.37988 -8.33984 15.4199 -2.96973 22.4307
l55.0205 66.8096h-42.3203c-8.83984 0 -16 7.16016 -16 16v32c0 8.83984 7.16016 16 16 16h95.0303l79.0693 96h-174.1c-8.83984 0 -16 7.16016 -16 16v32c0 8.83984 7.16016 16 16 16h226.81l87.0801 105.73c5.37012 7.00977 15.4102 8.33984 22.4307 2.96973
l25.4199 -19.46c7.00977 -5.37012 8.33984 -15.4102 2.96973 -22.4307l-55.0303 -66.8096h42.3203c8.83984 0 16 -7.16016 16 -16v-32c0 -8.83984 -7.16016 -16 -16 -16z" />
    <glyph glyph-name="palette" unicode="&#xf53f;" horiz-adv-x="512" 
d="M128 224c17.5996 0 32 -14.2998 32 -32s-14.2998 -32 -32 -32s-32 14.2998 -32 32s14.2998 32 32 32zM418.6 389.9c59.1006 -48.5 93.2002 -120.2 93.4004 -196.601c0 -45.5996 -36.4004 -81.2998 -82.7998 -81.2998h-72.2002c-13.2998 0 -25 -6.59961 -32 -18.4004
c-7.2998 -11.7998 -7.90039 -26 -1.7998 -38c12.0996 -23.8994 12.0996 -52.5996 -0.200195 -76.5996c-11.5 -22.4004 -31.9004 -37.4004 -56.0996 -41.0996c-8.60059 -1.40039 -17.3008 -2 -26.1006 -2c-58.2002 0 -120.6 28.3994 -167.899 77.7998
c-59.7002 62.2998 -84.5 146.399 -67.8008 230.6c19.6006 99.5 99.8008 179.3 199.5 198.7c76.7002 15 154.601 -4.2998 214 -53.0996zM429.2 160c19.5 0 34.7998 14.5996 34.7998 33.2002c-0.200195 62 -27.7998 120.1 -75.9004 159.6
c-48.1992 39.6006 -111.699 55.4004 -174.3 43.1006c-80.7998 -15.7002 -145.7 -80.4004 -161.6 -161c-13.6006 -68.6006 6.59961 -137.101 55.3994 -188c43.1006 -45 102.7 -69.3008 152 -61.6006c11.9004 1.90039 18 10.6006 20.6006 15.6006
c5.2998 10.1992 5.2998 22.7998 0.200195 32.8994c-13.7002 27.1006 -12.4004 58.7998 3.59961 84.9004c15.7998 25.8994 43.0996 41.2998 73 41.2998h72.2002zM160 320c17.5996 0 32 -14.2998 32 -32s-14.2998 -32 -32 -32s-32 14.2998 -32 32s14.2998 32 32 32zM256 352.1
c17.7002 0 32 -14.3994 32 -32c0 -17.6992 -14.2998 -32 -32 -32s-32 14.3008 -32 32c0 17.7002 14.2998 32 32 32zM352 320c17.7002 0 32 -14.2998 32 -32s-14.2998 -32 -32 -32s-32 14.2998 -32 32s14.2998 32 32 32z" />
    <glyph glyph-name="parking" unicode="&#xf540;" horiz-adv-x="448" 
d="M400 416c26.5 0 48 -21.5 48 -48v-352c0 -26.5 -21.5 -48 -48 -48h-352c-26.5 0 -48 21.5 -48 48v352c0 26.5 21.5 48 48 48h352zM400 22v340c0 3.2998 -2.7002 6 -6 6h-340c-3.2998 0 -6 -2.7002 -6 -6v-340c0 -3.2998 2.7002 -6 6 -6h340c3.2998 0 6 2.7002 6 6z
M232 312.1c48.5996 0 88.0996 -39.5 88 -88c0 -48.5 -39.5 -88 -88 -88h-48v-56c0 -8.7998 -7.2002 -16 -16 -16h-16c-8.7998 0 -16 7.2002 -16 16v216c0 8.80078 7.2002 16 16 16h80zM232 184c22.0996 0 40 17.9004 40 40s-17.9004 40 -40 40h-48v-80h48z" />
    <glyph glyph-name="percentage" unicode="&#xf541;" horiz-adv-x="320" 
d="M81.9404 270.06c-18.7402 -18.75 -49.1309 -18.75 -67.8809 0c-18.7393 18.7402 -18.7393 49.1406 0 67.8809c18.7402 18.75 49.1309 18.75 67.8809 0c18.7393 -18.7402 18.7393 -49.1309 0 -67.8809zM238.06 113.94c18.7402 18.75 49.1309 18.75 67.8809 0
c18.7393 -18.7402 18.7393 -49.1309 0 -67.8809c-18.7402 -18.7393 -49.1309 -18.7393 -67.8809 0c-18.7393 18.7402 -18.7393 49.1406 0 67.8809zM315.31 324.69c6.25 -6.25 6.25 -16.3809 0.0107422 -22.6406l-265.37 -265.37c-6.25 -6.25 -16.3799 -6.25 -22.6299 0
l-22.6299 22.6299c-6.25 6.25 -6.25 16.3809 0 22.6309l265.359 265.38c6.25 6.25 16.3799 6.25 22.6299 0z" />
    <glyph glyph-name="project-diagram" unicode="&#xf542;" 
d="M608 448c17.6699 0 32 -14.3301 32 -32v-128c0 -17.6699 -14.3301 -32 -32 -32h-128c-17.6699 0 -32 14.3301 -32 32v32h-256v-47.5l82.7598 -144.5h109.24c17.6699 0 32 -14.3301 32 -32v-128c0 -17.6699 -14.3301 -32 -32 -32h-128c-17.6699 0 -32 14.3301 -32 32
v119.88l-96.2803 168.12h-95.7197c-17.6699 0 -32 14.3301 -32 32v128c0 17.6699 14.3301 32 32 32h128c17.6699 0 32 -14.3301 32 -32v-32h256v32c0 17.6699 14.3301 32 32 32h128zM144 304v96h-96v-96h96zM272 80v-96h96v96h-96zM592 304v96h-96v-96h96z" />
    <glyph glyph-name="receipt" unicode="&#xf543;" horiz-adv-x="448" 
d="M344 160c4.40039 0 8 -3.59961 8 -8v-32c0 -4.40039 -3.59961 -8 -8 -8h-240c-4.40039 0 -8 3.59961 -8 8v32c0 4.40039 3.59961 8 8 8h240zM400.8 442.3c20.1006 14.4004 47.2002 -0.299805 47.2002 -24.2002v-452.3c0 -24.2002 -27.4004 -38.2998 -47.2002 -24.0996
l-43.5 31.2998l-38.5996 -27.7998c-16.7998 -12.1006 -39.2998 -12.1006 -56.1006 0l-38.5996 27.7998l-38.5996 -27.7998c-16.9004 -12.1006 -39.3008 -12.1006 -56.1006 0l-38.5996 27.7998l-43.5 -31.4004c-20.1006 -14.3994 -47.2002 0.400391 -47.2002 24.2002v452.3
c0 24.3008 27.4004 38.4004 47.2002 24.2002l43.5 -31.2998l38.5996 27.7998c7.87793 5.69336 17.6406 9.0498 28.0938 9.0498s20.1289 -3.35645 28.0068 -9.0498l38.5996 -27.7998l38.5996 27.7998c16.9004 12.1006 39.3008 12.1006 56.1006 0l38.5996 -27.7998zM400 1.5
v381l-42.5 -30.7002l-66.7002 48l-66.7002 -48l-66.6992 48l-66.7002 -48l-42.7002 30.7002v-381l42.5 30.7002l66.7002 -48l66.7002 48l66.6992 -48l66.7002 48zM344 272c4.40039 0 8 -3.59961 8 -8v-32c0 -4.40039 -3.59961 -8 -8 -8h-240c-4.40039 0 -8 3.59961 -8 8v32
c0 4.40039 3.59961 8 8 8h240z" />
    <glyph glyph-name="ruler" unicode="&#xf545;" 
d="M635.7 268.8c8.7998 -15.5996 3.59961 -35.5 -11.7002 -44.5l-483.5 -283.899c-17.2002 -10.1006 -36.0996 -1.5 -43.7002 11.8994l-92.5 162.9c-8.89941 15.5996 -3.59961 35.5 11.7002 44.5l483.5 283.899c17.2002 10.1006 36.0996 1.60059 43.7002 -11.8994z
M130.3 -9.2002l455.8 267.5l-76.5 134.7l-46 -27l34.2002 -60.2998c2.2002 -3.90039 0.900391 -8.90039 -2.89941 -11.1006l-26.6006 -15.5996c-3.7998 -2.2002 -8.7002 -0.900391 -10.8994 3l-34.2002 60.2998l-40.4004 -23.7002l18.7002 -32.8994
c2.2002 -3.90039 0.900391 -8.90039 -2.90039 -11.1006l-26.5996 -15.5996c-3.7998 -2.2002 -8.7002 -0.900391 -10.9004 3l-18.6992 32.9004l-40.4004 -23.7002l34.0996 -60.5c2.2002 -3.90039 0.900391 -8.90039 -2.89941 -11.1006l-26.6006 -15.5996
c-3.7998 -2.2002 -8.69922 -0.900391 -10.8994 3l-34.2002 60.2998l-40.4004 -23.7002l18.7002 -32.8994c2.2002 -3.90039 0.900391 -8.90039 -2.89941 -11.1006l-26.6006 -15.5996c-3.7998 -2.2002 -8.7002 -0.900391 -10.8994 3l-18.7002 32.9004l-40.4004 -23.7002
l34.2002 -60.2998c2.2002 -3.90039 0.900391 -8.90039 -2.90039 -11.1006l-26.5996 -15.5996c-3.7998 -2.2002 -8.7002 -0.900391 -10.9004 3l-34.1992 60.2998l-46 -27z" />
    <glyph glyph-name="ruler-combined" unicode="&#xf546;" horiz-adv-x="512" 
d="M480 160c17.6699 0 32 -14.3301 32 -32v-160c0 -17.6699 -14.3301 -32 -32 -32h-448c-17.6699 0 -32 14.3301 -32 32v448c0 17.6699 14.3301 32 32 32h160c17.6699 0 32 -14.3301 32 -32v-256h256zM48 400v-393.38l128 128v25.3799h-72c-4.41992 0 -8 3.58008 -8 8v16
c0 4.41992 3.58008 8 8 8h72v48h-72c-4.41992 0 -8 3.58008 -8 8v16c0 4.41992 3.58008 8 8 8h72v48h-72c-4.41992 0 -8 3.58008 -8 8v16c0 4.41992 3.58008 8 8 8h72v48h-128zM464 -16v128h-48v-72c0 -4.41992 -3.58008 -8 -8 -8h-16c-4.41992 0 -8 3.58008 -8 8v72h-48
v-72c0 -4.41992 -3.58008 -8 -8 -8h-16c-4.41992 0 -8 3.58008 -8 8v72h-48v-72c0 -4.41992 -3.58008 -8 -8 -8h-16c-4.41992 0 -8 3.58008 -8 8v72h-25.3799l-128 -128h393.38z" />
    <glyph glyph-name="ruler-horizontal" unicode="&#xf547;" 
d="M608 320c17.6699 0 32 -14.3301 32 -32v-192c0 -17.6699 -14.3301 -32 -32 -32h-576c-17.6699 0 -32 14.3301 -32 32v192c0 17.6699 14.3301 32 32 32h576zM592 112v160h-64v-56c0 -4.41992 -3.58008 -8 -8 -8h-16c-4.41992 0 -8 3.58008 -8 8v56h-64v-56
c0 -4.41992 -3.58008 -8 -8 -8h-16c-4.41992 0 -8 3.58008 -8 8v56h-64v-56c0 -4.41992 -3.58008 -8 -8 -8h-16c-4.41992 0 -8 3.58008 -8 8v56h-64v-56c0 -4.41992 -3.58008 -8 -8 -8h-16c-4.41992 0 -8 3.58008 -8 8v56h-64v-56c0 -4.41992 -3.58008 -8 -8 -8h-16
c-4.41992 0 -8 3.58008 -8 8v56h-64v-160h544z" />
    <glyph glyph-name="ruler-vertical" unicode="&#xf548;" horiz-adv-x="256" 
d="M224 448c17.6699 0 32 -14.3301 32 -32v-448c0 -17.6699 -14.3301 -32 -32 -32h-192c-17.6699 0 -32 14.3301 -32 32v448c0 17.6699 14.3301 32 32 32h192zM48 -16h160v48h-56c-4.41992 0 -8 3.58008 -8 8v16c0 4.41992 3.58008 8 8 8h56v64h-56
c-4.41992 0 -8 3.58008 -8 8v16c0 4.41992 3.58008 8 8 8h56v64h-56c-4.41992 0 -8 3.58008 -8 8v16c0 4.41992 3.58008 8 8 8h56v64h-56c-4.41992 0 -8 3.58008 -8 8v16c0 4.41992 3.58008 8 8 8h56v48h-160v-416z" />
    <glyph glyph-name="school" unicode="&#xf549;" 
d="M368 96c8.83984 0 16 -7.16016 16 -16v-128c0 -8.83984 -7.16016 -16 -16 -16h-96c-8.83984 0 -16 7.16016 -16 16v128c0 8.83984 7.16016 16 16 16h96zM320 328c48.5996 0 88 -39.4004 88 -88s-39.4004 -88 -88 -88s-88 39.4004 -88 88s39.4004 88 88 88zM368 216v16
c0 4.41992 -3.58008 8 -8 8h-24v40c0 4.41992 -3.58008 8 -8 8h-16c-4.41992 0 -8 -3.58008 -8 -8v-64c0 -4.41992 3.58008 -8 8 -8h48c4.41992 0 8 3.58008 8 8zM608 256c17.6699 0 32 -14.3301 32 -32v-272c0 -8.83984 -7.16016 -16 -16 -16h-16
c-8.83984 0 -16 7.16016 -16 16v256h-80v-272h-48v364.77l-144 96l-144 -96v-364.77h-48v272h-80v-256c0 -8.83984 -7.16016 -16 -16 -16h-16c-8.83984 0 -16 7.16016 -16 16v272c0 17.6699 14.3301 32 32 32h96v53.3398c0.00488281 11.1074 5.64648 20.8809 14.25 26.6201
l160 106.67c5.06934 3.37988 11.1895 5.37012 17.7344 5.37012h0.015625c0.00683594 0 0.0458984 -0.0185547 0.0537109 -0.0185547c6.54395 0 12.6309 -1.97559 17.6963 -5.36133l160 -106.67c8.90039 -5.93066 14.25 -15.9199 14.25 -26.6201v-53.3301h96z" />
    <glyph glyph-name="screwdriver" unicode="&#xf54a;" horiz-adv-x="512" 
d="M400 224h-78.0596l-75.8408 -75.8496c16.4502 -31.04 11.9805 -70.2705 -14.1592 -96.4102l-103.71 -103.71c-8.02051 -8.02051 -18.54 -12.0303 -29.0508 -12.0303c-10.5195 0 -21.0293 4.00977 -29.0596 12.0303l-58.0898 58.0898
c-16.04 16.0498 -16.04 42.0596 0 58.1104l103.71 103.699c13.7295 13.7402 51.5293 37.9502 96.4102 14.1602l75.8496 75.8506v78.0596l149.33 112l74.6699 -74.6699zM336 312v-40h40l72.6201 96.8301l-15.79 15.79zM197.99 85.6797
c13.3193 13.3203 13.3193 34.9902 0 48.3105c-13.3604 13.3594 -34.9707 13.3398 -48.3105 0l-98.8193 -98.8203l48.3096 -48.3096z" />
    <glyph glyph-name="shoe-prints" unicode="&#xf54b;" 
d="M491.42 440.3c109.48 -25.1895 148.58 -80.9902 148.58 -129.439c0 -68.5703 -84.1797 -102.86 -174.54 -102.86c-34.9199 0 -76.1602 14.0596 -104.729 34.2803c-24.79 17.5596 -44.5303 34.29 -104.73 34.29h-64c-35.3496 0 -64 30.6992 -64 68.5693
c0 37.8799 28.6504 70.8604 64 70.8604h64l57.5303 14.8301c26.21 7.79004 53.0098 14.0498 80.3096 16.1201c9.15039 0.689453 18.3105 1.0498 27.46 1.0498c23.5703 0 47.0801 -2.40039 70.1201 -7.7002zM240 324.57v43.4297h-48c-7.25 0 -16 -10.2002 -16 -22.8604
c0 -11.1494 7.33008 -20.5693 16 -20.5693h48zM465.46 256c62.2002 0 126.54 20.5195 126.54 54.8604c0 27.5693 -29.25 63.7695 -111.32 82.6592c-18.6699 4.30078 -38.6494 6.48047 -59.3594 6.48047c-7.9502 0 -15.8906 -0.320312 -23.8301 -0.919922
c-20.4102 -1.5498 -42.7305 -6.08008 -70.2598 -14.2705l-0.850586 -0.25l-0.860352 -0.219727l-37.5098 -9.66016v-51.96c49.8398 -5.51953 75.4199 -23.3799 96.3799 -38.3496l4.08008 -2.91016c21.1699 -14.9902 52.8301 -25.46 76.9902 -25.46zM337.46 176
c90.3604 0 174.54 -34.29 174.54 -102.86c0 -48.4395 -39.0996 -104.25 -148.58 -129.43c-23.0303 -5.2998 -46.5498 -7.7002 -70.1201 -7.7002c-9.14941 0 -18.3193 0.360352 -27.46 1.0498c-27.2998 2.07031 -54.0996 8.33008 -80.3096 16.1201l-57.5303 14.8203h-64
c-35.3496 0 -64 32.9805 -64 70.8496c0 37.8701 28.6504 68.5703 64 68.5703h64c60.21 0 79.9404 16.7402 104.73 34.29c28.5693 20.2305 69.8193 34.29 104.729 34.29zM112 16v43.4297h-48c-8.66992 0 -16 -9.41992 -16 -20.5693c0 -12.6602 8.75 -22.8604 16 -22.8604h48z
M352.66 -9.51953c82.0898 18.8896 111.34 55.0898 111.34 82.6592c0 34.3408 -64.3398 54.8604 -126.54 54.8604c-24.1602 0 -55.8203 -10.4697 -77 -25.46l-4.08008 -2.91016c-20.9502 -14.9697 -46.54 -32.8203 -96.3799 -38.3398v-51.9697l37.5 -9.66016
l0.860352 -0.219727l0.849609 -0.25c27.5303 -8.19043 49.8604 -12.7207 70.2598 -14.2705c7.94043 -0.599609 15.8906 -0.919922 23.8301 -0.919922c20.71 0 40.6807 2.17969 59.3604 6.48047z" />
    <glyph glyph-name="smoking-ban" unicode="&#xf54d;" horiz-adv-x="512" 
d="M112 128c-8.7998 0 -16 7.2002 -16 16v64c0 8.7998 7.2002 16 16 16h10.2002l96 -96h-106.2zM320.6 320c32.1006 0 58.7002 -23.7002 63.3008 -54.5996c0.699219 -4.90039 -3 -9.40039 -8 -9.40039h-16.2002c-3.7002 0 -7 2.5 -7.7002 6.09961
c-2.7998 14.7002 -15.7998 25.9004 -31.4004 25.9004c-32.0996 0 -58.6992 23.7002 -63.2998 54.5996c-0.700195 4.90039 3 9.40039 8 9.40039h16.2002c3.7002 0 7 -2.5 7.7002 -6.09961c2.7998 -14.7002 15.7998 -25.9004 31.3994 -25.9004zM256 448
c141.4 0 256 -114.6 256 -256s-114.6 -256 -256 -256s-256 114.6 -256 256s114.6 256 256 256zM256 -16c48.7002 0 93.5 17 129 45.0996l-291.9 291.9c-28.0996 -35.5 -45.0996 -80.2998 -45.0996 -129c0 -114.7 93.2998 -208 208 -208zM289.9 192l32 -32h62.0996v32
h-94.0996zM418.9 63c28.0996 35.5 45.0996 80.2998 45.0996 129c0 114.7 -93.2998 208 -208 208c-48.7002 0 -93.5 -17 -129 -45.0996l130.9 -130.9h142.1c8.7998 0 16 -7.2002 16 -16v-64c0 -8.7998 -7.2002 -16 -16 -16h-46.0996z" />
    <glyph glyph-name="store-alt" unicode="&#xf54f;" 
d="M635.7 271.9c12.2002 -21.4004 -3.10059 -47.9004 -27.7002 -47.9004h-32v-272c0 -8.7998 -7.2002 -16 -16 -16h-16c-8.7998 0 -16 7.2002 -16 16v272h-144v-252.8c0 -19.4004 -14.2998 -35.2002 -32 -35.2002h-256c-17.7002 0 -32 15.7998 -32 35.2002v252.8h-32
c-24.5996 0 -39.9004 26.5 -27.7002 47.9004l91.4004 160c5.7002 9.89941 16.2998 16.0996 27.7998 16.0996h393c11.5 0 22.0996 -6.2002 27.7998 -16.0996zM336 -16v95.7998h-224v-95.7998h224zM336 127.8v96.2002h-224v-96.2002h224zM59.5996 272h520.7l-73.0996 128
h-374.5z" />
    <glyph glyph-name="stream" unicode="&#xf550;" horiz-adv-x="512" 
d="M16 320c-8.83984 0 -16 7.16016 -16 16v32c0 8.83984 7.16016 16 16 16h416c8.83984 0 16 -7.16016 16 -16v-32c0 -8.83984 -7.16016 -16 -16 -16h-416zM496 224c8.83984 0 16 -7.16016 16 -16v-32c0 -8.83984 -7.16016 -16 -16 -16h-416c-8.83984 0 -16 7.16016 -16 16
v32c0 8.83984 7.16016 16 16 16h416zM432 64c8.83984 0 16 -7.16016 16 -16v-32c0 -8.83984 -7.16016 -16 -16 -16h-416c-8.83984 0 -16 7.16016 -16 16v32c0 8.83984 7.16016 16 16 16h416z" />
    <glyph glyph-name="stroopwafel" unicode="&#xf551;" horiz-adv-x="512" 
d="M256 448c141.38 0 256 -114.62 256 -256s-114.62 -256 -256 -256s-256 114.62 -256 256s114.62 256 256 256zM256 -16c114.69 0 208 93.3096 208 208s-93.3096 208 -208 208s-208 -93.3096 -208 -208s93.3096 -208 208 -208zM414.39 192l28.2705 -28.2998
c3.12012 -3.12012 3.12012 -8.19043 0 -11.3105l-11.3105 -11.3096c-3.11914 -3.12012 -8.18945 -3.12012 -11.3096 0l-28.29 28.2803l-45.25 -45.25l22.6299 -22.6299l16.9697 16.9697c3.12012 3.12012 8.19043 3.12012 11.3105 0l11.3096 -11.3105
c3.12012 -3.12012 3.12012 -8.18945 0 -11.3096l-16.9697 -16.9697l5.66016 -5.66016c3.12012 -3.12012 3.12012 -8.19043 0 -11.3105l-11.3105 -11.3096c-3.11914 -3.12012 -8.18945 -3.12012 -11.3096 0l-5.66016 5.66016l-16.9697 -16.9707
c-3.12012 -3.11914 -8.19043 -3.11914 -11.3105 0l-11.3096 11.3105c-3.12012 3.12012 -3.12012 8.18945 0 11.3096l16.9697 16.9707l-22.6299 22.6299l-45.2598 -45.2598l28.29 -28.29c3.12012 -3.12012 3.12012 -8.19043 0 -11.3105l-11.3105 -11.3096
c-3.11914 -3.12012 -8.18945 -3.12012 -11.3096 0l-28.29 28.29l-28.3096 -28.2803c-3.12012 -3.12012 -8.19043 -3.12012 -11.3105 0l-11.3096 11.3096c-3.12012 3.12012 -3.12012 8.19043 0 11.3105l28.29 28.29l-45.2607 45.2598l-22.6299 -22.6299l16.9707 -16.9697
c3.11914 -3.12012 3.11914 -8.19043 0 -11.3105l-11.3105 -11.3096c-3.12012 -3.12012 -8.18945 -3.12012 -11.3096 0l-16.9707 16.9697l-5.65918 -5.66016c-3.12012 -3.12012 -8.19043 -3.12012 -11.3105 0l-11.3096 11.3105c-3.12012 3.11914 -3.12012 8.18945 0 11.3096
l5.66016 5.66016l-16.9707 16.9697c-3.12012 3.12012 -3.12012 8.19043 0 11.3105l11.3105 11.3096c3.12012 3.12012 8.18945 3.12012 11.3096 0l16.9697 -16.9697l22.6309 22.6299l-45.25 45.25l-28.29 -28.2803c-3.12012 -3.12012 -8.19043 -3.12012 -11.3105 0
l-11.3096 11.3105c-3.12012 3.11914 -3.12012 8.18945 0 11.3096l28.29 28.29l-28.29 28.29c-3.12012 3.12012 -3.12012 8.19043 0 11.3096l11.3398 11.3408c3.12012 3.11914 8.18945 3.11914 11.3096 0l28.29 -28.2803l45.25 45.25l-22.6299 22.6299l-16.9697 -16.9697
c-3.12012 -3.12012 -8.19043 -3.12012 -11.3105 0l-11.3096 11.3096c-3.12012 3.12012 -3.12012 8.19043 0 11.3105l16.9697 16.9697l-5.66016 5.66016c-3.11914 3.12012 -3.11914 8.18945 0 11.3096l11.3105 11.3105c3.12012 3.11914 8.18945 3.11914 11.3096 0
l5.66016 -5.66016l16.9697 16.9697c3.12012 3.12012 8.19043 3.12012 11.3105 0l11.3096 -11.3096c3.12012 -3.12012 3.12012 -8.19043 0 -11.3105l-16.9697 -16.9697l22.6299 -22.6299l45.25 45.25l-28.29 28.2793c-3.12012 3.12012 -3.12012 8.19043 0 11.3105
l11.3105 11.3096c3.11914 3.12012 8.18945 3.12012 11.3096 0l28.29 -28.29l28.29 28.29c3.12012 3.12012 8.19043 3.12012 11.3096 0l11.3203 -11.3496c3.12012 -3.12012 3.12012 -8.19043 0 -11.3105l-28.29 -28.2793l45.2598 -45.25l22.6299 22.6299l-16.9697 16.9697
c-3.12012 3.12012 -3.12012 8.19043 0 11.3105l11.3105 11.3096c3.12012 3.12012 8.18945 3.12012 11.3096 0l16.9697 -16.9697l5.66016 5.66016c3.12012 3.11914 8.19043 3.11914 11.3105 0l11.3096 -11.3105c3.12012 -3.12012 3.12012 -8.18945 0 -11.3096
l-5.66016 -5.66016l16.9707 -16.9697c3.11914 -3.12012 3.11914 -8.19043 0 -11.3105l-11.3105 -11.3096c-3.12012 -3.12012 -8.18945 -3.12012 -11.3096 0l-16.9707 16.9697l-22.6299 -22.6299l45.2598 -45.25l28.2803 28.2803c3.12012 3.11914 8.19043 3.11914 11.3105 0
l11.3096 -11.3105c3.12012 -3.12012 3.12012 -8.18945 0 -11.3096zM256 305.14l-45.25 -45.2598l45.25 -45.25l45.25 45.2598zM142.86 192l45.25 -45.2598l45.2598 45.2598l-45.2598 45.2598zM256 78.8604l45.2598 45.2598l-45.2598 45.2598l-45.2598 -45.2598z
M323.88 146.75l45.2598 45.25l-45.25 45.25l-45.2598 -45.25z" />
    <glyph glyph-name="toolbox" unicode="&#xf552;" horiz-adv-x="512" 
d="M512 210.75v-210.75c0 -17.6699 -14.3301 -32 -32 -32h-448c-17.6699 0 -32 14.3301 -32 32l0.00976562 144l-0.00976562 66.7402c0 8.49023 3.37012 16.6299 9.37012 22.6299l45.2598 45.2598c6 6 14.1396 9.37012 22.6299 9.37012h50.7402v80
c0 26.5098 21.4902 48 48 48h160c26.5098 0 48 -21.4902 48 -48v-79.9902h50.7402c8.49023 0 16.6299 -3.37012 22.6299 -9.37012l45.2598 -45.2598c6 -6.00977 9.37012 -14.1396 9.37012 -22.6299zM176 368v-80h160v80h-160zM48 204.12l0.00976562 -60.1201h87.9902v16
c0 8.83984 7.16016 16 16 16h16c8.83984 0 16 -7.16016 16 -16v-16h144v16c0 8.83984 7.16016 16 16 16h16c8.83984 0 16 -7.16016 16 -16v-16h88.0098l-0.00976562 60.1201l-35.8896 35.8799h-344.23zM464 16v80h-88v-16c0 -8.83984 -7.16016 -16 -16 -16h-16
c-8.83984 0 -16 7.16016 -16 16v16h-144v-16c0 -8.83984 -7.16016 -16 -16 -16h-16c-8.83984 0 -16 7.16016 -16 16v16h-88v-80h416z" />
    <glyph glyph-name="walking" unicode="&#xf554;" horiz-adv-x="320" 
d="M94.7998 100.2l1.10059 -1.40039l36.1992 -33.5l-13.5 -33.7002c-4.39941 -11 -10.8994 -21 -19.3994 -29.5l-58.4004 -58.5c-4.59961 -4.69922 -10.7998 -7 -16.8994 -7c-6.10059 0 -12.2002 2.30078 -16.9004 7c-9.40039 9.30078 -9.40039 24.5 0 33.9004l58.4004 58.5
c3.89941 3.7998 6.89941 8.40039 8.89941 13.4004l20.4004 51c0 -0.100586 0.0996094 -0.200195 0.0996094 -0.200195zM207.8 352c-26.5 0 -47.8994 21.5 -47.8994 48s21.3994 48 47.8994 48c26.4004 0 47.9004 -21.5 47.9004 -48s-21.4004 -48 -47.9004 -48zM312.5 177.1
c22.7998 -22.5996 -11.5996 -56 -33.9004 -34.5l-29.2998 29c-6.2998 6.30078 -11 13.9004 -13.7998 22.2002c-14.2998 42.7998 -14.4004 45.7002 -21.7998 55.4004l-26.2002 -104.8l53.7998 -49.6006c13 -12.0996 22 -27.5996 26 -44.8994l19.5 -84.7002
c3 -12.9004 -5 -25.7998 -17.8994 -28.7998c-14.3008 -3.2002 -26.1006 6.5 -28.7002 18l-19.5 84.7998c-1.7998 7.89941 -5.90039 14.8994 -11.7998 20.3994l-79 73c-14.6006 15.8008 -19.6006 35.7002 -14.9004 54.6006l19.7998 79.2002
c-11.2002 -3.60059 -22.5996 -8.40039 -44.2998 -17.1006c-9.90039 -4 -18 -11.3994 -22.7998 -21l-14 -30.3994c-13.4004 -28.9004 -56.7998 -8.5 -43.5 20.1992l14.3994 31.1006c10.3008 20.7002 27.3008 36.3994 48.2002 44.7998c42.7002 17.2002 60.9004 26 95.7002 26
c45.4004 0 85.4004 -28.9004 99.7998 -72l12.9004 -38.7998c0.399414 -1.2002 1.09961 -2.2998 2 -3.2002z" />
    <glyph glyph-name="wallet" unicode="&#xf555;" horiz-adv-x="512" 
d="M448 336c35.3496 0 64 -28.6504 64 -64v-240c0 -35.3496 -28.6504 -64 -64 -64h-352c-53.0195 0 -96 42.9805 -96 96v256c0 53.0195 42.9805 96 96 96h288c35.3496 0 64 -28.6504 64 -64v-16zM464 32v240c0 8.82031 -7.17969 16 -16 16h-336
c-8.83984 0 -16 7.16016 -16 16s7.16016 16 16 16h288v32c0 8.82031 -7.17969 16 -16 16h-288c-26.4697 0 -48 -21.5303 -48 -48v-256c0 -26.4697 21.5303 -48 48 -48h352c8.82031 0 16 7.17969 16 16zM384 192c17.6699 0 32 -14.3301 32 -32s-14.3301 -32 -32 -32
s-32 14.3301 -32 32s14.3301 32 32 32z" />
  </font>
</defs>
</svg>
