<?xml version="1.0" standalone="no"?>
<!DOCTYPE svg PUBLIC "-//W3C//DTD SVG 1.1//EN" "http://www.w3.org/Graphics/SVG/1.1/DTD/svg11.dtd" >
<svg xmlns="http://www.w3.org/2000/svg" xmlns:xlink="http://www.w3.org/1999/xlink" version="1.1">
<metadata>
Created by FontForge 20201107 at Tue Mar 16 10:16:56 2021
 By Robert Madole
Copyright (c) Font Awesome
</metadata>
<!-- Font Awesome Pro 5.15.3 by @fontawesome - https://fontawesome.com License - https://fontawesome.com/license (Commercial License) --><defs>
<font id="FontAwesome5Pro-Regular" horiz-adv-x="640" >
  <font-face 
    font-family="Font Awesome 5 Pro Regular"
    font-weight="400"
    font-stretch="normal"
    units-per-em="512"
    panose-1="2 0 5 3 0 0 0 0 0 0"
    ascent="448"
    descent="-64"
    bbox="-0.242977 -64.0249 640.01 448.051"
    underline-thickness="25"
    underline-position="-50"
    unicode-range="U+0020-F8FF"
  />
    <missing-glyph />
    <glyph glyph-name="glass-martini" unicode="&#xf000;" horiz-adv-x="512" 
d="M502.05 390.4l-222.05 -222.04v-183.36h64c22.0898 0 40 -17.9102 40 -40c0 -4.41992 -3.58008 -8 -8 -8h-240c-4.41992 0 -8 3.58008 -8 8c0 22.0898 17.9102 40 40 40h64v183.36l-222.05 222.04c-21.25 21.2598 -6.2002 57.5996 23.8496 57.5996h444.4
c30.0498 0 45.0996 -36.3398 23.8496 -57.5996zM256 212.24l187.76 187.76h-375.529z" />
    <glyph glyph-name="signal" unicode="&#xf012;" 
d="M208 160c8.83984 0 16 -7.16016 16 -16v-192c0 -8.83984 -7.16016 -16 -16 -16h-32c-8.83984 0 -16 7.16016 -16 16v192c0 8.83984 7.16016 16 16 16h32zM80 64c8.83984 0 16 -7.16016 16 -16v-96c0 -8.83984 -7.16016 -16 -16 -16h-32c-8.83984 0 -16 7.16016 -16 16v96
c0 8.83984 7.16016 16 16 16h32zM336 256c8.83984 0 16 -7.16016 16 -16v-288c0 -8.83984 -7.16016 -16 -16 -16h-32c-8.83984 0 -16 7.16016 -16 16v288c0 8.83984 7.16016 16 16 16h32zM464 352c8.83984 0 16 -7.16016 16 -16v-384c0 -8.83984 -7.16016 -16 -16 -16h-32
c-8.83984 0 -16 7.16016 -16 16v384c0 8.83984 7.16016 16 16 16h32zM592 448c8.83984 0 16 -7.16016 16 -16v-480c0 -8.83984 -7.16016 -16 -16 -16h-32c-8.83984 0 -16 7.16016 -16 16v480c0 8.83984 7.16016 16 16 16h32z" />
    <glyph glyph-name="qrcode" unicode="&#xf029;" horiz-adv-x="448" 
d="M0 224v192h192v-192h-192zM40 376v-112h112v112h-112zM256 416h192v-192h-192v192zM408 264v112h-112v-112h112zM0 -32v192h192v-192h-192zM40 120v-112h112v112h-112zM72 88h48v-48h-48v48zM72 344h48v-48h-48v48zM376 296h-48v48h48v-48zM416 160h32v-128h-128v32h-32
v-96h-32v192h96v-32h64v32zM416 0h32v-32h-32v32zM352 0h32v-32h-32v32z" />
    <glyph glyph-name="image" unicode="&#xf03e;" horiz-adv-x="512" 
d="M464 384c26.5098 0 48 -21.4902 48 -48v-288c0 -26.5098 -21.4902 -48 -48 -48h-416c-26.5098 0 -48 21.4902 -48 48v288c0 26.5098 21.4902 48 48 48h416zM458 48c3.31152 0 6 2.68848 6 6v276c0 3.31152 -2.68848 6 -6 6h-404c-3.31152 0 -6 -2.68848 -6 -6v-276
c0 -3.31152 2.68848 -6 6 -6h404zM128 296c22.0908 0 40 -17.9092 40 -40s-17.9092 -40 -40 -40s-40 17.9092 -40 40s17.9092 40 40 40zM96 96v48l39.5137 39.5146c4.6875 4.68652 12.2852 4.68652 16.9717 0l39.5146 -39.5146l119.514 119.515
c4.6875 4.68652 12.2852 4.68652 16.9717 0l87.5146 -87.5146v-80h-320z" />
    <glyph glyph-name="fire" unicode="&#xf06d;" horiz-adv-x="384" 
d="M216 423.99c0 -103.141 168 -125.7 168 -295.99c0 -105.87 -86.1299 -192 -192 -192s-192 86.1299 -192 192c0 62.7197 30.75 121.62 82.2695 157.55c15.8701 11.0801 37.7305 -0.290039 37.7305 -19.6797v-105.87c0 -22.0596 17.9404 -40 40 -40s40 17.9404 40 40
c0 49.2695 -123.45 129.75 -28.1504 277.03c12.9902 20.0693 44.1504 10.7598 44.1504 -13.04zM192 -16c79.4004 0 144 64.5996 144 144c0 118.23 -112 152 -152 240c-24 -88 64 -143.73 64 -208c0 -48.5195 -39.4805 -88 -88 -88s-88 39.4805 -88 88v56
c-15.4404 -23.29 -24 -59.3398 -24 -88c0 -79.4004 64.5996 -144 144 -144z" />
    <glyph glyph-name="comment" unicode="&#xf075;" horiz-adv-x="512" 
d="M256 416c141.4 0 256 -93.0996 256 -208s-114.6 -208 -256 -208c-32.7998 0 -64 5.2002 -92.9004 14.2998c-29.0996 -20.5996 -77.5996 -46.2998 -139.1 -46.2998c-9.59961 0 -18.2998 5.7002 -22.0996 14.5c-3.80078 8.7998 -2 19 4.59961 26
c0.5 0.400391 31.5 33.7998 46.4004 73.2002c-33 35.0996 -52.9004 78.7002 -52.9004 126.3c0 114.9 114.6 208 256 208zM256 48c114.7 0 208 71.7998 208 160s-93.2998 160 -208 160s-208 -71.7998 -208 -160c0 -42.2002 21.7002 -74.0996 39.7998 -93.4004
l20.6006 -21.7998l-10.6006 -28.0996c-5.5 -14.5 -12.5996 -28.1006 -19.8994 -40.2002c23.5996 7.59961 43.1992 18.9004 57.5 29l19.5 13.7998l22.6992 -7.2002c25.3008 -8 51.7002 -12.0996 78.4004 -12.0996z" />
    <glyph glyph-name="folder" unicode="&#xf07b;" horiz-adv-x="512" 
d="M464 320c26.5098 0 48 -21.4902 48 -48v-224c0 -26.5098 -21.4902 -48 -48 -48h-416c-26.5098 0 -48 21.4902 -48 48v288c0 26.5098 21.4902 48 48 48h146.74c8.49023 0 16.6299 -3.37012 22.6299 -9.37012l54.6299 -54.6299h192zM464 48v224h-198.62
c-8.49023 0 -16.6299 3.37012 -22.6299 9.37012l-54.6299 54.6299h-140.12v-288h416z" />
    <glyph glyph-name="camera-retro" unicode="&#xf083;" horiz-adv-x="512" 
d="M154 368h-116c-3.2998 0 -6 2.7002 -6 6v36c0 3.2998 2.7002 6 6 6h116c3.2998 0 6 -2.7002 6 -6v-36c0 -3.2998 -2.7002 -6 -6 -6zM512 368v-352c0 -26.5 -21.5 -48 -48 -48h-416c-26.5 0 -48 21.5 -48 48v288c0 26.5 21.5 48 48 48h136l33.5996 44.7998
c9.10059 12.1006 23.3008 19.2002 38.4004 19.2002h208c26.5 0 48 -21.5 48 -48zM464 304h-416v-288h416v288zM464 368h-208l-12 -16h220v16zM376 160c0 -66.2002 -53.7998 -120 -120 -120s-120 53.7998 -120 120s53.7998 120 120 120s120 -53.7998 120 -120zM328 160
c0 39.7002 -32.2998 72 -72 72s-72 -32.2998 -72 -72s32.2998 -72 72 -72s72 32.2998 72 72zM232 160c0 -8.7998 -7.2002 -16 -16 -16s-16 7.2002 -16 16c0 30.9004 25.0996 56 56 56c8.7998 0 16 -7.2002 16 -16s-7.2002 -16 -16 -16c-13.2002 0 -24 -10.7998 -24 -24z" />
    <glyph glyph-name="key" unicode="&#xf084;" horiz-adv-x="512" 
d="M320 400c-79.5293 0 -144 -64.4707 -144 -144c0 -0.0361328 0.0273438 -0.0625 0.0273438 -0.0986328c0 -14.5068 2.15039 -28.5156 6.14941 -41.7246l-134.177 -134.177v-96h96v48h48v48h32l42.3398 42.3389c16.584 -6.66406 34.6924 -10.3389 53.6602 -10.3389
c79.5293 0 144 64.4707 144 144s-64.4707 144 -144 144zM320 448c106.046 0 192 -85.9648 192 -192c0 -106.046 -85.9648 -192 -192 -192c-13.5391 0 -26.8936 1.39648 -39.9512 4.16699l-40.0488 -40.167v-20c0 -13.2549 -10.7451 -24 -24 -24h-24v-24
c0 -13.2549 -10.7451 -24 -24 -24h-144c-13.2549 0 -24 10.7451 -24 24v129.941c0 6.62207 2.68555 12.626 7.0293 16.9707l122.77 122.77c-1.19727 8.69531 -1.79883 17.4863 -1.79883 26.3184c0 106.046 85.9648 192 192 192zM320 304c0 26.5098 21.4902 48 48 48
s48 -21.4902 48 -48s-21.4902 -48 -48 -48s-48 21.4902 -48 48z" />
    <glyph glyph-name="hdd" unicode="&#xf0a0;" horiz-adv-x="576" 
d="M567.403 212.358c5.59668 -8.04688 8.59668 -17.6113 8.59668 -27.4121v-136.946c0 -26.5098 -21.4902 -48 -48 -48h-480c-26.5098 0 -48 21.4902 -48 48v136.946c0 10.167 3.19531 19.6465 8.59668 27.4121l105.08 151.053
c8.67383 12.4678 23.0791 20.5889 39.4043 20.5889h269.838c16.3252 0 30.7305 -8.12109 39.4043 -20.5889zM153.081 336l-77.9131 -112h425.664l-77.9131 112h-269.838zM528 48v128h-480v-128h480zM496 112c0 -17.6729 -14.3271 -32 -32 -32s-32 14.3271 -32 32
s14.3271 32 32 32s32 -14.3271 32 -32zM400 112c0 -17.6729 -14.3271 -32 -32 -32s-32 14.3271 -32 32s14.3271 32 32 32s32 -14.3271 32 -32z" />
    <glyph glyph-name="flag-checkered" unicode="&#xf11e;" horiz-adv-x="512" 
d="M448 120.6c-17.2002 -10.3994 -43.2998 -21.0996 -72 -23.8994v70.3994c28 3.90039 56.5 13.5 72 22.9004v-69.4004zM448 327.9v-69.4004c-23.4004 -8.90039 -47 -17.4004 -72 -21.4004v70.6006c25.2998 4.39941 50.7998 12.0996 72 20.2002zM88 111.2v69.2998
c24 7.7002 47.7002 12.9004 72 15.2998v-70.0996c-24.7998 -2.60059 -50.2998 -7.5 -72 -14.5zM445.1 396.2c31.6006 13.5996 66.9004 -9.7002 66.8008 -44.1006v-239.899c0 -16.2002 -8.10059 -31.2998 -21.7002 -40.2002c-26.5 -17.4004 -70 -40 -128.5 -40
c-68.6006 0 -112.8 32 -161.9 32c-56.5 0 -89.8994 -11.2998 -127.8 -28.5996v-83.4004c0 -8.7998 -7.2002 -16 -16 -16h-16c-8.7998 0 -16 7.2002 -16 16v406.4c-14.2998 8.2998 -24 23.7998 -24 41.5996c0 27.5996 23.2002 49.7002 51.2002 47.9004
c23 -1.5 41.8994 -19.5 44.3994 -42.4004c0.900391 -7 0.100586 -14 -2.09961 -20.7002c22.5 8.7002 49.5 15.2002 80.7998 15.2002c68.6006 0 112.8 -32 161.9 -32c35.3994 0 73 12.7002 108.899 28.2002zM464 112v240c-31.5 -14.5996 -84.5 -32 -127.8 -32
c-59.9004 0 -102 32 -161.9 32c-41.5 0 -80.5 -16.5996 -102.3 -32v-232c31.4004 14.5996 84.4004 24 127.8 24c59.9004 0 102 -32 161.9 -32c41.5 0 80.5 16.5996 102.3 32zM88 311.4c17.2002 10.5 43.2998 21.0996 72 23.8994v-70.3994
c-28 -3.90039 -56.5 -13.5 -72 -22.9004v69.4004zM160 264.9c23.2998 3.19922 43.5 2.39941 72 -5.2002v-67c-20.5996 4.39941 -41.5 6.09961 -72 3.09961v69.1006zM304 172.2v66.8994c25.5 -5.39941 48.2002 -5.89941 72 -2.09961v-70
c-23.2998 -3.09961 -43.5 -2.2998 -72 5.2002v-66.6006c-23.0996 6.7002 -46.0996 15.3008 -72 19.6006v67.5c25.5 -5.2998 48.2998 -14.2998 72 -20.5zM304 306.7v-67.4004c-25.5 5.2998 -48.2002 14.2002 -72 20.5v66.6006c23.2002 -6.80078 46.0996 -15.4004 72 -19.7002
z" />
    <glyph glyph-name="bullseye" unicode="&#xf140;" horiz-adv-x="496" 
d="M248 344c84 0 152 -67.9805 152 -152c0 -84 -67.9805 -152 -152 -152c-84 0 -152 67.9805 -152 152c0 84 67.9805 152 152 152zM248 88c57.3496 0 104 46.6504 104 104s-46.6504 104 -104 104s-104 -46.6504 -104 -104s46.6504 -104 104 -104zM248 440
c136.97 0 248 -111.03 248 -248s-111.03 -248 -248 -248s-248 111.03 -248 248s111.03 248 248 248zM248 -8c110.28 0 200 89.7197 200 200s-89.7197 200 -200 200s-200 -89.7197 -200 -200s89.7197 -200 200 -200zM248 248c30.8799 0 56 -25.1201 56 -56
s-25.1201 -56 -56 -56s-56 25.1201 -56 56s25.1201 56 56 56z" />
    <glyph glyph-name="graduation-cap" unicode="&#xf19d;" 
d="M606.72 300.09c19.9004 -6.13965 33.2803 -23.8496 33.2803 -44.0996s-13.3701 -37.9707 -33.2803 -44.1104l-109 -33.6201l14.2803 -114.26c0 -35.3496 -85.96 -64 -192 -64s-192 28.6602 -192 64l14.29 114.26l-54.8701 16.9199
c-1.88965 -3.16016 -3.71973 -6.2793 -4.84961 -9.83008c7.93945 -5.81934 13.4297 -14.7598 13.4297 -25.3594c0 -10.7803 -5.69043 -19.8506 -13.8604 -25.6504l25.54 -114.87c2.2207 -9.98926 -5.37988 -19.4697 -15.6201 -19.4697h-56.1094
c-10.2402 0 -17.8398 9.48047 -15.6201 19.4697l25.5303 114.87c-8.18066 5.7998 -13.8604 14.8701 -13.8604 25.6504c0 12.6797 7.53027 23.4102 18.2197 28.5898c1.2998 5.68945 3.24023 11.1201 5.7002 16.3096l-22.6396 6.98047
c-19.9004 6.13965 -33.2803 23.8604 -33.2803 44.1104s13.3799 37.9697 33.2803 44.1094l258 79.5703c18.8193 5.78027 38.6299 5.78027 57.4395 0zM462.44 73.5303l-11.29 90.3594l-102.42 -31.5898c-25.2002 -7.76953 -46.29 -3.42969 -57.4404 0l-102.42 31.5898
l-11.2998 -90.3594c58.9697 -33.7803 225.17 -34.2002 284.87 0zM334.59 178.18l252.23 77.79l-252.221 77.8203c-9.43945 2.91016 -19.75 2.91016 -29.1895 0l-252.22 -77.79l41.3691 -12.7803c5.91016 2.73047 12.0703 5.03027 18.71 6.27051l203.78 38.2002
c8.57031 1.59961 17.04 -4.04004 18.6602 -12.7607c1.62988 -8.68945 -4.08984 -17.0498 -12.7803 -18.6699l-168.31 -31.5596l150.78 -46.5205c9.43945 -2.91016 19.75 -2.91016 29.1895 0z" />
    <glyph glyph-name="closed-captioning" unicode="&#xf20a;" horiz-adv-x="512" 
d="M464 384c26.5 0 48 -21.5 48 -48v-288c0 -26.5 -21.5 -48 -48 -48h-416c-26.5 0 -48 21.5 -48 48v288c0 26.5 21.5 48 48 48h416zM458 48c3.2998 0 6 2.7002 6 6v276c0 3.2998 -2.7002 6 -6 6h-404c-3.2998 0 -6 -2.7002 -6 -6v-276c0 -3.2998 2.7002 -6 6 -6h404z
M246.9 133.7c1.69922 -2.40039 1.5 -5.60059 -0.5 -7.7002c-53.6006 -56.7998 -172.801 -32.0996 -172.801 67.9004c0 97.2998 121.7 119.5 172.5 70.0996c2.10059 -2 2.5 -3.2002 1 -5.7002l-17.5 -30.5c-1.89941 -3.09961 -6.19922 -4 -9.09961 -1.7002
c-40.7998 32 -94.5996 14.9004 -94.5996 -31.1992c0 -48 51 -70.5 92.1992 -32.6006c2.80078 2.5 7.10059 2.10059 9.2002 -0.899414zM437.3 133.7c1.7002 -2.40039 1.5 -5.60059 -0.5 -7.7002c-53.5996 -56.9004 -172.8 -32.0996 -172.8 67.9004
c0 97.2998 121.7 119.5 172.5 70.0996c2.09961 -2 2.5 -3.2002 1 -5.7002l-17.5 -30.5c-1.90039 -3.09961 -6.2002 -4 -9.09961 -1.7002c-40.8008 32 -94.6006 14.9004 -94.6006 -31.1992c0 -48 51 -70.5 92.2002 -32.6006c2.7998 2.5 7.09961 2.10059 9.2002 -0.899414z
" />
    <glyph glyph-name="object-group" unicode="&#xf247;" horiz-adv-x="512" 
d="M500 320h-12v-256h12c6.62695 0 12 -5.37305 12 -12v-72c0 -6.62695 -5.37305 -12 -12 -12h-72c-6.62695 0 -12 5.37305 -12 12v12h-320v-12c0 -6.62695 -5.37305 -12 -12 -12h-72c-6.62695 0 -12 5.37305 -12 12v72c0 6.62695 5.37305 12 12 12h12v256h-12
c-6.62695 0 -12 5.37305 -12 12v72c0 6.62695 5.37305 12 12 12h72c6.62695 0 12 -5.37305 12 -12v-12h320v12c0 6.62695 5.37305 12 12 12h72c6.62695 0 12 -5.37305 12 -12v-72c0 -6.62695 -5.37305 -12 -12 -12zM448 384v-32h32v32h-32zM32 384v-32h32v32h-32zM64 0v32
h-32v-32h32zM480 0v32h-32v-32h32zM440 64v256h-12c-6.62695 0 -12 5.37305 -12 12v12h-320v-12c0 -6.62695 -5.37305 -12 -12 -12h-12v-256h12c6.62695 0 12 -5.37305 12 -12v-12h320v12c0 6.62695 5.37305 12 12 12h12zM404 256c6.62695 0 12 -5.37207 12 -12v-168
c0 -6.62793 -5.37305 -12 -12 -12h-200c-6.62695 0 -12 5.37207 -12 12v52h-84c-6.62695 0 -12 5.37207 -12 12v168c0 6.62793 5.37305 12 12 12h200c6.62695 0 12 -5.37207 12 -12v-52h84zM136 280v-112h144v112h-144zM376 104v112h-56v-76
c0 -6.62793 -5.37305 -12 -12 -12h-76v-24h144z" />
    <glyph glyph-name="object-ungroup" unicode="&#xf248;" horiz-adv-x="576" 
d="M564 224h-12v-160h12c6.62695 0 12 -5.37305 12 -12v-72c0 -6.62695 -5.37305 -12 -12 -12h-72c-6.62695 0 -12 5.37305 -12 12v12h-224v-12c0 -6.62695 -5.37305 -12 -12 -12h-72c-6.62695 0 -12 5.37305 -12 12v72c0 6.62695 5.37305 12 12 12h12v24h-88v-12
c0 -6.62695 -5.37305 -12 -12 -12h-72c-6.62695 0 -12 5.37305 -12 12v72c0 6.62695 5.37305 12 12 12h12v160h-12c-6.62695 0 -12 5.37305 -12 12v72c0 6.62695 5.37305 12 12 12h72c6.62695 0 12 -5.37305 12 -12v-12h224v12c0 6.62695 5.37305 12 12 12h72
c6.62695 0 12 -5.37305 12 -12v-72c0 -6.62695 -5.37305 -12 -12 -12h-12v-24h88v12c0 6.62695 5.37305 12 12 12h72c6.62695 0 12 -5.37305 12 -12v-72c0 -6.62695 -5.37305 -12 -12 -12zM352 384v-32h32v32h-32zM352 128v-32h32v32h-32zM64 96v32h-32v-32h32zM64 352v32
h-32v-32h32zM96 136h224v12c0 6.62695 5.37305 12 12 12h12v160h-12c-6.62695 0 -12 5.37305 -12 12v12h-224v-12c0 -6.62695 -5.37305 -12 -12 -12h-12v-160h12c6.62695 0 12 -5.37305 12 -12v-12zM224 0v32h-32v-32h32zM504 64v160h-12c-6.62695 0 -12 5.37305 -12 12v12
h-88v-88h12c6.62695 0 12 -5.37305 12 -12v-72c0 -6.62695 -5.37305 -12 -12 -12h-72c-6.62695 0 -12 5.37305 -12 12v12h-88v-24h12c6.62695 0 12 -5.37305 12 -12v-12h224v12c0 6.62695 5.37305 12 12 12h12zM544 0v32h-32v-32h32zM544 256v32h-32v-32h32z" />
    <glyph glyph-name="hourglass-start" unicode="&#xf251;" horiz-adv-x="384" 
d="M372 448c6.62695 0 12 -5.37305 12 -12v-24c0 -6.62695 -5.37305 -12 -12 -12h-4c0 -80.0996 -31.8984 -165.619 -97.1797 -208c64.9912 -42.1934 97.1797 -127.436 97.1797 -208h4c6.62695 0 12 -5.37305 12 -12v-24c0 -6.62695 -5.37305 -12 -12 -12h-360
c-6.62695 0 -12 5.37305 -12 12v24c0 6.62695 5.37305 12 12 12h4c0 80.0996 31.8984 165.619 97.1797 208c-64.9912 42.1934 -97.1797 127.436 -97.1797 208h-4c-6.62695 0 -12 5.37305 -12 12v24c0 6.62695 5.37305 12 12 12h360zM320 -16c0 101.62 -57.3076 184 -128 184
s-128 -82.3799 -128 -184h256z" />
    <glyph glyph-name="hourglass-half" unicode="&#xf252;" horiz-adv-x="384" 
d="M368 400c0 -80.0996 -31.8984 -165.619 -97.1797 -208c64.9912 -42.1934 97.1797 -127.436 97.1797 -208h4c6.62695 0 12 -5.37305 12 -12v-24c0 -6.62695 -5.37305 -12 -12 -12h-360c-6.62695 0 -12 5.37305 -12 12v24c0 6.62695 5.37305 12 12 12h4
c0 80.0996 31.8984 165.619 97.1797 208c-64.9912 42.1934 -97.1797 127.436 -97.1797 208h-4c-6.62695 0 -12 5.37305 -12 12v24c0 6.62695 5.37305 12 12 12h360c6.62695 0 12 -5.37305 12 -12v-24c0 -6.62695 -5.37305 -12 -12 -12h-4zM320 400h-256
c0 -28.6719 4.56445 -55.8096 12.7012 -80h230.598c8.13672 24.1904 12.7012 51.3281 12.7012 80zM307.299 64c-20.7041 61.5469 -64.5518 104 -115.299 104s-94.5947 -42.4531 -115.299 -104h230.598z" />
    <glyph glyph-name="hourglass-end" unicode="&#xf253;" horiz-adv-x="384" 
d="M372 448c6.62695 0 12 -5.37305 12 -12v-24c0 -6.62695 -5.37305 -12 -12 -12h-4c0 -80.0996 -31.8984 -165.619 -97.1797 -208c64.9912 -42.1934 97.1797 -127.436 97.1797 -208h4c6.62695 0 12 -5.37305 12 -12v-24c0 -6.62695 -5.37305 -12 -12 -12h-360
c-6.62695 0 -12 5.37305 -12 12v24c0 6.62695 5.37305 12 12 12h4c0 80.0996 31.8984 165.619 97.1797 208c-64.9912 42.1934 -97.1797 127.436 -97.1797 208h-4c-6.62695 0 -12 5.37305 -12 12v24c0 6.62695 5.37305 12 12 12h360zM192 216c70.6924 0 128 82.3789 128 184
h-256c0 -101.621 57.3076 -184 128 -184z" />
    <glyph glyph-name="hourglass" unicode="&#xf254;" horiz-adv-x="384" 
d="M368 400c0 -80.0996 -31.8984 -165.619 -97.1797 -208c64.9912 -42.1934 97.1797 -127.436 97.1797 -208h4c6.62695 0 12 -5.37305 12 -12v-24c0 -6.62695 -5.37305 -12 -12 -12h-360c-6.62695 0 -12 5.37305 -12 12v24c0 6.62695 5.37305 12 12 12h4
c0 80.0996 31.8994 165.619 97.1797 208c-64.9912 42.1934 -97.1797 127.436 -97.1797 208h-4c-6.62695 0 -12 5.37305 -12 12v24c0 6.62695 5.37305 12 12 12h360c6.62695 0 12 -5.37305 12 -12v-24c0 -6.62695 -5.37305 -12 -12 -12h-4zM64 400
c0 -101.621 57.3066 -184 128 -184s128 82.3799 128 184h-256zM320 -16c0 101.62 -57.3076 184 -128 184s-128 -82.3799 -128 -184h256z" />
    <glyph glyph-name="registered" unicode="&#xf25d;" horiz-adv-x="512" 
d="M256 440c136.967 0 248 -111.033 248 -248s-111.033 -248 -248 -248s-248 111.033 -248 248s111.033 248 248 248zM256 -8c110.549 0 200 89.4678 200 200c0 110.549 -89.4678 200 -200 200c-110.549 0 -200 -89.4688 -200 -200c0 -110.549 89.4678 -200 200 -200z
M366.442 73.791c4.40332 -7.99219 -1.37012 -17.791 -10.5107 -17.791h-42.8096c-0.00488281 0 -0.000976562 -0.0126953 -0.00585938 -0.0126953c-4.58594 0 -8.57422 2.58301 -10.5869 6.37305l-47.5156 89.3027h-31.958v-83.6631c0 -6.61719 -5.38281 -12 -12 -12
h-38.5674c-6.61719 0 -12 5.38281 -12 12v248.304c0 6.61719 5.38281 12 12 12h78.667c71.251 0 101.498 -32.749 101.498 -85.252c0 -31.6123 -15.2148 -59.2969 -39.4824 -73.1758c3.02148 -4.61719 0.225586 0.199219 53.2715 -96.085zM256.933 208.094
c20.9131 0 32.4307 11.5186 32.4316 32.4316c0 19.5752 -6.5127 31.709 -38.9297 31.709h-27.377v-64.1406h33.875z" />
    <glyph glyph-name="industry" unicode="&#xf275;" horiz-adv-x="512" 
d="M475.115 284.277c15.9541 10.1504 36.8848 -1.33105 36.8848 -20.248v-272.029c0 -13.2549 -10.7451 -24 -24 -24h-464c-13.2549 0 -24 10.7451 -24 24v400c0 13.2549 10.7451 24 24 24h112c13.2549 0 24 -10.7451 24 -24v-196.251l139.115 88.5283
c15.9541 10.1504 36.8848 -1.33203 36.8848 -20.248v-68.2803zM464 16v204.309l-139.115 -88.5273c-15.9541 -10.1514 -36.8848 1.33301 -36.8848 20.248v68.2793l-139.115 -88.5273c-15.9541 -10.1514 -36.8848 1.33203 -36.8848 20.248v215.971h-64v-352h416z" />
    <glyph glyph-name="comment-alt" unicode="&#xf27a;" horiz-adv-x="512" 
d="M448 448c35.2998 0 64 -28.7002 64 -64v-288c0 -35.2998 -28.7002 -64 -64 -64h-144l-124.9 -93.5996c-2.19922 -1.7002 -4.69922 -2.40039 -7.09961 -2.40039c-6.2002 0 -12 4.90039 -12 12v84h-96c-35.2998 0 -64 28.7002 -64 64v288c0 35.2998 28.7002 64 64 64h384z
M464 96v288c0 8.7998 -7.2002 16 -16 16h-384c-8.7998 0 -16 -7.2002 -16 -16v-288c0 -8.7998 7.2002 -16 16 -16h144v-60l67.2002 50.4004l12.7998 9.59961h160c8.7998 0 16 7.2002 16 16z" />
    <glyph glyph-name="id-card" unicode="&#xf2c2;" horiz-adv-x="576" 
d="M528 416c26.5 0 48 -21.5 48 -48v-352c0 -26.5 -21.5 -48 -48 -48h-480c-26.5 0 -48 21.5 -48 48v352c0 26.5 21.5 48 48 48h480zM528 16v288h-480v-288h32.7998c-1 4.5 -0.799805 -3.59961 -0.799805 22.4004c0 31.7998 30.0996 57.5996 67.2002 57.5996
c11.3994 0 17.8994 -8 44.7998 -8c26.0996 0 34 8 44.7998 8c37.1006 0 67.2002 -25.7998 67.2002 -57.5996c0 -26 0.0996094 -17.9004 -0.799805 -22.4004h224.8zM360 96c-4.40039 0 -8 3.59961 -8 8v16c0 4.40039 3.59961 8 8 8h112c4.40039 0 8 -3.59961 8 -8v-16
c0 -4.40039 -3.59961 -8 -8 -8h-112zM360 160c-4.40039 0 -8 3.59961 -8 8v16c0 4.40039 3.59961 8 8 8h112c4.40039 0 8 -3.59961 8 -8v-16c0 -4.40039 -3.59961 -8 -8 -8h-112zM360 224c-4.40039 0 -8 3.59961 -8 8v16c0 4.40039 3.59961 8 8 8h112
c4.40039 0 8 -3.59961 8 -8v-16c0 -4.40039 -3.59961 -8 -8 -8h-112zM192 128c-35.2998 0 -64 28.7002 -64 64s28.7002 64 64 64s64 -28.7002 64 -64s-28.7002 -64 -64 -64z" />
    <glyph glyph-name="window-minimize" unicode="&#xf2d1;" horiz-adv-x="512" 
d="M480 -32h-448c-17.7002 0 -32 14.2998 -32 32s14.2998 32 32 32h448c17.7002 0 32 -14.2998 32 -32s-14.2998 -32 -32 -32z" />
    <glyph glyph-name="images" unicode="&#xf302;" horiz-adv-x="576" 
d="M480 32v-16c0 -26.5098 -21.4902 -48 -48 -48h-384c-26.5098 0 -48 21.4902 -48 48v256c0 26.5098 21.4902 48 48 48h16v-48h-10c-3.31152 0 -6 -2.68848 -6 -6v-244c0 -3.31152 2.68848 -6 6 -6h372c3.31152 0 6 2.68848 6 6v10h48zM522 368h-372
c-3.31152 0 -6 -2.68848 -6 -6v-244c0 -3.31152 2.68848 -6 6 -6h372c3.31152 0 6 2.68848 6 6v244c0 3.31152 -2.68848 6 -6 6zM528 416c26.5098 0 48 -21.4902 48 -48v-256c0 -26.5098 -21.4902 -48 -48 -48h-384c-26.5098 0 -48 21.4902 -48 48v256
c0 26.5098 21.4902 48 48 48h384zM264 304c0 -22.0908 -17.9092 -40 -40 -40s-40 17.9092 -40 40s17.9092 40 40 40s40 -17.9092 40 -40zM192 208l39.5146 39.5146c4.68652 4.68652 12.2842 4.68652 16.9717 0l39.5137 -39.5146l103.515 103.515
c4.68652 4.68652 12.2842 4.68652 16.9717 0l71.5137 -71.5146v-80h-288v48z" />
    <glyph glyph-name="inbox-in" unicode="&#xf310;" horiz-adv-x="576" 
d="M395.5 262.5l-99 -99c-4.7002 -4.7002 -12.2998 -4.7002 -17 0l-99 99c-7.59961 7.59961 -2.2002 20.5 8.5 20.5h67v153c0 6.59961 5.40039 12 12 12h40c6.59961 0 12 -5.40039 12 -12v-153h67c10.7002 0 16.0996 -12.9004 8.5 -20.5zM528 96h-120l-32 -64h-176l-32 64
h-120v-112h480v112zM576 93.7998v-109.8c0 -26.5 -21.5 -48 -48 -48h-480c-26.5 0 -48 21.5 -48 48v109.8c0 11.7998 4.2998 23.1006 12.0996 31.9004l101.601 114.2c2.2998 2.59961 4.89941 4.89941 7.7002 7c2.39941 1.69922 5.59961 1.39941 7.69922 -0.700195
l24.8008 -24.9004c2.19922 -2.2002 2.2998 -5.89941 0.199219 -8.2002l-61.3994 -69.0996h105l32 -64h116.7l32 64h105l-61.4004 69.0996c-2.09961 2.40039 -2 5.90039 0.200195 8.2002l24.5996 25c2 2.10059 5.2998 2.40039 7.7002 0.700195
c2.90039 -2.09961 5.5 -4.40039 7.90039 -7.09961l101.6 -114.2c7.7002 -8.7998 12 -20.2002 12 -31.9004z" />
    <glyph glyph-name="inbox-out" unicode="&#xf311;" horiz-adv-x="576" 
d="M180.5 345.5l99 99c4.7002 4.7002 12.2998 4.7002 17 0l99 -99c7.59961 -7.59961 2.2002 -20.5 -8.5 -20.5h-67v-153c0 -6.59961 -5.40039 -12 -12 -12h-40c-6.59961 0 -12 5.40039 -12 12v153h-67c-10.7002 0 -16.0996 12.9004 -8.5 20.5zM576 93.7998v-109.8
c0 -26.5 -21.5 -48 -48 -48h-480c-26.5 0 -48 21.5 -48 48v109.8c0 11.7998 4.2998 23.1006 12.0996 31.9004l101.601 114.2c9.09961 10.1992 22.2002 16.0996 35.8994 16.0996h52.4004c3.2998 0 6 -2.7002 6 -6v-36c0 -3.2998 -2.7002 -6 -6 -6h-52.4004l-56.8994 -64h105
l32 -64h116.7l32 64h105l-56.9004 64h-52.5c-3.2998 0 -6 2.7002 -6 6v36c0 3.2998 2.7002 6 6 6h52.4004c13.6992 0 26.7998 -5.90039 35.8994 -16.0996l101.601 -114.2c7.7998 -8.7998 12.0996 -20.2002 12.0996 -31.9004zM528 96h-120l-32 -64h-176l-32 64h-120v-112h480
v112z" />
    <glyph glyph-name="arrow-alt-to-top" unicode="&#xf34d;" horiz-adv-x="384" 
d="M48 112c-42.7002 0 -64 51.7998 -34.0996 81.9004l144 144c18.7998 18.6992 49.1992 18.6992 67.8994 0l143.9 -144c30.2998 -30.2002 8.7002 -81.9004 -33.9004 -81.9004h-51.5996v-96c0 -26.5 -21.5 -48 -48 -48h-88.6006c-26.5 0 -48 21.5 -48 48v96h-51.5996z
M192 304l-144 -144h99.7002v-144h88.5996v144h99.7002zM0 380v24c0 6.59961 5.40039 12 12 12h360c6.59961 0 12 -5.40039 12 -12v-24c0 -6.59961 -5.40039 -12 -12 -12h-360c-6.59961 0 -12 5.40039 -12 12z" />
    <glyph glyph-name="gem" unicode="&#xf3a5;" horiz-adv-x="576" 
d="M464 448c4.09961 0 7.7998 -2 10.0996 -5.40039l99.9004 -147.199c2.90039 -4.40039 2.59961 -10.1006 -0.700195 -14.2002l-276 -340.8c-4.7998 -5.90039 -13.7998 -5.90039 -18.5996 0l-276 340.8c-3.2998 4 -3.60059 9.7998 -0.700195 14.2002l100 147.199
c2.2002 3.40039 6 5.40039 10 5.40039h352zM444.7 400h-56.7998l51.6992 -96h68.4004zM242.6 400l-51.5996 -96h194l-51.7002 96h-90.7002zM131.3 400l-63.2998 -96h68.4004l51.6992 96h-56.7998zM88.2998 256l119.7 -160l-68.2998 160h-51.4004zM191.2 256l96.7998 -243.3
l96.7998 243.3h-193.6zM368 96l119.6 160h-51.3994z" />
    <glyph glyph-name="basketball-hoop" unicode="&#xf435;" 
d="M639.9 111.1c0 -22.7998 -13.6006 -43.1992 -34.7002 -51.7998l-103.5 -42.5l3.7998 53.4004l81.4004 33.5c3 1.2002 5 4.2002 5 7.39941v118.301c-82.8008 217 -458.5 217.899 -543.9 -0.100586v-118.3c0 -3.2998 2 -6.2002 5 -7.40039l81.4004 -33.5l3.7998 -53.3994
l-103.5 42.5c-21.1006 8.7002 -34.7002 29 -34.7002 51.8994l1.2002 129.9c0.599609 2 67.5 199 318.8 199s318.1 -197 318.8 -199c1.60059 -10.2002 1.10059 8.5 1.10059 -129.9zM461.2 -64l-75.4004 71.5996l-65.7998 -71.5996l-65.7998 71.5996l-75.4004 -71.5996
l-18.2002 224h-24.5996c-4.40039 0 -8 3.59961 -8 8v32c0 4.40039 3.59961 8 8 8h368c4.40039 0 8 -3.59961 8 -8v-32c0 -4.40039 -3.59961 -8 -8 -8h-24.5996zM206.7 95.5996l46.7002 -43.5996l44 44l-42.1006 42.0996zM320 118.6l41.4004 41.4004h-82.8008zM342.6 96
l44 -44l46.7002 43.5996l-48.5996 42.5zM447.3 160h-39l36.5 -31.9004zM192.7 160l2.59961 -31.9004l36.5 31.9004h-39.0996zM230.8 29.4004l-29.8994 27.8994l4.2998 -53.5zM363.2 30.2002l-43.2002 43.2002l-43.2002 -43.2002l43.2002 -40.2998zM434.8 3.7998l4.2998 53.5
l-29.8994 -27.8994zM464 240h-32v48h-224v-48h-32v80h288v-80z" />
    <glyph glyph-name="hockey-sticks" unicode="&#xf454;" 
d="M600 144c22.0996 0 40 -18 40 -40v-128c0 -22.0996 -17.9004 -40 -40 -40h-186.4c-37.1992 0 -71.0996 17 -93.5 45.0996c-22.3994 -28.0996 -56.3994 -45.0996 -93.5996 -45.0996h-186.5c-22.0996 0 -40 17.9004 -40 40v128c0 22 17.9004 40 40 40h192.7l-112.7 217.6
c-9.90039 19.6006 -1.7998 43.7002 17.9004 53.6006l57.2998 28.5996c19.7002 9.90039 43.7002 1.90039 53.5996 -17.7002l71.2002 -136.3l71.2002 136.3c9.89941 19.6006 33.8994 27.6006 53.5996 17.7002l57.2998 -28.7002
c19.7002 -9.89941 27.8008 -33.8994 17.9004 -53.5996l-112.7 -217.5h192.7zM166.6 375.8l98.8008 -190.6l27.5 52.7002l-83.3008 159.399zM79.5996 -16v112h-31.5996v-112h31.5996zM290.9 23.7998l182.5 352l-43 21.5l-148.4 -284
c-5.2002 -10.5 -16.2002 -17.2998 -28.5 -17.2998h-141.9v-112h114.801c27.5 0 52.1992 15.2002 64.5 39.7998zM527.9 -16v112c-166.601 0 -138 -0.299805 -145.2 0.599609l-35.7002 -68.8994c23.0996 -44.5 59.9004 -43.7002 66.5 -43.7002h114.4zM592 -16v112h-32v-112h32
z" />
    <glyph glyph-name="pennant" unicode="&#xf456;" horiz-adv-x="576" 
d="M542.3 264.5c26 5.2998 43.6006 -24.7998 27.5 -45c-79.8994 -100.2 -184.5 -123.7 -188.899 -124.7c-60.6006 -13.0996 -106.9 -17.5996 -135.101 -19c-9.39941 -0.5 -85 -1.89941 -165.8 -56.2002v-75.5996c0 -4.40039 -3.59961 -8 -8 -8h-32
c-4.40039 0 -8 3.59961 -8 8v397.6c-18.7998 9 -32 28.1006 -32 50.4004c0 30.9004 25.0996 56 56 56c34.9004 0 65.5 -33.7002 53.2002 -72.7002c49.2002 2.40039 112.1 -7.59961 186.7 -48c141.699 -76.8994 224.5 -67.5996 246.399 -62.7998zM370.8 141.7
c0.700195 0.200195 66.2998 15.2998 128.101 71.8994c-48.9004 1.7002 -124.5 16.6006 -225.9 71.5c-83.4004 45.2002 -148.9 47.5 -193 38.9004v-248.2c37.7998 21.6006 93.7998 44.4004 163.4 47.9004c26.3994 1.39941 69.8994 5.59961 127.399 18z" />
    <glyph glyph-name="dolly-flatbed-empty" unicode="&#xf476;" 
d="M624 48c8.7998 0 16 -7.2002 16 -16v-16c0 -8.7998 -7.2002 -16 -16 -16h-82.7998c1.7002 -5 2.89941 -10.4004 2.89941 -16c0 -26.5 -21.5 -48 -48 -48s-48 21.5 -48 48c0 5.59961 1.10059 11 2.90039 16h-197.9c1.7002 -5 2.90039 -10.4004 2.90039 -16
c0 -26.5 -21.5 -48 -48 -48s-48 21.5 -48 48c0 5.59961 1.09961 11 2.90039 16h-50.9004c-8.7998 0 -16 7.2002 -16 16v384h-80c-8.7998 0 -16 7.2002 -16 16v16c0 8.7998 7.2002 16 16 16h112c8.7998 0 16 -7.2002 16 -16v-384h480z" />
    <glyph glyph-name="id-card-alt" unicode="&#xf47f;" horiz-adv-x="576" 
d="M512 384c35.2998 0 64 -28.7002 64 -64v-320c0 -35.2998 -28.7002 -64 -64 -64h-448c-35.2998 0 -64 28.7002 -64 64v320c0 35.2998 28.7002 64 64 64h144v32c0 17.7002 14.2998 32 32 32h96c17.7002 0 32 -14.2998 32 -32v-32h144zM256 400v-64h64v64h-64zM528 0v320
c0 8.7998 -7.2002 16 -16 16h-144v-48h-160v48h-144c-8.7998 0 -16 -7.2002 -16 -16v-320c0 -8.7998 7.2002 -16 16 -16h112.8c-0.299805 1.09961 -0.799805 2.09961 -0.799805 3.2002v19.2002c0 31.7998 30.0996 57.5996 67.2002 57.5996c11.3994 0 17.8994 -8 44.7998 -8
c26.0996 0 34 8 44.7998 8c37.1006 0 67.2002 -25.7998 67.2002 -57.5996v-19.2002c0 -1.10059 -0.599609 -2.10059 -0.799805 -3.2002h112.8c8.7998 0 16 7.2002 16 16zM288 224c35.2998 0 64 -28.7002 64 -64s-28.7002 -64 -64 -64s-64 28.7002 -64 64s28.7002 64 64 64z
" />
    <glyph glyph-name="inventory" unicode="&#xf480;" 
d="M624 448c8.7998 0 16 -7.2002 16 -16v-496h-48v32h-544v-32h-48v496c0 8.7998 7.2002 16 16 16h16c8.7998 0 16 -7.2002 16 -16v-144h272v144c0 8.7998 7.2002 16 16 16h192c8.7998 0 16 -7.2002 16 -16v-144h48v144c0 8.7998 7.2002 16 16 16h16zM368 400v-112h128v112
h-128zM144 16h120v128h-120v-128zM312 16h120v128h-120v-128zM480 16h112v224h-544v-224h48v160c0 8.7998 7.2002 16 16 16h352c8.7998 0 16 -7.2002 16 -16v-160z" />
    <glyph glyph-name="gas-pump" unicode="&#xf52f;" horiz-adv-x="512" 
d="M493.3 340.7c12 -12 18.7002 -28.2998 18.7002 -45.2998v-223.4c0 -42.2002 -36.5 -76 -79.5 -71.7002c-37.5 3.90039 -64.5 38.2002 -64.5 75.9004v27.7998c0 22.0996 -17.9004 40 -40 40h-8v-160h24c4.40039 0 8 -3.59961 8 -8v-32c0 -4.40039 -3.59961 -8 -8 -8h-336
c-4.40039 0 -8 3.59961 -8 8v32c0 4.40039 3.59961 8 8 8h24v416c0 26.5 21.5 48 48 48h192c26.5 0 48 -21.5 48 -48v-208h8c48.5996 0 88 -39.4004 88 -88v-32c0 -13.2002 10.7998 -24 24 -24s24 10.7998 24 24v160.8c-27.0996 3.90039 -48 27.1006 -48 55.2002v62.0996
l-43.2002 43.3008c-3.09961 3.09961 -3.09961 8.19922 0 11.2998l22.6006 22.5996c3.09961 3.10059 8.19922 3.10059 11.2998 0zM272 -16v224h-192v-224h192zM272 256v144h-192v-144h192z" />
    <glyph glyph-name="infinity" unicode="&#xf534;" 
d="M484.4 352c85.7998 0 155.6 -71.7998 155.6 -160s-69.7998 -160 -155.6 -160c-77.4004 0 -135.101 68.0996 -164.4 112.5c-29.2998 -44.4004 -86.9004 -112.5 -164.4 -112.5c-85.7998 0 -155.6 71.7998 -155.6 160s69.7998 160 155.6 160
c77.4004 0 135.101 -68.0996 164.4 -112.5c29.2998 44.4004 87 112.5 164.4 112.5zM155.6 80c67.8008 0 120.4 82.2998 137.2 112c-16.7002 29.7002 -69.3994 112 -137.2 112c-59.3994 0 -107.6 -50.2002 -107.6 -112s48.2002 -112 107.6 -112zM484.4 80
c59.3994 0 107.6 50.2002 107.6 112s-48.2998 112 -107.6 112c-67.8008 0 -120.4 -82.2998 -137.2 -112c16.7002 -29.7002 69.3994 -112 137.2 -112z" />
    <glyph glyph-name="cocktail" unicode="&#xf561;" horiz-adv-x="576" 
d="M296 -16c22.0898 0 40 -17.9102 40 -40c0 -4.41992 -3.58008 -8 -8 -8h-240c-4.41992 0 -8 3.58008 -8 8c0 22.0898 17.9102 40 40 40h64v117.22l-176.74 176.73c-15.5195 15.5195 -4.5293 42.0498 17.4199 42.0498h366.641c21.9492 0 32.9395 -26.5303 17.4199 -42.0498
l-176.74 -176.73v-117.22h64zM81.0996 272l126.9 -126.9l126.9 126.9h-253.801zM432 448c79.5303 0 144 -64.4697 144 -144s-64.4697 -144 -144 -144c-27.4102 0 -52.7695 8.08008 -74.5801 21.3799l35.2598 35.2598c12.0303 -5.43945 25.2803 -8.63965 39.3203 -8.63965
c52.9297 0 96 43.0596 96 96s-43.0703 96 -96 96c-35.3701 0 -65.9902 -19.4502 -82.6396 -48h-52.54c19.8301 55.7998 72.5693 96 135.18 96z" />
    <glyph glyph-name="fish" unicode="&#xf578;" 
d="M360.18 384c153.91 0 279.82 -144.95 279.82 -192s-125.91 -192 -279.82 -192c-103.38 0 -183.5 63.1396 -220.38 98.6699l-72.8799 -56.3096c-13.9102 -10.7207 -33.25 -11.6406 -48.2197 -2.2207c-14.3105 9.03027 -21.3105 25.3906 -17.8105 41.6699l23.75 110.19
l-23.75 110.19c-3.5 16.2793 3.5 32.6396 17.8105 41.6699c14.9697 9.42969 34.3096 8.51953 48.2197 -2.23047l72.8799 -56.2998c36.8799 35.5303 117 98.6699 220.38 98.6699zM360.18 48c125.221 0 227.971 119.87 231.851 144.8
c-3.87988 23.3203 -106.63 143.2 -231.851 143.2c-81.1895 0 -156.779 -51.0898 -200.439 -98.9102l-14.9102 -16.3096l-92.7197 71.6299l21.6592 -100.41l-21.6592 -100.41l92.7197 71.6299l14.9102 -16.3096c43.6494 -47.8203 119.25 -98.9102 200.439 -98.9102zM448 224
c17.6699 0 32 -14.3301 32 -32s-14.3301 -32 -32 -32s-32 14.3301 -32 32s14.3301 32 32 32z" />
    <glyph glyph-name="highlighter" unicode="&#xf591;" horiz-adv-x="544" 
d="M0 -31.9805l68.4297 70.6006l67.0107 -67.04l-35.5605 -35.5801zM527.93 368.73c20.4902 -20.5 21.5107 -53.3906 2.35059 -75.1104l-226.25 -265.13c-6.70312 -7.60059 -16.5098 -12.3799 -27.4307 -12.3799c-3.72266 0.00195312 -7.31543 0.570312 -10.6992 1.60938
l-42.7207 13.0801l-33.8594 -33.8799c-9.37012 -9.37988 -24.5801 -9.37988 -33.9502 0l-62.2598 62.29c-9.37012 9.37012 -9.37012 24.5596 0 33.9297l33.9492 33.9707l-13.0498 42.8301c-1.02734 3.37402 -1.60449 6.94727 -1.60449 10.6562
c0 10.9229 4.7959 20.7354 12.3945 27.4434l264.891 226.229c10.3994 9.18066 23.3496 13.7305 36.2793 13.7305c14.0703 0 28.1201 -5.38965 38.79 -16.0703zM272.78 65.8203l32.75 38.3594l-105.181 105.23l-38.2295 -32.6504l10.8604 -35.6602l8.39941 -27.5693
l-20.3701 -20.3799l-16.9697 -16.9805l28.3096 -28.3203l16.8906 16.9004l20.3994 20.4102l27.5908 -8.4502zM493.77 324.79c2.90039 3.2998 2.77051 7.41992 0.230469 9.97949l-63.1699 63.2002c-1.66016 1.66016 -3.56055 2.01074 -4.86035 2.01074
c-1.70996 0 -3.23926 -0.580078 -4.5293 -1.7207l-196.681 -168l101.601 -101.649z" />
    <glyph glyph-name="books" unicode="&#xf5db;" horiz-adv-x="576" 
d="M575.46 -6.58984c2.27051 -8.5 -2.82031 -17.3203 -11.3096 -19.6006l-15.46 -4.13965c-7.53027 -2.01953 -15.2607 1.70996 -18.5 8.40039c-13.6406 0.689453 -66.3809 -13.4404 -77.8506 -20.8604c0.540039 -7.41016 -4.29004 -14.5 -11.8301 -16.5195l-15.46 -4.14062
c-8.5 -2.28027 -17.3193 2.81055 -19.5996 11.3105l-101.45 384.199v-364.06c0 -17.6699 -14.3301 -32 -40 -32h-240c-9.66992 0 -24 14.3301 -24 32v448c0 17.6699 14.3301 32 24 32h240c25.6699 0 40 -14.3301 40 -32v-4.7002l11.3203 3.03027
c7.5293 2.01953 15.2598 -1.70996 18.5 -8.40039c13.6299 -0.689453 66.3799 13.4404 77.8496 20.8604c-0.540039 7.41992 4.29004 14.5098 11.8301 16.5303l15.4502 4.12988c8.5 2.28027 17.3193 -2.81055 19.5996 -11.3105zM128 -16v48h-80v-48h80zM128 80v224h-80v-224
h80zM128 352v48h-80v-48h80zM256 -16v48h-80v-48h80zM256 80v224h-80v-224h80zM256 352v48h-80v-48h80zM441.98 -3.00977c16.5391 7.30957 60.5195 18.8994 77.2793 20.71l-97.2402 369.319c-16.5391 -7.31934 -60.5195 -18.9092 -77.2793 -20.71z" />
    <glyph glyph-name="charging-station" unicode="&#xf5e7;" horiz-adv-x="576" 
d="M120.57 224c-5.18066 0 -9.18066 3.99023 -8.51074 8.48047l19.1006 81c0.570312 3.72949 4.2002 6.50977 8.5 6.50977h48.5703c5.61914 0 9.72949 -4.66992 8.2793 -9.43066l-8.2793 -36.2793h41.2197c6.59961 0 10.7197 -6.27051 7.41992 -11.2607l-66.9297 -99.2793
c-1.57031 -2.37012 -4.44043 -3.74023 -7.4209 -3.74023c-5.47949 0 -9.61914 4.49023 -8.33984 9.23047l8.78027 54.7695h-42.3896zM560 320c8.83984 0 16 -7.16016 16 -16v-48c0 -35.7598 -23.6201 -65.6904 -56 -75.9297v-104.07c0 -41.9102 -34.0898 -76 -76 -76
s-76 34.0898 -76 76v28c0 22.0596 -17.9404 40 -40 40h-8v-160h24c4.41992 0 8 -3.58008 8 -8v-32c0 -4.41992 -3.58008 -8 -8 -8h-336c-4.41992 0 -8 3.58008 -8 8v32c0 4.41992 3.58008 8 8 8h24v416c0 26.5098 21.4902 48 48 48h192c26.5098 0 48 -21.4902 48 -48v-208h8
c48.5303 0 88 -39.4697 88 -88v-28c0 -15.4404 12.5596 -28 28 -28s28 12.5596 28 28v104.07c-32.3799 10.2393 -56 40.1699 -56 75.9297v48c0 8.83984 7.16016 16 16 16h16v48c0 8.83984 7.16016 16 16 16s16 -7.16016 16 -16v-48h32v48c0 8.83984 7.16016 16 16 16
s16 -7.16016 16 -16v-48h16zM272 -16v416h-192v-416h192zM528 256v16h-64v-16c0 -17.6396 14.3604 -32 32 -32s32 14.3604 32 32z" />
    <glyph glyph-name="globe-stand" unicode="&#xf5f6;" horiz-adv-x="448" 
d="M208.07 96c-88.4502 0 -160.051 71.6904 -160.061 160c0 88.3701 71.6602 160 160.061 160c88.4492 0 160.06 -71.6797 160.06 -160c0 -88.3701 -71.6602 -160 -160.06 -160zM208.07 368c-61.8799 0 -112.04 -50.1396 -112.04 -112s50.1602 -112 112.04 -112
s112.04 50.1396 112.04 112s-50.1602 112 -112.04 112zM348.12 -16c19.8896 0 36.0098 -16.1201 36 -36c0 -6.62988 -5.37012 -12 -12 -12h-296.101c-6.62988 0 -12 5.37012 -12 12c0 19.8799 16.1201 36 36.0107 36h100.04v32.4404
c-47.54 1.64941 -94.6904 17.2295 -134.721 46.9492l-26.71 -26.6992c-6.25977 -6.25 -16.3896 -6.25 -22.6396 0l-11.3096 11.2998c-6.25 6.25 -6.25 16.3799 0 22.6299l59.04 59.0303c2.7793 -3.18066 5.50977 -6.39062 8.5293 -9.41016
c36.2803 -36.2705 84.5098 -56.2402 135.811 -56.2402c51.2998 0 99.5293 19.9805 135.81 56.2402s56.2598 84.4697 56.2598 135.76s-19.9795 99.5098 -56.2598 135.77c-3.01953 3.01074 -6.24023 5.74023 -9.41016 8.53027l43.0303 43.0098
c6.25977 6.25 16.3896 6.25 22.6396 0l11.3105 -11.2998c6.25 -6.25 6.25 -16.3799 0 -22.6299l-10.7002 -10.7002c69.8203 -93.9395 62.3398 -227.16 -22.9102 -312.38c-36.6699 -36.6699 -82.25 -58.8496 -129.75 -66.7695v-35.5303h100.03z" />
    <glyph glyph-name="monitor-heart-rate" unicode="&#xf611;" horiz-adv-x="576" 
d="M544 448c17.6699 0 32 -14.3301 32 -32v-448c0 -17.6699 -14.3301 -32 -32 -32h-512c-17.6699 0 -32 14.3301 -32 32v448c0 17.6699 14.3301 32 32 32h512zM528 -16v416h-480v-191.99h176.02c10.3203 0 19.4902 -6.60938 22.7607 -16.4102l10.2197 -30.6592
l40.4297 111.27c3.41016 9.36035 12.2207 15.6396 22.1904 15.7998c9.25 0.330078 18.9697 -5.85938 22.6602 -15.0898l25.9697 -64.9102h95.75c8.83984 0 16 -7.16016 16 -16v-16c0 -8.83984 -7.16016 -16 -16 -16h-112
c-10.0938 0.000976562 -18.7305 6.23438 -22.2695 15.0703l-8.6709 21.6299l-42.5 -116.91c-3.46973 -9.5 -12.4697 -15.7998 -22.5596 -15.7998h-0.30957c-10.459 0.143555 -19.3125 6.97461 -22.4707 16.4102l-26.5293 79.5898h-158.69v-176h480z" />
    <glyph glyph-name="oil-can" unicode="&#xf613;" 
d="M629.8 287.69c4.69043 1.33984 10.2002 -1.94043 10.2002 -7.69043v-18.0801c0 -2.12012 -0.839844 -4.16016 -2.33984 -5.66016l-212.26 -214.75c-6.01074 -6.08984 -14.21 -9.50977 -22.7607 -9.50977h-274.64c-17.6699 0 -32 14.3301 -32 32v46.54l-69.7197 12.6904
c-15.2207 2.75977 -26.2803 16.0195 -26.2803 31.4795v94.9502c0 17.9795 14.6699 32.0098 31.9297 32.0098c4.18066 0 -5.06934 1.4502 144.07 -25.6699h56v48h-56c-8.83984 0 -16 7.16016 -16 16v16c0 8.83984 7.16016 16 16 16h160c8.83984 0 16 -7.16016 16 -16v-16
c0 -8.83984 -7.16016 -16 -16 -16h-56v-48h56.8896c10.2598 -0.00390625 20.0205 -2.46191 28.6201 -6.75977l50.4902 -25.2402zM96 159.33v62.4297l-48 8.73047v-62.4307zM395.95 80l123.189 124.65c-94.6094 -28.1904 -82.1699 -24.4805 -107.64 -32.0703
c-21.4297 10.7197 -6.24023 3.12012 -67.46 33.7295c-2.2002 1.11035 -4.67969 1.69043 -7.15039 1.69043h-192.89v-128h251.95zM549.33 74.6699c0 23.5605 42.6699 85.3301 42.6699 85.3301s42.6699 -61.7598 42.6699 -85.3301s-19.0996 -42.6699 -42.6699 -42.6699
s-42.6699 19.1104 -42.6699 42.6699z" />
    <glyph glyph-name="cross" unicode="&#xf654;" horiz-adv-x="384" 
d="M344 344c22.0596 0 40 -17.9404 40 -40v-96c0 -22.0596 -17.9404 -40 -40 -40h-64v-192c0 -22.0596 -17.9404 -40 -40 -40h-96c-22.0596 0 -40 17.9404 -40 40v192h-64c-22.0596 0 -40 17.9404 -40 40v96c0 22.0596 17.9404 40 40 40h64v64c0 22.0596 17.9404 40 40 40
h96c22.0596 0 40 -17.9404 40 -40v-64h64zM336 216v80h-104v104h-80v-104h-104v-80h104v-232h80v232h104z" />
    <glyph glyph-name="poll" unicode="&#xf681;" horiz-adv-x="448" 
d="M400 416c26.5 0 48 -21.5 48 -48v-352c0 -26.5 -21.5 -48 -48 -48h-352c-26.5 0 -48 21.5 -48 48v352c0 26.5 21.5 48 48 48h352zM400 16v352h-352v-352h352zM120 64c-8.83984 0 -16 7.16016 -16 16v128c0 8.83984 7.16016 16 16 16h16c8.83984 0 16 -7.16016 16 -16
v-128c0 -8.83984 -7.16016 -16 -16 -16h-16zM216 64c-8.83984 0 -16 7.16016 -16 16v224c0 8.83984 7.16016 16 16 16h16c8.83984 0 16 -7.16016 16 -16v-224c0 -8.83984 -7.16016 -16 -16 -16h-16zM312 64c-8.83984 0 -16 7.16016 -16 16v64c0 8.83984 7.16016 16 16 16h16
c8.83984 0 16 -7.16016 16 -16v-64c0 -8.83984 -7.16016 -16 -16 -16h-16z" />
    <glyph glyph-name="poll-h" unicode="&#xf682;" horiz-adv-x="448" 
d="M448 16c0 -26.5 -21.5 -48 -48 -48h-352c-26.5 0 -48 21.5 -48 48v352c0 26.5 21.5 48 48 48h352c26.5 0 48 -21.5 48 -48v-352zM48 16h352v352h-352v-352zM96 296c0 8.83984 7.16016 16 16 16h128c8.83984 0 16 -7.16016 16 -16v-16c0 -8.83984 -7.16016 -16 -16 -16
h-128c-8.83984 0 -16 7.16016 -16 16v16zM96 200c0 8.83984 7.16016 16 16 16h224c8.83984 0 16 -7.16016 16 -16v-16c0 -8.83984 -7.16016 -16 -16 -16h-224c-8.83984 0 -16 7.16016 -16 16v16zM96 104c0 8.83984 7.16016 16 16 16h64c8.83984 0 16 -7.16016 16 -16v-16
c0 -8.83984 -7.16016 -16 -16 -16h-64c-8.83984 0 -16 7.16016 -16 16v16z" />
    <glyph glyph-name="signal-1" unicode="&#xf68c;" 
d="M80 64c8.83984 0 16 -7.16016 16 -16v-96c0 -8.83984 -7.16016 -16 -16 -16h-32c-8.83984 0 -16 7.16016 -16 16v96c0 8.83984 7.16016 16 16 16h32z" />
    <glyph glyph-name="signal-2" unicode="&#xf68d;" 
d="M208 160c8.83984 0 16 -7.16016 16 -16v-192c0 -8.83984 -7.16016 -16 -16 -16h-32c-8.83984 0 -16 7.16016 -16 16v192c0 8.83984 7.16016 16 16 16h32zM80 64c8.83984 0 16 -7.16016 16 -16v-96c0 -8.83984 -7.16016 -16 -16 -16h-32c-8.83984 0 -16 7.16016 -16 16v96
c0 8.83984 7.16016 16 16 16h32z" />
    <glyph glyph-name="signal-3" unicode="&#xf68e;" 
d="M208 160c8.83984 0 16 -7.16016 16 -16v-192c0 -8.83984 -7.16016 -16 -16 -16h-32c-8.83984 0 -16 7.16016 -16 16v192c0 8.83984 7.16016 16 16 16h32zM80 64c8.83984 0 16 -7.16016 16 -16v-96c0 -8.83984 -7.16016 -16 -16 -16h-32c-8.83984 0 -16 7.16016 -16 16v96
c0 8.83984 7.16016 16 16 16h32zM336 256c8.83984 0 16 -7.16016 16 -16v-288c0 -8.83984 -7.16016 -16 -16 -16h-32c-8.83984 0 -16 7.16016 -16 16v288c0 8.83984 7.16016 16 16 16h32z" />
    <glyph glyph-name="signal-4" unicode="&#xf68f;" 
d="M208 160c4.41992 0 8 -3.58008 8 -8v-208c0 -4.41992 -3.58008 -8 -8 -8h-32c-4.41992 0 -8 3.58008 -8 8v208c0 4.41992 3.58008 8 8 8h32zM80 64c4.41992 0 8 -3.58008 8 -8v-112c0 -4.41992 -3.58008 -8 -8 -8h-32c-4.41992 0 -8 3.58008 -8 8v112
c0 4.41992 3.58008 8 8 8h32zM336 256c4.41992 0 8 -3.58008 8 -8v-304c0 -4.41992 -3.58008 -8 -8 -8h-32c-4.41992 0 -8 3.58008 -8 8v304c0 4.41992 3.58008 8 8 8h32zM464 352c4.41992 0 8 -3.58008 8 -8v-400c0 -4.41992 -3.58008 -8 -8 -8h-32
c-4.41992 0 -8 3.58008 -8 8v400c0 4.41992 3.58008 8 8 8h32z" />
    <glyph glyph-name="signal-alt" unicode="&#xf690;" 
d="M576 400h-32v-416h32v416zM416 272h-32v-288h32v288zM256 144h-32v-160h32v160zM96 48h-32v-64h32v64zM592 448c17.6699 0 32 -14.3301 32 -32v-448c0 -17.6699 -14.3301 -32 -32 -32h-64c-17.6699 0 -32 14.3301 -32 32v448c0 17.6699 14.3301 32 32 32h64zM432 320
c17.6699 0 32 -14.3301 32 -32v-320c0 -17.6699 -14.3301 -32 -32 -32h-64c-17.6699 0 -32 14.3301 -32 32v320c0 17.6699 14.3301 32 32 32h64zM272 192c17.6699 0 32 -14.3301 32 -32v-192c0 -17.6699 -14.3301 -32 -32 -32h-64c-17.6699 0 -32 14.3301 -32 32v192
c0 17.6699 14.3301 32 32 32h64zM112 96c17.6699 0 32 -14.3301 32 -32v-96c0 -17.6699 -14.3301 -32 -32 -32h-64c-17.6699 0 -32 14.3301 -32 32v96c0 17.6699 14.3301 32 32 32h64z" />
    <glyph glyph-name="signal-alt-1" unicode="&#xf691;" 
d="M96 48h-32v-64h32v64zM112 96c17.6699 0 32 -14.3301 32 -32v-96c0 -17.6699 -14.3301 -32 -32 -32h-64c-17.6699 0 -32 14.3301 -32 32v96c0 17.6699 14.3301 32 32 32h64z" />
    <glyph glyph-name="signal-alt-2" unicode="&#xf692;" 
d="M256 144h-32v-160h32v160zM96 48h-32v-64h32v64zM272 192c17.6699 0 32 -14.3301 32 -32v-192c0 -17.6699 -14.3301 -32 -32 -32h-64c-17.6699 0 -32 14.3301 -32 32v192c0 17.6699 14.3301 32 32 32h64zM112 96c17.6699 0 32 -14.3301 32 -32v-96
c0 -17.6699 -14.3301 -32 -32 -32h-64c-17.6699 0 -32 14.3301 -32 32v96c0 17.6699 14.3301 32 32 32h64z" />
    <glyph glyph-name="signal-alt-3" unicode="&#xf693;" 
d="M416 272h-32v-288h32v288zM256 144h-32v-160h32v160zM96 48h-32v-64h32v64zM432 320c17.6699 0 32 -14.3301 32 -32v-320c0 -17.6699 -14.3301 -32 -32 -32h-64c-17.6699 0 -32 14.3301 -32 32v320c0 17.6699 14.3301 32 32 32h64zM272 192c17.6699 0 32 -14.3301 32 -32
v-192c0 -17.6699 -14.3301 -32 -32 -32h-64c-17.6699 0 -32 14.3301 -32 32v192c0 17.6699 14.3301 32 32 32h64zM112 96c17.6699 0 32 -14.3301 32 -32v-96c0 -17.6699 -14.3301 -32 -32 -32h-64c-17.6699 0 -32 14.3301 -32 32v96c0 17.6699 14.3301 32 32 32h64z" />
    <glyph glyph-name="cat" unicode="&#xf6be;" horiz-adv-x="576" 
d="M416 320c8.83984 0 16 -7.16016 16 -16s-7.16016 -16 -16 -16s-16 7.16016 -16 16s7.16016 16 16 16zM547.53 443.85c17.3096 -7.71973 28.4697 -24.8994 28.4697 -43.8496v-112.01c0 -47.1602 -25.9297 -87.9902 -64 -110.19v-209.8c0 -17.6699 -14.3301 -32 -32 -32
h-64c-17.6699 0 -32 14.3301 -32 32v86.0498l-81.9902 -48.2402c1.07031 -7.17969 1.74023 -14.4395 1.85059 -21.8096h16.1396c17.6699 0 32 -14.3301 32 -32c0 -8.83984 -7.16016 -16 -16 -16h-184c-48.5996 0 -88 39.29 -88 112.7v212.38
c0 22.3496 -16.9805 43.5498 -39.3203 42.9297c-13.5596 -0.379883 -24.6797 10.5205 -24.6797 23.9902c0 13.25 10.75 24 24 24c48.5303 0 88 -39.4697 88 -88v-93.0195c37.6299 51.1191 94.7695 87.2891 162.25 97.5195l47 7.12012
c-0.400391 4.13965 -1.25 8.13965 -1.25 12.3799v112c0 18.96 11.1602 36.1299 28.4697 43.8496c5.95801 2.65234 12.6123 4.14355 19.5508 4.14355c12.335 0 23.5898 -4.65918 32.0996 -12.3135l39.6396 -35.6797h16.4902l39.6396 35.6797
c8.99023 8.08984 20.4805 12.3203 32.1201 12.3203c6.93359 0 13.5664 -1.49805 19.5205 -4.15039zM464 -16v177.62c-5.2998 -0.669922 -10.5195 -1.62012 -16 -1.62012c-49.25 0 -91.5996 28.2598 -112.99 69.1504l-53.5693 -8.12012
c-98.1904 -14.8701 -169.44 -97.75 -169.44 -197.03c0 -22.0596 17.9404 -40 40 -40h103.72c-0.759766 36.5 -18.4102 70.3701 -47.6299 91.54c-6.62012 4.7998 -8.04004 14.1396 -4.07031 21.29l7.44043 13.3896c4.45996 8.02051 15.0098 11.0703 22.5303 5.81055
c23.2197 -16.2305 41.3701 -38.1299 53.4502 -63.1104l96.3496 56.6797c9.90039 5.81055 22.21 5.88086 32.1201 0.19043c9.92969 -5.67969 16.0898 -16.3203 16.0898 -27.7705v-98.0195h32zM528 288v112l-53.3398 -48h-53.3301l-53.3301 48v-112
c0 -44.1797 35.8203 -80 80 -80s80 35.8203 80 80zM464 304c0 8.83984 7.16016 16 16 16s16 -7.16016 16 -16s-7.16016 -16 -16 -16s-16 7.16016 -16 16z" />
    <glyph glyph-name="elephant" unicode="&#xf6da;" 
d="M528 320.03c8.83984 0 16 -7.16016 16 -16s-7.16016 -16 -16 -16s-16 7.16016 -16 16s7.16016 16 16 16zM512 416.03c70.6904 0 128 -57.3105 128 -128v-216.021c0 -42.0898 -36.3096 -75.8594 -79.2197 -71.6494c-37.4004 3.66992 -64.7803 37.29 -64.7803 74.8701
v4.7793c0 8.83984 7.16016 16 16 16h16c8.83984 0 16 -7.16016 16 -16v-8c0 -13.2295 10.7803 -24 24 -24s24 10.7598 24 24v88.0098h-144v-192.02c0 -17.6699 -14.3301 -32 -32 -32h-80c-17.6699 0 -32 14.3301 -32 32v72.8398c-61.4502 -16.9795 -109.52 -5.10938 -128 0
v-72.8398c0 -17.6699 -14.3301 -32 -32 -32h-80c-17.6699 0 -32 14.3301 -32 32v128.01h-16c-8.83984 0 -16 7.16016 -16 16v112.01c0 106.051 85.96 192.011 192 192.021h108.82c12.6094 13.1504 28.4492 23.21 46.4893 28.1104
c32.3809 8.75977 65.8506 2.41992 91.8203 -17.46c4.25 -3.26074 8.07031 -6.89062 11.71 -10.6602h61.1602zM400 -16v179.78c-36.8203 10.5293 -64 44.1094 -64 84.2598c-20.3096 8.47949 -37.6904 23.3398 -49.2197 42.5303c-13.9707 23.29 -17.6504 50.54 -11.54 77.4697
h-83.2402c-79.5303 0 -144 -64.4697 -144 -144.01v-80.0107h32v-160.02h48v119.91c112.92 -31.2002 103.33 -33.3398 224 0v-119.91h48zM592 240.02v48c0 44.1201 -35.8896 80.0107 -80 80.0107h-85.46c-11.1396 23.4697 -37.5 37.71 -66.6602 29.7998
c-39.3203 -10.71 -48.3701 -55.1104 -31.9395 -82.5703c14.1699 -23.5996 33.4092 -25.4102 56.0596 -30v-37.2402c0 -22.0596 17.9404 -40 40 -40h136c17.6699 0 32 14.3301 32 32z" />
    <glyph glyph-name="hammer-war" unicode="&#xf6e4;" horiz-adv-x="384" 
d="M352.07 416c17.29 0 31.9297 -14.0498 31.9297 -32.0098v-191.98c0 -17.96 -14.6396 -32.0098 -31.9404 -32.0098c-3.8291 0 5.70996 -1.40039 -136.06 22.2305v-234.23c0 -6.62988 -5.37012 -12 -12 -12h-24c-6.62988 0 -12 5.37012 -12 12v234.23
c-141.14 -23.5205 -132.2 -22.2305 -136.06 -22.2305c-17.3008 0 -31.9404 14.0498 -31.9404 32.0098v191.98c0 17.96 14.6396 32.0098 31.9297 32.0098c3.83984 0 -5.70996 1.40039 136.07 -22.2305v42.2305c0 6.62988 5.37012 12 12 12h24c6.62988 0 12 -5.37012 12 -12
v-42.2305c141.15 23.5205 132.24 22.2305 136.07 22.2305zM336 210.89v154.221l-144 -24l-144 24v-154.221l144 24z" />
    <glyph glyph-name="hippo" unicode="&#xf6ed;" 
d="M559.21 356.55c44.8496 3.10059 80.79 -34.4795 80.7998 -78.1797v-82.5498c0 -28.3604 -23.0498 -51.4404 -51.3896 -51.4404l-12.7803 -0.00976562v-32.3701c0 -8.83984 -7.16992 -16 -16 -16h-31.9902c-8.83984 0 -16 7.16016 -16 16v32.3203l-95.9697 -0.0703125
v-144.25c0 -17.6699 -14.3203 -32 -31.9902 -32h-79.9795c-17.6699 0 -31.9902 14.3301 -31.9902 32v40.5801c-24.9502 -6.82031 -72.04 -15.2998 -127.96 0v-40.5801c0 -17.6699 -14.3203 -32 -31.9902 -32h-79.9795c-17.6699 0 -31.9902 14.3301 -31.9902 32v224
c0 96 99.4805 160 207.94 160c34.7197 0 67.25 -7.4502 95.9697 -20.2305v4.23047c0 26.5098 21.4902 48 47.9902 48h31.9893c20.7803 0 38.3105 -13.2998 44.9805 -31.7998c32.5303 -1.07031 62.1602 -17.7598 80.9795 -43.5098
c14.3701 6.88965 30.6201 14.4492 49.3604 15.8594zM367.89 16v137.18c-37.5195 16.3906 -63.79 53.71 -63.79 97.3506l-0.189453 58.8896c-26.8701 16.5605 -60.0898 26.5801 -95.9697 26.5801c-75.8701 0 -151.511 -44.2002 -159.95 -123.51v-196.49h47.9795v87.4697
c109.471 -29.9502 100.99 -33.6299 223.931 0v-87.4697h47.9893zM592.01 192.38l0.0205078 85.9805c0 13.3301 -10.9805 31.8896 -29.2402 30.3096c-16.3701 -1.21973 -21.0996 -8.70996 -76.04 -29.25l-8.96973 21.1699
c-8.51074 20.0898 -27.5498 33.8701 -49.3105 35.4199c-10.6094 0.759766 -22.1396 -0.959961 -44.5693 -7.5293v31.5195c0 4.41992 -3.58008 8 -8 8h-16c-4.41992 0 -8 -3.58008 -8 -8l0.189453 -109.47c0 -32.1904 26.0801 -58.2803 58.2598 -58.2803h0.0302734z
M431.87 288c8.83984 0 16 -7.16016 16 -16s-7.16016 -16 -16 -16s-16 7.16016 -16 16s7.16992 16 16 16z" />
    <glyph glyph-name="hood-cloak" unicode="&#xf6ef;" horiz-adv-x="576" 
d="M569.6 -12.7998c15.8008 -21.1006 0.400391 -51.2002 -26 -51.2002h-511.3c-26.2998 0 -41.7998 30.2002 -26 51.2002c57.7002 76.8994 57.7002 140.8 57.7002 140.8v64c0 146.5 128 256 223.6 256h149.101c17.5 0 26.2002 -21.2002 13.8994 -33.5l-39.7998 -39.7998
c54.7998 -59.7002 101.2 -98.7002 101.2 -182.7v-64s0 -63.9004 57.5996 -140.8zM368.3 -16v136c0 44.0996 -35.8994 80 -80 80c-44.0996 0 -80 -35.9004 -80 -80v-136h160zM416.3 -16h97.2002c-48 75.7998 -49.5 136.6 -49.5 144v64
c0 53.4004 -22.9004 80.2002 -70.5 130.9c-14.7998 15.6992 -12.7002 13.5 -49.2002 53.1992l23.9004 23.9004h-80.7002c-69 0 -175.5 -89.2998 -175.5 -208v-64c0 -7.40039 -1.5 -68.2002 -49.5 -144h97.7998v136c0 70.5996 57.4004 128 128 128
c70.6006 0 128 -57.4004 128 -128v-136z" />
    <glyph glyph-name="horse" unicode="&#xf6f0;" horiz-adv-x="576" 
d="M464 368c8.83984 0 16 -7.16016 16 -16s-7.16016 -16 -16 -16s-16 7.16016 -16 16s7.16016 16 16 16zM575.95 345.75l0.0498047 -65.3398c0.0195312 -25.3203 -16.0303 -47.8398 -39.9902 -56.0205l-31.0195 -10.5898
c-2.62012 -0.889648 -19.9902 -7.13965 -40.9404 -0.169922c0 0 -0.0302734 -7.5 -0.0800781 -8.42969c-0.660156 -30.5098 -12.0098 -59.0801 -31.9697 -81.5498v-155.65c0 -17.6699 -14.3301 -32 -32 -32h-80c-17.6699 0 -32 14.3301 -32 32v121.5l-60.9404 13.5303
l-9.47949 -26.4102l25.5303 -100.76c5.12012 -20.2207 -10.1602 -39.8604 -31.0205 -39.8604h-74.7002c-14.79 0 -27.6494 10.1396 -31.1094 24.5195l-24.1104 100.29c-1.42773 5.93652 -2.17578 12.0859 -2.17578 18.458c0 7.77637 1.12695 15.292 3.22559 22.3926
l12.9404 43.7598c-20.25 20.4902 -32.1602 48.4502 -32.1602 78.5801c0 2.62988 0.599609 5.08984 0.780273 7.67969c-9.91016 -7.29004 -16.7803 -18.46 -16.7803 -31.6797v-56c0 -8.83984 -7.16016 -16 -16 -16h-16c-8.83984 0 -16 7.16016 -16 16v56
c0 47.1602 37.3604 85.4502 83.9902 87.5996c20.2402 29.1807 53.8896 48.4004 92.0098 48.4004h115.58c14.5996 64.0498 72.0195 112 140.42 112h135.9c5.05957 0 8.94922 -4.67969 7.93945 -9.63965c-3.42969 -16.8203 -16.54 -30.2607 -32.5596 -35.6602
l21.7295 -26.4805c6.81738 -8.2832 10.9307 -18.917 10.9404 -30.4697zM520.51 269.81c4.50977 1.54004 7.54004 5.79004 7.54004 10.5605l-0.0498047 65.3496l-44.6699 54.2803h-51.3301c-53.0195 0 -96 -42.9805 -96 -96v-16h-160c-35.3496 0 -64 -28.6504 -64 -64
c0 -26.8301 16.54 -49.7197 39.9404 -59.2402l-22.7002 -76.7197c-0.806641 -2.79297 -1.24121 -5.72266 -1.24121 -8.77441c0 -2.5498 0.301758 -5.0293 0.871094 -7.40527l21.1299 -87.8604h41.5303l-24.0801 95.0498l28.7295 80.0205l139.82 -31.0703v-144h48v160.36
c19.3203 14.6094 32 37.5498 32 63.6396h0.0498047v80h32l24.96 -24.9502c6.77051 -6.78027 14.9707 -4.34961 16.4805 -3.83008z" />
    <glyph glyph-name="kite" unicode="&#xf6f4;" 
d="M608 448c17.7002 0 32 -14.2998 32 -32v-262.5c0 -14.9004 -10.2998 -27.9004 -24.7998 -31.2002c0 0 -344.601 -79.2002 -346.3 -79.2998l-88.3008 -88.2998c-23.8994 -24 -66.3994 -27.2002 -92.8994 4.2998c-10.7002 12.7002 -15.7002 29.2002 -15.7002 45.7002v124
l-47.0996 -30.1006c-10.7002 -6.69922 -24.9004 0.600586 -24.9004 12.8008v65.2998c0 12.2002 14.2002 19.5 24.9004 12.7002l47.0996 -30.1006v64.7002c0 22.0996 -17.9004 40 -40 40h-16c-8.7998 0 -16 7.2002 -16 16v16c0 8.7998 7.2002 16 16 16h16
c48.5996 0 88 -39.4004 88 -88v-64.7002l47.2002 30.2002c10.7002 6.7002 24.8994 -0.599609 24.8994 -12.7998v-65.2998c0 -12.3008 -14.2998 -19.6006 -24.8994 -12.8008l-47.1006 30.1006v-129.101c0 -13.8994 16.8008 -20.7998 26.6006 -11l88.2998 88.3008
c0.0996094 1.69922 79.2998 346.3 79.2998 346.3c3.40039 14.5 16.2998 24.7998 31.2002 24.7998h262.5zM592 166.2l-116.9 116.899l116.9 116.9h-233.8l116.8 -117l-187 -187z" />
    <glyph glyph-name="mask" unicode="&#xf6fa;" 
d="M320.67 384c449.09 0 348.32 -384 158.46 -384c-39.8994 0 -77.4697 20.6904 -101.42 55.8604l-25.7295 37.79c-7.82031 11.5 -19.5703 17.25 -31.3105 17.25s-23.4795 -5.75 -31.3096 -17.25l-25.7305 -37.79c-23.9502 -35.1699 -61.5195 -55.8604 -101.42 -55.8604
c-199.11 0 -284.14 384 158.46 384zM479.13 52.3604c66.5205 0 112.87 66.6299 112.87 126.43c0 37.9502 -17.71 71.6201 -51.2305 97.3701c-32.9492 25.3096 -97.8799 55.4795 -220.1 55.4795c-121.77 0 -187.02 -30.8398 -220.32 -56.71
c-34.25 -26.5996 -52.3496 -61.0801 -52.3496 -99.6992c0 -59.3408 45.8896 -122.87 114.21 -122.87c24.5703 0 48.0801 12.9795 62.8799 34.7197l25.7305 37.79c16.6094 24.3896 42.0693 38.3799 69.8496 38.3799s53.2402 -13.9902 69.8496 -38.3799l25.7305 -37.79
c14.7998 -21.7402 38.3096 -34.7197 62.8799 -34.7197zM192 261.82c39.1104 0 64.5303 -25.6602 76.2695 -41.0508c4.98047 -6.53906 4.98047 -16.0996 0 -22.6299c-11.7393 -15.3896 -37.1592 -41.0498 -76.2695 -41.0498s-64.54 25.6504 -76.2695 41.0498
c-4.98047 6.53027 -4.98047 16.1006 0 22.6299c11.7393 15.3906 37.1592 41.0508 76.2695 41.0508zM448 261.82c39.1104 0 64.5303 -25.6602 76.2695 -41.0508c4.98047 -6.53906 4.98047 -16.0996 0 -22.6299c-11.7393 -15.3896 -37.1592 -41.0498 -76.2695 -41.0498
s-64.54 25.6504 -76.2695 41.0498c-4.98047 6.53027 -4.98047 16.1006 0 22.6299c11.7393 15.3906 37.1592 41.0508 76.2695 41.0508z" />
    <glyph glyph-name="monkey" unicode="&#xf6fb;" 
d="M640 328c0 -38.7695 -30.7197 -70.1602 -69.1104 -71.71c-3.88965 -13.0996 -9.93945 -25.1396 -18.0195 -35.7598l51.3096 -205.24c2.54004 -10.1602 3.82031 -20.5801 3.82031 -31.0498v-16.2402c0 -17.6699 -14.3301 -32 -32 -32h-64c-17.6699 0 -32 14.3301 -32 32
v28.6396l-12.5996 49.9102l-83.4004 -62.5498h32c17.6699 0 32 -14.3301 32 -32c0 -8.83984 -7.16016 -16 -16 -16h-248c-48.5303 0 -88 39.4697 -88 88v256c0 13.2305 -10.7803 24 -24 24s-24 -10.7695 -24 -24v-64c0 -13.25 -10.75 -24 -24 -24s-24 10.75 -24 24v64
c0 39.7002 32.3096 72 72 72s72 -32.2998 72 -72v-256c0 -22.0596 17.9404 -40 40 -40h8v48c0 104.17 71.21 191.42 167.54 216.45c-0.959961 2.5498 -1.65039 5.20996 -2.42969 7.83984c-38.3906 1.5498 -69.1104 32.9404 -69.1104 71.71c0 39.7695 32.2402 72 72 72
h12.2695c20.2402 28.96 53.7109 48 91.7305 48s71.4902 -19.04 91.7305 -48h12.2695c39.7598 0 72 -32.2305 72 -72zM592 328c0 10.9199 -7.48047 19.79 -17.4805 22.6797c0.640625 -4.84961 1.48047 -9.64941 1.48047 -14.6797v-30.3799
c9.26953 3.33008 16 11.9795 16 22.3799zM352 336c0 5.03027 0.839844 9.83008 1.48047 14.6797c-10 -2.88965 -17.4805 -11.7598 -17.4805 -22.6797c0 -10.4004 6.73047 -19.0498 16 -22.3799v30.3799zM400 336v-48c0 -35.29 28.71 -64 64 -64s64 28.71 64 64v48
c0 35.29 -28.71 64 -64 64s-64 -28.71 -64 -64zM557.61 3.63965l-45.8506 183.42c-14.54 -6.88965 -30.6094 -11.0596 -47.7598 -11.0596c-29.1104 0 -55.3701 11.3799 -75.29 29.5801c-84.0898 -13.1699 -148.71 -85.8398 -148.71 -173.58v-48h64l192.3 144.23
l30.2402 -119.851l1.45996 -5.78027v-18.5996h32v0.240234c0 6.69824 -0.833008 13.1816 -2.38965 19.3994zM496 312c-8.83984 0 -16 7.16016 -16 16s7.16016 16 16 16s16 -7.16016 16 -16s-7.16016 -16 -16 -16zM432 312c-8.83984 0 -16 7.16016 -16 16s7.16016 16 16 16
s16 -7.16016 16 -16s-7.16016 -16 -16 -16z" />
    <glyph glyph-name="narwhal" unicode="&#xf6fe;" 
d="M591.21 227.84c29.5 -23.4502 48.79 -59.2197 48.79 -99.8398v-96c0 -53.0195 -42.9805 -96 -96 -96h-364.12c-72.8398 0 -131.88 59.04 -131.88 131.88v80l-31.3799 16.5c-10.3799 5.92969 -16.6201 15.9199 -16.6201 26.6201v112.97
c0 9.41992 9.00977 16.0303 18.7197 16.0303c3.4707 0 7.03027 -0.839844 10.2998 -2.70996l82.9805 -47.4199l82.9805 47.4199c3.26953 1.86035 6.81934 2.70996 10.2891 2.70996h0.0107422c9.70996 0 18.7197 -6.62012 18.7197 -16.0303v-112.97
c0 -10.7002 -6.24023 -20.7002 -16.6299 -26.6396l-31.3799 -16.4902v-62.8701c0 -9.63965 7.88965 -16.0303 16.1201 -16.0303c3.92969 0 7.93945 1.45996 11.1992 4.7207c101.54 98.8398 167.551 182.31 308.69 182.31c1.74023 0 3.34961 -0.44043 5.05957 -0.509766
l103.28 187.09c2.7998 5.07031 9.17969 6.91016 14.25 4.11035c4.2002 -2.32031 6.17969 -7.11035 5.14062 -11.5703zM592 32v96c0 44.1104 -35.8896 80 -80 80c-105.48 0 -159.72 -54 -241.82 -135.74c-10.7793 -10.7295 -21.8496 -21.75 -33.3799 -32.9697
c-11.6494 -11.6504 -27.6797 -18.3203 -44.6797 -18.3203c-35.3604 0 -64.1201 28.7207 -64.1201 64.0303v91.8701l25.6699 13.5l22.3301 11.7402v49.0498l-40.1797 -22.9697l-23.8203 -13.6104l-23.8096 13.6201l-40.1904 22.96v-49.0498l22.3301 -11.75l25.6699 -13.4902
v-109c0 -46.2402 37.6299 -83.8701 83.8799 -83.8701h364.12c26.4697 0 48 21.5303 48 48zM432 104c13.25 0 24 -10.7402 24 -24c0 -13.25 -10.75 -24 -24 -24s-24 10.75 -24 24c0 13.2598 10.75 24 24 24z" />
    <glyph glyph-name="whale" unicode="&#xf72c;" 
d="M512 320c70.6904 0 128 -57.3096 128 -128v-96c0 -53.0195 -42.9805 -96 -96 -96h-364.12c-72.8398 0 -131.88 59.04 -131.88 131.88v80l-31.3799 16.5c-10.3799 5.92969 -16.6201 15.9199 -16.6201 26.6201v112.97c0 9.41992 9.00977 16.0303 18.7197 16.0303
c0.0136719 0 0.0478516 -0.0126953 0.0615234 -0.0126953c3.72168 0 7.21582 -0.980469 10.2383 -2.69727l82.9805 -47.4199l82.9805 47.4199c3.26953 1.86035 6.81934 2.70996 10.2891 2.70996h0.0107422c9.70996 0 18.7197 -6.62012 18.7197 -16.0303v-112.97
c0 -10.7002 -6.24023 -20.7002 -16.6299 -26.6396l-31.3799 -16.4902v-62.8701c0 -9.63965 7.88965 -16.0303 16.1201 -16.0303c3.92969 0 7.93945 1.45996 11.1992 4.7207c101.54 98.8398 167.551 182.31 308.69 182.31zM592 96v96c0 44.1104 -35.8896 80 -80 80
c-105.48 0 -159.72 -54 -241.82 -135.73c-10.7793 -10.7295 -21.8496 -21.75 -33.3799 -32.9697c-11.6494 -11.6494 -27.6797 -18.3193 -44.6797 -18.3193c-35.3604 0 -64.1201 28.7197 -64.1201 64.0293v91.8701l25.6699 13.4902l22.3301 11.7402v49.0498
l-40.1797 -22.9697l-23.8203 -13.6104l-23.8096 13.6201l-40.1904 22.96v-49.0498l22.3301 -11.7402l25.6699 -13.4902v-109c0 -46.25 37.6299 -83.8799 83.8799 -83.8799h364.12c26.4697 0 48 21.5303 48 48zM432 168c13.25 0 24 -10.7402 24 -24
c0 -13.25 -10.75 -24 -24 -24s-24 10.75 -24 24c0 13.2598 10.75 24 24 24z" />
    <glyph glyph-name="hurricane" unicode="&#xf751;" horiz-adv-x="384" 
d="M209.9 358.4c98.5 -15.9004 174.1 -103.9 174.1 -209.9c0 -108.2 -77.9004 -199.4 -181.2 -212.2c-1.59961 -0.200195 -3.2002 -0.299805 -4.7002 -0.299805c-11.1992 0 -22 5 -29.2998 13.9004c-8.5 10.2998 -11.0996 24 -7 36.6992l12.2998 39
c-98.5 15.8008 -174.1 103.9 -174.1 209.9c0 108.2 77.9004 199.4 181.3 212.2c12.7002 1.7002 25.5 -3.5 33.9004 -13.6006c8.5 -10.1992 11.0996 -24 7 -36.6992zM212.1 -13.4004c71.6006 16.4004 123.9 83.4004 123.9 161.9c0 90.7002 -70.9004 164.5 -158 164.5
h-32.7998l26.7002 84.4004c-71.6006 -16.4004 -123.9 -83.4004 -123.9 -161.9c0 -90.7002 70.9004 -164.5 158 -164.5h32.7998zM192 264c39.7002 0 72 -32.2998 72 -72s-32.2998 -72 -72 -72s-72 32.2998 -72 72s32.2998 72 72 72zM192 168c13.2002 0 24 10.7998 24 24
s-10.7998 24 -24 24s-24 -10.7998 -24 -24s10.7998 -24 24 -24z" />
    <glyph glyph-name="poll-people" unicode="&#xf759;" 
d="M154.2 57.4004c22.7002 -14.5 37.7998 -39.8008 37.7998 -68.6006v-14.3994c0 -21.2002 -17.2002 -38.4004 -38.4004 -38.4004h-115.199c-21.2002 0 -38.4004 17.2002 -38.4004 38.4004v14.3994c0 28.7998 15.0996 54.1006 37.7998 68.6006
c-6.09961 10.1992 -9.7998 21.8994 -9.7998 34.5996c0 37.5 30.5 68 68 68s68 -30.5 68 -68c0 -12.7002 -3.7002 -24.4004 -9.7998 -34.5996zM96 112c-11 0 -20 -9 -20 -20s9 -20 20 -20s20 9 20 20s-9 20 -20 20zM144 -16v4.7998c0 18.5 -15.0996 33.6006 -33.5996 33.6006
h-28.8008c-18.5 0 -33.5996 -15.1006 -33.5996 -33.6006v-4.7998h96zM154.2 345.4c22.7002 -14.5 37.7998 -39.8008 37.7998 -68.6006v-14.3994c0 -21.2002 -17.2002 -38.4004 -38.4004 -38.4004h-115.199c-21.2002 0 -38.4004 17.2002 -38.4004 38.4004v14.3994
c0 28.7998 15.0996 54.1006 37.7998 68.6006c-6.09961 10.1992 -9.7998 21.8994 -9.7998 34.5996c0 37.5 30.5 68 68 68s68 -30.5 68 -68c0 -12.7002 -3.7002 -24.4004 -9.7998 -34.5996zM96 400c-11 0 -20 -9 -20 -20s9 -20 20 -20s20 9 20 20s-9 20 -20 20zM144 272
v4.7998c0 18.5 -15.0996 33.6006 -33.5996 33.6006h-28.8008c-18.5 0 -33.5996 -15.1006 -33.5996 -33.6006v-4.7998h96zM616 416c13.2998 0 24 -10.7002 24 -24v-112c0 -13.2998 -10.7002 -24 -24 -24h-368c-13.2998 0 -24 10.7002 -24 24v112c0 13.2998 10.7002 24 24 24
h368zM592 304v64h-80v-64h80zM616 128c13.2998 0 24 -10.7002 24 -24v-112c0 -13.2998 -10.7002 -24 -24 -24h-368c-13.2998 0 -24 10.7002 -24 24v112c0 13.2998 10.7002 24 24 24h368zM592 16v64h-240v-64h240z" />
    <glyph glyph-name="rainbow" unicode="&#xf75b;" horiz-adv-x="576" 
d="M268.3 415.3c167.7 11.2998 307.7 -122 307.7 -287.3v-144c0 -8.7998 -7.2002 -16 -16 -16h-16c-8.7998 0 -16 7.2002 -16 16v135.7c0 121.899 -87.4004 230.8 -208.4 246.3c-146.399 18.7002 -271.6 -95.2998 -271.6 -238v-144c0 -8.7998 -7.2002 -16 -16 -16h-16
c-8.7998 0 -16 7.2002 -16 16v133.8c0 153.3 115.4 287.3 268.3 297.5zM262.7 317.9c117.1 15 217.3 -76.2002 217.3 -190.4v-143.5c0 -8.7998 -7.2002 -16 -16 -16h-16c-8.7998 0 -16 7.2002 -16 16v137.1c0 75.2002 -54.7998 142.4 -129.6 149.7
c-85.9004 8.40039 -158.4 -59.0996 -158.4 -143.3v-143.5c0 -8.7998 -7.2002 -16 -16 -16h-16c-8.7998 0 -16 7.2002 -16 16v136.8c0 97.6006 70 184.7 166.7 197.101zM268.9 222.1c61.2998 11.9004 115.1 -34.8994 115.1 -94.0996v-144c0 -8.7998 -7.2002 -16 -16 -16h-16
c-8.7998 0 -16 7.2002 -16 16v144c0 26.5 -21.5 48 -48 48s-48 -21.5 -48 -48v-144c0 -8.7998 -7.2002 -16 -16 -16h-16c-8.7998 0 -16 7.2002 -16 16v140.2c0 46.3994 31.2998 89 76.9004 97.8994z" />
    <glyph glyph-name="angel" unicode="&#xf779;" horiz-adv-x="576" 
d="M571.7 -5.09961c14.0996 -29 -8.7002 -58.9004 -36.2998 -58.9004h-494.7c-27 0 -50.7998 29.0996 -36.2998 58.9004l38.1992 78.5c6.60059 13.5 6.60059 29.5996 0 43.0996c-16.1992 33.2998 -26.3994 37.4004 -26.3994 75.2998c0 51.1006 46.8994 96 100.399 96
c25.1006 0 48.7002 -10.0996 66.3008 -28.0996l72.6992 -73.2998c10.3008 3.39941 21.2002 5.39941 32.4004 5.39941c11.2998 0 22.2002 -2 32.5 -5.39941l72.7002 73.3994c17.5996 18.1006 41.2002 28.1006 66.2998 28.1006c53.5 0 100.4 -44.9004 100.4 -96
c0 -37.8008 -10.2002 -41.9004 -26.4004 -75.3008c-6.59961 -13.5 -6.59961 -29.5996 0 -43.0996zM52.4004 -16h67.6992l75.4004 150.8c4.7998 9.60059 11.0996 18.2002 18.4004 25.7002l-65.2002 65.7998c-8.60059 8.7998 -20 13.7002 -32.1006 13.7002
c-26.8994 0 -52.3994 -23.2998 -52.3994 -48c0 -15.2002 0.899414 -16.7998 8.09961 -29.2002c3.60059 -6.2002 8.10059 -13.8994 13.5 -25.0996c12.9004 -26.6006 12.9004 -58.5 0 -85.1006zM173.8 -16h228.5l-64.5 129.3c-9.5 18.9004 -28.5 30.7002 -49.7002 30.7002
c-21.1992 0 -40.1992 -11.7998 -49.6992 -30.7002zM455.9 -16h67.7998l-33.4004 68.5996c-12.8994 26.6006 -12.8994 58.5 0 85.1006c5.40039 11.2002 9.90039 18.8994 13.5 25.0996c7.2002 12.4004 8.10059 14 8.10059 29.2002c0 24.7002 -25.4004 48 -52.4004 48
c-12.0996 0 -23.5 -4.7998 -32.0996 -13.7002l-65.2002 -65.7998c7.2998 -7.5 13.5996 -16 18.3994 -25.7002zM208 304c0 44.2002 35.7998 80 80 80s80 -35.7998 80 -80s-35.7998 -80 -80 -80s-80 35.7998 -80 80zM320 304c0 17.5996 -14.4004 32 -32 32
s-32 -14.4004 -32 -32s14.4004 -32 32 -32s32 14.4004 32 32zM176.7 310.7c-30 14.5 -48.7002 34.7998 -48.7002 57.2998c0 44.2002 71.5996 80 160 80s160 -35.7998 160 -80c0 -22.5 -18.7002 -42.7998 -48.5 -57.2998l-0.200195 0.0996094
c-0.799805 13 -3.89941 25.2002 -8.7998 36.6006c10.9004 6 17.5996 13 17.5996 20.5996c0 22.0996 -53.6992 40 -120 40c-66.2998 0 -120 -17.9004 -120 -40c0 -7.59961 6.60059 -14.5996 17.6006 -20.5996c-4.90039 -11.4004 -8 -23.6006 -8.7998 -36.6006z" />
    <glyph glyph-name="baby" unicode="&#xf77c;" horiz-adv-x="384" 
d="M192 288c-44.2002 0 -80 35.7998 -80 80s35.7998 80 80 80s80 -35.7998 80 -80s-35.7998 -80 -80 -80zM327.6 231.8c-17.3994 -12.2002 -36.0996 -21.3994 -55.3994 -28.5v-40.2002c9.39941 -5.59961 16 -15.3994 16 -27.0996v-18.7002
c0 -6.2002 -2.2998 -11.8994 -5.60059 -17l38.6006 -48.2998c9.09961 -11.4004 9.39941 -27.5 0.599609 -39.2002l-48 -64c-6.2998 -8.39941 -15.7998 -12.7998 -25.5996 -12.7998c-6.7002 0 -13.4004 2.09961 -19.2002 6.40039
c-14.2002 10.5996 -17 30.6992 -6.40039 44.7998l33.1006 44.2002l-18.2998 22.8994c-11.3008 -9 -25.2002 -14.2002 -39.8008 -14.2002h-11c-14.5996 0 -28.5 5.2002 -39.7998 14.2002l-18.2998 -22.8994l33.0996 -44.2002
c10.6006 -14.1006 7.80078 -34.2002 -6.39941 -44.7998c-5.7998 -4.30078 -12.5 -6.40039 -19.2002 -6.40039c-9.7002 0 -19.2998 4.40039 -25.5996 12.7998l-48 64c-8.7002 11.7002 -8.5 27.7998 0.599609 39.2002l38.4004 48.2998
c-3.30078 5.10059 -5.60059 10.7998 -5.60059 17v18.7002c0 11.7002 6.60059 21.5 16 27.0996v40.2002c-19.3994 7.10059 -38.2002 16.2998 -55.5996 28.5l-42.7998 30c-14.5 10.2002 -18 30.1006 -7.80078 44.6006c10.1006 14.3994 30.1006 18 44.6006 7.7998l42.7998 -30
c58.9004 -41.2998 138.9 -41.2998 197.8 0l42.7998 30c14.5 10.2002 34.5 6.7002 44.6006 -7.7998c10.2002 -14.5 6.7002 -34.5 -7.7998 -44.6006zM256 117.3v18.7002h-128v-18.7002l35.9004 -35.8994c6 -6.10059 14.0996 -9.40039 22.5996 -9.40039h11
c8.5 0 16.5996 3.40039 22.5996 9.40039z" />
    <glyph glyph-name="candy-cane" unicode="&#xf786;" horiz-adv-x="512" 
d="M497.1 352.6c36 -76.0996 4.80078 -171.199 -70.8994 -216.5l-325.7 -193.6c-7.2002 -4.2002 -15.2998 -6.5 -23.5996 -6.5c-16.1006 0 -31.2002 8.59961 -39.5 22.4004l-30.8008 51.5c-6.2998 10.5 -8.09961 22.8994 -5.09961 34.7998c3 11.8994 10.4004 22 21 28.2998
l331.4 197c15.6992 9.40039 1.59961 33.5996 -14.4004 24l-25.7998 -15.4004c-23.2002 -13.7998 -51 -4.2998 -63.1006 15.9004l-30.7998 51.5c-13 21.7998 -5.89941 50.0996 15.9004 63.0996l25.7998 15.4004c25.7998 15.4004 55.0996 23.5 85 23.5
c65 0 122.7 -36.5996 150.6 -95.4004zM212.4 64.7002l64.1992 38.2002l-56.3994 31.7998l-64.2002 -38.2002zM324.2 131.2l59.2998 35.3994l-56.2998 31.7002l-59.4004 -35.2998zM395.1 320v-0.0996094h62.9004c-1.40039 4.09961 -2.40039 8.19922 -4.2998 12.0996
c-14.2002 30.0996 -39.4004 51.7002 -69.5 61.7002v-62.9004c4.09961 -3.09961 7.7002 -6.7002 10.8994 -10.7998zM336.1 399.3c-31.3994 -2.7998 -46.3994 -13.8994 -74 -30.3994l28.9004 -48.3008c25.7998 15.8008 29.2002 19.2002 45.0996 22v56.7002zM108.4 68.2002
l-59.6006 -35.4004l28.9004 -48.2998l87.2002 51.9004zM426.6 197.4c20.6006 20.6992 33.4004 47.0996 36.5 74.5996h-55.3994c-3.7002 -22.2002 -15 -34.7998 -32.9004 -45.4004z" />
    <glyph glyph-name="carrot" unicode="&#xf787;" horiz-adv-x="512" 
d="M369.8 305.8c47.5 22.7002 103.7 11 142.3 -35.3994c-36.6992 -44.2002 -89.1992 -56.6006 -135.1 -37.9004c10.7998 -31.2998 9.59961 -66.7998 -6.09961 -98.9004c-13.2002 -27 -34.6006 -47.3994 -59.6006 -59.5996l-277.6 -135.5
c-3.40039 -1.59961 -6.90039 -2.40039 -10.2998 -2.40039c-8.60059 0 -16.9004 4.80078 -21 13.1006c-3.30078 6.7002 -3 14.2998 0 20.5l135.5 277.5c22.5 46 68.5996 72.7998 116.6 72.7998c14.2002 0 28.5 -3.2002 42.5 -8.09961
c-19.2998 46.0996 -7.09961 99.1992 37.4004 136.1c46.3994 -38.4004 58.0996 -94.7002 35.3994 -142.2zM327.7 154.6c9.59961 19.5 10.8994 41.7002 3.89941 62.2002c-7.09961 20.6006 -21.7998 37.2002 -41.3994 46.7998c-11.2998 5.5 -23.2998 8.30078 -35.7002 8.30078
c-21.0996 0 -40.2998 -8.40039 -55.0996 -22.1006l41.5996 -40.8994c9.40039 -9.30078 9.40039 -24.5 0 -33.9004c-4.7002 -4.7002 -10.7998 -7 -17 -7s-12.2998 2.2998 -17 7l-34 34.7002l-96.0996 -196.8l110.399 54l-12.2002 12.1992
c-9.39941 9.30078 -9.2998 24.5 0 33.9004c9.30078 9.40039 24.5 9.40039 33.9004 0l23.9004 -23.9004l57.2998 28c16.5 8 29.3994 21 37.5 37.5z" />
    <glyph glyph-name="horse-head" unicode="&#xf7ab;" horiz-adv-x="512" 
d="M506.9 179.4c10.6992 -27.4004 4.19922 -58.6006 -16.6006 -79.4004c-2 -2 4 3.09961 -38.7998 -32.2998c-13.7998 -12.7002 -31.5 -19.7002 -50.2998 -19.7002h-27.2998c-23.4004 0 -45.9004 11.2002 -60 30l-5.5 7.40039
c-3.60059 -1.10059 -1.60059 -0.600586 -3.90039 -1.60059l39.0996 -62.2002l0.5 -0.899414l0.5 -0.900391c9.90039 -17.2998 9.80078 -38.7002 -0.199219 -55.8994c-9.90039 -17.2002 -28.5 -27.9004 -48.4004 -27.9004h-232c-35.2998 0 -64 28.7002 -64 64v76
c0 115 19 253.8 166.8 306.9l164.8 61.7998c30.4004 10.8994 64.2002 -6.5 72.4004 -38c5.7002 -21.4004 5.09961 -42.4004 -1 -61.2998c32.5 -25.6006 103.1 -164.101 103.9 -166zM456.4 134c7.2998 7.2998 9.59961 18.2002 5.7998 27.7998l-56.7998 101.5
c-15 28.5 -40.9004 57.7002 -75.5 64.4004c14.5996 8.59961 37.5996 29.2002 27.6992 66.8994c-0.599609 2.40039 -4.19922 7 -9.69922 5l-164.301 -61.5996c-106.399 -38.2998 -135.6 -132.1 -135.6 -262v-76c0 -8.7998 7.2002 -16 16 -16h231.9
c6.09961 0 9.89941 6.7002 6.89941 12l-48.0996 76.4004c-1.2998 -0.100586 -2.60059 -0.400391 -4 -0.400391c-51.2998 0 -97.7002 28.5996 -121.101 74.7002c-3.09961 6.2002 -1.89941 13.5996 3.10059 18.5996l12.0996 12.1006
c3.10059 3 7.10059 4.69922 11.2998 4.69922c6.30078 0 12.1006 -3.69922 14.6006 -9.5c14.0996 -32 45.5 -52.5996 80.0996 -52.5996c30.2002 0 49.1006 13.7998 67.7002 32.4004l33.7002 -45.5c5.09961 -6.80078 13.2002 -10.8008 21.7002 -10.8008h27.2998
c6.89941 0 13.5 2.7002 18.3994 7.60059zM296 272c13.2998 0 24 -10.7998 24 -24c0 -13.2998 -10.7002 -24 -24 -24s-24 10.7002 -24 24s10.7002 24 24 24z" />
    <glyph glyph-name="lights-holiday" unicode="&#xf7b2;" 
d="M637.8 362.3c4.60059 -8 1.7002 -18.0996 -6.59961 -22.5c-45.9004 -24.8994 -97.7998 -43.7002 -153 -56.2002l17.8994 -39.2998c5.40039 -0.599609 10.5 -3.7002 12.9004 -9l9.2002 -20.2002c25.5996 0.800781 49.5996 -12.5 65.2002 -46.6992
c21.8994 -48.2002 -4.30078 -129.7 -17.4004 -135.7s-91.7998 27.7998 -113.7 76.0996c-15.5 34.2998 -9.7998 61.1006 7.7002 79.7998l-9.2002 20.2002c-2.39941 5.2998 -1.39941 11.1006 1.7002 15.6006l-22.7998 50.0996c-28 -4.2002 -56.7002 -6.90039 -85.7998 -7.7998
v-45.2002c4.69922 -2.7002 8 -7.59961 8 -13.5v-22.2002c23.5996 -9.7998 40 -31.8994 40 -69.5c0 -53.0996 -57.6006 -116.399 -72 -116.399c-14.4004 0 -72 63.3994 -72 116.399c0 37.7002 16.3994 59.7002 40 69.5v22.2002c0 5.7998 3.2998 10.7002 8 13.5v45.2002
c-29 0.899414 -57.7002 3.5 -85.8008 7.7998l-22.7998 -50.0996c3.10059 -4.40039 4.10059 -10.3008 1.7002 -15.6006l-9.2002 -20.2002c17.5 -18.6992 23.2998 -45.5996 7.7002 -79.7998c-21.9004 -48.2002 -100.6 -82.0996 -113.7 -76.0996
c-13.0996 5.89941 -39.2998 87.3994 -17.3994 135.7c15.5996 34.1992 39.5996 47.5 65.1992 46.7998l9.2002 20.2002c2.40039 5.2998 7.5 8.39941 12.9004 9l17.8994 39.2998c-55.2998 12.5 -107.199 31.2998 -153 56.2002c-8.09961 4.39941 -11.0996 14.5 -6.39941 22.3994
l8.09961 13.7998c4.5 7.60059 14.1006 10.1006 21.7998 5.90039c80.8008 -43.7998 182.301 -67.5996 287.9 -67.5996s207.1 24 287.9 67.6992c7.69922 4.10059 17.3994 1.7002 21.7998 -5.89941zM143.8 128.7c9.7998 21.3994 4.40039 28.2998 -10.3994 35
c-14.8008 6.7998 -23.6006 6.2002 -33.3008 -15.2002c-6.5 -14.2002 -4.5 -39 -0.199219 -58.4004c17.3994 9.60059 37.3994 24.4004 43.8994 38.6006zM506.6 163.8c-14.7998 -6.7998 -20.1992 -13.7002 -10.3994 -35c6.5 -14.2002 26.5 -29 43.8994 -38.5996
c4.2002 19.3994 6.30078 44.2002 -0.199219 58.3994c-9.7002 21.4004 -18.5 21.9004 -33.3008 15.2002zM320 63.0996c11.9004 15.9004 24 37.7002 24 53.3008c0 23.5 -7.7002 27.5996 -24 27.5996s-24 -4.09961 -24 -27.5996c0 -15.6006 12.0996 -37.4004 24 -53.3008z" />
    <glyph glyph-name="mug-marshmallows" unicode="&#xf7b7;" horiz-adv-x="512" 
d="M400 288c61.7998 0 112 -50.2002 112 -112s-50.2002 -112 -112 -112h-16c0 -53 -43 -96 -96 -96h-192c-53 0 -96 43 -96 96v192c0 17.7002 14.2998 32 32 32v79.5c0 17.7002 14.2998 32 32 32h128c13.5996 0 25 -8.5 29.5996 -20.4004l27.4004 27.4004
c6.40039 6.2998 14.7002 9.5 23 9.5s16.7002 -3.2002 23 -9.5l79.5 -79.5c10.5996 -10.7002 11.7998 -26.5996 4.59961 -39h20.9004zM272 361.6l-57.5 -57.5996l16 -16h83.0996l16 16zM80 351.5v-63.5996h84.9004c-7.2002 12.5 -6 28.3994 4.59961 39l6.5 6.5v18.0996h-96z
M336 64v176h-192v-56c0 -13.2998 -10.7002 -24 -24 -24s-24 10.7002 -24 24v56h-48v-176c0 -26.5 21.5 -48 48 -48h192c26.5 0 48 21.5 48 48zM400 112c35.2998 0 64 28.7002 64 64s-28.7002 64 -64 64h-16v-128h16z" />
    <glyph glyph-name="books-medical" unicode="&#xf7e8;" 
d="M256 192c0 -70.6455 -57.3545 -128 -128 -128s-128 57.3545 -128 128s57.3545 128 128 128s128 -57.3545 128 -128zM106.67 133.33c0 -2.94141 2.38867 -5.33008 5.33008 -5.33008h32c2.94141 0 5.33008 2.38867 5.33008 5.33008v37.3398h37.3398
c2.94141 0 5.33008 2.38867 5.33008 5.33008v32c0 2.94141 -2.38867 5.33008 -5.33008 5.33008h-37.3398v37.3398c0 2.94141 -2.38867 5.33008 -5.33008 5.33008h-32c-2.94141 0 -5.33008 -2.38867 -5.33008 -5.33008v-37.3398h-37.3398
c-2.94141 0 -5.33008 -2.38867 -5.33008 -5.33008v-32c0 -2.94141 2.38867 -5.33008 5.33008 -5.33008h37.3398v-37.3398zM639.46 -6.58984c0.34668 -1.31152 0.52832 -2.68164 0.52832 -4.10156c0 -7.40332 -5.01953 -13.6436 -11.8379 -15.499l-15.46 -4.13965
c-1.32227 -0.354492 -2.69727 -0.55957 -4.13086 -0.55957c-6.30469 0 -11.7637 3.6543 -14.3691 8.95996c-13.6406 0.689453 -66.3809 -13.4404 -77.8506 -20.8604c0.0234375 -0.356445 0.0302734 -0.699219 0.0302734 -1.06152
c0 -7.39941 -5.0332 -13.6318 -11.8604 -15.458l-15.46 -4.14062c-1.32324 -0.355469 -2.70801 -0.541016 -4.14355 -0.541016c-7.39648 0 -13.627 5.0293 -15.4561 11.8516l-101.45 384.199v-364.06c0 -17.6699 -14.3301 -32 -40 -32h-240c-9.66992 0 -24 14.3301 -24 32
v77.5596c14.9102 -6.54004 31.1396 -10.2393 48 -11.9395v-49.6201h80v61.5596c18.873 8.2666 35.7471 19.9541 50 34.4404h78v224h-78c-14.2529 14.4863 -31.127 26.1738 -50 34.4404v61.5596h-80v-49.6201c-16.8604 -1.7002 -33.0898 -5.37988 -48 -11.9395v77.5596
c0 17.6699 14.3301 32 24 32h240c25.6699 0 40 -14.3301 40 -32v-4.7002l11.3203 3.03027c1.32129 0.354492 2.69727 0.55957 4.12988 0.55957c6.30566 0 11.7637 -3.6543 14.3701 -8.95996c13.6299 -0.689453 66.3799 13.4404 77.8496 20.8604
c-0.0244141 0.359375 -0.03125 0.706055 -0.03125 1.07129c0 7.39941 5.03418 13.6328 11.8613 15.459l15.5 4.12988c1.30957 0.34668 2.67871 0.529297 4.09766 0.529297c7.3916 0 13.6191 -5.02344 15.4521 -11.8398zM320 -16v48h-80v-48h80zM320 352v48h-80v-48h80z
M506 -3c16.5195 7.2998 60.5 18.8896 77.2598 20.7002l-97.2598 369.3c-16.5195 -7.2998 -60.5 -18.8896 -77.2598 -20.6904z" />
    <glyph glyph-name="mailbox" unicode="&#xf813;" horiz-adv-x="576" 
d="M432 384c79.4756 0 144 -64.5244 144 -144v-208c0 -17.6611 -14.3389 -32 -32 -32h-512c-17.6611 0 -32 14.3389 -32 32v208c0 79.4756 64.5244 144 144 144h288zM240 48v192c0 52.9834 -43.0166 96 -96 96s-96 -43.0166 -96 -96v-192h192zM528 48v192
c-0.0546875 52.958 -43.042 95.9453 -96 96h-181.37c22.9902 -25.5195 37.3701 -58.9502 37.3701 -96v-192h240zM464 256c8.83105 0 16 -7.16895 16 -16v-64c0 -8.83105 -7.16895 -16 -16 -16h-32c-8.83105 0 -16 7.16895 -16 16v32h-72c-4.41504 0 -8 3.58496 -8 8v32
c0 4.41504 3.58496 8 8 8h120zM184 256c4.41504 0 8 -3.58496 8 -8v-48c0 -4.41504 -3.58496 -8 -8 -8h-80c-4.41504 0 -8 3.58496 -8 8v48c0 4.41504 3.58496 8 8 8h80z" />
    <glyph glyph-name="drone" unicode="&#xf85f;" horiz-adv-x="512" 
d="M339.41 355.67l-49.7705 -35.9297c-0.9375 5.31543 -1.49316 10.7119 -1.63965 16.2598c0 61.8145 50.1855 112 112 112s112 -50.1855 112 -112s-50.1855 -112 -112 -112c-5.54785 0.146484 -10.9443 0.702148 -16.2598 1.63965l35.9297 49.7705
c25.707 8.24316 44.3467 32.3467 44.3467 60.7764c0 35.2236 -28.5967 63.8203 -63.8203 63.8203c-28.4297 0 -52.543 -18.6299 -60.7861 -44.3369zM111 79.7998l49 67.8604v88.6797l-49 67.8604c-17.1875 0.486328 -31.0068 14.5771 -31.0068 31.8818
c0 17.6113 14.2979 31.9102 31.9102 31.9102c17.3047 0 31.4102 -13.8047 31.8965 -30.9922l67.8604 -49h88.6797l67.8604 49c0.486328 17.1875 14.5771 31.0068 31.8818 31.0068c17.6113 0 31.9102 -14.2979 31.9102 -31.9102
c0 -17.3047 -13.8047 -31.4102 -30.9922 -31.8965l-49 -67.8604v-88.6797l49 -67.8604c17.1875 -0.486328 31.0068 -14.5771 31.0068 -31.8818c0 -17.6113 -14.2979 -31.9102 -31.9102 -31.9102c-17.3047 0 -31.4102 13.8047 -31.8965 30.9922l-67.8604 49h-88.6797
l-67.8604 -49c-0.486328 -17.1875 -14.5771 -31.0068 -31.8818 -31.0068c-17.6113 0 -31.9102 14.2979 -31.9102 31.9102c0 17.3047 13.8047 31.4102 30.9922 31.8965zM208 240v-96h96v96h-96zM400 160c61.8145 0 112 -50.1855 112 -112s-50.1855 -112 -112 -112
s-112 50.1855 -112 112c0.146484 5.54785 0.702148 10.9443 1.63965 16.2598l49.7705 -35.9199c8.24023 -25.7129 32.3467 -44.3574 60.7803 -44.3574c35.2227 0 63.8193 28.5967 63.8193 63.8203c0 28.4307 -18.6309 52.5449 -44.3398 60.7871l-35.9297 49.7705
c5.31543 0.9375 10.7119 1.49316 16.2598 1.63965zM112 224c-61.8145 0 -112 50.1855 -112 112s50.1855 112 112 112s112 -50.1855 112 -112c-0.146484 -5.54785 -0.702148 -10.9443 -1.63965 -16.2598l-49.7705 35.9297c-8.24219 25.709 -32.3467 44.3496 -60.7773 44.3496
c-35.2236 0 -63.8203 -28.5967 -63.8203 -63.8193c0 -28.4346 18.6348 -52.5498 44.3477 -60.79l35.9199 -49.7705c-5.31543 -0.9375 -10.7119 -1.49316 -16.2598 -1.63965zM172.59 28.3301l49.7705 35.9297c0.9375 -5.31543 1.49316 -10.7119 1.63965 -16.2598
c0 -61.8145 -50.1855 -112 -112 -112s-112 50.1855 -112 112s50.1855 112 112 112c5.54785 -0.146484 10.9443 -0.702148 16.2598 -1.63965l-35.9297 -49.7705c-25.707 -8.24316 -44.3467 -32.3467 -44.3467 -60.7764c0 -35.2236 28.5967 -63.8203 63.8203 -63.8203
c28.4297 0 52.543 18.6299 60.7861 44.3369z" />
    <glyph glyph-name="fan" unicode="&#xf863;" horiz-adv-x="512" 
d="M256 224c17.6611 0 32 -14.3389 32 -32s-14.3389 -32 -32 -32s-32 14.3389 -32 32s14.3389 32 32 32zM511.69 182.94c0.213867 -1.6543 0.326172 -3.33008 0.326172 -5.04297c0 -10.6182 -4.25293 -20.252 -11.1465 -27.2871
c-6.99414 -7.16992 -16.7227 -11.6182 -27.5205 -11.6182c-1.28906 0 -2.56348 0.0634766 -3.81934 0.1875l-77.1602 7.78027c2.38965 -13.707 3.63086 -27.5742 3.63086 -41.9609c0 -0.179688 -0.000976562 -0.359375 -0.000976562 -0.539062
c0 -85.1797 -64.0898 -157.46 -149 -168.15c-1.60938 -0.205078 -3.20703 -0.30957 -4.87109 -0.30957h-0.128906c-0.0302734 0 -0.0664062 -0.00292969 -0.0966797 -0.00292969c-10.6113 0 -20.2393 4.24707 -27.2734 11.1328
c-7.17969 6.95508 -11.6387 16.6592 -11.6387 27.4346c0 1.32227 0.0673828 2.62793 0.199219 3.91602l7.7793 77.1494c-13.7051 -2.38965 -27.5693 -3.63086 -41.9541 -3.63086c-0.181641 0 -0.363281 0.000976562 -0.545898 0.000976562
c-85.1895 0 -157.47 64.0801 -168.16 149.08c-0.212891 1.65137 -0.324219 3.30176 -0.324219 5.01074c0 10.6045 4.23535 20.2275 11.1045 27.2695c6.97852 7.17285 16.6973 11.625 27.4854 11.625c1.31543 0 2.61426 -0.0664062 3.89453 -0.195312l77.1602 -7.78027
c-2.38965 13.708 -3.63086 27.5742 -3.63086 41.9609c0 0.179688 0.000976562 0.359375 0.000976562 0.539062c0 85.1807 64.0898 157.49 149.09 168.15c1.68066 0.222656 3.35547 0.375 5.0957 0.375c21.415 0 38.8008 -17.3857 38.8008 -38.8008
c0 -1.25293 -0.0595703 -2.49121 -0.176758 -3.71484l-7.7793 -77.1494c13.7051 2.38965 27.5693 3.63086 41.9541 3.63086c0.181641 0 0.363281 -0.000976562 0.545898 -0.000976562c85.1895 0 157.47 -64.1104 168.16 -149.06zM324.75 202l137.4 -13.8896
c-12.1807 55.3701 -61.3408 95.8398 -118.591 95.8398c-22.25 0 -43 -3.44043 -61.6592 -10.2197l-35.9004 -13l13.8701 137.38c-55.3701 -12.2207 -95.8398 -61.3408 -95.8398 -118.591c0 -22.25 3.43945 -43 10.2197 -61.6494l13 -35.9102l-137.37 13.8799
c12.21 -55.3701 61.3398 -95.8398 118.59 -95.8398c22.25 0 43 3.42969 61.6299 10.2402l35.9004 13l-13.8701 -137.391c55.3701 12.1904 95.8398 61.3408 95.8398 118.591c0 22.25 -3.43945 43 -10.2197 61.6494z" />
    <glyph glyph-name="phone-square-alt" unicode="&#xf87b;" horiz-adv-x="448" 
d="M344.73 139c4.12598 -2.01855 7.0166 -6.16211 7.26953 -11c-0.0185547 -0.925781 -0.125 -1.8252 -0.30957 -2.7002l-12 -52c-1.40234 -5.21484 -6.08398 -9.09961 -11.6904 -9.2998c-128 0 -232 103.77 -232 232c0.200195 5.60645 4.08496 10.2881 9.2998 11.6904
l52 12c0.875 0.18457 1.77441 0.291016 2.7002 0.30957c4.83789 -0.25293 8.98145 -3.14355 11 -7.26953l24 -56c0.584961 -1.46777 0.938477 -3.07129 1 -4.73047c-0.202148 -3.66797 -1.85547 -6.96094 -4.40039 -9.29004l-30.3096 -24.7998
c18.3809 -38.959 49.6611 -70.2393 88.6201 -88.6201l24.7998 30.3096c2.3291 2.54492 5.62207 4.19824 9.29004 4.40039c1.6582 -0.0673828 3.26074 -0.419922 4.73047 -1zM400 416c26.4922 0 48 -21.5078 48 -48v-352c0 -26.4922 -21.5078 -48 -48 -48h-352
c-26.4922 0 -48 21.5078 -48 48v352c0 26.4922 21.5078 48 48 48h352zM400 22v340c0 3.31152 -2.68848 6 -6 6h-340c-3.31152 0 -6 -2.68848 -6 -6v-340c0 -3.31152 2.68848 -6 6 -6h340c3.31152 0 6 2.68848 6 6z" />
    <glyph glyph-name="border-center-h" unicode="&#xf89c;" horiz-adv-x="448" 
d="M432 216c8.83105 0 16 -7.16895 16 -16v-16c0 -8.83105 -7.16895 -16 -16 -16h-416c-8.83105 0 -16 7.16895 -16 16v16c0 8.83105 7.16895 16 16 16h416zM112 360c-8.83105 0 -16 7.16895 -16 16v24c0 8.83105 7.16895 16 16 16h24c8.83105 0 16 -7.16895 16 -16v-24
c0 -8.83105 -7.16895 -16 -16 -16h-24zM112 -32c-8.83105 0 -16 7.16895 -16 16v24c0 8.83105 7.16895 16 16 16h24c8.83105 0 16 -7.16895 16 -16v-24c0 -8.83105 -7.16895 -16 -16 -16h-24zM212 -32c-8.83105 0 -16 7.16895 -16 16v24c0 8.83105 7.16895 16 16 16h24
c8.83105 0 16 -7.16895 16 -16v-24c0 -8.83105 -7.16895 -16 -16 -16h-24zM312 -32c-8.83105 0 -16 7.16895 -16 16v24c0 8.83105 7.16895 16 16 16h24c8.83105 0 16 -7.16895 16 -16v-24c0 -8.83105 -7.16895 -16 -16 -16h-24zM212 264c-8.83105 0 -16 7.16895 -16 16v24
c0 8.83105 7.16895 16 16 16h24c8.83105 0 16 -7.16895 16 -16v-24c0 -8.83105 -7.16895 -16 -16 -16h-24zM312 360c-8.83105 0 -16 7.16895 -16 16v24c0 8.83105 7.16895 16 16 16h24c8.83105 0 16 -7.16895 16 -16v-24c0 -8.83105 -7.16895 -16 -16 -16h-24zM212 360
c-8.83105 0 -16 7.16895 -16 16v24c0 8.83105 7.16895 16 16 16h24c8.83105 0 16 -7.16895 16 -16v-24c0 -8.83105 -7.16895 -16 -16 -16h-24zM212 64c-8.83105 0 -16 7.16895 -16 16v24c0 8.83105 7.16895 16 16 16h24c8.83105 0 16 -7.16895 16 -16v-24
c0 -8.83105 -7.16895 -16 -16 -16h-24zM432 24c8.83105 0 16 -7.16895 16 -16v-24c0 -8.83105 -7.16895 -16 -16 -16h-24c-8.83105 0 -16 7.16895 -16 16v24c0 8.83105 7.16895 16 16 16h24zM432 120c8.83105 0 16 -7.16895 16 -16v-24c0 -8.83105 -7.16895 -16 -16 -16h-24
c-8.83105 0 -16 7.16895 -16 16v24c0 8.83105 7.16895 16 16 16h24zM432 320c8.83105 0 16 -7.16895 16 -16v-24c0 -8.83105 -7.16895 -16 -16 -16h-24c-8.83105 0 -16 7.16895 -16 16v24c0 8.83105 7.16895 16 16 16h24zM432 416c8.83105 0 16 -7.16895 16 -16v-24
c0 -8.83105 -7.16895 -16 -16 -16h-24c-8.83105 0 -16 7.16895 -16 16v24c0 8.83105 7.16895 16 16 16h24zM16 64c-8.83105 0 -16 7.16895 -16 16v24c0 8.83105 7.16895 16 16 16h24c8.83105 0 16 -7.16895 16 -16v-24c0 -8.83105 -7.16895 -16 -16 -16h-24zM16 264
c-8.83105 0 -16 7.16895 -16 16v24c0 8.83105 7.16895 16 16 16h24c8.83105 0 16 -7.16895 16 -16v-24c0 -8.83105 -7.16895 -16 -16 -16h-24zM16 360c-8.83105 0 -16 7.16895 -16 16v24c0 8.83105 7.16895 16 16 16h24c8.83105 0 16 -7.16895 16 -16v-24
c0 -8.83105 -7.16895 -16 -16 -16h-24zM16 -32c-8.83105 0 -16 7.16895 -16 16v24c0 8.83105 7.16895 16 16 16h24c8.83105 0 16 -7.16895 16 -16v-24c0 -8.83105 -7.16895 -16 -16 -16h-24z" />
    <glyph glyph-name="border-center-v" unicode="&#xf89d;" horiz-adv-x="448" 
d="M248 -16c0 -8.83105 -7.16895 -16 -16 -16h-16c-8.83105 0 -16 7.16895 -16 16v416c0 8.83105 7.16895 16 16 16h16c8.83105 0 16 -7.16895 16 -16v-416zM392 304c0 8.83105 7.16895 16 16 16h24c8.83105 0 16 -7.16895 16 -16v-24c0 -8.83105 -7.16895 -16 -16 -16h-24
c-8.83105 0 -16 7.16895 -16 16v24zM0 304c0 8.83105 7.16895 16 16 16h24c8.83105 0 16 -7.16895 16 -16v-24c0 -8.83105 -7.16895 -16 -16 -16h-24c-8.83105 0 -16 7.16895 -16 16v24zM0 204c0 8.83105 7.16895 16 16 16h24c8.83105 0 16 -7.16895 16 -16v-24
c0 -8.83105 -7.16895 -16 -16 -16h-24c-8.83105 0 -16 7.16895 -16 16v24zM0 104c0 8.83105 7.16895 16 16 16h24c8.83105 0 16 -7.16895 16 -16v-24c0 -8.83105 -7.16895 -16 -16 -16h-24c-8.83105 0 -16 7.16895 -16 16v24zM296 204c0 8.83105 7.16895 16 16 16h24
c8.83105 0 16 -7.16895 16 -16v-24c0 -8.83105 -7.16895 -16 -16 -16h-24c-8.83105 0 -16 7.16895 -16 16v24zM392 104c0 8.83105 7.16895 16 16 16h24c8.83105 0 16 -7.16895 16 -16v-24c0 -8.83105 -7.16895 -16 -16 -16h-24c-8.83105 0 -16 7.16895 -16 16v24zM392 204
c0 8.83105 7.16895 16 16 16h24c8.83105 0 16 -7.16895 16 -16v-24c0 -8.83105 -7.16895 -16 -16 -16h-24c-8.83105 0 -16 7.16895 -16 16v24zM96 204c0 8.83105 7.16895 16 16 16h24c8.83105 0 16 -7.16895 16 -16v-24c0 -8.83105 -7.16895 -16 -16 -16h-24
c-8.83105 0 -16 7.16895 -16 16v24zM56 -16c0 -8.83105 -7.16895 -16 -16 -16h-24c-8.83105 0 -16 7.16895 -16 16v24c0 8.83105 7.16895 16 16 16h24c8.83105 0 16 -7.16895 16 -16v-24zM152 -16c0 -8.83105 -7.16895 -16 -16 -16h-24c-8.83105 0 -16 7.16895 -16 16v24
c0 8.83105 7.16895 16 16 16h24c8.83105 0 16 -7.16895 16 -16v-24zM352 -16c0 -8.83105 -7.16895 -16 -16 -16h-24c-8.83105 0 -16 7.16895 -16 16v24c0 8.83105 7.16895 16 16 16h24c8.83105 0 16 -7.16895 16 -16v-24zM448 -16c0 -8.83105 -7.16895 -16 -16 -16h-24
c-8.83105 0 -16 7.16895 -16 16v24c0 8.83105 7.16895 16 16 16h24c8.83105 0 16 -7.16895 16 -16v-24zM96 400c0 8.83105 7.16895 16 16 16h24c8.83105 0 16 -7.16895 16 -16v-24c0 -8.83105 -7.16895 -16 -16 -16h-24c-8.83105 0 -16 7.16895 -16 16v24zM296 400
c0 8.83105 7.16895 16 16 16h24c8.83105 0 16 -7.16895 16 -16v-24c0 -8.83105 -7.16895 -16 -16 -16h-24c-8.83105 0 -16 7.16895 -16 16v24zM392 400c0 8.83105 7.16895 16 16 16h24c8.83105 0 16 -7.16895 16 -16v-24c0 -8.83105 -7.16895 -16 -16 -16h-24
c-8.83105 0 -16 7.16895 -16 16v24zM0 400c0 8.83105 7.16895 16 16 16h24c8.83105 0 16 -7.16895 16 -16v-24c0 -8.83105 -7.16895 -16 -16 -16h-24c-8.83105 0 -16 7.16895 -16 16v24z" />
  </font>
</defs>
</svg>
