<?xml version="1.0" standalone="no"?>
<!DOCTYPE svg PUBLIC "-//W3C//DTD SVG 1.1//EN" "http://www.w3.org/Graphics/SVG/1.1/DTD/svg11.dtd" >
<svg xmlns="http://www.w3.org/2000/svg" xmlns:xlink="http://www.w3.org/1999/xlink" version="1.1">
<metadata>
Created by FontForge 20201107 at Tue Mar 16 10:16:46 2021
 By Robert Madole
Copyright (c) Font Awesome
</metadata>
<!-- Font Awesome Pro 5.15.3 by @fontawesome - https://fontawesome.com License - https://fontawesome.com/license (Commercial License) --><defs>
<font id="FontAwesome5Pro-Regular" horiz-adv-x="512" >
  <font-face 
    font-family="Font Awesome 5 Pro Regular"
    font-weight="400"
    font-stretch="normal"
    units-per-em="512"
    panose-1="2 0 5 3 0 0 0 0 0 0"
    ascent="448"
    descent="-64"
    bbox="-0.00905595 -64.0098 640.2 448.001"
    underline-thickness="25"
    underline-position="-50"
    unicode-range="U+0020-F8FF"
  />
    <missing-glyph />
    <glyph glyph-name="volume-down" unicode="&#xf027;" horiz-adv-x="384" 
d="M338.23 268.87c28.2393 -15.54 45.7793 -45 45.7793 -76.8701s-17.54 -61.3203 -45.7695 -76.8701c-11.5605 -6.34961 -26.1807 -2.20996 -32.6104 9.4502c-6.38965 11.6104 -2.16016 26.2002 9.4502 32.6104c12.9004 7.08984 20.9199 20.4395 20.9199 34.8096
s-8.01953 27.7197 -20.9297 34.8096c-11.6104 6.41016 -15.8398 21 -9.4502 32.6104c6.41992 11.6104 21.0303 15.7803 32.6104 9.4502zM231.81 384c12.3203 0 24.1904 -9.50977 24.1904 -24.0195v-335.961c0 -14.5 -11.8604 -24.0195 -24.1904 -24.0195
c-5.89941 0 -11.9092 2.17969 -16.7793 7.0498l-88.9707 88.9502h-102.06c-13.2598 0 -24 10.75 -24 24v144c0 13.2598 10.7402 24 24 24h102.06l88.9707 88.9502c4.85938 4.87012 10.8701 7.0498 16.7793 7.0498zM208 81.9502v220.1l-62.0596 -62.0498h-97.9404v-96
h97.9404z" />
    <glyph glyph-name="volume-up" unicode="&#xf028;" horiz-adv-x="576" 
d="M338.23 268.88c28.2393 -15.5498 45.7793 -45.0098 45.7793 -76.8799s-17.54 -61.3203 -45.7695 -76.8701c-11.5605 -6.34961 -26.1807 -2.20996 -32.6104 9.4502c-6.38965 11.6104 -2.16016 26.2002 9.4502 32.6104c12.9004 7.08984 20.9199 20.4395 20.9199 34.8096
c0 14.3799 -8.01953 27.7197 -20.9297 34.8203c-11.6104 6.41016 -15.8398 21 -9.4502 32.6094c6.41992 11.6104 21.0303 15.7803 32.6104 9.4502zM480 192c0 -63.0898 -32.0596 -121.09 -85.7695 -155.15c-12 -7.61914 -26.6104 -2.86914 -33.1201 7.41016
c-7.09082 11.2002 -3.78027 26.0303 7.40918 33.1201c39.75 25.2197 63.4805 68.0605 63.4805 114.62s-23.7305 89.4102 -63.4805 114.62c-11.1895 7.08984 -14.5 21.9102 -7.40918 33.1201c7.08984 11.21 21.9297 14.5 33.1201 7.41016
c53.71 -34.0605 85.7695 -92.0605 85.7695 -155.15zM448.35 428.03c79.9199 -52.4502 127.65 -140.7 127.65 -236.03s-47.7305 -183.57 -127.65 -236.02c-11.5801 -7.61035 -26.4697 -3.76074 -33.5098 6.94922c-7.33984 11.1602 -4.21973 26.1807 6.9502 33.5
c66.2695 43.4902 105.82 116.59 105.82 195.57s-39.5508 152.09 -105.82 195.57c-11.1699 7.33008 -14.29 22.3398 -6.9502 33.5098c7.33008 11.1895 22.3398 14.2803 33.5098 6.9502zM231.81 384c12.3203 0 24.1904 -9.50977 24.1904 -24.0195v-335.961
c0 -14.5 -11.8604 -24.0195 -24.1904 -24.0195c-5.89941 0 -11.9092 2.19043 -16.7793 7.0498l-88.9707 88.9502h-102.06c-13.2598 0 -24 10.75 -24 24v144c0 13.2598 10.7402 24 24 24h102.06l88.9707 88.9502c4.85938 4.87012 10.8701 7.0498 16.7793 7.0498zM208 81.96
v220.09l-62.0596 -62.0498h-97.9404v-96h97.9404z" />
    <glyph glyph-name="chart-bar" unicode="&#xf080;" 
d="M396.8 96c-6.39941 0 -12.7998 6.40039 -12.7998 12.7998v230.4c0 6.39941 6.40039 12.7998 12.7998 12.7998h22.4004c6.39941 0 12.7998 -6.40039 12.7998 -12.7998v-230.4c0 -6.39941 -6.40039 -12.7998 -12.7998 -12.7998h-22.4004zM204.8 96
c-6.39941 0 -12.7998 6.40039 -12.7998 12.7998v198.4c0 6.39941 6.40039 12.7998 12.7998 12.7998h22.4004c6.39941 0 12.7998 -6.40039 12.7998 -12.7998v-198.4c0 -6.39941 -6.40039 -12.7998 -12.7998 -12.7998h-22.4004zM300.8 96
c-6.39941 0 -12.7998 6.40039 -12.7998 12.7998v134.4c0 6.39941 6.40039 12.7998 12.7998 12.7998h22.4004c6.39941 0 12.7998 -6.40039 12.7998 -12.7998v-134.4c0 -6.39941 -6.40039 -12.7998 -12.7998 -12.7998h-22.4004zM496 48c8.83984 0 16 -7.16016 16 -16v-16
c0 -8.83984 -7.16016 -16 -16 -16h-464c-17.6699 0 -32 14.3301 -32 32v336c0 8.83984 7.16016 16 16 16h16c8.83984 0 16 -7.16016 16 -16v-320h448zM108.8 96c-6.39941 0 -12.7998 6.40039 -12.7998 12.7998v70.4004c0 6.39941 6.40039 12.7998 12.7998 12.7998h22.4004
c6.39941 0 12.7998 -6.40039 12.7998 -12.7998v-70.4004c0 -6.39941 -6.40039 -12.7998 -12.7998 -12.7998h-22.4004z" />
    <glyph glyph-name="bullhorn" unicode="&#xf0a1;" horiz-adv-x="576" 
d="M544 263.12c19.0498 -11.0898 32 -31.4902 31.9902 -55.1299c0 -23.6299 -12.9502 -44.0303 -32 -55.1201v-152.87c0 -9.21973 -7.08008 -32 -32 -32c-7.5459 0.00683594 -14.5078 2.64062 -19.9805 7.01953l-85.0293 68.0303
c-42.7002 34.1406 -96.3203 52.9502 -150.98 52.9502h-28.0801c-2.79004 -10.21 -4.41016 -20.8896 -4.41016 -32c0 -29.0801 9.75 -55.9199 26.1504 -77.4404c15.79 -20.7197 0.149414 -50.5596 -25.9004 -50.5596h-106.279c-11.8809 0 -23.2109 6.37012 -28.4004 17.0596
c-16.2998 33.5908 -25.5605 71.1709 -25.5605 110.94l0.480469 32c-35.3496 0 -64 28.6504 -64 64v96c0 35.3496 28.6504 64 64 64h192c54.6602 0 108.28 18.8096 150.99 52.9502l85.0293 68.0303c5.79004 4.63965 12.8604 7.01953 19.9805 7.01953h0.00976562
c25.0098 0 31.9902 -23.2598 31.9902 -32.0098v-152.87zM127.73 -16h66.9893c-12.6299 24.5996 -19.21 51.7803 -19.21 80c0 10.5898 1.43066 21.2998 3.52051 32h-64.9102c-0.879883 -6.66016 -2.60059 -17.7803 -2.60059 -32c0 -27.6904 5.4502 -54.5498 16.2109 -80z
M240 144v128h-176c-8.82031 0 -16 -7.17969 -16 -16v-96c0 -8.82031 7.17969 -16 16 -16h176zM496 33.2998v349.4l-59.0303 -47.2305c-42.8096 -34.2295 -94.7998 -55.3799 -148.97 -61.46v-132.02c54.1699 -6.08008 106.16 -27.2305 148.96 -61.4502z" />
    <glyph glyph-name="briefcase" unicode="&#xf0b1;" 
d="M464 320c26.5098 0 48 -21.4902 48 -48v-256c0 -26.5098 -21.4902 -48 -48 -48h-416c-26.5098 0 -48 21.4902 -48 48v256c0 26.5098 21.4902 48 48 48h80v48c0 26.5098 21.4902 48 48 48h160c26.5098 0 48 -21.4902 48 -48v-48h80zM176 368v-48h160v48h-160zM54 272
c-3.30957 0 -6 -2.69043 -6 -6v-74h416v74c0 3.30957 -2.69043 6 -6 6h-404zM458 16c3.30957 0 6 2.69043 6 6v122h-144v-24c0 -13.25 -10.75 -24 -24 -24h-80c-13.25 0 -24 10.75 -24 24v24h-144v-122c0 -3.30957 2.69043 -6 6 -6h404z" />
    <glyph glyph-name="lightbulb" unicode="&#xf0eb;" horiz-adv-x="352" 
d="M176 368c8.83984 0 16 -7.16016 16 -16s-7.16016 -16 -16 -16c-35.2803 0 -64 -28.7002 -64 -64c0 -8.83984 -7.16016 -16 -16 -16s-16 7.16016 -16 16c0 52.9404 43.0596 96 96 96zM96.0596 -11.1699l-0.0400391 43.1797h159.961l-0.0507812 -43.1797
c-0.00976562 -3.13965 -0.939453 -6.21973 -2.67969 -8.83984l-24.5098 -36.8398c-2.95996 -4.45996 -7.95996 -7.14062 -13.3203 -7.14062h-78.8496c-5.35059 0 -10.3506 2.68066 -13.3203 7.14062l-24.5098 36.8398c-1.75 2.62012 -2.68066 5.68945 -2.68066 8.83984z
M176 448c97.2002 0 176 -78.7998 176 -176c0 -44.3701 -16.4502 -84.8496 -43.5498 -115.79c-16.6406 -18.9795 -42.7402 -58.79 -52.4199 -92.1602v-0.0498047h-48v0.0996094c0.00488281 4.98145 0.790039 9.78809 2.21973 14.3008
c5.67969 17.9893 22.9902 64.8496 62.0996 109.46c20.4102 23.29 31.6504 53.1699 31.6504 84.1396c0 70.5801 -57.4199 128 -128 128c-68.2803 0 -128.15 -54.3604 -127.95 -128c0.0898438 -30.9902 11.0703 -60.71 31.6104 -84.1396
c39.3496 -44.9004 56.5801 -91.8604 62.1699 -109.67c1.42969 -4.56055 2.13965 -9.30078 2.15039 -14.0703v-0.120117h-48v0.0595703c-9.68066 33.3604 -35.7803 73.1709 -52.4209 92.1602c-27.1094 30.9307 -43.5596 71.4102 -43.5596 115.78
c0 93.0303 73.7197 176 176 176z" />
    <glyph glyph-name="chart-pie" unicode="&#xf200;" horiz-adv-x="544" 
d="M511.96 224.8c0.629883 -9.12012 -7.0498 -16.7998 -16.1904 -16.7998h-223.77v223.77c0 8.79004 7.11035 16.2305 15.7598 16.2305c0.339844 0 0.69043 -0.00976562 1.04004 -0.0400391c119.46 -8.24023 214.92 -103.7 223.16 -223.16zM320 256h138.49
c-17.4404 67.5596 -70.9307 121.05 -138.49 138.49v-138.49zM224 160l155.86 -155.87c6.84961 -6.84961 6.33008 -18.4795 -1.57031 -24.0801c-38.29 -27.1602 -84.8604 -43.3994 -135.26 -44.0303c-0.980469 -0.00976562 -1.93066 -0.0195312 -2.91016 -0.0195312
c-126.94 0 -235.65 104.47 -239.98 231.63c-4.23926 124.771 86.8506 228.88 206.011 245.71c0.709961 0.100586 1.40918 0.150391 2.10938 0.150391c8.56055 0 15.7402 -7.37988 15.7402 -16.21v-237.28zM242.44 -15.9902
c25.6797 0.330078 50.6797 5.73047 73.8398 15.8301l-126.221 126.22l-14.0596 14.0605v216.74c-77.7305 -27.2305 -130.79 -102.2 -127.88 -187.601c3.41992 -100.42 91.3496 -185.26 192.01 -185.26zM527.79 160c9.5498 0 17.4004 -8.38965 16.0596 -17.8496
c-7.80957 -55.25 -34.4297 -104.4 -73.1299 -140.86c-2.9502 -2.78027 -6.75 -4.12988 -10.5693 -4.12988c-4.20996 0 -8.4502 1.63965 -11.6201 4.80957l-158.03 158.03h237.29z" />
    <glyph glyph-name="chart-line" unicode="&#xf201;" 
d="M117.65 170.35l-11.3105 11.3105c-6.25 6.25 -6.25 16.3799 0 22.6299l74.3398 74.3398c6.25 6.25 16.3799 6.25 22.6299 0l84.6904 -84.6895l87.5996 87.5996l-29.5 29.4902c-15.1191 15.1201 -4.40918 40.9697 16.9707 40.9697h100.93c8.83984 0 16 -7.16016 16 -16
v-100.93c0 -21.3799 -25.8496 -32.0898 -40.9697 -16.9707l-29.4902 29.5l-110.22 -110.229c-6.25 -6.25 -16.3799 -6.25 -22.6299 0l-84.6904 84.6895l-51.7197 -51.71c-6.25 -6.25 -16.3799 -6.25 -22.6299 0zM496 48c8.83984 0 16 -7.16016 16 -16v-16
c0 -8.83984 -7.16016 -16 -16 -16h-464c-17.6699 0 -32 14.3301 -32 32v336c0 8.83984 7.16016 16 16 16h16c8.83984 0 16 -7.16016 16 -16v-320h448z" />
    <glyph glyph-name="volume-slash" unicode="&#xf2e2;" horiz-adv-x="640" 
d="M633.99 -23.0195c6.91016 -5.52051 8.01953 -15.5908 2.5 -22.4902l-10 -12.4902c-5.53027 -6.88965 -15.5898 -8.00977 -22.4902 -2.49023l-598 467.51c-6.90039 5.52051 -8.01953 15.5908 -2.49023 22.4902l10 12.4902
c5.52051 6.90039 15.5898 8.00977 22.4902 2.49023zM370.23 268.87c22.6895 -12.4902 37.9492 -34.0898 43.2598 -58.5801l-70.6699 55.25c7.39941 6.58008 18.2695 8.33008 27.4102 3.33008zM400.52 306.62c-11.1895 7.09961 -14.5 21.9199 -7.40918 33.1299
c7.08984 11.21 21.9297 14.5 33.1201 7.41016c53.71 -34.0703 85.7695 -92.0703 85.7695 -155.16c0 -18.1104 -2.91992 -35.6797 -7.9502 -52.5l-41.6602 32.5703c0.970703 6.5498 1.61035 13.1797 1.61035 19.9297c0 46.5596 -23.7305 89.4004 -63.4805 114.62z
M453.79 387.58c-11.1699 7.32031 -14.29 22.3301 -6.9502 33.5c7.33008 11.1895 22.3398 14.2803 33.5098 6.9502c79.9199 -52.4502 127.65 -140.7 127.65 -236.03c0 -40.1904 -8.92969 -78.9102 -24.7305 -114.43l-39.2295 30.6699
c10.1104 26.3398 15.5703 54.6299 15.5703 83.7598c0 78.9805 -39.5508 152.09 -105.82 195.58zM288 359.98v-51.5703l-61.4697 48.0498l20.5 20.4902c4.85938 4.87012 10.8701 7.0498 16.7793 7.0498c12.3203 0 24.1904 -9.50977 24.1904 -24.0195zM240 81.9502v81.21
l48 -37.5303v-101.61c0 -14.5 -11.8604 -24.0195 -24.1904 -24.0195c-5.89941 0 -11.9092 2.17969 -16.7793 7.0498l-88.9707 88.9502h-102.06c-13.2598 0 -24 10.75 -24 24v144c0 13.2598 10.7402 24 24 24h24.3096l61.4004 -48h-61.71v-96h97.9404z" />
    <glyph glyph-name="route-highway" unicode="&#xf61a;" horiz-adv-x="448" 
d="M428.4 178.79c37.9395 -56.5205 18.5596 -139.43 -38.8105 -166.03l-165.62 -76.7598l-165.56 76.75c-57.3604 26.5996 -76.75 109.51 -38.8105 166.03c30.4707 45.4297 11.8008 104.479 -13 155.399c-3.95996 8.14062 -3.33984 17.75 1.87012 25.1299l41.1807 58.3701
c4.55957 6.45996 11.7998 10.1299 19.2793 10.1299c2.88867 0 5.66406 -0.542969 8.20996 -1.51953c15.3604 -5.87988 32.6602 -8.88965 50.25 -8.88965c29.5107 0 59.8203 8.46973 83.1699 26.1094c3.95996 2.99023 8.7002 4.49023 13.4404 4.49023
s9.48047 -1.5 13.4502 -4.48047c23.3496 -17.6396 53.6494 -26.1094 83.1602 -26.1094c17.5898 0 34.8896 3.00977 50.2598 8.88965c2.68945 1.03027 5.46973 1.52051 8.20996 1.52051c7.47949 0 14.7197 -3.66992 19.2803 -10.1406l41.1699 -58.3594
c5.20996 -7.37988 5.83008 -17 1.87012 -25.1299c-24.8008 -50.9307 -43.4805 -109.98 -13 -155.4zM78.6504 375.52l-23.0107 -32.6191c7.12988 -15.4102 16.29 -37.5703 22.0801 -62.9004h292.58c5.78027 25.3398 14.9502 47.5 22.0801 62.9004l-23.0098 32.6191
c-15.5703 -4.0293 -32.1201 -6.11914 -48.75 -6.11914c-34.9902 0 -68.6299 8.94922 -96.6104 25.4492c-27.9795 -16.5098 -61.6299 -25.4492 -96.6094 -25.4492c-16.6309 0 -33.1807 2.08984 -48.75 6.11914zM397.2 92.3701
c5.78027 20.6797 2.5498 42.9795 -8.66016 59.6602c-17.2305 25.6797 -23.5703 53.3496 -23.8301 79.9697h-281.42c-0.25 -26.6299 -6.59961 -54.2803 -23.8301 -79.96c-11.21 -16.6904 -14.4404 -39 -8.66016 -59.6699c4.74023 -16.9199 14.8701 -30.0605 27.7998 -36.0605
l145.381 -67.3994l145.43 67.3994c12.9199 5.99023 23.0596 19.1406 27.79 36.0605z" />
    <glyph glyph-name="abacus" unicode="&#xf640;" horiz-adv-x="576" 
d="M552 448c13.25 0 24 -10.7402 24 -24v-476c0 -6.62988 -5.37012 -12 -12 -12h-24c-6.62988 0 -12 5.37012 -12 12v60h-48v-24c0 -8.83984 -7.16016 -16 -16 -16h-16c-8.83984 0 -16 7.16016 -16 16v24h-192v-24c0 -8.83984 -7.16016 -16 -16 -16h-16
c-8.83984 0 -16 7.16016 -16 16v24h-48v-24c0 -8.83984 -7.16016 -16 -16 -16h-16c-8.83984 0 -16 7.16016 -16 16v24h-48v-60c0 -6.62988 -5.37012 -12 -12 -12h-24c-6.62988 0 -12 5.37012 -12 12v476c0 13.2598 10.75 24 24 24s24 -10.7402 24 -24v-48h48v24
c0 8.83984 7.16016 16 16 16h16c8.83984 0 16 -7.16016 16 -16v-24h48v24c0 8.83984 7.16016 16 16 16h16c8.83984 0 16 -7.16016 16 -16v-24h192v24c0 8.83984 7.16016 16 16 16h16c8.83984 0 16 -7.16016 16 -16v-24h48v48c0 13.2598 10.75 24 24 24zM96 328h-48v-112h48
v24c0 8.83984 7.16016 16 16 16h16c8.83984 0 16 -7.16016 16 -16v-24h48v24c0 8.83984 7.16016 16 16 16h16c8.83984 0 16 -7.16016 16 -16v-24h48v24c0 8.83984 7.16016 16 16 16h16c8.83984 0 16 -7.16016 16 -16v-24h192v112h-48v-24c0 -8.83984 -7.16016 -16 -16 -16
h-16c-8.83984 0 -16 7.16016 -16 16v24h-192v-24c0 -8.83984 -7.16016 -16 -16 -16h-16c-8.83984 0 -16 7.16016 -16 16v24h-48v-24c0 -8.83984 -7.16016 -16 -16 -16h-16c-8.83984 0 -16 7.16016 -16 16v24zM480 56h48v112h-192v-24c0 -8.83984 -7.16016 -16 -16 -16h-16
c-8.83984 0 -16 7.16016 -16 16v24h-48v-24c0 -8.83984 -7.16016 -16 -16 -16h-16c-8.83984 0 -16 7.16016 -16 16v24h-48v-24c0 -8.83984 -7.16016 -16 -16 -16h-16c-8.83984 0 -16 7.16016 -16 16v24h-48v-112h48v24c0 8.83984 7.16016 16 16 16h16
c8.83984 0 16 -7.16016 16 -16v-24h48v24c0 8.83984 7.16016 16 16 16h16c8.83984 0 16 -7.16016 16 -16v-24h192v24c0 8.83984 7.16016 16 16 16h16c8.83984 0 16 -7.16016 16 -16v-24z" />
    <glyph glyph-name="analytics" unicode="&#xf643;" horiz-adv-x="608" 
d="M416 128c17.6699 0 32 -14.3301 32 -32v-128c0 -17.6699 -14.3301 -32 -32 -32h-64c-17.6699 0 -32 14.3301 -32 32v128c0 17.6699 14.3301 32 32 32h64zM400 -16v96h-32v-96h32zM576 256c17.6699 0 32 -14.3301 32 -32v-256c0 -17.6699 -14.3301 -32 -32 -32h-64
c-17.6699 0 -32 14.3301 -32 32v256c0 17.6699 14.3301 32 32 32h64zM560 -16v224h-32v-224h32zM256 256c17.6699 0 32 -14.3301 32 -32v-256c0 -17.6699 -14.3301 -32 -32 -32h-64c-17.6699 0 -32 14.3301 -32 32v256c0 17.6699 14.3301 32 32 32h64zM240 -16v224h-32v-224
h32zM96 96c17.6699 0 32 -14.3301 32 -32v-96c0 -17.6699 -14.3301 -32 -32 -32h-64c-17.6699 0 -32 14.3301 -32 32v96c0 17.6699 14.3301 32 32 32h64zM80 -16v64h-32v-64h32zM64 192c-26.5098 0 -48 21.4902 -48 48s21.4902 48 48 48
c4.26953 0 8.33984 -0.740234 12.2803 -1.78027l101.5 101.5c-1.04004 3.94043 -1.78027 8.01074 -1.78027 12.2803c0 26.5098 21.4902 48 48 48s48 -21.4902 48 -48c0 -2.42969 -0.360352 -4.76953 -0.709961 -7.09961l95.3203 -76.2607
c5.40918 2.11035 11.2295 3.37012 17.3799 3.37012c6.14941 0 11.9795 -1.25977 17.3799 -3.37012l95.3398 76.2705c-0.339844 2.33008 -0.709961 4.66016 -0.709961 7.08984c0 26.5098 21.4902 48 48 48s48 -21.4902 48 -48s-21.4902 -48 -48 -48
c-6.15039 0 -11.9697 1.25977 -17.3604 3.36035l-95.3398 -76.2705c0.339844 -2.33008 0.709961 -4.66016 0.709961 -7.08984c0 -26.5098 -21.4902 -48 -48 -48s-48 21.4902 -48 48c0 2.42969 0.360352 4.76953 0.709961 7.09961l-95.3398 76.2705
c-5.41016 -2.11035 -11.2295 -3.37012 -17.3799 -3.37012c-4.26953 0 -8.33984 0.740234 -12.2803 1.78027l-101.5 -101.5c1.04004 -3.94043 1.78027 -8.01074 1.78027 -12.2803c0 -26.5098 -21.4902 -48 -48 -48z" />
    <glyph glyph-name="ankh" unicode="&#xf644;" horiz-adv-x="320" 
d="M304 176c8.83984 0 16 -7.16016 16 -16v-16c0 -8.83984 -7.16016 -16 -16 -16h-120v-176c0 -8.83984 -7.16016 -16 -16 -16h-16c-8.83984 0 -16 7.16016 -16 16v176h-120c-8.83984 0 -16 7.16016 -16 16v16c0 8.83984 7.16016 16 16 16h76.9199
c-29.46 36.3496 -54.8203 87.8604 -54.8203 134.86c0 84.1592 54.5703 137.14 121.9 137.14s121.9 -52.9805 121.9 -137.14c0 -47.0107 -25.3604 -98.5107 -54.8203 -134.86h76.9199zM160 400c-44.2002 0 -73.9004 -35.8203 -73.9004 -89.1396
c0 -53.8301 49.6904 -119.5 73.9004 -133.351c24.21 13.8604 73.9004 79.5205 73.9004 133.351c0 53.3193 -29.6904 89.1396 -73.9004 89.1396z" />
    <glyph glyph-name="badge-dollar" unicode="&#xf645;" 
d="M286.41 208.28c22.25 -6.36035 40.0098 -24.7207 42.9102 -47.6699c4.0498 -32.0703 -19.0303 -59.4307 -49.3203 -63.0508v-17.5596c0 -8.83984 -7.16016 -16 -16 -16h-16c-8.83984 0 -16 7.16016 -16 16v17.7197c-11.4297 1.35059 -22.2803 5.19043 -31.7803 11.46
c-6.21973 4.10059 -6.81934 13.1104 -1.5498 18.3799l17.5205 17.5205c3.73926 3.74023 9.30957 4.24023 14.1094 2.03027c3.18066 -1.4502 6.66016 -2.2207 10.2598 -2.2207h32.7803c4.66016 0 8.44043 3.78027 8.44043 8.41992
c-0.00976562 3.84863 -2.59473 7.0957 -6.12012 8.11035l-50.0703 14.2998c-22.25 6.36035 -40.0098 24.7207 -42.9102 47.6699c-4.0498 32.0703 19.0303 59.4307 49.3203 63.0508v17.5596c0 8.83984 7.16016 16 16 16h16c8.83984 0 16 -7.16016 16 -16v-17.7197
c11.4297 -1.35059 22.2803 -5.19043 31.7803 -11.46c6.21973 -4.10059 6.81934 -13.1104 1.5498 -18.3799l-17.5205 -17.5205c-3.73926 -3.74023 -9.30957 -4.24023 -14.1094 -2.03027c-3.18066 1.4502 -6.66016 2.2207 -10.2598 2.2207h-32.7803
c-4.66016 0 -8.44043 -3.78027 -8.44043 -8.41992c0.00976562 -3.84863 2.59473 -7.0957 6.12012 -8.11035zM512 192c0 -36.2002 -18.5996 -68.2002 -46.7002 -86.7002c6.7998 -32.7998 -2.59961 -68.7002 -28.2998 -94.2998
c-25.5996 -25.5996 -61.2002 -35.0996 -94.2998 -28.2998c-18.4004 -27.9004 -50.2998 -46.7002 -86.7002 -46.7002c-36.2002 0 -68.2002 18.5996 -86.7002 46.7002c-33.0996 -6.7998 -68.7002 2.59961 -94.2998 28.2998
c-25.5996 25.5996 -35.0996 61.4004 -28.2998 94.2998c-28 18.4004 -46.7002 50.4004 -46.7002 86.7002c0 36.2002 18.5996 68.2002 46.7002 86.7002c-6.7998 32.7998 2.59961 68.7002 28.2998 94.2998c25.5996 25.5996 61.4004 35.0996 94.2998 28.2998
c18.4004 28 50.4004 46.7002 86.7002 46.7002s68.2002 -18.7002 86.7002 -46.7002c32.7998 6.7998 68.7002 -2.59961 94.2998 -28.2998c25.5996 -25.5996 35.0996 -61.4004 28.2998 -94.2998c27.9004 -18.2998 46.7002 -50.2002 46.7002 -86.7002zM403.7 130.7
c17.3994 6.5 60.2002 15.8994 60.2002 61.2002c0 43.8994 -39.6006 53.5 -60.2002 61.1992c7.7002 16.9004 31.2998 53.8008 -0.700195 85.8008c-31 31 -65.9004 9.7998 -85.7998 0.699219c-6.5 17.6006 -15.9004 60.4004 -61.2002 60.4004
c-43.9004 0 -53.5 -39.5996 -61.2002 -60.2002c-16.8994 7.7002 -53.7998 31.2998 -85.7998 -0.700195c-31 -31 -9.7998 -65.8994 -0.700195 -85.7998c-17.5 -6.59961 -60.2998 -16 -60.2998 -61.2998c0 -43.9004 39.5996 -53.5 60.2002 -61.2002
c-7.7002 -16.8994 -31.2998 -53.7998 0.700195 -85.7998c31 -31 64.7998 -10.4004 85.8994 -0.799805c6.5 -17.4004 15.9004 -60.2002 61.2002 -60.2002c43.9004 0 53.5 39.5996 61.2002 60.2002c30.5 -13.7998 57.7998 -27.2998 85.7998 0.700195
c31 31 9.7998 65.8994 0.700195 85.7998z" />
    <glyph glyph-name="badge-percent" unicode="&#xf646;" 
d="M341.65 266.35c6.25 -6.25 6.25 -16.3799 0.00976562 -22.6396l-137.37 -137.37c-6.25 -6.25 -16.3799 -6.25 -22.6299 0l-11.3105 11.3105c-6.25 6.25 -6.25 16.3799 0 22.6299l137.36 137.38c6.25 6.25 16.3799 6.25 22.6299 0zM192 224c-17.6699 0 -32 14.3301 -32 32
s14.3301 32 32 32s32 -14.3301 32 -32s-14.3301 -32 -32 -32zM320 160c17.6699 0 32 -14.3301 32 -32s-14.3301 -32 -32 -32s-32 14.3301 -32 32s14.3301 32 32 32zM512 192c0 -36.2002 -18.5996 -68.2002 -46.7002 -86.7002
c6.7998 -32.7998 -2.59961 -68.7002 -28.2998 -94.2998c-25.5996 -25.5996 -61.2002 -35.0996 -94.2998 -28.2998c-18.4004 -27.9004 -50.2998 -46.7002 -86.7002 -46.7002c-36.2002 0 -68.2002 18.5996 -86.7002 46.7002
c-33.0996 -6.7998 -68.7002 2.59961 -94.2998 28.2998c-25.5996 25.5996 -35.0996 61.4004 -28.2998 94.2998c-28 18.4004 -46.7002 50.4004 -46.7002 86.7002c0 36.2002 18.5996 68.2002 46.7002 86.7002c-6.7998 32.7998 2.59961 68.7002 28.2998 94.2998
c25.5996 25.5996 61.4004 35.0996 94.2998 28.2998c18.4004 28 50.4004 46.7002 86.7002 46.7002s68.2002 -18.7002 86.7002 -46.7002c32.7998 6.7998 68.7002 -2.59961 94.2998 -28.2998c25.5996 -25.5996 35.0996 -61.4004 28.2998 -94.2998
c27.9004 -18.2998 46.7002 -50.2002 46.7002 -86.7002zM403.7 130.7c17.3994 6.5 60.2002 15.8994 60.2002 61.2002c0 43.8994 -39.6006 53.5 -60.2002 61.1992c7.7002 16.9004 31.2998 53.8008 -0.700195 85.8008c-31 31 -65.9004 9.7998 -85.7998 0.699219
c-6.5 17.6006 -15.9004 60.4004 -61.2002 60.4004c-43.9004 0 -53.5 -39.5996 -61.2002 -60.2002c-16.8994 7.7002 -53.7998 31.2998 -85.7998 -0.700195c-31 -31 -9.7998 -65.8994 -0.700195 -85.7998c-17.5 -6.59961 -60.2998 -16 -60.2998 -61.2998
c0 -43.9004 39.5996 -53.5 60.2002 -61.2002c-7.7002 -16.8994 -31.2998 -53.7998 0.700195 -85.7998c31 -31 64.7998 -10.4004 85.8994 -0.799805c6.5 -17.4004 15.9004 -60.2002 61.2002 -60.2002c43.9004 0 53.5 39.5996 61.2002 60.2002
c30.5 -13.7998 57.7998 -27.2998 85.7998 0.700195c31 31 9.7998 65.8994 0.700195 85.7998z" />
    <glyph glyph-name="bible" unicode="&#xf647;" horiz-adv-x="448" 
d="M160 240c-8.83984 0 -16 7.16016 -16 16v32c0 8.83984 7.16016 16 16 16h48v48c0 8.83984 7.16016 16 16 16h32c8.83984 0 16 -7.16016 16 -16v-48h48c8.83984 0 16 -7.16016 16 -16v-32c0 -8.83984 -7.16016 -16 -16 -16h-48v-96c0 -8.83984 -7.16016 -16 -16 -16h-32
c-8.83984 0 -16 7.16016 -16 16v96h-48zM448 64c0 -7.7998 -5.5 -14.2002 -12.9004 -15.7002c-4.19922 -13 -4.19922 -51.5996 0 -64.5996c7.30078 -1.40039 12.9004 -7.90039 12.9004 -15.7002v-16c0 -8.7998 -7.2002 -16 -16 -16h-352c-44.2002 0 -80 35.7998 -80 80v352
c0 44.2002 35.7998 80 80 80h352c8.7998 0 16 -7.2002 16 -16v-368zM394 -16c-2.7002 17.2998 -2.7002 46.7002 0 64h-314c-17.5996 0 -32 -14.4004 -32 -32c0 -17.7002 14.2998 -32 32 -32h314zM400 96v304h-320c-17.7002 0 -32 -14.2998 -32 -32v-278.7
c9.7998 4.2998 20.5996 6.7002 32 6.7002h320z" />
    <glyph glyph-name="business-time" unicode="&#xf64a;" horiz-adv-x="640" 
d="M496 224c79.5898 0 144 -64.4102 144 -144s-64.4102 -144 -144 -144s-144 64.4102 -144 144s64.4102 144 144 144zM560 73.71v12.5801c0 5.33984 -4.37012 9.70996 -9.70996 9.70996h-38.29v54.2803c0 5.33984 -4.37012 9.70996 -9.70996 9.70996h-12.5703
c-5.33984 0 -9.70996 -4.37012 -9.70996 -9.70996v-76.5703c0 -5.33984 4.37012 -9.70996 9.70996 -9.70996h60.5703c5.33984 0 9.70996 4.37012 9.70996 9.70996zM216 128c-13.25 0 -24 10.75 -24 24v24h-144v-122c0 -3.30957 2.69043 -6 6 -6h269.06
c3.12012 -16.8643 8.77246 -33.2061 16.3701 -48h-291.43c-26.5098 0 -48 21.4902 -48 48v256c0 26.5098 21.4902 48 48 48h80v48c0 26.5098 21.4902 48 48 48h160c26.5098 0 48 -21.4902 48 -48v-48h80c26.5098 0 48 -21.4902 48 -48v-48.8096
c-5.28027 0.479492 -10.5996 0.80957 -16 0.80957c-10.9404 0 -21.6104 -1.13965 -32 -3.05957v45.0596c0 3.30957 -2.69043 6 -6 6h-404c-3.30957 0 -6 -2.69043 -6 -6v-74h347.13c-18.4678 -12.9707 -34.0781 -29.0938 -46.4502 -48h-28.6797v-24
c0 -13.25 -10.75 -24 -24 -24h-80zM176 400v-48h160v48h-160z" />
    <glyph glyph-name="cabinet-filing" unicode="&#xf64b;" 
d="M464 448c26.5098 0 48 -21.4902 48 -48v-416c0 -26.5098 -21.4902 -48 -48 -48h-416c-26.5098 0 -48 21.4902 -48 48v416c0 26.5098 21.4902 48 48 48h416zM464 -16v184h-416v-184h416zM464 216v184h-416v-184h416zM160 272c-8.83984 0 -16 7.16016 -16 16v24
c0 17.6699 14.3301 32 32 32h160c17.6699 0 32 -14.3301 32 -32v-24c0 -8.83984 -7.16016 -16 -16 -16h-16c-8.83984 0 -16 7.16016 -16 16v8h-128v-8c0 -8.83984 -7.16016 -16 -16 -16h-16zM160 40c-8.83984 0 -16 7.16016 -16 16v24c0 17.6699 14.3301 32 32 32h160
c17.6699 0 32 -14.3301 32 -32v-24c0 -8.83984 -7.16016 -16 -16 -16h-16c-8.83984 0 -16 7.16016 -16 16v8h-128v-8c0 -8.83984 -7.16016 -16 -16 -16h-16z" />
    <glyph glyph-name="chart-line-down" unicode="&#xf64d;" 
d="M180.69 201.38l-74.3506 74.3398c-6.25 6.25 -6.25 16.3799 0 22.6299l11.3105 11.3105c6.25 6.25 16.3799 6.25 22.6299 0l51.7197 -51.7197l84.6797 84.6797c6.25 6.25 16.3799 6.25 22.6299 0l110.23 -110.22l29.4902 29.5
c15.1201 15.1191 40.9697 4.40918 40.9697 -16.9707v-100.93c0 -8.83984 -7.16016 -16 -16 -16h-100.93c-21.3799 0 -32.0898 25.8496 -16.9707 40.9697l29.5 29.4902l-87.5996 87.5996l-84.6797 -84.6797c-6.25 -6.25 -16.3799 -6.25 -22.6299 0zM496 48
c8.83984 0 16 -7.16016 16 -16v-16c0 -8.83984 -7.16016 -16 -16 -16h-464c-17.6699 0 -32 14.3301 -32 32v336c0 8.83984 7.16016 16 16 16h16c8.83984 0 16 -7.16016 16 -16v-320h448z" />
    <glyph glyph-name="chart-pie-alt" unicode="&#xf64e;" 
d="M461.29 160c9.54004 0 17.3896 -8.38965 16.0596 -17.8398c-16.46 -116.5 -116.31 -206.16 -237.35 -206.16c-2.67969 0 -5.37988 0.0400391 -8.07031 0.129883c-124.02 4.07031 -227.729 107.771 -231.8 231.8c-4.08984 124.641 86.9502 228.601 206.021 245.42
c0.709961 0.100586 1.40918 0.150391 2.10938 0.150391c8.56055 0 15.7402 -7.37988 15.7402 -16.21v-237.29h237.29zM240 -16c82.0596 0 154.15 52.9404 180.78 128h-244.78v244.86c-77.6396 -27.21 -130.69 -102.08 -127.9 -187.351
c3.25 -98.9795 86.4199 -182.149 185.4 -185.399c2.16992 -0.0703125 4.34961 -0.110352 6.5 -0.110352zM288.8 447.96c119.46 -8.24023 214.92 -103.7 223.17 -223.16c0.620117 -9.10938 -7.05957 -16.7998 -16.2002 -16.7998h-223.77v223.77
c0 8.79004 7.09961 16.2305 15.7598 16.2305c0.339844 0 0.69043 -0.00976562 1.04004 -0.0400391z" />
    <glyph glyph-name="city" unicode="&#xf64f;" horiz-adv-x="640" 
d="M244 64c6.62988 0 12 -5.37012 12 -12v-40c0 -6.62988 -5.37012 -12 -12 -12h-40c-6.62988 0 -12 5.37012 -12 12v40c0 6.62988 5.37012 12 12 12h40zM244 256c6.62988 0 12 -5.37012 12 -12v-40c0 -6.62988 -5.37012 -12 -12 -12h-40c-6.62988 0 -12 5.37012 -12 12v40
c0 6.62988 5.37012 12 12 12h40zM148 256c6.62988 0 12 -5.37012 12 -12v-40c0 -6.62988 -5.37012 -12 -12 -12h-40c-6.62988 0 -12 5.37012 -12 12v40c0 6.62988 5.37012 12 12 12h40zM148 64c6.62988 0 12 -5.37012 12 -12v-40c0 -6.62988 -5.37012 -12 -12 -12h-40
c-6.62988 0 -12 5.37012 -12 12v40c0 6.62988 5.37012 12 12 12h40zM148 160c6.62988 0 12 -5.37012 12 -12v-40c0 -6.62988 -5.37012 -12 -12 -12h-40c-6.62988 0 -12 5.37012 -12 12v40c0 6.62988 5.37012 12 12 12h40zM244 160c6.62988 0 12 -5.37012 12 -12v-40
c0 -6.62988 -5.37012 -12 -12 -12h-40c-6.62988 0 -12 5.37012 -12 12v40c0 6.62988 5.37012 12 12 12h40zM532 64c6.62988 0 12 -5.37012 12 -12v-40c0 -6.62988 -5.37012 -12 -12 -12h-40c-6.62988 0 -12 5.37012 -12 12v40c0 6.62988 5.37012 12 12 12h40zM532 160
c6.62988 0 12 -5.37012 12 -12v-40c0 -6.62988 -5.37012 -12 -12 -12h-40c-6.62988 0 -12 5.37012 -12 12v40c0 6.62988 5.37012 12 12 12h40zM616 256c13.25 0 24 -10.7402 24 -24v-280c0 -8.83984 -7.16016 -16 -16 -16h-16c-8.83984 0 -16 7.16016 -16 16v256h-128v192
h-160v-96h-256v-352c0 -8.83984 -7.16016 -16 -16 -16h-16c-8.83984 0 -16 7.16016 -16 16v376c0 13.2598 10.7402 24 24 24h40v80c0 8.83984 7.16016 16 16 16h16c8.83984 0 16 -7.16016 16 -16v-80h64v80c0 8.83984 7.16016 16 16 16h16c8.83984 0 16 -7.16016 16 -16v-80
h32v72c0 13.2598 10.7402 24 24 24h208c13.2598 0 24 -10.7402 24 -24v-168h104zM404 352c6.62988 0 12 -5.37012 12 -12v-40c0 -6.62988 -5.37012 -12 -12 -12h-40c-6.62988 0 -12 5.37012 -12 12v40c0 6.62988 5.37012 12 12 12h40zM404 160c6.62988 0 12 -5.37012 12 -12
v-40c0 -6.62988 -5.37012 -12 -12 -12h-40c-6.62988 0 -12 5.37012 -12 12v40c0 6.62988 5.37012 12 12 12h40zM404 256c6.62988 0 12 -5.37012 12 -12v-40c0 -6.62988 -5.37012 -12 -12 -12h-40c-6.62988 0 -12 5.37012 -12 12v40c0 6.62988 5.37012 12 12 12h40z" />
    <glyph glyph-name="comment-alt-dollar" unicode="&#xf650;" 
d="M448 448c35.3496 0 64 -28.6504 64 -64v-288c0 -35.3496 -28.6504 -64 -64 -64h-144l-124.87 -93.6299c-2.2002 -1.62988 -4.66992 -2.37012 -7.08008 -2.37012c-6.21973 0 -12.0498 4.91992 -12.0498 12.0195v83.9805h-96c-35.3496 0 -64 28.6504 -64 64v288
c0 35.3496 28.6504 64 64 64h384zM464 96v288c0 8.82031 -7.17969 16 -16 16h-384c-8.82031 0 -16 -7.17969 -16 -16v-288c0 -8.82031 7.17969 -16 16 -16h144v-59.9902l67.2002 50.3906l12.7998 9.59961h160c8.82031 0 16 7.17969 16 16zM286.41 256.28
c22.25 -6.36035 40.0098 -24.7207 42.9102 -47.6699c4.0498 -32.0703 -19.0303 -59.4307 -49.3203 -63.0508v-17.5596c0 -8.83984 -7.16016 -16 -16 -16h-16c-8.83984 0 -16 7.16016 -16 16v17.7197c-11.4297 1.35059 -22.2803 5.19043 -31.7803 11.46
c-6.22949 4.10059 -6.81934 13.1104 -1.5498 18.3799l17.5205 17.5205c3.73926 3.74023 9.30957 4.24023 14.1094 2.03027c3.18066 -1.4502 6.66016 -2.2207 10.2598 -2.2207h32.7803c4.66016 0 8.44043 3.78027 8.44043 8.41992
c-0.00976562 3.84863 -2.59473 7.0957 -6.12012 8.11035l-50.0703 14.2998c-22.25 6.36035 -40.0098 24.7207 -42.9102 47.6699c-4.0498 32.0703 19.0303 59.4307 49.3203 63.0508v17.5596c0 8.83984 7.16016 16 16 16h16c8.83984 0 16 -7.16016 16 -16v-17.7197
c11.4297 -1.35059 22.2803 -5.19043 31.7803 -11.46c6.21973 -4.10059 6.81934 -13.1104 1.5498 -18.3799l-17.5205 -17.5205c-3.73926 -3.74023 -9.30957 -4.24023 -14.1094 -2.03027c-3.18066 1.4502 -6.66016 2.2207 -10.2598 2.2207h-32.7803
c-4.66016 0 -8.44043 -3.78027 -8.44043 -8.41992c0.00976562 -3.84863 2.59473 -7.0957 6.12012 -8.11035z" />
    <glyph glyph-name="comment-dollar" unicode="&#xf651;" 
d="M256 416c141.38 0 256 -93.1201 256 -208s-114.62 -208 -256 -208c-32.7998 0 -64.0498 5.2002 -92.8701 14.3301c-29.1299 -20.6104 -77.6396 -46.3301 -139.149 -46.3301c-9.59082 0 -18.2402 5.73047 -22.0303 14.5195
c-3.79004 8.79004 -1.96973 19.0303 4.58984 25.9805c0.429688 0.44043 31.46 33.7803 46.3604 73.2305c-33.04 35.0391 -52.9004 78.7197 -52.9004 126.27c0 114.87 114.62 208 256 208zM256 48c114.69 0 208 71.7803 208 160s-93.3096 160 -208 160
s-208 -71.7803 -208 -160c0 -42.25 21.6504 -74.0703 39.8203 -93.3301l20.5898 -21.8301l-10.6104 -28.0703c-5.47949 -14.5195 -12.5693 -28.1592 -19.8594 -40.2197c23.5898 7.52051 43.1299 18.8203 57.4697 28.9697l19.4795 13.7803l22.7402 -7.20996
c25.3203 -8.01953 51.6797 -12.0898 78.3701 -12.0898zM286.41 224.28c22.25 -6.36035 40.0098 -24.7207 42.9102 -47.6699c4.0498 -32.0703 -19.0303 -59.4307 -49.3203 -63.0508v-17.5596c0 -8.83984 -7.16016 -16 -16 -16h-16c-8.83984 0 -16 7.16016 -16 16v17.7197
c-11.4297 1.35059 -22.2803 5.19043 -31.7803 11.46c-6.22949 4.10059 -6.81934 13.1104 -1.5498 18.3799l17.5205 17.5205c3.73926 3.74023 9.30957 4.24023 14.1094 2.03027c3.18066 -1.4502 6.66016 -2.2207 10.2598 -2.2207h32.7803
c4.66016 0 8.44043 3.78027 8.44043 8.41992c-0.00976562 3.84863 -2.59473 7.0957 -6.12012 8.11035l-50.0703 14.2998c-22.25 6.36035 -40.0098 24.7207 -42.9102 47.6699c-4.0498 32.0703 19.0303 59.4307 49.3203 63.0508v17.5596c0 8.83984 7.16016 16 16 16h16
c8.83984 0 16 -7.16016 16 -16v-17.7197c11.4297 -1.35059 22.2803 -5.19043 31.7803 -11.46c6.21973 -4.10059 6.81934 -13.1104 1.5498 -18.3799l-17.5205 -17.5205c-3.73926 -3.74023 -9.30957 -4.24023 -14.1094 -2.03027
c-3.18066 1.4502 -6.66016 2.2207 -10.2598 2.2207h-32.7803c-4.66016 0 -8.44043 -3.78027 -8.44043 -8.41992c0.00976562 -3.84863 2.59473 -7.0957 6.12012 -8.11035z" />
    <glyph glyph-name="comments-alt-dollar" unicode="&#xf652;" horiz-adv-x="576" 
d="M512 288c35.3496 0 64 -28.6504 64 -64v-160c0 -35.3496 -28.6504 -64 -64 -64h-32v-51.9805c0 -7.09961 -5.83008 -12.0195 -12.0498 -12.0195c-2.40039 0 -4.87012 0.740234 -7.08008 2.37012l-108.87 61.6299h-96c-35.3496 0 -64 28.6504 -64 64v29.8799
l-76.8701 -43.5098c-2.20996 -1.62988 -4.66992 -2.37012 -7.08008 -2.37012c-6.21973 0 -12.0498 4.91992 -12.0498 12.0195v51.9805h-32c-35.3496 0 -64 28.6504 -64 64v208c0 35.3496 28.6504 64 64 64h288c35.3496 0 64 -28.6504 64 -64v-96h96zM200.35 153.77
l11.0107 6.23047h140.64c8.82031 0 16 7.17969 16 16v208c0 8.82031 -7.17969 16 -16 16h-288c-8.82031 0 -16 -7.17969 -16 -16v-208c0 -8.82031 7.17969 -16 16 -16h80v-38.1299zM528 64v160c0 8.82031 -7.17969 16 -16 16h-96v-64c0 -35.3496 -28.6504 -64 -64 -64h-112
v-48c0 -8.82031 7.17969 -16 16 -16h108.65l11 -6.23047l56.3496 -31.8994v38.1299h80c8.82031 0 16 7.17969 16 16zM233.28 289.72c18.0996 -4.88965 30.7197 -21 30.7197 -39.1699c0 -21.7295 -17.8203 -39.2002 -40 -40.2998v-10.25c0 -4.41992 -3.58008 -8 -8 -8h-16
c-4.41992 0 -8 3.58008 -8 8v10.1699c-10.29 0.639648 -20.0498 3.87012 -28.3496 9.52051c-3.73047 2.5498 -4.24023 7.90918 -1.13086 11.1895l12.0703 12.7305c2.40039 2.5498 6.16016 2.84961 9.24023 1.17969c3.54004 -1.91016 7.62012 -2.9502 11.7695 -2.9502
h26.3408c5.55957 0 10.0596 3.90039 10.0596 8.7002c0 3.75 -2.90039 7.16016 -7.08984 8.2998l-42.1904 11.4404c-18.0996 4.88965 -30.7197 21 -30.7197 39.1699c0 21.7295 17.8203 39.2002 40 40.2998v10.25c0 4.41992 3.58008 8 8 8h16c4.41992 0 8 -3.58008 8 -8
v-10.1699c10.29 -0.639648 20.0498 -3.87012 28.3496 -9.52051c3.73047 -2.5498 4.24023 -7.90918 1.13086 -11.1895l-12.0703 -12.7305c-2.40039 -2.5498 -6.16016 -2.83984 -9.24023 -1.17969c-3.54004 1.91016 -7.62012 2.9502 -11.7695 2.9502h-26.3408
c-5.55957 0 -10.0596 -3.90039 -10.0596 -8.7002c0 -3.75 2.90039 -7.16016 7.08984 -8.2998z" />
    <glyph glyph-name="comments-dollar" unicode="&#xf653;" horiz-adv-x="576" 
d="M532.01 61.8301c15.2998 -30.7402 37.3398 -54.5205 37.6904 -54.8799c6.30957 -6.69043 8.05957 -16.5303 4.41992 -24.9902c-3.62988 -8.45996 -11.96 -13.96 -21.1797 -13.96c-53.54 0 -96.6709 20.2402 -125.171 38.7803
c-18.9395 -4.37012 -38.9795 -6.78027 -59.7695 -6.78027c-86.2002 0 -159.89 40.4199 -191.4 97.8896c-9.67969 1.15039 -19.1592 2.77051 -28.3691 4.89062c-28.5 -18.54 -71.6309 -38.7803 -125.171 -38.7803c-9.49805 0.00488281 -17.6523 5.74121 -21.1895 13.9502
c-3.62988 8.45996 -1.88965 18.2998 4.41992 24.9902c0.360352 0.359375 22.4004 24.1494 37.7002 54.8896c-27.4707 27.1201 -43.9902 61.1299 -43.9902 98.1699c0 88.3604 93.1201 160 208 160c86.3203 0 160.35 -40.46 191.82 -98.0596
c99.7295 -11.8105 176.18 -77.9209 176.18 -157.94c0 -37.04 -16.5195 -71.0498 -43.9902 -98.1699zM159.02 149.55c15.9805 -3.67969 32.4609 -5.5498 48.9805 -5.5498c86.7305 0 160 51.29 160 112s-73.2695 112 -160 112s-160 -51.29 -160 -112
c0 -28.6602 16.1602 -50.6299 29.71 -64.0195l24.7402 -24.4209l-15.4902 -31.1191c-2.50488 -5.0332 -5.18359 -10 -8 -14.8408c14.6396 5.12012 29.0303 12.2607 43.0996 21.4102l17.0908 11.1201zM498.29 95.9902c13.5498 13.3799 29.71 35.3496 29.71 64.0098
c0 49.1504 -48.2998 91.5098 -112.65 105.97c0.260742 -3.30957 0.650391 -6.59961 0.650391 -9.96973c0 -80.8604 -78.04 -147.53 -179.3 -158.3c29.0801 -29.6406 77.3398 -49.7002 131.3 -49.7002c0.0126953 0 -0.102539 0.0107422 -0.0898438 0.0107422
c16.8691 0 33.2939 1.91504 49.0703 5.53906l19.8691 4.58008l17.0908 -11.1201c14.0693 -9.13965 28.46 -16.29 43.0996 -21.3994c-2.74023 4.72949 -5.44043 9.68945 -8 14.8398l-15.4902 31.1201zM233.28 265.72c18.0996 -4.88965 30.7197 -21 30.7197 -39.1699
c0 -21.7295 -17.8203 -39.2002 -40 -40.2998v-10.25c0 -4.41992 -3.58008 -8 -8 -8h-16c-4.41992 0 -8 3.58008 -8 8v10.1699c-10.29 0.639648 -20.0498 3.87012 -28.3496 9.52051c-3.73047 2.5498 -4.24023 7.90918 -1.13086 11.1895l12.0703 12.7305
c2.40039 2.5498 6.16016 2.84961 9.24023 1.17969c3.54004 -1.91016 7.62012 -2.9502 11.7695 -2.9502h26.3408c5.55957 0 10.0596 3.90039 10.0596 8.7002c0 3.75 -2.90039 7.16016 -7.08984 8.2998l-42.1904 11.4404c-18.0996 4.88965 -30.7197 21 -30.7197 39.1699
c0 21.7295 17.8203 39.2002 40 40.2998v10.25c0 4.41992 3.58008 8 8 8h16c4.41992 0 8 -3.58008 8 -8v-10.1699c10.29 -0.639648 20.0498 -3.87012 28.3496 -9.52051c3.73047 -2.5498 4.24023 -7.90918 1.13086 -11.1895l-12.0703 -12.7305
c-2.40039 -2.5498 -6.16016 -2.83984 -9.24023 -1.17969c-3.54004 1.91016 -7.62012 2.9502 -11.7695 2.9502h-26.3408c-5.55957 0 -10.0596 -3.90039 -10.0596 -8.7002c0 -3.75 2.90039 -7.16016 7.08984 -8.2998z" />
    <glyph glyph-name="dharmachakra" unicode="&#xf655;" 
d="M499.23 215.99c6.96973 0.290039 12.7695 -5.28027 12.7695 -12.25v-23.4805c0 -6.96973 -5.7998 -12.54 -12.7695 -12.25l-20.4609 0.620117c-4.59961 -44.3301 -22.1592 -84.7803 -48.7793 -117.59l14.96 -14.0703c5.12988 -4.71973 5.2998 -12.7598 0.370117 -17.6895
l-16.6006 -16.6006c-4.92969 -4.92969 -12.9697 -4.75977 -17.6895 0.370117l-14.0703 14.96c-32.8203 -26.6201 -73.2598 -44.1797 -117.59 -48.7793l0.620117 -20.4609c0.290039 -6.95996 -5.28027 -12.7695 -12.25 -12.7695h-23.4805
c-6.96973 0 -12.54 5.80957 -12.25 12.7695l0.620117 20.4609c-44.3301 4.59961 -84.7803 22.1592 -117.59 48.7793l-14.0703 -14.96c-4.71973 -5.12988 -12.7598 -5.2998 -17.6895 -0.370117l-16.6006 16.6006c-4.92969 4.92969 -4.75977 12.9697 0.370117 17.6895
l14.96 14.0703c-26.6201 32.8203 -44.1797 73.2598 -48.7793 117.59l-20.4609 -0.620117c-6.96973 -0.290039 -12.7695 5.28027 -12.7695 12.25v23.4805c0 6.96973 5.7998 12.54 12.7695 12.25l20.4609 -0.620117c4.59961 44.3301 22.1592 84.7803 48.7793 117.59
l-14.96 14.0703c-5.12988 4.71973 -5.2998 12.7598 -0.370117 17.6895l16.6006 16.6006c4.92969 4.92969 12.9697 4.75977 17.6895 -0.370117l14.0703 -14.96c32.8203 26.6201 73.2598 44.1797 117.59 48.7793l-0.620117 20.4609
c-0.290039 6.96973 5.28027 12.7695 12.25 12.7695h23.4805c6.96973 0 12.54 -5.7998 12.25 -12.7695l-0.620117 -20.4609c44.3301 -4.59961 84.7803 -22.1592 117.59 -48.7793l14.0703 14.96c4.71973 5.12988 12.7598 5.2998 17.6895 0.370117l16.6006 -16.6006
c4.92969 -4.92969 4.75977 -12.9697 -0.370117 -17.6895l-14.96 -14.0703c26.6201 -32.8096 44.1797 -73.2598 48.7793 -117.59zM430.49 213.89c-4.02051 32.1504 -16.7207 61.5703 -35.7002 85.9404l-58.6699 -55.2002c6.55957 -9.9502 11.3994 -21.1396 13.8896 -33.2002z
M256 144c26.5098 0 48 21.4902 48 48s-21.4902 48 -48 48s-48 -21.4902 -48 -48s21.4902 -48 48 -48zM363.84 330.79c-24.3799 18.9795 -53.7998 31.6904 -85.9395 35.7002l-2.45996 -80.4805c12.0596 -2.49023 23.25 -7.33008 33.1992 -13.8896zM234.11 366.49
c-32.1504 -4.00977 -61.5703 -16.7207 -85.9404 -35.7002l55.2002 -58.6699c9.9502 6.55957 21.1396 11.3994 33.2002 13.8896zM117.21 299.84c-18.9795 -24.3799 -31.6797 -53.7998 -35.7002 -85.9395l80.4805 -2.45996c2.49023 12.0596 7.33008 23.25 13.8896 33.1992z
M81.5098 170.11c4.00977 -32.1504 16.7207 -61.5703 35.7002 -85.9404l58.6699 55.2002c-6.55957 9.9502 -11.3994 21.1396 -13.8896 33.2002zM148.16 53.21c24.3799 -18.9795 53.7998 -31.6904 85.9395 -35.7002l2.45996 80.4805
c-12.0596 2.49023 -23.25 7.33008 -33.1992 13.8896zM277.89 17.5098c32.1504 4.00977 61.5703 16.7207 85.9404 35.7002l-55.2002 58.6699c-9.9502 -6.55957 -21.1396 -11.3994 -33.2002 -13.8896zM394.79 84.1602c18.9795 24.3799 31.6904 53.7998 35.7002 85.9395
l-80.4805 2.45996c-2.49023 -12.0596 -7.33008 -23.25 -13.8896 -33.1992z" />
    <glyph glyph-name="empty-set" unicode="&#xf656;" horiz-adv-x="448" 
d="M443.31 400c6.25 -6.24023 6.25 -16.3799 0 -22.6299l-67.7695 -67.7705c25.2695 -32.5098 40.46 -73.2393 40.46 -117.6c0 -106.04 -85.96 -192 -192 -192c-44.3604 0 -85.0996 15.1904 -117.6 40.46l-67.7705 -67.7695c-6.25 -6.25 -16.3799 -6.25 -22.6299 0
l-11.3096 11.2998c-6.25 6.25 -6.25 16.3799 0 22.6299l67.7695 67.7803c-25.2695 32.5098 -40.46 73.2393 -40.46 117.6c0 106.04 85.96 192 192 192c44.3604 0 85.0898 -15.1904 117.6 -40.46l67.7705 67.7695c6.25 6.25 16.3799 6.25 22.6299 0zM80 192
c0 -31.0498 10.0996 -59.6396 26.8701 -83.1797l200.31 200.3c-23.54 16.7695 -52.1396 26.8799 -83.1797 26.8799c-79.4004 0 -144 -64.5996 -144 -144zM368 192c0 31.04 -10.0996 59.6396 -26.8799 83.1797l-200.311 -200.3
c23.5508 -16.7803 52.1406 -26.8799 83.1904 -26.8799c79.4004 0 144 64.5996 144 144z" />
    <glyph glyph-name="folder-minus" unicode="&#xf65d;" 
d="M464 320c26.5098 0 48 -21.4902 48 -48v-224c0 -26.5098 -21.4902 -48 -48 -48h-416c-26.5098 0 -48 21.4902 -48 48v288c0 26.5098 21.4902 48 48 48h146.74c8.49023 0 16.6299 -3.37012 22.6299 -9.37012l54.6299 -54.6299h192zM464 48v224h-198.62
c-8.49023 0 -16.6299 3.37012 -22.6299 9.37012l-54.6299 54.6299h-140.12v-288h416zM176 168c0 8.83984 7.16016 16 16 16h128c8.83984 0 16 -7.16016 16 -16v-16c0 -8.83984 -7.16016 -16 -16 -16h-128c-8.83984 0 -16 7.16016 -16 16v16z" />
    <glyph glyph-name="folder-times" unicode="&#xf65f;" 
d="M464 320c26.5098 0 48 -21.4902 48 -48v-224c0 -26.5098 -21.4902 -48 -48 -48h-416c-26.5098 0 -48 21.4902 -48 48v288c0 26.5098 21.4902 48 48 48h146.74c8.49023 0 16.6299 -3.37012 22.6299 -9.37012l54.6299 -54.6299h192zM464 48v224h-198.62
c-8.49023 0 -16.6299 3.37012 -22.6299 9.37012l-54.6299 54.6299h-140.12v-288h416zM227.71 222.23l28.29 -28.29l28.29 28.29c3.12012 3.12988 7.21973 4.68945 11.3096 4.68945c0.00292969 0 0.0078125 0.00195312 0.00976562 0.00195312
c4.41309 0 8.41016 -1.79395 11.3008 -4.69141l11.3096 -11.3105c6.25 -6.25 6.25 -16.3799 0 -22.6299l-28.2793 -28.29l28.2793 -28.2803c6.25 -6.25 6.25 -16.3799 0 -22.6299l-11.3096 -11.3096c-3.12012 -3.12988 -7.21973 -4.69043 -11.3105 -4.69043
c-4.08984 0 -8.18945 1.57031 -11.3096 4.69043l-28.29 28.2793l-28.29 -28.2793c-3.12012 -3.12988 -7.21973 -4.69043 -11.3096 -4.69043c-4.09082 0 -8.19043 1.57031 -11.3105 4.69043l-11.3096 11.3096c-6.25 6.25 -6.25 16.3799 0 22.6299l28.2793 28.2803
l-28.2793 28.29c-6.25 6.25 -6.25 16.3799 0 22.6299l11.3096 11.3105c3.12012 3.12988 7.21973 4.68945 11.3105 4.68945c0.00195312 0 0.00683594 0.00195312 0.00878906 0.00195312c4.41309 0 8.41016 -1.79395 11.3008 -4.69141z" />
    <glyph glyph-name="folders" unicode="&#xf660;" horiz-adv-x="640" 
d="M592 384c26.5098 0 48 -21.4902 48 -48v-224c0 -26.5098 -21.4902 -48 -48 -48h-80v-80c0 -26.5098 -21.4902 -48 -48 -48h-416c-26.5098 0 -48 21.4902 -48 48v288c0 26.5098 21.4902 48 48 48h80v80c0 26.5098 21.4902 48 48 48h146.74
c8.49023 0 16.6299 -3.37012 22.6299 -9.37012l54.6299 -54.6299h192zM464 -16v80h-288c-26.5098 0 -48 21.4902 -48 48v160h-80v-288h416zM592 112v224h-198.62c-8.49023 0 -16.6299 3.37012 -22.6299 9.37012l-54.6299 54.6299h-140.12v-288h416z" />
    <glyph glyph-name="function" unicode="&#xf661;" horiz-adv-x="640" 
d="M224 400v-16c0 -8.83984 -7.16016 -16 -16 -16h-48c-22.0898 0 -40 -17.9102 -40 -40v-48h56c8.83984 0 16 -7.16016 16 -16v-16c0 -8.83984 -7.16016 -16 -16 -16h-56v-144c0 -48.5996 -39.4004 -88 -88 -88h-16c-8.83984 0 -16 7.16016 -16 16v16
c0 8.83984 7.16016 16 16 16h16c22.0898 0 40 17.9102 40 40v144h-56c-8.83984 0 -16 7.16016 -16 16v16c0 8.83984 7.16016 16 16 16h56v48c0 48.5996 39.4004 88 88 88h48c8.83984 0 16 -7.16016 16 -16zM317.43 339.08
c6.83008 -5.13965 8.08008 -14.5303 3.28027 -21.5801c-31.5098 -46.2402 -48.71 -101.59 -48.71 -157.5c0 -55.9199 17.2002 -111.27 48.71 -157.49c4.80957 -7.0498 3.55957 -16.4502 -3.28027 -21.5898l-12.7998 -9.62988
c-7.21973 -5.44043 -17.8096 -4.02051 -22.9199 3.41016c-37.3203 54.2803 -57.71 119.45 -57.71 185.3c0 65.8301 20.3896 131 57.71 185.3c5.11035 7.41992 15.7002 8.85059 22.9199 3.41016zM582.29 345.3c37.3203 -54.2803 57.71 -119.45 57.71 -185.3
c0 -65.8301 -20.3896 -131 -57.71 -185.31c-5.11035 -7.43066 -15.7002 -8.85059 -22.9199 -3.41016l-12.7998 9.62988c-6.83008 5.14941 -8.08008 14.54 -3.28027 21.5898c31.5098 46.2402 48.71 101.59 48.71 157.5c0 55.9199 -17.2002 111.27 -48.71 157.49
c-4.80957 7.0498 -3.55957 16.4502 3.28027 21.5898l12.7998 9.62988c7.21973 5.44043 17.8096 4.02051 22.9199 -3.41016zM507.45 224.46c6.06934 -6.07031 6.06934 -15.9199 -0.00976562 -21.9902l-42.4707 -42.4697l42.4707 -42.4697
c6.06934 -6.07031 6.06934 -15.9102 0 -21.9805l-10.9902 -10.9902c-6.07031 -6.06934 -15.9102 -6.06934 -21.9805 0l-42.4697 42.4707l-42.4697 -42.4707c-6.07031 -6.06934 -15.9102 -6.06934 -21.9805 0l-10.9902 10.9902c-6.06934 6.07031 -6.06934 15.9102 0 21.9805
l42.4707 42.4697l-42.4707 42.4697c-6.06934 6.07031 -6.06934 15.9102 0 21.9805l10.9902 10.9902c6.07031 6.06934 15.9102 6.06934 21.9805 0l42.4697 -42.4707l42.4805 42.4805c6.06934 6.06934 15.9092 6.06934 21.9795 0z" />
    <glyph glyph-name="funnel-dollar" unicode="&#xf662;" horiz-adv-x="640" 
d="M471.61 287.62c93.6494 -4.02051 168.39 -80.9902 168.39 -175.62c0 -97.2002 -78.7998 -176 -176 -176c-31.6904 0 -61.3398 8.49023 -87.0098 23.1299c-8.70996 -14.3203 -24.5498 -23.1396 -41.1699 -23.1396c-9.74023 0 -19.7207 3.01953 -28.6299 9.7002
l-95.9902 72c-12.0898 9.06934 -19.2002 23.29 -19.2002 38.3994v135.91l-182.11 198.75c-21.1299 21.1299 -6.15918 57.25 23.71 57.25h508.801c29.8691 0 44.8398 -36.1201 23.71 -57.2402zM335.99 -15.9102v7.37988c-29.6807 31.5 -47.9902 73.8301 -47.9902 120.53
c0 71.9805 43.2598 133.77 105.15 161.04l116.33 126.96h-442.961l173.48 -189.33v-154.58zM464 -16c70.5801 0 128 57.4199 128 128s-57.4199 128 -128 128s-128 -57.4199 -128 -128s57.4199 -128 128 -128zM491.09 120.58
c18.6006 -5.58008 31.5801 -23.4199 31.5801 -43.3896c0 -24.5303 -19.0498 -44.4404 -42.6699 -45.0703v-16.1201c0 -4.41992 -3.58008 -8 -8 -8h-16c-4.41992 0 -8 3.58008 -8 8v16.29c-11.29 0.580078 -22.2695 4.51953 -31.3701 11.3496
c-3.89941 2.93066 -4.09961 8.77051 -0.570312 12.1406l11.75 11.21c2.77051 2.63965 6.89062 2.75977 10.1309 0.729492c3.85938 -2.42969 8.25977 -3.71973 12.8193 -3.71973h28.1104c6.5 0 11.7998 5.91992 11.7998 13.1904c0 5.94922 -3.61035 11.1797 -8.76953 12.7295
l-45 13.5c-18.6006 5.58008 -31.5801 23.4199 -31.5801 43.3896c0 24.5205 19.0498 44.4404 42.6699 45.0703v16.1201c0 4.41992 3.58008 8 8 8h16c4.41992 0 8 -3.58008 8 -8v-16.29c11.29 -0.580078 22.2695 -4.51953 31.3701 -11.3496
c3.89941 -2.93066 4.09961 -8.77051 0.569336 -12.1406l-11.75 -11.21c-2.76953 -2.63965 -6.88965 -2.75977 -10.1299 -0.729492c-3.85938 2.42969 -8.25977 3.71973 -12.8193 3.71973h-28.1104c-6.5 0 -11.7998 -5.91992 -11.7998 -13.1904
c0 -5.94922 3.60938 -11.1797 8.76953 -12.7295z" />
    <glyph glyph-name="gift-card" unicode="&#xf663;" horiz-adv-x="576" 
d="M528 320c26.5098 0 48 -21.4902 48 -48v-288c0 -26.5098 -21.4902 -48 -48 -48h-480c-26.5098 0 -48 21.4902 -48 48v288c0 26.5098 21.4902 48 48 48h60c-6.21973 12.0596 -10.0703 25.5195 -10.0703 40c0 48.5195 39.4805 88 88 88
c41.6006 0 68.5107 -21.3301 103.03 -68.3301c34.5303 46.9902 61.4404 68.3301 103.04 68.3301c48.5195 0 88 -39.4805 88 -88c0 -14.4805 -3.84961 -27.9404 -10.0703 -40h58.0703zM392 400c-20.3496 0 -34.71 -3.53027 -86.0703 -80h86.0703c22.0596 0 40 17.9502 40 40
c0 22.0596 -17.9404 40 -40 40zM145.93 360c0 -22.0498 17.9404 -40 40 -40h86.0703c-51.4902 76.7305 -66.1299 80 -86.0703 80c-22.0596 0 -40 -17.9404 -40 -40zM222.06 272h-174.06v-144h480v144h-174.06l51.7197 -51.7197c6.25 -6.25 6.25 -16.3799 0 -22.6299
l-11.3105 -11.3105c-6.25 -6.25 -16.3799 -6.25 -22.6299 0l-83.7197 83.7197l-83.7197 -83.7197c-6.25 -6.25 -16.3799 -6.25 -22.6299 0l-11.3105 11.3105c-6.25 6.25 -6.25 16.3799 0 22.6299zM48 -16h480v80h-480v-80z" />
    <glyph glyph-name="hamsa" unicode="&#xf665;" 
d="M256.01 160c53 0 95.9805 -64 95.9805 -64s-42.9707 -64 -95.9805 -64s-95.9795 64 -95.9795 64s42.9697 64 95.9795 64zM256.01 64c17.6602 0 31.9902 14.3301 31.9902 32s-14.3301 32 -31.9902 32s-31.9902 -14.3301 -31.9902 -32s14.3203 -32 31.9902 -32z
M505.55 164.6c12.2598 -27.1895 6.75 -58.6797 -14.04 -80.2295l-83.4199 -86.46c-37.9795 -39.3398 -93.4102 -61.9102 -152.08 -61.9102s-114.1 22.5703 -152.09 61.9199l-83.4199 86.46c-20.7803 21.5498 -26.29 53.0303 -14.0801 80.1201
c11.8301 26.4199 38.3799 43.5 67.6299 43.5h5.99023v128c0 44.1104 35.8799 80 79.9795 80c4.28027 0 8.65039 -0.339844 13.0703 -1.05957c5.27441 -0.857422 10.4795 -2.29199 15.3301 -4.18066c14.2002 22.3604 39.1904 37.2402 67.5801 37.2402
c4.47949 0 8.79688 -0.361328 13.0801 -1.05957c22.6699 -3.69043 42.04 -17.4404 54.0098 -36.3408c8.95996 3.49023 18.71 5.40039 28.8906 5.40039c4.2793 0 8.64941 -0.339844 13.0693 -1.05957c38.1406 -6.2002 66.9102 -40.8809 66.9102 -80.6504v-126.29h6
c29.25 0 55.7998 -17.0801 67.5898 -43.4004zM456.98 117.71c7.05957 7.30957 8.95996 17.9805 4.81934 27.1699c-4.12012 9.17969 -13.4795 15.1201 -23.8398 15.1201h-53.9902v174.29c0 15.9404 -10.8896 30.71 -26.6201 33.2695
c-1.80957 0.300781 -3.60938 0.44043 -5.36914 0.44043c-17.6709 0 -31.9902 -14.3301 -31.9902 -32v-104c0 -4.41992 -3.58008 -8 -8 -8h-16c-4.41992 0 -8 3.58008 -8 8v134.29c0 15.9404 -10.8906 30.71 -26.6201 33.2695
c-1.81055 0.300781 -3.61035 0.44043 -5.37012 0.44043c-17.6699 0 -31.9902 -14.3301 -31.9902 -32v-136c0 -4.41992 -3.58008 -8 -8 -8h-16c-4.41992 0 -8 3.58008 -8 8v102.29c0 15.9404 -10.8896 30.71 -26.6201 33.2695
c-1.80957 0.300781 -3.60938 0.44043 -5.37012 0.44043c-17.6699 0 -31.9893 -14.3301 -31.9893 -32v-176h-53.9805c-10.3594 0 -19.7295 -5.94043 -23.8398 -15.1299c-4.13965 -9.17969 -2.24023 -19.8506 4.82031 -27.1699l83.4199 -86.4502
c28.9902 -30.0303 71.8193 -47.25 117.56 -47.25s88.5703 17.2197 117.55 47.2598z" />
    <glyph glyph-name="integral" unicode="&#xf667;" horiz-adv-x="384" 
d="M340.18 389.27l40.0107 -46.5596c5.8291 -6.79004 4.87988 -16.8799 -2.14062 -22.5303l-12.6895 -10.2197c-7.02051 -5.65039 -17.4502 -4.71973 -23.29 2.07031l-39.9902 46.5293c-5.09961 5.91016 -13.1104 9.44043 -21.4102 9.44043
c-12.5596 0 -23.6699 -7.98047 -26.3896 -18.9697l-80.6602 -325.25c-8.12988 -32.8398 -38.8398 -55.7803 -74.6201 -55.7803c-23.1797 0 -44.8799 9.73047 -59.5195 26.71l-35.6709 41.4697c-5.8291 6.79004 -4.87988 16.8799 2.13086 22.5303l12.6992 10.2402
c7.02051 5.64941 17.4502 4.72949 23.29 -2.06055l35.6602 -41.4492c5.10059 -5.91016 13.1104 -9.44043 21.4102 -9.44043c12.5703 0 23.6699 7.98047 26.3896 18.9697l80.6602 325.25c8.12988 32.8398 38.8398 55.7803 74.6201 55.7803
c23.1797 0 44.8799 -9.75 59.5098 -26.7305z" />
    <glyph glyph-name="intersection" unicode="&#xf668;" horiz-adv-x="320" 
d="M48 16c0 -8.83984 -7.16016 -16 -16 -16h-16c-8.83984 0 -16 7.16016 -16 16v208c0 93.5 80.6201 168.53 175.99 159.21c83.1201 -8.11035 144.01 -82.8398 144.01 -166.35v-200.86c0 -8.83984 -7.16016 -16 -16 -16h-16c-8.83984 0 -16 7.16016 -16 16v208
c0 69.4404 -63.54 124.33 -135.52 109.59c-52.3604 -10.7295 -88.4805 -59.3594 -88.4805 -112.81v-204.78z" />
    <glyph glyph-name="jedi" unicode="&#xf669;" horiz-adv-x="576" 
d="M560 206.766c0 -149.297 -122.06 -270.766 -272.088 -270.766c-4.25 0 -8.53125 0.0986328 -12.8438 0.296875c-138.841 6.35938 -252.588 119.578 -258.963 257.75c-0.28125 6.29688 0.1875 12.4844 0.3125 18.7188
c-0.274414 1.16797 -0.418945 2.38477 -0.418945 3.63574c0 1.42773 0.189453 2.79785 0.543945 4.11426c4.19043 85.5127 48.0908 160.642 113.904 207c3.87305 2.7666 8.63379 4.41211 13.749 4.42188c8.30371 -0.0244141 15.6133 -4.22754 19.9375 -10.6406
c2.5918 -3.81934 4.10645 -8.42773 4.10645 -13.3877c0 -3.13379 -0.600586 -6.16602 -1.7002 -8.90918c-5.74805 -14.4131 -8.96289 -30.2051 -8.96875 -46.6562c0 -41.1094 19.1875 -78.9062 52.624 -103.672c5.99512 -4.37207 9.89355 -11.4492 9.89355 -19.4307
c0 -7.13965 -3.13086 -13.541 -8.08105 -17.9443c-24 -21.6719 -37.2178 -51.0312 -37.2178 -82.6875c0 -51.9062 35.7178 -95.2656 83.873 -108.172l2.21875 57.2656l-20.6562 -14.0312c-1.93555 -1.26074 -4.24512 -1.99414 -6.72461 -1.99414
c-3.17383 0 -6.08691 1.19434 -8.27539 3.16602c-2.31543 2.18945 -3.76074 5.28906 -3.76074 8.72461c0 2.24219 0.626953 4.35352 1.69824 6.15039l17.2812 28.9375l-36.5928 7.57812c-5.45117 1.13086 -9.55371 5.96582 -9.55371 11.75
c0 5.78516 4.10254 10.6191 9.55371 11.75l36.5928 7.59375l-17.2812 28.9219c-1.07227 1.79688 -1.68945 3.89648 -1.68945 6.13965c0 6.62109 5.37598 11.9971 11.9971 11.9971c2.50293 0 4.83105 -0.761719 6.75488 -2.07422l24.4688 -16.6094l11.2178 260.781
c0.263672 6.39648 5.53906 11.5078 11.999 11.5078c6.4707 0 11.7539 -5.12793 12.001 -11.5391l11.2188 -260.719l24.4678 16.6094c1.92676 1.29785 4.24609 2.05566 6.74121 2.05566c3.18457 0 6.09863 -1.22754 8.25879 -3.24316
c2.17188 -2.29199 3.56543 -5.34473 3.75 -8.70312c-0.0898438 -2.21191 -0.696289 -4.31738 -1.6875 -6.15625l-17.25 -28.9375l36.5615 -7.59375c5.45215 -1.13086 9.55371 -5.96582 9.55371 -11.75c0 -5.78516 -4.10156 -10.6191 -9.55371 -11.75l-36.5615 -7.57812
l17.25 -28.9219c1.07227 -1.79688 1.68848 -3.89648 1.68848 -6.13867c0 -3.43555 -1.43457 -6.54785 -3.75098 -8.73633c-2.18262 -1.98535 -5.08203 -3.19629 -8.26172 -3.19629c-2.48047 0 -4.80664 0.743164 -6.73828 2.00879l-20.6562 14.0312l2.21875 -57.5781
c40.749 10.5156 73.1553 43.8906 81.5303 85.375c1.51953 7.33496 2.31836 14.9326 2.31836 22.7148c0 33.0342 -14.3418 62.6367 -37.1934 83.0664c-4.9502 4.40625 -8.07031 10.8252 -8.07031 17.9678c0 7.9834 3.8877 15.0479 9.88281 19.4229
c33.4375 24.7656 52.5928 62.5469 52.5928 103.656c-0.00585938 16.4668 -3.2207 32.2744 -8.96875 46.7031c-1.13086 2.78027 -1.75391 5.82031 -1.75391 9.00488c0 13.209 10.7246 23.9336 23.9336 23.9336c5.1543 0 9.94336 -1.63086 13.8516 -4.40723
c65.5098 -46.4092 109.28 -121.249 113.841 -206.438c0.473633 -1.50293 0.729492 -3.10254 0.729492 -4.76074c0 -0.988281 -0.0878906 -1.94238 -0.260742 -2.87988c0.0625 -2.26562 0.40625 -4.46875 0.40625 -6.75zM107.885 149.453
c-2.93066 -3.35547 -7.24023 -5.47656 -12.041 -5.47656c-4.02539 0 -7.70996 1.50195 -10.5205 3.96094l-16.7188 14.625c12.7812 -62.125 51.9053 -115.438 105.279 -147.203c-29.0898 28.8105 -47.1191 68.7686 -47.1191 112.904
c0 37.417 13.0439 71.9619 34.7129 99.127c-29.8799 29.5498 -49.1465 69.9375 -51.624 114.625c-14.1562 -18.3906 -24.8115 -39.0625 -32.5928 -60.8281l29.9053 -29.875c2.89941 -2.89648 4.69434 -6.89844 4.69434 -11.3164
c0 -8.83008 -7.16895 -15.998 -15.998 -15.998c-4.41797 0 -8.4248 1.79004 -11.3203 4.68945l-16.6875 16.6562c-2.08496 -12.0068 -3.19336 -24.1641 -3.25 -36.75l41.7803 -36.5469c3.35742 -2.93262 5.48047 -7.24414 5.48047 -12.0479
c0 -4.03711 -1.50977 -7.73047 -3.98047 -10.5459zM507.001 162.375l-16.499 -14.4375c-2.8125 -2.44727 -6.48535 -3.93066 -10.502 -3.93066c-8.83496 0 -16.0068 7.17285 -16.0068 16.0068c0 4.79785 2.09863 9.09863 5.44629 12.0332l42.3428 37.0312
c-0.133789 12.5361 -1.31543 24.6729 -3.46875 36.625l-17.0303 -17.0156c-2.89453 -2.89258 -6.8916 -4.68262 -11.3027 -4.68262c-8.82617 0 -15.9922 7.16602 -15.9922 15.9932c0 4.40723 1.78223 8.40527 4.66992 11.2988l30.0615 30.0625
c-7.79102 21.9102 -18.9424 42.3584 -32.7803 60.5156c-2.5 -44.6201 -21.751 -84.9453 -51.5928 -114.453c29.25 -36.7031 40.9053 -84.1406 31.4062 -131.375c-6.4248 -31.2852 -22.0146 -59.3711 -43.874 -81.0312c53.3789 31.5439 92.2744 84.6953 105.122 147.359z" />
    <glyph glyph-name="kaaba" unicode="&#xf66b;" horiz-adv-x="576" 
d="M554.12 364.49c13.0703 -4.36035 21.8799 -16.5898 21.8994 -30.3604v-310.8c0 -15 -10.4199 -27.9902 -25.0596 -31.2402l-242.12 -53.7998c-6.85938 -1.53027 -13.8398 -2.29004 -20.8301 -2.29004s-13.9697 0.759766 -20.8301 2.29004l-242.12 53.7998
c-14.6396 3.25977 -25.0596 16.2402 -25.0596 31.2402v310.8c0.000976562 14.1279 9.16992 26.1211 21.8799 30.3604l235.76 78.5801c9.85059 3.29004 20.1104 4.92969 30.3604 4.92969s20.5098 -1.63965 30.3604 -4.92969zM528 199.13v34.6299l-228.53 68.5498
c-7.5293 2.25 -15.5 2.28027 -22.9102 0l-228.56 -68.5498v-34.6299l69.8896 19.0605c5.09082 1.38965 10.1104 -2.44043 10.1104 -7.7207v-16.5801c0 -0.00195312 -0.00195312 -0.00195312 -0.00195312 -0.00390625c0 -3.68359 -2.49609 -6.78906 -5.8877 -7.71582
l-74.1104 -20.21v-129.8l229.58 -51.0205c9.16992 -2.0293 16.7295 -0.90918 20.8301 0l229.59 51.0205v129.8l-74.1104 20.21c-3.47949 0.950195 -5.88965 4.11035 -5.88965 7.71973v16.5801c0 5.28027 5.01953 9.11035 10.1104 7.7207zM528 283.87v38.7295
l-224.82 74.9404c-13.3193 4.44043 -24.6797 1.90039 -30.3594 0l-224.82 -74.9404v-38.7295l214.72 64.4102c16.5605 5 34.0303 4.96973 50.5898 0zM261.89 257.46c5.09082 1.38965 10.1104 -2.44043 10.1104 -7.72949v-16.5703
c0 -0.00195312 -0.00195312 -0.00292969 -0.00195312 -0.00488281c0 -3.68359 -2.49609 -6.78906 -5.8877 -7.71484l-96 -26.1807c-5.09082 -1.38965 -10.1104 2.44043 -10.1104 7.7207v16.5791c0 0.00195312 0.00195312 0.00292969 0.00195312 0.00488281
c0 3.68359 2.49609 6.78906 5.8877 7.71582zM309.89 225.45c-3.3916 0.926758 -5.88965 4.03223 -5.88965 7.71582v0.0136719v16.5703c0 5.28027 5.01953 9.11035 10.1104 7.71973l96 -26.1797c3.47949 -0.950195 5.88965 -4.11035 5.88965 -7.71973v-16.5801
c0 -5.28027 -5.01953 -9.11035 -10.1104 -7.7207z" />
    <glyph glyph-name="keynote" unicode="&#xf66c;" 
d="M505.24 173.51c4.4502 -8.87988 6.75977 -18.6797 6.75977 -28.6201v-48.8896c0 -17.6699 -14.3301 -32 -32 -32h-200v-80h88c8.83984 0 16 -7.16016 16 -16v-16c0 -8.83984 -7.16016 -16 -16 -16h-224c-8.83984 0 -16 7.16016 -16 16v16c0 8.83984 7.16016 16 16 16h88
v80h-200c-17.6699 0 -32 14.3301 -32 32v48.8896c0 0.0078125 0.0371094 0.0761719 0.0371094 0.0839844c0 10.2539 2.42188 19.9463 6.72266 28.5361l48.4004 96.7998c5.25 10.502 16.0898 17.6895 28.6201 17.6904h12.2197c0 62.2002 44.6299 114.06 103.53 125.53
c10.7002 20.3994 31.8398 34.4697 56.4697 34.4697h32c35.3496 0 64 -28.6504 64 -64s-28.6504 -64 -64 -64h-32c-27.71 0 -51.0801 17.7197 -59.9805 42.3604c-30.7998 -11.6602 -52.0195 -40.5107 -52.0195 -74.3604h284.22
c12.5303 -0.000976562 23.3701 -7.18848 28.6201 -17.6904zM256 400c-8.82031 0 -16 -7.17969 -16 -16s7.17969 -16 16 -16h32c8.82031 0 16 7.17969 16 16s-7.17969 16 -16 16h-32zM464 112l0.00976562 32.8896c0 2.4707 -0.580078 4.9502 -1.68945 7.16016
l-43.9805 87.9502h-324.67l-43.9795 -87.96c-1.11035 -2.2002 -1.69043 -4.67969 -1.69043 -7.15039v-32.8896h416z" />
    <glyph glyph-name="khanda" unicode="&#xf66d;" 
d="M415.81 382c73.71 -40.2402 111.78 -123.85 90.1602 -207.51c-7.25 -28.0898 -22.3896 -53.5703 -41.25 -75.5898l-52.5098 -61.3105c-3.12012 -3.64941 -7.59961 -5.58984 -12.1504 -5.58984c-2.5498 0 -5.11914 0.620117 -7.5 1.87988l-79.3496 42.2305
l-29.21 -20.3408l47.0801 -32.7793c1.66992 0.370117 3.22949 1.00977 5.00977 1.00977c13.25 0 23.9902 -10.7402 23.9902 -24c0 -13.25 -10.7402 -24 -23.9902 -24c-12.0898 0 -21.6797 9.11035 -23.3301 20.7598l-40.9102 28.4805v-30.1504
c9.38086 -5.58008 15.9902 -15.3896 15.9902 -27.0996c0 -17.6699 -14.3203 -32 -31.9795 -32c-17.6602 0 -31.9805 14.3301 -31.9805 32c0 11.7197 6.60059 21.5293 15.9902 27.0996v29.9502l-40.6299 -28.2803c-1.64062 -11.6494 -11.2305 -20.7598 -23.3301 -20.7598
c-13.25 0 -23.9902 10.75 -23.9902 24c0 13.2598 10.7402 24 23.9902 24c1.78027 0 3.33984 -0.639648 5.00977 -1.00977l47.0801 32.7793l-29.21 20.3408l-79.3496 -42.2305c-2.37012 -1.26953 -4.9502 -1.87988 -7.5 -1.87988
c-4.55078 0 -9.03027 1.94043 -12.1504 5.58984l-55.9697 65.3604c-12.5703 14.6797 -23.3906 31.0693 -30.46 49.0596c-35.6602 90.6904 2.95996 186.391 81.4795 229.24c2.53027 1.40039 5.44043 2.09961 8.33008 2.09961c4.34961 0 8.69043 -1.58984 11.6904 -4.7998
c4.98926 -5.30957 6.45996 -12.9199 2.58984 -19.0801c-16.4902 -26.1602 -25.2002 -56.3896 -25.2002 -87.4697c0.19043 -53.1904 26.7695 -102.62 71.04 -132.18l76.5898 -53.3301v19.8994l-44.0498 36.0908c-3.91016 4.20996 -5 10.0996 -2.81055 15.2793
l7.85059 17.2402c-33.8506 19.2598 -56.9404 55.2402 -56.9404 96.9902c0 40.79 22.0205 76.1396 54.5898 95.7197l-5.21973 11.4404c-2.33008 5.5293 -0.929688 11.8301 3.57031 16.04l58.9902 52.8096l58.9893 -52.8203c4.5 -4.20996 5.91016 -10.5098 3.57031 -16.04
l-5.21973 -11.4395c32.5693 -19.5801 54.5898 -54.9199 54.5898 -95.71c0 -41.7402 -23.0996 -77.7305 -56.9404 -96.9902l7.85059 -17.2402c2.18945 -5.18945 1.10938 -11.0801 -2.81055 -15.2793l-44.0498 -36.0908v-20.0996l76.6299 53.3496
c44.5 29.7207 71.0801 79.1602 71.2705 132.41c0 31.0205 -8.70996 61.25 -25.2002 87.4102c-1.55762 2.46582 -2.46973 5.40723 -2.46973 8.53613c0 4.25293 1.66602 8.12012 4.37988 10.9844c3.08984 3.2998 7.31934 5.00977 11.5996 5.00977
c0.00292969 0 0.0224609 -0.0107422 0.0244141 -0.0107422c2.80371 0 5.43945 -0.717773 7.73535 -1.97949zM119.53 88.2998l19.1299 10.1699l-2.79004 1.9502c-45.5703 30.4199 -76.8105 77.7803 -87.5098 131.05c-1.48047 -20.3096 1.56934 -41.3896 9.62988 -61.8896
c4.5498 -11.5605 12.0293 -23.4697 22.25 -35.4004zM327.81 272c0 24.5703 -12.3994 46.2598 -31.2295 59.2598l-11.25 -24.6797c-8.75 -24.5205 -8.75 -51.04 0 -75.5605l8.95996 -19.6699c20.0801 12.79 33.5195 35.1201 33.5195 60.6504zM183.9 272
c0 -25.5303 13.4395 -47.8604 33.5195 -60.6504l8.95996 19.6699c8.75 24.5303 8.75 51.04 0 75.5605l-11.25 24.6797c-18.8301 -13 -31.2295 -34.6895 -31.2295 -59.2598zM459.54 186.5c3.92969 15.2305 5.22949 30.4902 4.11035 45.2598
c-10.7305 -53.4795 -42.1904 -101.08 -88.5508 -132.04l-1.7793 -1.23926l19.1494 -10.1904l35.8398 41.8398c15.8408 18.5 26.3506 37.46 31.2305 56.3701z" />
    <glyph glyph-name="lambda" unicode="&#xf66e;" horiz-adv-x="448" 
d="M440 16c4.41992 0 8 -3.58008 8 -8v-32c0 -4.41992 -3.58008 -8 -8 -8h-82.96c-12.7129 0 -23.6895 7.40039 -28.8496 18.1504l-146.04 304.25l-134.011 -312.7c-2.5293 -5.89062 -8.30957 -9.7002 -14.71 -9.7002h-17.4102c-11.4893 0 -19.2295 11.75 -14.71 22.2998
l152.681 358.78l-9.08008 18.9199h-136.91c-4.41992 0 -8 3.58008 -8 8v32c0 4.41992 3.58008 8 8 8h146.96c12.7129 -0.00195312 23.6865 -7.40039 28.8496 -18.1504l183.28 -381.85h72.9102z" />
    <glyph glyph-name="landmark" unicode="&#xf66f;" horiz-adv-x="576" 
d="M48 288c-8.83984 0 -16 7.16016 -16 16v36.9102c0.000976562 6.85547 4.31445 12.7041 10.3799 14.9795l234.38 90.0703c3.62012 1.36035 7.43066 2.04004 11.2402 2.04004s7.62012 -0.679688 11.2402 -2.04004l234.38 -90.0703
c6.24023 -2.33984 10.3799 -8.30957 10.3799 -14.9795v-36.9102c0 -8.83984 -7.16016 -16 -16 -16h-480zM288 398.86l-163.58 -62.8604h327.16zM560 -16c8.83984 0 16 -7.16016 16 -16v-16c0 -8.83984 -7.16016 -16 -16 -16h-544c-8.83984 0 -16 7.16016 -16 16v16
c0 8.83984 7.16016 16 16 16h16v64c0 17.6699 16.3701 32 36.5703 32h27.4297v176h48v-176h64v176h48v-176h64v176h48v-176h64v176h48v-176h27.4297c20.2002 0 36.5703 -14.3301 36.5703 -32v-64h16zM496 -16v48h-416v-48h416z" />
    <glyph glyph-name="lightbulb-dollar" unicode="&#xf670;" horiz-adv-x="352" 
d="M168 152c-4.41992 0 -8 3.58008 -8 8v16.29c-11.29 0.580078 -22.2695 4.51953 -31.3701 11.3496c-3.89941 2.93066 -4.09961 8.77051 -0.570312 12.1406l11.75 11.21c2.77051 2.63965 6.89062 2.75977 10.1309 0.729492
c3.85938 -2.42969 8.25977 -3.71973 12.8193 -3.71973h28.1104c6.5 0 11.7998 5.91992 11.7998 13.1904c0 5.94922 -3.61035 11.1797 -8.76953 12.7295l-45 13.5c-18.6006 5.58008 -31.5801 23.4199 -31.5801 43.3896c0 24.5205 19.0498 44.4404 42.6699 45.0703v16.1201
c0 4.41992 3.58008 8 8 8h16c4.41992 0 8 -3.58008 8 -8v-16.29c11.29 -0.580078 22.2695 -4.51953 31.3701 -11.3496c3.89941 -2.93066 4.09961 -8.77051 0.569336 -12.1406l-11.75 -11.21c-2.76953 -2.63965 -6.88965 -2.75977 -10.1299 -0.729492
c-3.85938 2.42969 -8.25977 3.71973 -12.8193 3.71973h-28.1104c-6.5 0 -11.7998 -5.91992 -11.7998 -13.1904c0 -5.94922 3.60938 -11.1797 8.76953 -12.7295l45 -13.5c18.6006 -5.58008 31.5801 -23.4199 31.5801 -43.3896
c0 -24.5303 -19.0498 -44.4404 -42.6699 -45.0703v-16.1201c0 -4.41992 -3.58008 -8 -8 -8h-16zM96.0596 -11.1699l-0.0400391 43.1797h159.961l-0.0507812 -43.1797c-0.00976562 -3.13965 -0.939453 -6.21973 -2.67969 -8.83984l-24.5098 -36.8398
c-2.95996 -4.45996 -7.95996 -7.14062 -13.3203 -7.14062h-78.8496c-5.35059 0 -10.3506 2.68066 -13.3203 7.14062l-24.5098 36.8398c-1.75 2.62012 -2.68066 5.68945 -2.68066 8.83984zM176 448c97.2002 0 176 -78.7998 176 -176
c0 -44.3701 -16.4502 -84.8496 -43.5498 -115.79c-16.6406 -18.9795 -42.7402 -58.79 -52.4199 -92.1602v-0.0498047h-48v0.0996094c0.00488281 4.98145 0.790039 9.78809 2.21973 14.3008c5.67969 17.9893 22.9902 64.8496 62.0996 109.46
c20.4102 23.29 31.6504 53.1699 31.6504 84.1396c0 70.5801 -57.4199 128 -128 128c-68.2803 0 -128.15 -54.3604 -127.95 -128c0.0898438 -30.9902 11.0703 -60.71 31.6104 -84.1396c39.3496 -44.9004 56.5801 -91.8604 62.1699 -109.67
c1.42969 -4.56055 2.13965 -9.30078 2.15039 -14.0703v-0.120117h-48v0.0595703c-9.68066 33.3604 -35.7803 73.1709 -52.4209 92.1602c-27.1094 30.9307 -43.5596 71.4102 -43.5596 115.78c0 93.0303 73.7197 176 176 176z" />
    <glyph glyph-name="lightbulb-exclamation" unicode="&#xf671;" horiz-adv-x="352" 
d="M96.0596 -11.1699l-0.0400391 43.1797h159.961l-0.0507812 -43.1797c-0.00976562 -3.13965 -0.939453 -6.21973 -2.67969 -8.83984l-24.5098 -36.8398c-2.95996 -4.45996 -7.95996 -7.14062 -13.3203 -7.14062h-78.8496c-5.35059 0 -10.3506 2.68066 -13.3203 7.14062
l-24.5098 36.8398c-1.75 2.62012 -2.68066 5.68945 -2.68066 8.83984zM176 128c-17.6699 0 -32 14.3301 -32 32s14.3301 32 32 32s32 -14.3301 32 -32s-14.3301 -32 -32 -32zM176 448c97.2002 0 176 -78.7998 176 -176c0 -44.3701 -16.4502 -84.8496 -43.5498 -115.79
c-16.6406 -18.9795 -42.7402 -58.79 -52.4199 -92.1602v-0.0498047h-48v0.0996094c0.00488281 4.98145 0.790039 9.78809 2.21973 14.3008c5.67969 17.9893 22.9902 64.8496 62.0996 109.46c20.4102 23.29 31.6504 53.1699 31.6504 84.1396c0 70.5801 -57.4199 128 -128 128
c-68.2803 0 -128.15 -54.3604 -127.95 -128c0.0898438 -30.9902 11.0703 -60.71 31.6104 -84.1396c39.3496 -44.9004 56.5801 -91.8604 62.1699 -109.67c1.42969 -4.56055 2.13965 -9.30078 2.15039 -14.0703v-0.120117h-48v0.0595703
c-9.68066 33.3604 -35.7803 73.1709 -52.4209 92.1602c-27.1094 30.9307 -43.5596 71.4102 -43.5596 115.78c0 93.0303 73.7197 176 176 176zM166.48 224c-8.2207 0 -15.1006 6.23047 -15.9209 14.4102l-12.7998 96c-0.939453 9.41992 6.4502 17.5898 15.9199 17.5898
h44.6406c9.46973 0 16.8594 -8.16992 15.9199 -17.5898l-12.7998 -96c-0.820312 -8.17969 -7.7002 -14.4102 -15.9209 -14.4102h-19.0391z" />
    <glyph glyph-name="lightbulb-slash" unicode="&#xf673;" horiz-adv-x="640" 
d="M250.43 337.77c17.5107 18.5205 42.1299 30.2305 69.5703 30.2305c8.83984 0 16 -7.16016 16 -16s-7.16016 -16 -16 -16c-17.2002 0 -32.7803 -6.90039 -44.29 -17.9902zM320 400c-12.54 0 -57.3701 -0.80957 -94.9297 -42.4004l-37.8398 29.5801
c51.4395 59.2402 115.18 60.8203 132.77 60.8203c97.2002 0 176 -78.7998 176 -176c0 -37.6699 -12.3799 -72.1602 -32.5498 -100.76l-37.7305 29.4902c14.21 21.0195 22.2803 45.6494 22.2803 71.2695c0 70.5801 -57.4199 128 -128 128zM240.06 -11.1699
l-0.0400391 43.1797h159.961l-0.0507812 -43.1797c-0.00976562 -3.13965 -0.939453 -6.21973 -2.67969 -8.83984l-24.5098 -36.8398c-2.95996 -4.45996 -7.95996 -7.14062 -13.3203 -7.14062h-78.8496c-5.35059 0 -10.3506 2.68066 -13.3203 7.14062l-24.5098 36.8398
c-1.74023 2.62012 -2.68066 5.68945 -2.68066 8.83984zM287.98 64h-48.0107v0.0595703c-9.67969 33.3604 -35.7793 73.1709 -52.4199 92.1602c-19.3096 22.04 -32.9502 49.0205 -39.3496 78.7002l98.0195 -76.6299c23.4502 -34.5 35.0898 -66.1201 39.5498 -80.0498
c1.4707 -4.57031 2.2002 -9.33008 2.21094 -14.1299v-0.110352zM633.99 -23.0195c6.91016 -5.52051 8.01953 -15.5908 2.5 -22.4902l-10 -12.4902c-5.53027 -6.88965 -15.5898 -8.00977 -22.4902 -2.49023l-598 467.51c-6.90039 5.52051 -8.01953 15.5908 -2.49023 22.4902
l10 12.4902c5.52051 6.90039 15.5898 8.00977 22.4902 2.49023z" />
    <glyph glyph-name="mail-bulk" unicode="&#xf674;" horiz-adv-x="576" 
d="M112 400v-144h-48v144c0 26.5098 21.4902 48 48 48h288c26.5098 0 48 -21.4902 48 -48v-48h-48v48h-288zM336 224c26.5098 0 48 -21.4902 48 -48v-192c0 -26.5098 -21.4902 -48 -48 -48h-288c-26.5098 0 -48 21.4902 -48 48v192c0 26.5098 21.4902 48 48 48h288zM336 -16
v120.04c-14.5 -11.0205 -80 -58.1201 -80 -58.1201c-14.4404 -11.2002 -38.6201 -29.9199 -64 -29.9199s-49.5596 18.7197 -64 29.9199c0 0 -65.5098 47.1104 -80 58.1201v-120.04h288zM336 162.61v13.3896h-288v-10.1904c2.37012 -1.84961 109.09 -81.5596 112.5 -84.2793
c8.80957 -6.98047 22.0898 -17.5303 31.5 -17.5303c7.80957 0 18.4102 7.23047 26.9102 13.0596c5.28027 3.61035 114.72 83.7002 117.09 85.5508zM528 320c26.5098 0 48 -21.4902 48 -48v-192c0 -26.5098 -21.4902 -48 -48 -48h-112v48h112v192h-288v-16h-48v16
c0 26.5098 21.4902 48 48 48h288zM432 240h64v-64h-64v64z" />
    <glyph glyph-name="megaphone" unicode="&#xf675;" horiz-adv-x="576" 
d="M560 416c8.83984 0 16 -7.16016 16 -16v-416c0 -8.83984 -7.16016 -16 -16 -16h-16c-8.83984 0 -16 7.16016 -16 16v12.9404l-179.91 41.7197c-11.0898 -40.6699 -47.8896 -70.6602 -92.0801 -70.6602c-53.0195 0 -96 42.9805 -96 96
c0 6.13965 1.11035 11.96 2.28027 17.7402l-115.01 26.6699c-1.66992 -7.0498 -7.7207 -12.4102 -15.2803 -12.4102h-16c-8.83984 0 -16 7.16016 -16 16v160c0 8.83984 7.16016 16 16 16h16c7.55957 0 13.6104 -5.36035 15.2803 -12.4102l480.72 111.47v12.9404
c0 8.83984 7.16016 16 16 16h16zM256 16c21.3701 0 39.2998 14.1299 45.5 33.46l-92.25 21.3896c-0.349609 -2.30957 -1.25 -4.42969 -1.25 -6.84961c0 -26.4697 21.5303 -48 48 -48zM48 157.5l480 -111.3v291.609l-480 -111.31v-69z" />
    <glyph glyph-name="mosque" unicode="&#xf678;" horiz-adv-x="640" 
d="M288 64c17.6699 0 32 -14.3301 32 -32v-80c0 -8.83984 -7.16016 -16 -16 -16h-32c-8.83984 0 -16 7.16016 -16 16v80c0 17.6699 14.3301 32 32 32zM400 96c0 0 48 -24 48 -72v-72c0 -8.83984 -7.16016 -16 -16 -16h-64c-8.83984 0 -16 7.16016 -16 16v72
c0 48 48 72 48 72zM512 64c17.6699 0 32 -14.3301 32 -32v-80c0 -8.83984 -7.16016 -16 -16 -16h-32c-8.83984 0 -16 7.16016 -16 16v80c0 17.6699 14.3301 32 32 32zM622.29 172.25c10.3896 -5.28027 17.71 -15.79 17.71 -28.25v-192c0 -8.83984 -7.16016 -16 -16 -16h-16
c-8.83984 0 -16 7.16016 -16 16v176h-384v-176c0 -8.83984 -7.16016 -16 -16 -16h-16c-8.83984 0 -16 7.16016 -16 16v304h-112v-304c0 -8.83984 -7.16016 -16 -16 -16h-16c-8.83984 0 -16 7.16016 -16 16v376c0 80 104 120 104 120s104 -40 104 -120v-20.79
c15.8604 12.71 34.2803 24.1201 53.4502 34.5996c85.4102 46.71 121.87 88.4502 138.55 106.19c16.6904 -17.75 53.1504 -59.4805 138.55 -106.19c53.2305 -29.1094 101.45 -64.9492 101.45 -117.81c0 -19.0996 -6.62012 -36.79 -17.71 -51.75zM160 304v24
c0 29.5996 -33.1904 54.1201 -55.9902 66.8398c-23.5498 -13.1094 -56.0098 -37.6396 -56.0098 -66.8398v-24h112zM529.23 176c34.0293 0 62.7695 21.9805 62.7695 48c0 23.1104 -24.2998 47.1602 -76.4805 75.7002c-45.3896 24.8301 -83.4697 51.29 -115.52 80.3496
c-32.0498 -29.0596 -70.1299 -55.5303 -115.52 -80.3496c-52.1807 -28.54 -76.4805 -52.5898 -76.4805 -75.7002c0 -26.0195 28.75 -48 62.7695 -48h258.461z" />
    <glyph glyph-name="om" unicode="&#xf679;" 
d="M420.11 248c50.6592 0 91.8896 -41.2197 91.8701 -91.8799v-108.13c0 -48 -35.8809 -80 -80.0107 -80c-70.2295 0 -80.0098 32.7998 -80.0098 46.5996v27.5703c0 5.50977 7.07031 7.92969 10.6504 3.66016c20.6895 -24.71 42.8799 -29.8203 69.3701 -29.8203
c17.6592 0 32.0098 14.3604 32.0098 32v108.12c0 24.1895 -19.6904 43.8799 -43.8799 43.8799c-11.5703 0 -22.8799 -4.67969 -31.04 -12.8398l-24.25 -24.25c-17.1006 -17.1006 -40.79 -26.9102 -64.9805 -26.9102h-46.6299c16.5 -21.0596 26.75 -47.2305 26.75 -76
c0 -68.3799 -55.6299 -124 -124.02 -124c-135.5 0 -155.99 90.8896 -155.94 120.61c0.00976562 7.0498 9.24023 10.2197 13.3203 4.17969c37.8594 -56.0801 59.8496 -76.8096 142.62 -76.8096c41.9092 0 76.0098 34.0898 76.0098 76c0 41.9092 -34.1006 76 -76.0098 76
l-36.7705 -0.170898c-4.17969 0.34082 -7.97949 2.62012 -9.87988 6.41016l-12.0703 24.1299c-4.01953 8.02051 1.82031 17.46 10.79 17.46l39.6406 0.170898c35.2998 0 63.0801 32.8193 54.4199 69.5293c-5.02051 21.2803 -23.1201 38.0898 -44.6904 41.6699
c-16.96 2.82031 -33.3398 -1.83008 -45.6797 -12.21c-5.82031 -4.88965 -14.0801 -5.46973 -20.1602 -0.910156l-13.1504 9.87012c-7.73926 5.82031 -8.85938 17.4102 -1.80957 24.0508c23.0195 21.6699 54.7295 31.7891 87.7998 26.7295
c41.9902 -6.42969 76.5898 -39.3496 85.0703 -80.9697c5.88965 -28.8701 -0.780273 -55.9307 -14.9004 -77.7402h65.29c11.5703 0 22.8799 4.67969 31.04 12.8398l24.25 24.25c17.1006 17.1006 40.79 26.9102 64.9805 26.9102zM360.59 387.06l-21.5703 21.5605
c-1.89062 1.88867 -3.06055 4.50098 -3.06055 7.38086c0 2.88086 1.16992 5.49023 3.06055 7.37891l21.5703 21.5605c1.88867 1.89062 4.50098 3.06055 7.38184 3.06055s5.49023 -1.16992 7.37793 -3.06055l21.5703 -21.5605
c1.89062 -1.88867 3.06152 -4.50098 3.06152 -7.38086c0 -2.88086 -1.1709 -5.49023 -3.06152 -7.37891l-21.5703 -21.5605c-4.08008 -4.06934 -10.6797 -4.06934 -14.7598 0zM376.75 297.27c-77.71 0 -116.62 59.5908 -118.22 62.1309
c-9.69043 15.1895 9.29004 32.0801 23.2793 21.2598c0.380859 -0.290039 38.6309 -29.4004 89.4707 -29.4004c29.4502 0 57.3994 9.91016 83.0693 29.4707c10.8701 8.2793 25.7002 -0.0302734 25.7002 -12.7305v-35.5195c0 -3.29004 -1.00977 -6.49023 -2.89941 -9.18066
c-4.28027 -6.10938 -24.1602 -26.0303 -100.4 -26.0303z" />
    <glyph glyph-name="omega" unicode="&#xf67a;" horiz-adv-x="447" 
d="M360.62 16h70.4102c8.80957 0 15.96 -7.16016 15.96 -16v-16c0 -8.83984 -7.14062 -16 -15.96 -16h-127.71c-8.81055 0 -15.96 7.16016 -15.96 16v23.7402c0 11.4395 5.83008 22.5 15.9893 27.7197c56.7705 29.1699 95.7607 88.3203 95.7607 156.54
c0 109.47 -100.23 195.91 -213.561 171.98c-66.3799 -14.0107 -119.96 -67.9209 -133.77 -134.49c-17.2803 -83.3203 24.71 -159.271 91.3994 -193.8c10.4707 -5.4209 16.4502 -16.8809 16.4502 -28.7002v-22.9902c0 -8.83984 -7.13965 -16 -15.96 -16h-127.71
c-8.80957 0 -15.96 7.16016 -15.96 16v16c0 8.83984 7.15039 16 15.96 16h70.4199c-52.3301 40.96 -86.3799 104.28 -86.3799 176c0 138.37 125.19 247.44 268.24 219.65c86.7793 -16.8604 156.71 -86.7305 174.13 -173.58
c18.0996 -90.2705 -18.4502 -172.521 -81.75 -222.07z" />
    <glyph glyph-name="pastafarianism" unicode="&#xf67b;" horiz-adv-x="640" 
d="M624.52 100.33c12.4004 -4.71973 18.6201 -18.5801 13.9004 -30.9697c-4.75 -12.4004 -18.5996 -18.6104 -30.9697 -13.8799c-8.20996 3.08984 -14.3398 0.189453 -31.4004 -11.3604c-13.5303 -9.15039 -30.8398 -20.8398 -52.4297 -20.8398
c-7.16016 0 -14.8203 1.2793 -22.9404 4.38965c-32.6494 12.4404 -40 41.3301 -45.3398 62.4404c-2.20996 8.71973 -4 14.4795 -5.9502 18.8594c-16.6201 -13.5996 -36.9297 -25.8594 -61.5996 -34.1494c10.0098 -37.0107 32.2695 -90.8203 60.2002 -90.8203
c13.25 0 24 -10.75 24 -24s-10.75 -24 -24 -24c-66.7402 0 -97.04 88.6299 -107.4 129.13c-6.68945 -0.599609 -13.4199 -1.13965 -20.5801 -1.13965s-13.8896 0.540039 -20.5801 1.13965c-10.3799 -40.5098 -40.6797 -129.14 -107.42 -129.14c-13.25 0 -24 10.75 -24 24
s10.75 24 24 24c28.0605 0 50.2803 53.8096 60.2305 90.8096c-24.6904 8.28027 -45.0098 20.5498 -61.6299 34.1602c-1.95996 -4.37012 -3.74023 -10.1396 -5.9502 -18.8604c-5.33984 -21.1094 -12.6904 -50 -45.3398 -62.4395
c-8.12988 -3.11035 -15.7803 -4.39062 -22.9404 -4.39062c-21.5898 -0.0195312 -38.8994 11.6807 -52.4297 20.8408c-17.0605 11.5498 -23.1807 14.4492 -31.4004 11.3594c-12.3096 -4.75977 -26.2197 1.49023 -30.9697 13.8799c-4.70996 12.3906 1.5 26.25 13.9102 30.9707
c32.6494 12.46 57.3701 -4.26074 75.3701 -16.4502c17.0596 -11.5303 23.21 -14.4199 31.3994 -11.3604c8.08984 3.10059 10.8105 9.37988 15.8701 29.3799c3.33008 13.1504 7.44043 29.3105 17.96 42.6406c-2.24023 2.91992 -4.42969 5.79004 -6.37988 8.58008
c-10.1699 -9.57031 -23.4102 -17.1104 -41.7002 -17.1104c-33.9697 0 -50.8701 25.7803 -62.0596 42.8301c-10.6006 16.1396 -15 21.1699 -21.9404 21.1699c-13.25 0 -24 10.75 -24 24s10.75 24 24 24c33.9707 0 50.8799 -25.7803 62.0605 -42.8301
c10.5996 -16.1396 15 -21.1699 21.9395 -21.1699c17.4307 0 40.3398 67.1602 103.931 106.47l-15.0205 30.0303c-1.66016 -0.129883 -3.24023 -0.5 -4.91992 -0.5c-35.3496 0 -64 28.6504 -64 64s28.6602 64 64 64c35.3496 0 64 -28.6504 64 -64
c0 -16.1904 -6.20996 -30.7998 -16.1201 -42.0801l15.8506 -31.71c18.96 5.98047 40.1592 9.79004 64.2695 9.79004s45.3096 -3.80957 64.2803 -9.79004l15.8496 31.71c-9.91016 11.2705 -16.1201 25.8896 -16.1201 42.0801c0 35.3496 28.6602 64 64 64
c35.3506 0 64 -28.6504 64 -64s-28.6494 -64 -64 -64c-1.68945 0 -3.26953 0.370117 -4.91992 0.5l-15.0195 -30.0303c64.3096 -39.7393 86.0996 -106.46 103.93 -106.46c6.94043 0 11.3496 5.03027 21.9404 21.1699c11.1895 17.0508 28.0898 42.8301 62.0596 42.8301
c13.25 0 24 -10.75 24 -24s-10.75 -24 -24 -24c-6.94043 0 -11.3496 -5.0293 -21.9404 -21.1699c-11.1895 -17.0498 -28.0898 -42.8301 -62.0596 -42.8301c-18.29 0 -31.5303 7.5498 -41.7002 17.1104c-1.9502 -2.79004 -4.12988 -5.66016 -6.37988 -8.58008
c10.5205 -13.3301 14.6299 -29.4902 17.96 -42.6396c5.06055 -20 7.78027 -26.29 15.8701 -29.3809c8.20996 -3.05957 14.3096 -0.169922 31.4004 11.3604c18.0293 12.1797 42.75 28.9199 75.3691 16.4502zM447.99 400c-8.82031 0 -16 -7.17969 -16 -16s7.17969 -16 16 -16
c8.81934 0 16 7.17969 16 16s-7.18066 16 -16 16zM192.01 368c8.82031 0 16 7.17969 16 16s-7.17969 16 -16 16c-8.81934 0 -16 -7.17969 -16 -16s7.18066 -16 16 -16zM320 112c80.5098 0 122.01 52.0498 138.49 80.0303c-16.3906 27.7998 -57.9004 79.9697 -138.49 79.9697
c-80.5098 0 -122.01 -52.0498 -138.49 -80.0303c16.3906 -27.7998 57.9004 -79.9697 138.49 -79.9697z" />
    <glyph glyph-name="phone-office" unicode="&#xf67d;" horiz-adv-x="576" 
d="M368 112c8.83984 0 16 -7.16016 16 -16v-32c0 -8.83984 -7.16016 -16 -16 -16h-32c-8.83984 0 -16 7.16016 -16 16v32c0 8.83984 7.16016 16 16 16h32zM320 192c0 8.83984 7.16016 16 16 16h32c8.83984 0 16 -7.16016 16 -16v-32c0 -8.83984 -7.16016 -16 -16 -16h-32
c-8.83984 0 -16 7.16016 -16 16v32zM432 48c-8.83984 0 -16 7.16016 -16 16v32c0 8.83984 7.16016 16 16 16h32c8.83984 0 16 -7.16016 16 -16v-32c0 -8.83984 -7.16016 -16 -16 -16h-32zM432 144c-8.83984 0 -16 7.16016 -16 16v32c0 8.83984 7.16016 16 16 16h32
c8.83984 0 16 -7.16016 16 -16v-32c0 -8.83984 -7.16016 -16 -16 -16h-32zM512 416c35.3496 0 64 -28.6504 64 -64v-352c0 -35.3496 -28.6504 -64 -64 -64h-448c-35.3496 0 -64 28.6504 -64 64v352c0 35.3496 28.6504 64 64 64h34.9404
c6.60938 18.5996 24.1895 32 45.0596 32h80c20.8701 0 38.4502 -13.4004 45.0596 -32h242.94zM144 400v-320h80v320h-80zM528 0v256h-168c-22.0596 0 -40 17.9404 -40 40v72h-48v-288c0 -26.5098 -21.4902 -48 -48 -48h-80c-26.5098 0 -48 21.4902 -48 48v288h-32
c-8.82031 0 -16 -7.17969 -16 -16v-352c0 -8.82031 7.17969 -16 16 -16h448c8.82031 0 16 7.17969 16 16zM528 304v48c0 8.82031 -7.17969 16 -16 16h-144v-64h160z" />
    <glyph glyph-name="pi" unicode="&#xf67e;" horiz-adv-x="448" 
d="M436 352c6.62988 0 12 -5.37012 12 -12v-24c0 -6.62988 -5.37012 -12 -12 -12h-100v-238.31c0 -9.75 7.94043 -17.6904 17.6904 -17.6904c0.0117188 0 0.0136719 -0.0175781 0.0263672 -0.0175781c6.12793 0 11.5293 3.12988 14.6934 7.87793l23.6201 35.46
c3.66992 5.51953 11.1201 7.00977 16.6396 3.33008l19.9697 -13.3105c5.52051 -3.67969 7.01074 -11.1201 3.33008 -16.6396l-23.6299 -35.4502c-16.1396 -24.2598 -46.75 -35.5703 -76.3701 -25.6797c-27.0098 9.01953 -43.9697 36.0498 -43.9697 64.5293v235.9h-96
v-137.79c0 -60.5596 -22.0498 -117.74 -62.3799 -162.37c-4.58008 -5.07031 -12.6904 -5.08008 -17.5205 -0.25l-16.9893 16.9902c-4.52051 4.53027 -4.4707 11.6396 -0.209961 16.4199c31.7598 35.6396 49.0996 81.0898 49.0996 129.21v137.79h-135.98
c-7.12988 0 -10.6992 8.62012 -5.65918 13.6602l24.9697 24.9697c6 6 14.1396 9.37012 22.6299 9.37012h386.04z" />
    <glyph glyph-name="place-of-worship" unicode="&#xf67f;" horiz-adv-x="576" 
d="M558.57 108.01c10.4697 -5 17.4297 -17.8994 17.4297 -32.3301v-122.449c0 -9.52051 -5.95996 -17.2305 -13.3301 -17.2305h-18.6699c-8.83984 0 -16 7.16016 -16 16v116.89l-80 34.3008v-151.19c0 -8.83984 -7.16016 -16 -16 -16h-16c-8.83984 0 -16 7.16016 -16 16
v212.82l-64 38.3994v135.521l-48 48l-48 -48v-135.521l-64 -38.3994v-212.82c0 -8.83984 -7.16016 -16 -16 -16h-16c-8.83984 0 -16 7.16016 -16 16v151.19l-80 -34.3008v-116.89c0 -8.83984 -7.16016 -16 -16 -16h-18.6699c-7.36035 0 -13.3301 7.71973 -13.3301 17.2305
v122.449c0 14.4307 6.95996 27.3301 17.4297 32.3301l110.57 47.4004v18.46l-0.0341797 -0.0136719c0 11.6582 6.24707 21.8691 15.5742 27.4639l48.46 29.0801v114.979c0 8.48047 3.37012 16.6201 9.37012 22.6201l75.3203 75.3096
c3.11914 3.13086 7.21973 4.69043 11.3096 4.69043s8.19043 -1.55957 11.3096 -4.69043l75.3105 -75.3096c6.00977 -6 9.37988 -14.1396 9.37988 -22.6299v-114.97l48.4697 -29.0801c9.62988 -5.79004 15.5303 -16.2002 15.5303 -27.4404v-18.46zM281.71 127.7
c38.1699 3.63965 70.29 -26.2803 70.29 -63.7002v-112c0 -8.83984 -7.16016 -16 -16 -16h-96c-8.83984 0 -16 7.16016 -16 16v109.25c0 33.4297 24.4404 63.2803 57.71 66.4502z" />
    <glyph glyph-name="podium" unicode="&#xf680;" horiz-adv-x="448" 
d="M432 288c8.83984 0 16 -7.16016 16 -16v-16c0 -8.83984 -7.16016 -16 -16 -16h-51.0195l-23.7109 -256h42.7305c8.83984 0 16 -7.16016 16 -16v-16c0 -8.83984 -7.16016 -16 -16 -16h-352c-8.83984 0 -16 7.16016 -16 16v16c0 8.83984 7.16016 16 16 16h42.7305
l-23.7109 256h-51.0195c-8.83984 0 -16 7.16016 -16 16v16c0 8.83984 7.16016 16 16 16h48c0 62.2002 44.6299 114.06 103.53 125.53c10.7002 20.3994 31.8398 34.4697 56.4697 34.4697h32c35.3496 0 64 -28.6504 64 -64s-28.6504 -64 -64 -64h-32
c-27.71 0 -51.0801 17.71 -59.9805 42.3496c-30.7998 -11.6592 -52.0195 -40.5 -52.0195 -74.3496h320zM224 400c-8.82031 0 -16 -7.17969 -16 -16s7.17969 -16 16 -16h32c8.82031 0 16 7.17969 16 16s-7.17969 16 -16 16h-32zM309.04 -16l23.71 256h-217.5l23.71 -256
h170.08z" />
    <glyph glyph-name="pray" unicode="&#xf683;" horiz-adv-x="384" 
d="M256 320c-35.3496 0 -64 28.6504 -64 64s28.6504 64 64 64s64 -28.6504 64 -64s-28.6504 -64 -64 -64zM233.72 160.52l-31.1602 40.9707l-44.0293 -97.8203l119.41 -112.37c6.68945 -6.2998 10.0596 -14.79 10.0596 -23.2998c0 -27.0703 -26.4297 -32 -32 -32h-228
c-15.4697 0 -28 12.5303 -28 28s12.5303 28 28 28h137.5l-70.3203 48.0996c-38.1494 26.1309 -51.5293 77.46 -31.0596 119.41l47 109.41c9.87012 20.3896 28.0303 32.9697 49.0596 34.8604c21.0303 1.75977 40.9707 -7.24023 53.4707 -24.3799l46.6895 -61.3809
l77.4697 63.2705c11.6602 10.0303 29.4102 8.66992 39.4707 -3.08008c10.0693 -11.75 8.66016 -29.4297 -3.08984 -39.4795l-100 -82.54c-5.85059 -5.01074 -13.5703 -7.39062 -21.1602 -6.56055c-7.85352 0.851562 -14.7568 4.92285 -19.3105 10.8896z" />
    <glyph glyph-name="praying-hands" unicode="&#xf684;" horiz-adv-x="640" 
d="M620.1 83.5996l-108 27.1006v103.8c0 12.0996 -3.39941 24 -9.89941 34.2002l-89.7998 140.1c-7.60059 12.1006 -24.2002 15 -35.5 5.7998c-9.60059 -7.89941 -10.8008 -22.2998 -4.2002 -32.7998l57.5996 -89c6.5 -10.2002 9.90039 -22.0996 9.90039 -34.2002v-76.5996
c0 -8.7998 -7.2002 -16 -16 -16h-16c-8.7998 0 -16 7.2002 -16 16v56c0 13.2002 -10.7998 24 -24 24s-24 -10.7002 -24 -24v-69.2002c0 -55.0996 37.5 -103.1 90.8994 -116.5l193 -48.2998c7.10059 -1.7002 12.1006 -8.09961 12.1006 -15.5v-16.5
c0 -10.4004 -9.7998 -18 -19.9004 -15.5l-196.899 49.2998c-44.6006 11.2002 -81 39.7998 -103.301 77.2998c-22.3994 -37.5 -58.6992 -66.0996 -103.3 -77.2998l-196.899 -49.2998c-10.1006 -2.59961 -19.9004 5.09961 -19.9004 15.5v16.5c0 7.40039 5 13.7998 12 15.5
l193 48.2998c53.4004 13.4004 90.9004 61.5 90.9004 116.601v69.0996c0 13.2002 -10.8008 24 -24 24c-13.2002 0 -24 -10.7002 -24 -24v-56c0 -8.7998 -7.2002 -16 -16 -16h-16c-8.80078 0 -16 7.2002 -16 16v76.5c0 12.0996 3.39941 24 9.89941 34.2002l57.6006 89
c6.69922 10.5996 5.39941 25 -4.2002 32.7998c-11.2998 9.2002 -27.9004 6.2998 -35.5 -5.7998l-89.7998 -140.101c-6.5 -10.1992 -9.90039 -22.0996 -9.90039 -34.1992v-103.801l-108.1 -27c-10.1006 -2.59961 -19.9004 5.10059 -19.9004 15.5v16.5
c0 7.40039 5 13.8008 12.0996 15.5l67.9004 17v66.3008c0 21.1992 6 42 17.2998 59.8994l89.7998 140.101c13.2002 20.8994 36.2002 33.5996 60.9004 33.5996c13.5996 0 26.9004 -3.90039 38.4004 -11.0996c18.8994 -11.9004 31.0996 -31.5 33.2998 -54.3008
c0.200195 -1.7998 0.299805 -3.5 0.299805 -5.19922c0 1.69922 0.0996094 3.39941 0.299805 5.19922c2.2002 22.7002 14.4004 42.4004 33.2998 54.3008c11.6006 7.2998 24.8008 11.0996 38.4004 11.0996c24.7002 0 47.7002 -12.7002 60.9004 -33.5996l89.7998 -140.101
c11.2998 -17.8994 17.2998 -38.7002 17.2998 -59.8994v-66.3008l67.9004 -17c7.09961 -1.69922 12.0996 -8.09961 12.0996 -15.5v-16.5c0 -10.3994 -9.7998 -18 -19.9004 -15.5zM320 271.3c11.5 10.4004 26.2002 17.4004 42.4004 18.6006l-29.9004 47.3994
c-7.59961 12.1006 -12.4004 24.4004 -12.5996 38.1006c-0.200195 -13.7002 -5 -26 -12.6006 -38.1006l-29.8994 -47.3994c16.3994 -1.2002 31.0996 -8.2002 42.5996 -18.6006z" />
    <glyph glyph-name="presentation" unicode="&#xf685;" horiz-adv-x="576" 
d="M560 448c8.83984 0 16 -7.16016 16 -16v-16c0 -8.83984 -7.16016 -16 -16 -16h-16v-272c0 -17.6699 -14.3301 -32 -32 -32h-200v-43.7197l77.6504 -77.6504c6.25 -6.25 6.25 -16.3799 0 -22.6299l-11.3008 -11.3203c-6.25 -6.25 -16.3799 -6.25 -22.6299 0
l-67.7197 67.7207l-67.71 -67.71c-6.25 -6.25 -16.3799 -6.25 -22.6299 0l-11.3105 11.3096c-6.25 6.25 -6.25 16.3799 0 22.6299l77.6504 77.6504v43.7197h-200c-17.6699 0 -32 14.3301 -32 32v272h-16c-8.83984 0 -16 7.16016 -16 16v16c0 8.83984 7.16016 16 16 16h544z
M496 144v256h-416v-256h416z" />
    <glyph glyph-name="print-slash" unicode="&#xf686;" horiz-adv-x="640" 
d="M451.91 180.26c3.59961 2.16016 7.58008 3.74023 12.0898 3.74023c13.25 0 24 -10.7402 24 -24c0 -2.44043 -0.709961 -4.66016 -1.38965 -6.87012zM192 400v-16.54l-47.1602 36.8701c2.08984 15.5303 14.2705 27.6699 29.6406 27.6699h221.64
c12.7295 0 24.9395 -5.05957 33.9395 -14.0596l51.8809 -51.8809c9 -9 14.0596 -21.21 14.0596 -33.9395v-76.1201c44.1797 0 80 -35.8203 80 -80v-108.76l-48 37.5293v71.2305c0 17.6396 -14.3604 32 -32 32h-100.03l-61.3994 48h113.43v64h-48
c-8.83984 0 -16 7.16016 -16 16v48h-192zM633.99 -23.0195c6.91016 -5.52051 8.01953 -15.5908 2.5 -22.4902l-10 -12.4902c-5.53027 -6.88965 -15.5898 -8.00977 -22.4902 -2.49023l-598 467.51c-6.90039 5.52051 -8.01953 15.5908 -2.49023 22.4902l10 12.4902
c5.52051 6.90039 15.5898 8.00977 22.4902 2.49023zM448 -16v16.5498l48 -37.5303v-11.0195c0 -8.83984 -7.16016 -16 -16 -16h-320c-8.83984 0 -16 7.16016 -16 16v96h-64c-8.83984 0 -16 7.16016 -16 16v128c0 32.1699 19.0996 59.71 46.4805 72.4199l51.6992 -40.4199
h-18.1797c-17.6396 0 -32 -14.3604 -32 -32v-96h213.9l61.3994 -48h-195.3v-64h256z" />
    <glyph glyph-name="quran" unicode="&#xf687;" horiz-adv-x="448" 
d="M257.13 265.43c-2.20996 2.16992 -0.990234 5.93066 2.07031 6.37012l28.6396 4.16016l12.8105 25.9502c1.36914 2.76953 5.33008 2.76953 6.69922 0l12.8105 -25.9502l28.6396 -4.16016c3.06055 -0.439453 4.28027 -4.20996 2.07031 -6.37012l-20.7197 -20.1992
l4.88965 -28.5205c0.519531 -3.04004 -2.66992 -5.38965 -5.41992 -3.94043l-25.6201 13.4707l-25.6201 -13.4707c-2.76953 -1.44922 -5.93945 0.920898 -5.41992 3.94043l4.88965 28.5205zM232.66 144c-57.3506 0 -104 46.6602 -104 104s46.6602 104 104 104
c12.3398 0 24.6201 -2.25 36.4697 -6.66992c6.33984 -2.42969 9.92969 -8.95996 8.58984 -15.5498c-1.29004 -6.2998 -6.91016 -10.8906 -13.3799 -10.8906l-3.43945 0.169922c-39.1807 0 -71.0605 -31.8799 -71.0605 -71.0596s31.8701 -71.0596 71.0605 -71.0596
l3.43945 0.169922c7.57031 0 13.6904 -6.12012 13.6904 -13.6406c0 -5.87988 -3.75 -11.0596 -9.33984 -12.9395c-11.5 -4.2998 -23.7207 -6.53027 -36.0303 -6.53027zM448 64c0 -7.7998 -5.5 -14.2002 -12.9004 -15.7002c-4.19922 -13 -4.19922 -51.5996 0 -64.5996
c7.30078 -1.40039 12.9004 -7.90039 12.9004 -15.7002v-16c0 -8.7998 -7.2002 -16 -16 -16h-352c-44.2002 0 -80 35.7998 -80 80v352c0 44.2002 35.7998 80 80 80h352c8.7998 0 16 -7.2002 16 -16v-368zM394 -16c-2.7002 17.2998 -2.7002 46.7002 0 64h-314
c-17.5996 0 -32 -14.4004 -32 -32c0 -17.7002 14.2998 -32 32 -32h314zM400 96v304h-320c-17.7002 0 -32 -14.2998 -32 -32v-278.7c9.7998 4.2998 20.5996 6.7002 32 6.7002h320z" />
    <glyph glyph-name="search-dollar" unicode="&#xf688;" 
d="M235.09 248.58c18.6006 -5.58008 31.5801 -23.4199 31.5801 -43.3896c0 -24.5303 -19.0498 -44.4404 -42.6699 -45.0703v-16.1201c0 -4.41992 -3.58008 -8 -8 -8h-16c-4.41992 0 -8 3.58008 -8 8v16.29c-11.29 0.580078 -22.2695 4.51953 -31.3701 11.3496
c-3.89941 2.93066 -4.09961 8.77051 -0.570312 12.1406l11.75 11.21c2.77051 2.63965 6.89062 2.75977 10.1309 0.729492c3.85938 -2.42969 8.25977 -3.71973 12.8193 -3.71973h28.1104c6.5 0 11.7998 5.91992 11.7998 13.1904c0 5.94922 -3.61035 11.1797 -8.76953 12.7295
l-45 13.5c-18.6006 5.58008 -31.5801 23.4199 -31.5801 43.3896c0 24.5205 19.0498 44.4404 42.6699 45.0703v16.1201c0 4.41992 3.58008 8 8 8h16c4.41992 0 8 -3.58008 8 -8v-16.29c11.29 -0.580078 22.2695 -4.51953 31.3701 -11.3496
c3.89941 -2.93066 4.09961 -8.77051 0.569336 -12.1406l-11.75 -11.21c-2.76953 -2.63965 -6.88965 -2.75977 -10.1299 -0.729492c-3.85938 2.42969 -8.25977 3.71973 -12.8193 3.71973h-28.1104c-6.5 0 -11.7998 -5.91992 -11.7998 -13.1904
c0 -5.94922 3.60938 -11.1797 8.76953 -12.7295zM508.47 -20.8799c4.70996 -4.7002 4.70996 -12.2998 0 -16.9902l-22.5996 -22.5996c-4.7002 -4.7002 -12.2998 -4.7002 -17 0l-121.39 121.39c-2.2002 2.2998 -3.5 5.2998 -3.5 8.5v13.2002
c-36.5 -31.5 -83.9902 -50.6006 -135.99 -50.6006c-114.891 0 -207.99 93.1006 -207.99 207.99c0 114.891 93.0996 207.99 207.99 207.99c114.89 0 207.99 -93.0996 207.99 -207.99c0 -51.9902 -19.1006 -99.4902 -50.6006 -135.99h13.2002
c3.2002 0 6.2002 -1.19922 8.5 -3.5zM207.99 80.0195c88.3896 0 159.99 71.5908 159.99 159.99c0 88.3906 -71.6006 159.99 -159.99 159.99c-88.4004 0 -159.99 -71.5898 -159.99 -159.99c0 -88.3896 71.5898 -159.99 159.99 -159.99z" />
    <glyph glyph-name="search-location" unicode="&#xf689;" 
d="M208 336c40.7803 0 73.8301 -33.0498 73.8301 -73.8301c0 -32.9697 -48.25 -93.0498 -66.7402 -114.86c-1.69531 -2.02832 -4.23926 -3.32031 -7.08691 -3.32031c-2.84863 0 -5.39746 1.29199 -7.09277 3.32031c-18.4902 21.8105 -66.7402 81.9004 -66.7402 114.86
c0 40.7803 33.0498 73.8301 73.8301 73.8301zM208 240c13.25 0 24 10.75 24 24c0 13.2598 -10.75 24 -24 24s-24 -10.7402 -24 -24c0 -13.25 10.75 -24 24 -24zM508.47 -20.8799c4.70996 -4.7002 4.70996 -12.2998 0 -16.9902l-22.5996 -22.5996
c-4.7002 -4.7002 -12.2998 -4.7002 -17 0l-121.39 121.39c-2.2002 2.2998 -3.5 5.2998 -3.5 8.5v13.2002c-36.5 -31.5 -83.9902 -50.6006 -135.99 -50.6006c-114.891 0 -207.99 93.1006 -207.99 207.99c0 114.891 93.0996 207.99 207.99 207.99
c114.89 0 207.99 -93.0996 207.99 -207.99c0 -51.9902 -19.1006 -99.4902 -50.6006 -135.99h13.2002c3.2002 0 6.2002 -1.19922 8.5 -3.5zM207.99 80.0195c88.3896 0 159.99 71.5908 159.99 159.99c0 88.3906 -71.6006 159.99 -159.99 159.99
c-88.4004 0 -159.99 -71.5898 -159.99 -159.99c0 -88.3896 71.5898 -159.99 159.99 -159.99z" />
    <glyph glyph-name="sigma" unicode="&#xf68b;" horiz-adv-x="320" 
d="M287.96 0h-245.6h-0.0390625c-17.4385 0 -32.4072 10.541 -38.8809 25.6201c-6.7002 15.5801 -3.44043 33.5801 8.25977 45.8604l114.93 120.52l-114.93 120.52c-11.7002 12.2803 -14.96 30.2803 -8.25977 45.8604c6.47656 15.0791 21.4678 25.6514 38.9082 25.6514
c0.0107422 0 0.000976562 -0.03125 0.0117188 -0.03125h245.6c17.6904 0 32.04 -14.3301 32.04 -32v-48c0 -8.83984 -7.16992 -16 -16.0195 -16h-16.0205c-8.84961 0 -16.0195 7.16016 -16.0195 16v32h-216.28l116.27 -121.94c11.79 -12.3594 11.79 -31.7793 0 -44.1396
l-116.27 -121.92h216.28v32c0 8.83984 7.16992 16 16.0195 16h16.0205c8.84961 0 16.0195 -7.16016 16.0195 -16v-48c0 -17.6699 -14.3496 -32 -32.04 -32z" />
    <glyph glyph-name="signal-alt-slash" unicode="&#xf694;" horiz-adv-x="640" 
d="M633.99 -23.0195c6.91016 -5.52051 8.01953 -15.5908 2.5 -22.4902l-10 -12.4902c-5.53027 -6.88965 -15.5898 -8.00977 -22.4902 -2.49023l-598 467.51c-6.90039 5.52051 -8.01953 15.5908 -2.49023 22.4902l10 12.4902
c5.52051 6.90039 15.5898 8.00977 22.4902 2.49023zM544 400v-291.74l-48 37.5303v270.21c0 17.6699 14.3301 32 32 32h64c17.6699 0 32 -14.3301 32 -32v-370.28l-48 37.5303v316.75h-32zM384 272v-38.6504l-48 37.5303v17.1201c0 17.6699 14.3301 32 32 32h64
c17.6699 0 32 -14.3301 32 -32v-117.19l-48 37.5303v63.6602h-32zM112 96c17.6699 0 32 -14.3301 32 -32v-96c0 -17.6699 -14.3301 -32 -32 -32h-64c-17.6699 0 -32 14.3301 -32 32v96c0 17.6699 14.3301 32 32 32h64zM96 -16v64h-32v-64h32zM416 -16v41.5596l48 -37.5293
v-20.0303c0 -17.6699 -14.3301 -32 -32 -32h-64c-17.6699 0 -32 14.3301 -32 32v120.11l48 -37.5303v-66.5801h32zM176 160c0 16.29 12.3604 29.21 28.1104 31.21l99.8896 -78.0898v-145.12c0 -17.6699 -14.3301 -32 -32 -32h-64c-17.6699 0 -32 14.3301 -32 32v192z
M224 144v-160h32v160h-32z" />
    <glyph glyph-name="signal-slash" unicode="&#xf695;" horiz-adv-x="640" 
d="M633.99 -23.0195c6.91016 -5.52051 8.01953 -15.5908 2.5 -22.4902l-10 -12.4902c-5.53027 -6.88965 -15.5898 -8.00977 -22.4902 -2.49023l-598 467.51c-6.90039 5.52051 -8.01953 15.5908 -2.49023 22.4902l10 12.4902
c5.52051 6.90039 15.5898 8.00977 22.4902 2.49023zM80 64c8.83984 0 16 -7.16016 16 -16v-96c0 -8.83984 -7.16016 -16 -16 -16h-32c-8.83984 0 -16 7.16016 -16 16v96c0 8.83984 7.16016 16 16 16h32zM480 336v-177.7l-64 50.04v127.66c0 8.83984 7.16016 16 16 16h32
c8.83984 0 16 -7.16016 16 -16zM608 432v-373.77l-64 50.0391v323.73c0 8.83984 7.16016 16 16 16h32c8.83984 0 16 -7.16016 16 -16zM416 -48v73.5596l64 -50.04v-23.5195c0 -8.83984 -7.16016 -16 -16 -16h-32c-8.83984 0 -16 7.16016 -16 16zM288 -48v173.63l64 -50.04
v-123.59c0 -8.83984 -7.16016 -16 -16 -16h-32c-8.83984 0 -16 7.16016 -16 16zM208 160c8.83984 0 16 -7.16016 16 -16v-192c0 -8.83984 -7.16016 -16 -16 -16h-32c-8.83984 0 -16 7.16016 -16 16v192c0 8.83984 7.16016 16 16 16h32z" />
    <glyph glyph-name="square-root" unicode="&#xf697;" 
d="M174.06 -32c-17.8398 0 -33.8799 9.91992 -41.8096 25.8896l-83.0596 166.11h-33.1904c-8.83984 0 -16 7.16016 -16 16v16c0 8.83984 7.16016 16 16 16h38.1201c15.1602 0 29.0303 -8.57031 35.8096 -22.1299l75.6504 -151.33
c3.30957 -6.62988 13.0801 -5.58008 14.9102 1.59961l97.1895 349.24c4.41016 18.04 20.4102 30.6201 38.9102 30.6201h179.41c8.83984 0 16 -7.16016 16 -16v-16c0 -8.83984 -7.16016 -16 -16 -16h-173.12l-103.32 -364.2
c-5.08984 -21.0801 -23.8096 -35.7998 -45.5 -35.7998z" />
    <glyph glyph-name="square-root-alt" unicode="&#xf698;" 
d="M507.45 208.46c6.06934 -6.07031 6.06934 -15.9199 -0.00976562 -21.9902l-42.4707 -42.4697l42.4707 -42.4697c6.06934 -6.07031 6.06934 -15.9102 0 -21.9805l-10.9902 -10.9902c-6.07031 -6.06934 -15.9102 -6.06934 -21.9805 0l-42.4697 42.4707l-42.4697 -42.4707
c-6.07031 -6.06934 -15.9102 -6.06934 -21.9805 0l-10.9902 10.9902c-6.06934 6.07031 -6.06934 15.9102 0 21.9805l42.4707 42.4697l-42.4707 42.4697c-6.06934 6.07031 -6.06934 15.9102 0 21.9805l10.9902 10.9902c6.07031 6.06934 15.9102 6.06934 21.9805 0
l42.4697 -42.4707l42.4805 42.4805c6.06934 6.06934 15.9092 6.06934 21.9795 0zM496 416c8.83984 0 16 -7.16016 16 -16v-16c0 -8.83984 -7.16016 -16 -16 -16h-173.12l-103.32 -364.2c-5.08984 -21.0801 -23.8096 -35.7998 -45.5 -35.7998
c-17.8398 0 -33.8691 9.91992 -41.8096 25.8896l-83.0596 166.11h-33.1904c-8.83984 0 -16 7.16016 -16 16v16c0 8.83984 7.16016 16 16 16h38.1201c15.6768 0 29.2402 -8.99121 35.8096 -22.1299l75.6406 -151.33c3.31934 -6.62988 13.0801 -5.58008 14.9102 1.59961
l97.1992 349.24c4.41016 18.04 20.4102 30.6201 38.9102 30.6201h179.41z" />
    <glyph glyph-name="star-and-crescent" unicode="&#xf699;" 
d="M340.47 -18.3604c8.74023 0 15.1299 -6.96973 15.1299 -15.0596c0 -6.62012 -4.31934 -12.2402 -10.2793 -14.2598c-29.04 -10.8301 -59.0898 -16.3203 -89.3203 -16.3203c-141.16 0 -256 114.84 -256 256s114.84 256 256 256c30.3896 0 60.5801 -5.54004 89.75 -16.4805
c6.91992 -2.59961 10.9297 -9.83984 9.46973 -17.0898c-1.41992 -7.04004 -7.62012 -12.0693 -14.75 -12.0693c-1.47949 0 -6.85938 0.459961 -9.17969 0.459961c-116.25 0 -210.82 -94.5703 -210.82 -210.82s94.5703 -210.82 210.82 -210.82
c2.29004 0 7.72949 0.459961 9.17969 0.459961zM48 192c0 -70.1602 34.9297 -132.33 88.2998 -170.02c-39.7295 45.5098 -63.8301 105 -63.8301 170.02s24.1006 124.51 63.8301 170.02c-53.3799 -37.6895 -88.2998 -99.8594 -88.2998 -170.02zM503.46 234.14
c8.16992 -1.17969 11.4297 -11.2197 5.52051 -16.9893l-55.2705 -53.8701l13.0498 -76.0703c1.11035 -6.42969 -4.00977 -11.6602 -9.80957 -11.6602c-1.53027 0 -3.11035 0.370117 -4.64062 1.16992l-68.3096 35.9102l-68.3301 -35.9102
c-1.53027 -0.80957 -3.11035 -1.16992 -4.63965 -1.16992c-5.7998 0 -10.9199 5.21973 -9.81055 11.6602l13.0498 76.0703l-55.2695 53.8701c-5.91016 5.76953 -2.65039 15.8096 5.51953 16.9893l76.3809 11.1006l34.1592 69.21
c1.83008 3.7002 5.38086 5.5498 8.93066 5.5498s7.09961 -1.84961 8.92969 -5.5498l34.1602 -69.21zM420.21 197.66l0.0703125 0.0703125l-0.100586 0.00976562l-24.9697 3.62988l-11.1699 22.6299l-0.0400391 0.0898438l-0.0400391 -0.0898438l-11.1699 -22.6299
l-24.9697 -3.62988l-0.100586 -0.00976562l0.0703125 -0.0703125l18.0703 -17.6104l-4.27051 -24.8701l-0.0195312 -0.0996094l0.0898438 0.0400391l22.3398 11.7402l22.3398 -11.7305l0.0898438 -0.0498047l-0.0195312 0.0996094l-4.27051 24.8701z" />
    <glyph glyph-name="synagogue" unicode="&#xf69b;" horiz-adv-x="640" 
d="M320 128c35.3496 0 64 -28.6504 64 -64v-112c0 -8.83984 -7.16016 -16 -16 -16h-96c-8.83984 0 -16 7.16016 -16 16v109.25c0 25.1396 18.4805 66.75 64 66.75zM631.99 179.71c5.16016 -4.87012 8.00977 -11.1396 8.00977 -17.6396v-210.07
c0 -8.83984 -7.16016 -16 -16 -16h-16c-8.83984 0 -16 7.16016 -16 16v199.46l-48 45.3301l-48 -45.3301v-199.46c0 -8.83984 -7.16016 -16 -16 -16h-16c-8.83984 0 -16 7.16016 -16 16v342.01l-128 102.4l-128 -102.4v-342.01c0 -8.83984 -7.16016 -16 -16 -16h-16
c-8.83984 0 -16 7.16016 -16 16v199.46l-48 45.3301l-48 -45.3301v-199.46c0 -8.83984 -7.16016 -16 -16 -16h-16c-8.83984 0 -16 7.16016 -16 16v210.07c0 6.5 2.84961 12.7695 8 17.6396l76 71.7803c3.19043 3.00977 7.58984 4.50977 12 4.50977s8.80957 -1.5 12 -4.50977
l36 -34v82.6699l-0.0253906 -0.0078125c0 11.1221 5.16992 21.0459 13.2354 27.498l140.8 112.64c6.43066 5.13965 14.21 7.70996 21.9902 7.70996c0.00683594 0 0.0380859 -0.0126953 0.0449219 -0.0126953c8.29785 0 15.9287 -2.88184 21.9453 -7.69727l140.79 -112.63
c8.06543 -6.4541 13.21 -16.3672 13.21 -27.4902v-82.6797l36 34c3.18945 3.00977 7.58984 4.50977 12 4.50977s8.80957 -1.5 12 -4.50977zM388.06 293.8c3.7207 0 5.98047 -4.08984 4.01074 -7.24023l-19.2002 -30.5596l19.1895 -30.5703
c1.98047 -3.14941 -0.279297 -7.23926 -4 -7.23926h-38.9395l-25.1201 -39.9805c-1.84961 -2.9502 -6.15039 -2.9502 -8 0l-25.1201 40h-38.9395c-3.70996 0 -5.98047 4.08984 -4 7.24023l19.1992 30.5596l-19.1992 30.5605c-1.98047 3.14941 0.279297 7.23926 4 7.23926
h38.9395l25.1201 39.9805c1.84961 2.9502 6.15039 2.9502 8 0l25.1104 -39.9902h38.9492z" />
    <glyph glyph-name="tally" unicode="&#xf69c;" horiz-adv-x="640" 
d="M639.25 276.09c2.66992 -8.42969 -1.99023 -17.4199 -10.4199 -20.0898l-92.8301 -29.4404v-242.56c0 -8.83984 -7.16016 -16 -16 -16h-16c-8.83984 0 -16 7.16016 -16 16v227.35l-80 -25.3691v-201.98c0 -8.83984 -7.16016 -16 -16 -16h-16
c-8.83984 0 -16 7.16016 -16 16v186.76l-80 -25.3701v-161.39c0 -8.83984 -7.16016 -16 -16 -16h-16c-8.83984 0 -16 7.16016 -16 16v146.18l-80 -25.3701v-120.81c0 -8.83984 -7.16016 -16 -16 -16h-16c-8.83984 0 -16 7.16016 -16 16v105.59l-78.3203 -24.8398
c-8.41992 -2.67969 -17.4199 1.99023 -20.0898 10.4102l-4.83984 15.25c-2.66992 8.42969 2 17.4199 10.4199 20.0898l92.8301 29.4404v260.06c0 8.83984 7.16016 16 16 16h16c8.83984 0 16 -7.16016 16 -16v-244.84l80 25.3701v219.47c0 8.83984 7.16016 16 16 16h16
c8.83984 0 16 -7.16016 16 -16v-204.26l80 25.3701v178.89c0 8.83984 7.16016 16 16 16h16c8.83984 0 16 -7.16016 16 -16v-163.67l80 25.3701v138.3c0 8.83984 7.16016 16 16 16h16c8.83984 0 16 -7.16016 16 -16v-123.08l78.3203 24.8398
c8.42969 2.66992 17.4199 -2 20.0898 -10.4199z" />
    <glyph glyph-name="theta" unicode="&#xf69e;" horiz-adv-x="352" 
d="M176 416c97.2002 0 176 -100.29 176 -224s-78.7998 -224 -176 -224s-176 100.29 -176 224s78.7998 224 176 224zM176 368c-63.46 0 -117.77 -67.4902 -126.6 -152h253.199c-8.83008 84.5098 -63.1396 152 -126.6 152zM176 16c63.46 0 117.77 67.4902 126.6 152h-253.199
c8.83008 -84.5098 63.1396 -152 126.6 -152z" />
    <glyph glyph-name="tilde" unicode="&#xf69f;" horiz-adv-x="448" 
d="M316.25 97.3301c-31.4805 4.74023 -58.9805 24.0801 -77.7002 49.8301l-70.96 97.6201c-19.2002 26.3594 -56.5996 36.3301 -87.9697 17.5c-20.4199 -12.2705 -31.6201 -35.6504 -31.6201 -59.4707v-58.8096c0 -8.83984 -7.16016 -16 -16 -16h-16
c-8.83984 0 -16 7.16016 -16 16v56.21c0 46.29 25.0098 90.7705 67.2598 109.69c51.2998 22.9697 108.58 5.13965 139.15 -36.8809l74 -101.8c19.2002 -26.3594 56.5996 -36.3301 87.9697 -17.5c20.4199 12.2607 31.6201 35.6504 31.6201 59.4707v58.8096
c0 8.83984 7.16016 16 16 16h16c8.83984 0 16 -7.16016 16 -16v-61.8896c0 -68.71 -61.0303 -123.42 -131.75 -112.78z" />
    <glyph glyph-name="torii-gate" unicode="&#xf6a1;" 
d="M480 272h-32v-64h48c8.7998 0 16 -7.2002 16 -16v-16c0 -8.7998 -7.2002 -16 -16 -16h-48v-208c0 -8.7998 -7.2002 -16 -16 -16h-16c-8.7998 0 -16 7.2002 -16 16v208h-288v-208c0 -8.7998 -7.2002 -16 -16 -16h-16c-8.7998 0 -16 7.2002 -16 16v208h-48
c-8.7998 0 -16 7.2002 -16 16v16c0 8.7998 7.2002 16 16 16h48v64h-32c-17.7002 0 -32 14.2998 -32 32v144c42.0996 -21 88.5 -32 135.6 -32h240.9c47 0 93.4004 11 135.5 32v-144c0 -17.7002 -14.2998 -32 -32 -32zM232 208v64h-120v-64h120zM400 208v64h-120v-64h120z
M48 320h415.9v59.0996c-28.5 -7.2998 -58 -11.0996 -87.5 -11.0996h-240.9c-29.4004 0 -58.9004 3.7998 -87.5 11.0996v-59.0996z" />
    <glyph glyph-name="union" unicode="&#xf6a2;" horiz-adv-x="320" 
d="M272 368c0 8.83984 7.16016 16 16 16h16c8.83984 0 16 -7.16016 16 -16v-208c0 -93.5 -80.6201 -168.53 -175.99 -159.21c-83.1201 8.11035 -144.01 82.8398 -144.01 166.35v200.86c0 8.83984 7.16016 16 16 16h16c8.83984 0 16 -7.16016 16 -16v-208
c0 -69.4404 63.54 -124.33 135.52 -109.59c52.3604 10.7295 88.4805 59.3594 88.4805 112.81v204.78z" />
    </font>
</defs>
</svg>
