<?xml version="1.0" standalone="no"?>
<!DOCTYPE svg PUBLIC "-//W3C//DTD SVG 1.1//EN" "http://www.w3.org/Graphics/SVG/1.1/DTD/svg11.dtd" >
<svg xmlns="http://www.w3.org/2000/svg" xmlns:xlink="http://www.w3.org/1999/xlink" version="1.1">
<metadata>
Created by FontForge 20201107 at Tue Mar 16 10:16:47 2021
 By Robert Madole
Copyright (c) Font Awesome
</metadata>
<!-- Font Awesome Pro 5.15.3 by @fontawesome - https://fontawesome.com License - https://fontawesome.com/license (Commercial License) --><defs>
<font id="FontAwesome5Pro-Regular" horiz-adv-x="512" >
  <font-face 
    font-family="Font Awesome 5 Pro Regular"
    font-weight="400"
    font-stretch="normal"
    units-per-em="512"
    panose-1="2 0 5 3 0 0 0 0 0 0"
    ascent="448"
    descent="-64"
    bbox="-0.0644531 -64.0449 640.01 448.008"
    underline-thickness="25"
    underline-position="-50"
    unicode-range="U+0020-F8FF"
  />
    <missing-glyph />
    <glyph glyph-name="book-heart" unicode="&#xf499;" horiz-adv-x="448" 
d="M448 64c0 -7.7998 -5.5 -14.2002 -12.9004 -15.7002c-4.19922 -13 -4.19922 -51.5996 0 -64.5996c7.30078 -1.40039 12.9004 -7.90039 12.9004 -15.7002v-16c0 -8.7998 -7.2002 -16 -16 -16h-352c-44.2002 0 -80 35.7998 -80 80v352c0 44.2002 35.7998 80 80 80h352
c8.7998 0 16 -7.2002 16 -16v-368zM394 -16c-2.7002 17.2998 -2.7002 46.7002 0 64h-314c-17.5996 0 -32 -14.4004 -32 -32c0 -17.7002 14.2998 -32 32 -32h314zM400 96v304h-320c-17.7002 0 -32 -14.2998 -32 -32v-278.7c9.7998 4.2998 20.5996 6.7002 32 6.7002h320z
M215.5 163.5l-72.5996 71.2998c-21.1006 20.7002 -19.9004 55.1006 3.69922 74.2002c23.8008 19.2998 54.7002 10.2998 70 -4.7998l7.40039 -7.2998l7.40039 7.2998c15.6992 15.3994 46.5 23.8994 70 4.7998s24.7998 -53.5 3.69922 -74.2002l-72.5996 -71.2998
c-4.7002 -4.59961 -12.2998 -4.59961 -17 0z" />
    <glyph glyph-name="menorah" unicode="&#xf676;" horiz-adv-x="640" 
d="M416 352c-17.6699 0 -32 14.3301 -32 32s32 64 32 64s32 -46.3301 32 -64s-14.3301 -32 -32 -32zM320 352c-17.6699 0 -32 14.3301 -32 32s32 64 32 64s32 -46.3301 32 -64s-14.3301 -32 -32 -32zM520 320c8.83984 0 16 -7.16016 16 -16v-144h-48v144
c0 8.83984 7.16016 16 16 16h16zM512 352c-17.6699 0 -32 14.3301 -32 32s32 64 32 64s32 -46.3301 32 -64s-14.3301 -32 -32 -32zM608 352c-17.6699 0 -32 14.3301 -32 32s32 64 32 64s32 -46.3301 32 -64s-14.3301 -32 -32 -32zM424 320c8.83984 0 16 -7.16016 16 -16
v-144h-48v144c0 8.83984 7.16016 16 16 16h16zM32 352c-17.6699 0 -32 14.3301 -32 32s32 64 32 64s32 -46.3301 32 -64s-14.3301 -32 -32 -32zM136 320c8.83984 0 16 -7.16016 16 -16v-144h-48v144c0 8.83984 7.16016 16 16 16h16zM224 352c-17.6699 0 -32 14.3301 -32 32
s32 64 32 64s32 -46.3301 32 -64s-14.3301 -32 -32 -32zM624 320c8.83984 0 16 -7.16016 16 -16v-136c0 -48.5996 -39.4004 -88 -88 -88h-208v-96h184c8.83984 0 16 -7.16016 16 -16v-16c0 -8.83984 -7.16016 -16 -16 -16h-416c-8.83984 0 -16 7.16016 -16 16v16
c0 8.83984 7.16016 16 16 16h184v96h-208c-48.5996 0 -88 39.4004 -88 88v136c0 8.83984 7.16016 16 16 16h16c8.83984 0 16 -7.16016 16 -16v-136c0 -22.0898 17.9102 -40 40 -40h208v176c0 8.83984 7.16016 16 16 16h16c8.83984 0 16 -7.16016 16 -16v-176h208
c22.0898 0 40 17.9102 40 40v136c0 8.83984 7.16016 16 16 16h16zM128 352c-17.6699 0 -32 14.3301 -32 32s32 64 32 64s32 -46.3301 32 -64s-14.3301 -32 -32 -32zM232 320c8.83984 0 16 -7.16016 16 -16v-144h-48v144c0 8.83984 7.16016 16 16 16h16z" />
    <glyph glyph-name="acorn" unicode="&#xf6ae;" horiz-adv-x="448" 
d="M352 384c53.0195 0 96 -42.9805 96 -96v-32c0 -17.6699 -14.3301 -32 -32 -32v-32c0 -98.0596 -55.4004 -187.7 -143.11 -231.55l-48.8896 -24.4502l-48.8896 24.4404c-87.71 43.8496 -143.11 133.489 -143.11 231.55v32c-17.6699 0 -32 14.3301 -32 32v32
c0 53.0195 42.9805 96 96 96h106.02c4.84082 21.5898 14.6406 41.8496 29.3906 58.6494c2.80957 3.2207 6.92969 5.16016 11.3096 5.30078c4.25 0.419922 8.85059 -1.56055 11.9707 -4.7207l11.3496 -11.3193c5.92969 -5.9502 6.17969 -15.3408 0.620117 -21.8604
c-6.69043 -7.86035 -11.7598 -16.6396 -15.1602 -26.04h100.5zM48 288v-16h352v16c0 26.4697 -21.5303 48 -48 48h-256c-26.4697 0 -48 -21.5303 -48 -48zM368 192v32h-288v-32c0 -80.3896 44.6699 -152.67 116.57 -188.62l27.4297 -13.71l27.4297 13.71
c71.9004 35.9502 116.57 108.23 116.57 188.62z" />
    <glyph glyph-name="alicorn" unicode="&#xf6b0;" horiz-adv-x="640" 
d="M448 352c0 -8.83984 -7.16016 -16 -16 -16s-16 7.16016 -16 16s7.16016 16 16 16s16 -7.16016 16 -16zM631.98 384c7.91992 0 11.0293 -10.2695 4.43945 -14.6602l-92.46 -36.6699l0.0400391 -52.2803c0.00976562 -25.3096 -16.0801 -47.8301 -40.04 -56.0098
l-31.0303 -10.5898c-2.60938 -0.889648 -19.9795 -7.13965 -40.9297 -0.169922v-5.62012c0 -31.5498 -11.4297 -61.2002 -32 -84.3496v-155.65c0 -17.6699 -14.3301 -32 -32 -32h-80c-17.6699 0 -32 14.3301 -32 32v123.8l-29.9102 8.54004l-8.50977 -23.71l25.5303 -100.76
c5.12012 -20.2197 -10.1602 -39.8604 -31.0205 -39.8604h-74.7002c-14.79 0 -27.6494 10.1406 -31.1094 24.5205l-24.1201 100.29c-1.42773 5.93457 -2.17578 12.082 -2.17578 18.4521c0 7.77539 1.12598 15.2891 3.22559 22.3877l12.9502 43.7598
c-20.2598 20.4902 -32.1602 48.4502 -32.1602 78.5801c0 2.62988 0.599609 5.08984 0.780273 7.67969c-9.91016 -7.29004 -16.7803 -18.46 -16.7803 -31.6797v-56c0 -8.83984 -7.16016 -16 -16 -16h-16c-8.83984 0 -16 7.16016 -16 16v56
c0 47.1602 37.3604 85.4502 83.9902 87.5996c5.87012 8.45996 13.1299 15.7607 21.04 22.3203c5.05957 -16.46 11.8193 -32.1699 20.8701 -46.54c-8.58008 -10.8896 -13.9004 -24.4502 -13.9004 -39.3799c0 -26.8301 16.54 -49.7197 39.9404 -59.2402l-22.7002 -76.7197
c-0.806641 -2.79297 -1.24121 -5.72266 -1.24121 -8.77441c0 -2.5498 0.301758 -5.0293 0.871094 -7.40527l21.1299 -87.8604h41.5303l-24.0898 95.0498l28.6494 79.7803l107.91 -30.8301v-144h48v160.36c19.3203 14.6094 32 37.5498 32 63.6396v80h32l24.96 -24.9404
c6.77051 -6.7793 14.9697 -4.34961 16.4805 -3.8291l31.0195 10.5898c4.50977 1.54004 7.54004 5.7793 7.54004 10.5498l-0.0498047 65.3496l-44.6699 54.2803h-51.3301c-53.0205 0 -96 -42.9805 -96 -96v-16h-38.1807c-26.4092 0 -51.8594 4.90039 -75.2393 14.2695
c17.3994 -35.6699 48.9795 -62.8799 86.3193 -73.3398c6.70996 -1.87012 11.1504 -8.25 11.1504 -15.21v-16.3594c0 -10.4404 -9.87988 -18.21 -19.9902 -15.6299c-80.25 20.4893 -140.01 97.1191 -140.01 183.21c0 11.46 9.37988 19.0596 19.1602 19.0596
c5.04004 0 10.1895 -2.01953 14.21 -6.55957c24.4297 -27.6006 61.4199 -39.71 98.3203 -40.9404c14.7793 63.79 72.04 111.5 140.26 111.5h135.95c5.05957 0 8.94922 -4.67969 7.93945 -9.63965c-3.47949 -17.0703 -16.1396 -30.5605 -32.5098 -35.79l15.2803 -18.5703
h105.37z" />
    <glyph glyph-name="apple-crate" unicode="&#xf6b1;" horiz-adv-x="576" 
d="M434.22 397.53c-12.25 -11.4307 -31.5498 -14.5107 -50.0195 -13.2803c-0.549805 3.86035 -3.31055 33.6201 13.2197 50.2197c14.3496 13.4004 37.1396 14.1406 50.0205 13.2803c1.20996 -18.1904 -1.93066 -38.0303 -13.2207 -50.2197zM242.53 397.53
c-12.25 -11.4307 -31.5498 -14.5107 -50.0205 -13.2803c-0.549805 3.86035 -3.30957 33.6201 13.2207 50.2197c14.3496 13.4004 37.1396 14.1406 50.0195 13.2803c1.20996 -18.1904 -1.92969 -38.0303 -13.2197 -50.2197zM560 256c8.83984 0 16 -7.16016 16 -16v-288
c0 -8.83984 -7.16016 -16 -16 -16h-544c-8.83984 0 -16 7.16016 -16 16v288c0 8.83984 7.16016 16 16 16h49.6904c-3.98047 26.6201 -0.420898 63.3799 17.3398 89.0898c11.25 16.2998 27.0693 26.6699 45.6895 30.0303c18.2803 3 43.8105 -2.9502 63.2803 -11.3604
c19.4404 8.39062 44.7803 14.4307 63 11.4102l0.280273 -0.0498047c12.3994 -2.23047 23.3701 -7.81055 32.7598 -15.9004c9.37988 8.08008 20.3301 13.6699 32.6797 15.9004c18.3701 3.03027 43.7803 -2.96973 63.2803 -11.3604
c19.4404 8.39062 44.7803 14.4307 63 11.4102l0.290039 -0.0498047c18.6904 -3.36035 34.5303 -13.75 45.7803 -30.0605c17.6602 -25.5098 21.1895 -62.0898 17.2197 -89.0596h49.71zM314.5 317.8c-0.280273 -0.410156 -0.410156 -1 -0.679688 -1.41992
c5.94922 -20.3701 7.10938 -42.4297 4.46973 -60.3799h143.29c0.259766 1.33008 0.790039 2.37988 1.01953 3.75c3.2207 17.3896 1.12012 43.3701 -9 58.0303c-5.17969 7.5 -10.8096 9.35938 -14.6191 10.0596c-7.06055 1.12012 -28.4707 -3.41992 -43.25 -11.6895
l-11.7207 -6.56055l-11.6895 6.5498c-14.8799 8.32031 -36.6006 12.8604 -43.3799 11.6904c-3.53027 -0.620117 -9.19043 -2.41992 -14.4404 -10.0303zM122.53 317.8c-10.1904 -14.7197 -12.3398 -40.71 -9.16016 -57.6494
c0.25 -1.52051 0.830078 -2.66992 1.12012 -4.14062h155.1c0.259766 1.33008 0.790039 2.37988 1.02051 3.75c3.21973 17.3906 1.14941 43.3604 -8.9707 58c-3.96973 5.75977 -8.65918 8.9707 -14.6592 10.0898c-7.09082 1.12012 -28.4707 -3.41992 -43.25 -11.6895
l-11.7207 -6.56055l-11.7197 6.56055c-14.8799 8.30957 -36.3496 12.6201 -43.3799 11.6699c-3.46973 -0.620117 -9.12988 -2.41992 -14.3799 -10.0303zM528 -16v88h-480v-88h480zM528 120v88h-480v-88h480zM96 144c-8.83984 0 -16 7.16016 -16 16s7.16016 16 16 16
s16 -7.16016 16 -16s-7.16016 -16 -16 -16zM480 16c-8.83984 0 -16 7.16016 -16 16s7.16016 16 16 16s16 -7.16016 16 -16s-7.16016 -16 -16 -16zM96 16c-8.83984 0 -16 7.16016 -16 16s7.16016 16 16 16s16 -7.16016 16 -16s-7.16016 -16 -16 -16zM480 144
c-8.83984 0 -16 7.16016 -16 16s7.16016 16 16 16s16 -7.16016 16 -16s-7.16016 -16 -16 -16z" />
    <glyph glyph-name="axe" unicode="&#xf6b2;" horiz-adv-x="640" 
d="M525.74 288h114.26v-32c0 -123.71 -100.29 -224 -224 -224h-32v114.26l-58.5801 58.5898l-264.16 -264.159c-6.25 -6.25 -16.3799 -6.25 -22.6299 0l-33.9395 33.9395c-6.25 6.25 -6.25 16.3799 0 22.6299l264.149 264.16l-35.4697 35.4697
c-12.5 12.4902 -12.5 32.75 0 45.25l96.4902 96.4902c6.25 6.25 14.4395 9.37012 22.6299 9.37012c8.18945 0 16.3799 -3.12012 22.6299 -9.37012l35.46 -35.4795l39.9199 39.9199c6.25 6.25 16.3799 6.25 22.6299 0l33.9404 -33.9307c6.25 -6.25 6.25 -16.3799 0 -22.6299
l-39.9199 -39.9199zM432 80.7197c84.3096 7.62988 151.65 74.9707 159.29 159.271h-85.4199l-4.69043 4.68945l-148.699 148.7l-73.8506 -73.8701l148.68 -148.68l4.69043 -4.69043v-85.4199z" />
    <glyph glyph-name="axe-battle" unicode="&#xf6b3;" 
d="M512 271.62l-15.2695 -15.6201l15.2695 -15.6201c-3.73047 -68.04 -31.1904 -128.82 -73.5498 -171.67c-3.19043 -3.21973 -7.04004 -4.7002 -10.8301 -4.7002c-7.08008 0 -13.96 5.14062 -16.0098 13.6602c-4.7002 19.5205 -30.54 106.3 -131.61 106.3v-231.97
c0 -8.83984 -7.16016 -16 -16 -16h-16c-8.83984 0 -16 7.16016 -16 16v231.96c-100.01 0 -126.16 -86.7998 -130.85 -106.3c-2.05078 -8.52051 -8.93066 -13.6602 -16.0107 -13.6602c-3.79004 0 -7.63965 1.48047 -10.8301 4.7002
c-45.5996 46.1299 -74.3096 112.92 -74.3096 187.3s28.71 141.17 74.2998 187.3c3.19043 3.21973 7.04004 4.7002 10.8301 4.7002c7.08008 0 13.9697 -5.15039 16.0205 -13.6602c4.67969 -19.4902 30.8398 -106.3 130.85 -106.3v39.96c0 8.83984 7.16016 16 16 16h16
c8.83984 0 16 -7.16016 16 -16v-39.9697c101.07 0 126.92 86.7793 131.61 106.3c2.0498 8.51953 8.92969 13.6602 16.0098 13.6602c3.79004 0 7.63965 -1.4707 10.8301 -4.7002c42.3594 -42.8496 69.8193 -103.63 73.5498 -171.67zM76.8799 144.47
c31.8896 53.6699 84.4297 87.5 155.12 87.4902v48.0703c-70.9199 0 -123.36 34.04 -155.12 87.5c-18.6104 -32.8799 -28.8096 -71.5605 -28.8096 -111.53c0 -39.96 10.1992 -78.6504 28.8096 -111.53zM462.04 222.77l-32.4805 33.2305l32.4805 33.2305
c-3.95996 28.21 -12.8799 54.7695 -26.1699 78.3096c-32.1797 -54.1699 -84.7197 -87.5 -155.87 -87.5v-48.0703c72.4102 0 124.39 -34.5 155.87 -87.5098c13.2998 23.54 22.21 50.0996 26.1699 78.3096z" />
    <glyph glyph-name="bat" unicode="&#xf6b5;" horiz-adv-x="640" 
d="M638.61 160.75c4.90918 -10.9902 -3.90039 -22.3398 -15.2002 -22.3301c-1.75 0 -3.56055 0.270508 -5.37988 0.849609l-16.4805 5.28027c-6.93945 2.21973 -14.0498 3.29004 -21.0693 3.29004c-21.8301 0 -42.8506 -10.3398 -55.4609 -28.5098l-38.4092 -55.3301
l-12.3008 11.8203c-13.1094 12.5898 -30.1396 18.75 -47.0898 18.75c-20.1299 0 -40.1494 -8.69043 -53.3594 -25.6006l-53.8604 -68.9697l-53.8604 68.9697c-13.21 16.9102 -33.2295 25.6006 -53.3594 25.6006c-16.9404 0 -33.9707 -6.16016 -47.0801 -18.75
l-12.3105 -11.8203l-38.3994 55.3203c-12.6104 18.1797 -33.6299 28.5098 -55.46 28.5098c-7.34277 0 -14.4297 -1.16406 -21.0703 -3.29004l-16.4795 -5.28027c-1.83008 -0.580078 -3.63086 -0.849609 -5.38086 -0.849609c-11.3096 0 -20.1191 11.3496 -15.21 22.3398
l70.3203 157.56c5.46973 12.2705 17.8398 19.4004 30.6699 19.4004c0.0146484 0 0.0644531 -0.0214844 0.078125 -0.0214844c6.19727 0 12.0107 -1.65625 17.0225 -4.54883l104.899 -60.4395l31.6201 111.3l58.1104 -48h11.7695l58.1201 48l31.6299 -111.31l104.9 60.4395
c5.38965 3.11035 11.29 4.57031 17.0996 4.57031c12.8203 0 25.2002 -7.12988 30.6699 -19.4004zM485.59 146.7c19.5 28.0801 50.7402 45.8301 84.9902 48.7002l-39.46 88.4297l-91.5303 -52.7402l-53.3203 -30.7197l-16.8193 59.2002l-11.54 40.6201l-1.45996 -1.2002
l-13.3105 -10.9902h-46.29l-13.29 11l-1.45996 1.2002l-11.54 -40.6201l-16.8193 -59.2002l-53.3203 30.7197l-91.5303 52.7402l-39.46 -88.4199c34.2402 -2.88965 65.4902 -20.6396 84.9805 -48.7197l10.0703 -14.5098c14.9492 6.7998 31.3594 10.3799 48.2998 10.3799
c36.0898 0 69.3193 -16.0605 91.1895 -44.0605l16.0303 -20.5293l16.0195 20.5293c21.8701 28 55.1104 44.0605 91.1904 44.0605c16.9404 0 33.3496 -3.58008 48.2998 -10.3799z" />
    <glyph glyph-name="blender-phone" unicode="&#xf6b6;" horiz-adv-x="576" 
d="M352 56c13.2598 0 24 -10.7402 24 -24c0 -13.25 -10.7402 -24 -24 -24s-24 10.75 -24 24c0 13.2598 10.7402 24 24 24zM489.91 117.99c31.9199 -15.6006 54.0898 -48.0703 54.0898 -85.9902v-64c0 -17.6699 -14.3301 -32 -32 -32h-320c-17.6699 0 -32 14.3301 -32 32v64
c0 40.4297 25.0596 74.8604 60.4297 89.0098l-28.4297 326.99h384zM513.87 400h-269.51l23.6494 -272h174.91l25.04 96h-107.96c-4.41992 0 -8 3.58008 -8 8v16c0 4.41992 3.58008 8 8 8h116.3l16.7002 64h-133c-4.41992 0 -8 3.58008 -8 8v16c0 4.41992 3.58008 8 8 8
h141.35zM496 -16v48c0 26.4697 -21.5303 48 -48 48h-192c-26.4697 0 -48 -21.5303 -48 -48v-48h288zM115.78 325.39l-45.04 4.41992c-17.6504 -47.9395 -17.2803 -100.779 0 -147.72l45.0293 4.41992c7.44043 0.730469 14.4609 -3.4502 17.2402 -10.2598l25.7803 -63.2598
c3.01953 -7.40039 0.200195 -15.8506 -6.67969 -20.0703l-39.4102 -24.1797c-12.5303 -7.68066 -31.7803 -6 -41.6504 4.7998c-94.0996 102.94 -94.6699 258.89 -2.09961 362.49c11.1396 12.4697 29.5596 15.8398 43.8896 7.0498l39.2803 -24.0996
c6.87988 -4.2207 9.7002 -12.6807 6.67969 -20.0703l-25.7803 -63.2598c-2.7793 -6.80078 -9.80957 -10.9902 -17.2393 -10.2607z" />
    <glyph glyph-name="book-dead" unicode="&#xf6b7;" horiz-adv-x="448" 
d="M128.3 150.36c-1.18945 4.48926 1.21973 9.15918 5.37988 10.4395l49.3301 15.2002l-49.3301 15.2002c-4.16016 1.28027 -6.55957 5.95996 -5.37012 10.4395l4.31055 16.2402c1.18945 4.48047 5.51953 7.07031 9.66992 5.79004l97.71 -30.1104l97.71 30.1104
c4.15039 1.28027 8.48047 -1.30957 9.66992 -5.79004l4.31055 -16.2402c1.18945 -4.48926 -1.20996 -9.15918 -5.37012 -10.4395l-49.3301 -15.2002l49.3301 -15.2002c4.16016 -1.28027 6.55957 -5.95996 5.37012 -10.4395l-4.31055 -16.2402
c-1.18945 -4.48047 -5.51953 -7.07031 -9.66992 -5.79004l-97.71 30.1104l-97.7197 -30.1104c-4.15039 -1.28027 -8.48047 1.30957 -9.66992 5.79004zM192 253.09c-19.3203 11.6797 -32 30.04 -32 50.9102c0 35.3496 35.8203 64 80 64s80 -28.6504 80 -64
c0 -20.8701 -12.6797 -39.2305 -32 -50.9102v-13.0898c0 -8.83984 -7.16016 -16 -16 -16h-64c-8.83984 0 -16 7.16016 -16 16v13.0898zM272 320c-8.83984 0 -16 -7.16016 -16 -16s7.16016 -16 16 -16s16 7.16016 16 16s-7.16016 16 -16 16zM208 320
c-8.83984 0 -16 -7.16016 -16 -16s7.16016 -16 16 -16s16 7.16016 16 16s-7.16016 16 -16 16zM448 64c0 -7.7998 -5.5 -14.2002 -12.9004 -15.7002c-4.19922 -13 -4.19922 -51.5996 0 -64.5996c7.30078 -1.40039 12.9004 -7.90039 12.9004 -15.7002v-16
c0 -8.7998 -7.2002 -16 -16 -16h-352c-44.2002 0 -80 35.7998 -80 80v352c0 44.2002 35.7998 80 80 80h352c8.7998 0 16 -7.2002 16 -16v-368zM394 -16c-2.7002 17.2998 -2.7002 46.7002 0 64h-314c-17.5996 0 -32 -14.4004 -32 -32c0 -17.7002 14.2998 -32 32 -32h314z
M400 96v304h-320c-17.7002 0 -32 -14.2998 -32 -32v-278.7c9.7998 4.2998 20.5996 6.7002 32 6.7002h320z" />
    <glyph glyph-name="book-spells" unicode="&#xf6b8;" horiz-adv-x="448" 
d="M448 64c0 -7.7998 -5.5 -14.2002 -12.9004 -15.7002c-4.19922 -13 -4.19922 -51.5996 0 -64.5996c7.30078 -1.40039 12.9004 -7.90039 12.9004 -15.7002v-16c0 -8.7998 -7.2002 -16 -16 -16h-352c-44.2002 0 -80 35.7998 -80 80v352c0 44.2002 35.7998 80 80 80h352
c8.7998 0 16 -7.2002 16 -16v-368zM394 -16c-2.7002 17.2998 -2.7002 46.7002 0 64h-314c-17.5996 0 -32 -14.4004 -32 -32c0 -17.7002 14.2998 -32 32 -32h314zM400 96v304h-320c-17.7002 0 -32 -14.2998 -32 -32v-278.7c9.7998 4.2998 20.5996 6.7002 32 6.7002h320z
M245.34 181.33l-53.3398 26.6699l53.3398 26.6699l26.6602 53.3301l26.6602 -53.3301l53.3398 -26.6699l-53.3398 -26.6699l-26.6602 -53.3301zM160 248l-18.6699 37.3301l-37.3301 18.6699l37.3301 18.6699l18.6699 37.3301l18.6602 -37.3301l37.3398 -18.6699
l-37.3398 -18.6699z" />
    <glyph glyph-name="bow-arrow" unicode="&#xf6b9;" 
d="M145.78 161.35l-141.09 140.92c-6.25 6.24023 -6.25 16.3604 0 22.6006l11.3096 11.2998c6.25 6.24023 16.3799 6.24023 22.6299 0l7.28027 -7.26953c43.1602 33.2998 95.6797 51.5596 151.12 51.5596c46.9697 0 91.8096 -13.1904 130.689 -37.4004l-34.96 -34.9092
c-29.0293 15.8691 -61.7197 24.3691 -95.7295 24.3691c-42.5898 0 -83.0205 -13.3896 -116.851 -37.8496l99.54 -99.4199zM493.2 447.7c10.2598 2.04004 20.8193 -6.7002 18.46 -18.4307l-25.7197 -128.43c-2.44043 -12.21 -17.5605 -16.9199 -26.4805 -8.00977
l-34.46 34.4199l-250.62 -250.33l16.5703 -49.6396c0.679688 -2.03906 1.05664 -4.22656 1.05664 -6.49316c0 -5.66895 -2.30469 -10.8037 -6.02637 -14.5176l-63.6709 -63.5898c-4.10938 -4.09961 -9.3291 -6.01953 -14.4697 -6.01953
c-8.37988 0 -16.5801 5.08008 -19.5703 14.0498l-18.5498 55.5801l-55.6494 18.5303c-14.5 4.81934 -18.8398 23.1992 -8.04004 33.9893l63.6797 63.6006c8.63965 8.63965 19.0996 5.59961 21.0303 4.95996l49.7002 -16.5498l250.63 250.33l-34.4707 34.4199
c-8.85938 8.84961 -4.26953 24 8.02051 26.4492zM116.27 -6.84961l32.9209 32.8799l-14.9307 44.7197l-44.7793 14.9102l-32.9209 -32.8799l44.7803 -14.9102zM455.64 353.14l9.66016 48.25l-48.2998 -9.64941zM407.07 264.14
c24.5693 -39.0293 37.9395 -84.1299 37.9297 -131.359c0 -55.3701 -18.29 -107.82 -51.6396 -150.92l7.2793 -7.27051c6.25 -6.24023 6.25 -16.3594 0 -22.5996l-11.3096 -11.2998c-6.24023 -6.24023 -16.3701 -6.24023 -22.6201 0l-141.75 141.579l33.9404 33.9004
l100.199 -100.08c24.4902 33.79 37.9102 74.1602 37.9102 116.69c0 34.3096 -8.70996 67.2393 -24.8994 96.4502z" />
    <glyph glyph-name="campfire" unicode="&#xf6ba;" 
d="M256 128c-79.5303 0 -144 64.4697 -144 144c0 44.7803 44.8301 119.02 108 176c24.6104 -22.21 46.3398 -46.0098 63.8604 -69.4805c10.6895 12.7305 22.7695 25.4209 36.1396 37.4805c46.5801 -42.04 80 -110.71 80 -144c0 -79.5303 -64.4697 -144 -144 -144z
M220.26 380.13c-39.4902 -44.75 -60.2598 -88.8096 -60.2598 -108.13c0 -52.9297 43.0703 -96 96 -96c52.9404 0 96 43.0703 96 96c0 10.9297 -12.1797 42.71 -33.4902 73.1299l-36.8496 -43.8896l-36.2598 48.5596c-7.56055 10.1201 -16.0107 20.3105 -25.1406 30.3301z
M500.9 -17.46c8.33984 -2.62988 12.9795 -11.5996 10.3691 -20.04l-4.70996 -15.2695c-2.59961 -8.43066 -11.4697 -13.1309 -19.7998 -10.5l-230.76 72.9893l-230.76 -72.9893c-8.33008 -2.64062 -17.2002 2.05957 -19.7998 10.5l-4.70996 15.2695
c-2.61035 8.42969 2.03906 17.4102 10.3691 20.04l165.41 52.3301l-165.41 52.3203c-8.33008 2.62988 -12.9697 11.6094 -10.3691 20.04l4.70996 15.2695c2.59961 8.42969 11.4697 13.1396 19.7998 10.5l230.76 -72.9902l230.77 72.9805
c8.33008 2.63965 17.2002 -2.07031 19.8008 -10.5l4.70996 -15.2705c2.59961 -8.42969 -2.0498 -17.3994 -10.3799 -20.04l-165.41 -52.3193z" />
    <glyph glyph-name="campground" unicode="&#xf6bb;" horiz-adv-x="640" 
d="M624 -16c8.83984 0 16 -7.16016 16 -16v-16c0 -8.83984 -7.16016 -16 -16 -16h-608c-8.83984 0 -16 7.16016 -16 16v16c0 8.83984 7.16016 16 16 16h28.5303l245.899 341.21l-63.3301 87.8799c-5.22949 7.12012 -3.67969 17.1406 3.44043 22.3604l12.8799 9.4502
c7.12988 5.22949 17.1504 3.68945 22.3701 -3.44043l54.21 -75.2197l54.21 75.2197c5.23047 7.12988 15.2402 8.66992 22.3701 3.44043l12.8799 -9.4502c7.12012 -5.21973 8.66016 -15.2402 3.44043 -22.3604l-63.3301 -87.8799l245.899 -341.21h28.5303zM320 284.18
l-216.33 -300.18h99.9697l116.36 160l116.36 -160h99.9697z" />
    <glyph glyph-name="candle-holder" unicode="&#xf6bc;" horiz-adv-x="448" 
d="M160 256c-45.9297 0 -78 32.6104 -78 79.29c0 29.8701 32.3799 74.71 78 112.71c45.4102 -37.8203 78 -82.7197 78 -112.71c0 -46.6797 -32.0703 -79.29 -78 -79.29zM160 381.83c-20.0098 -22.0898 -29.4502 -40.0801 -30.0098 -46.8203
c0.00976562 -11.3896 3.91016 -31 30.0098 -31s30 19.6006 30 31.29c-0.55957 6.54004 -9.99023 24.46 -30 46.5303zM376 80c39.7002 0 72 -32.2998 72 -72s-32.2998 -72 -72 -72h-360c-8.83984 0 -16 7.16016 -16 16v16c0 8.83984 7.16016 16 16 16h32v208
c0 17.6699 14.3301 32 32 32h160c17.6699 0 32 -14.3301 32 -32v-208h36.4199c-2.68945 7.54004 -4.41992 15.54 -4.41992 24c0 39.7002 32.2998 72 72 72zM224 -16v192h-48v-56c0 -13.25 -10.75 -24 -24 -24s-24 10.75 -24 24v56h-32v-192h128zM376 -16
c13.2305 0 24 10.7695 24 24s-10.7695 24 -24 24s-24 -10.7695 -24 -24s10.7695 -24 24 -24z" />
    <glyph glyph-name="cauldron" unicode="&#xf6bf;" horiz-adv-x="448" 
d="M448 252c0 -6.62988 -6.26953 -12 -14 -12h-29.6299c27.2803 -42.4697 43.6299 -91.5596 43.6299 -137.6c0 -39.0801 -11.8203 -70.6504 -32 -95.5303v-46.8701c0 -13.25 -10.75 -24 -24 -24s-24 10.75 -24 24v7.49023
c-38.9502 -21.2998 -89.1396 -31.4902 -144 -31.4902s-105.05 10.1904 -144 31.4902v-7.49023c0 -13.25 -10.75 -24 -24 -24s-24 10.75 -24 24v46.8701c-20.1797 24.8799 -32 56.4502 -32 95.5303c0 46.0498 16.3496 95.1396 43.6299 137.6h-29.6299
c-7.73047 0 -14 5.37012 -14 12v24c0 6.62988 6.26953 12 14 12h420c7.73047 0 14 -5.37012 14 -12v-24zM393.49 64c4.06934 11.2197 6.50977 23.8604 6.50977 38.4004c0 45.6094 -21.1504 97.8301 -54.9102 137.6h-242.17
c-33.7695 -39.7695 -54.9199 -91.9902 -54.9199 -137.6c0 -14.54 2.44043 -27.1807 6.50977 -38.4004h1.49023c-0.490234 0 -0.889648 -0.25 -1.37012 -0.280273c26.0098 -70.9795 123.72 -79.7197 169.37 -79.7197s143.36 8.74023 169.37 79.7197
c-0.480469 0.0302734 -0.879883 0.280273 -1.37012 0.280273h1.49023zM160 384c-17.6699 0 -32 14.3301 -32 32s14.3301 32 32 32s32 -14.3301 32 -32s-14.3301 -32 -32 -32zM272 320c-26.5098 0 -48 21.4902 -48 48s21.4902 48 48 48s48 -21.4902 48 -48
s-21.4902 -48 -48 -48z" />
    <glyph glyph-name="claw-marks" unicode="&#xf6c2;" 
d="M7.11035 223.49c56.3496 -26.75 199.359 -108.601 280.449 -280.53c2.33008 -4.92969 -4.11914 -9.34961 -7.97949 -5.49023l-117.13 117.16c-6 6 -14.1299 9.37012 -22.6201 9.37012h-43.7305v43.7305c0 8.48926 -3.36914 16.6299 -9.36914 22.6299l-85.1104 85.1299
c-3.90039 3.91016 0.5 10.3701 5.49023 8zM246.69 418.37l-21.1309 21.1201c-3.89941 3.91016 0.5 10.3701 5.49023 8c56.3604 -26.75 199.37 -108.601 280.44 -280.53c2.33008 -4.92969 -4.12012 -9.34961 -7.98047 -5.49023l-53.1396 53.1602
c-6 6 -14.1299 9.37012 -22.6201 9.37012h-43.7197v43.7402c0 8.49023 -3.37012 16.6299 -9.37012 22.6299l-52.25 52.2598c-6 6 -14.1299 9.37012 -22.6201 9.37012h-43.7305v43.7402c0 8.49023 -3.36914 16.6299 -9.36914 22.6299zM508.94 -18.5303
c6.58984 -14 2.14941 -30.6299 -10.54 -39.5596c-5.59082 -3.94043 -12.0205 -5.86035 -18.46 -5.86035c-0.0117188 0 -0.0410156 0.00878906 -0.0517578 0.00878906c-7.78711 0 -14.9238 2.81055 -20.4482 7.47168l-114.971 80.4697h-64.4199v62.0596l-65.9199 65.9404
h-62.0498v63.5596l-144.28 179.7c-9.30957 9.15039 -10.7695 26.4404 -1.74023 39.21c8.95996 12.6406 25.6807 17 39.5801 10.3906c275.87 -130.92 407.78 -344.63 461.86 -460.36zM359.6 72l76.3008 -53.4297c-53.1201 94.0801 -158.87 240.5 -343.051 347.27
l107.221 -133.399v-32.4404h33.9297l94.04 -94.0596v-33.9404h31.5596z" />
    <glyph glyph-name="coffee-togo" unicode="&#xf6c5;" horiz-adv-x="448" 
d="M432 352c8.83984 0 16 -7.16016 16 -16v-32c0 -8.83984 -7.16016 -16 -16 -16h-19.8398l-25.7998 -322.55c-1.33008 -16.6299 -15.2207 -29.4502 -31.9004 -29.4502h-260.92c-16.6797 0 -30.5703 12.8203 -31.9004 29.4502l-25.7998 322.55h-19.8398
c-8.83984 0 -16 7.16016 -16 16v32c0 8.83984 7.16016 16 16 16h16l24.71 74.1201c4.36035 13.0703 16.4502 21.8799 30.2305 21.8799h274c13.7695 0 26 -8.80957 30.3496 -21.8799l24.71 -74.1201h16zM98.5996 400l-21.3398 -64h293.471l-21.3301 64h-250.801zM108.31 -16
h231.37l7.68066 96h-246.73zM358.89 224l5.11035 64h-280.01l5.12012 -64h269.779z" />
    <glyph glyph-name="corn" unicode="&#xf6c7;" 
d="M441.79 447.68c41.7402 -3.64941 72.4795 -39.1602 70.0801 -80.2598v-1l-0.0400391 -1c-0.496094 -11.8135 -3.69922 -23.0742 -8.92969 -32.9395c0.390625 -3.16504 0.575195 -6.2998 0.575195 -9.56934c0 -7.68555 -1.1123 -15.1133 -3.18555 -22.1309
c-2.79297 -9.02832 -7.20898 -17.4131 -12.8799 -24.7002c-0.490234 -9.33008 -2.70996 -18.6299 -6.67969 -27.4502c-3.8125 -8.46582 -9.07617 -16.0615 -15.5508 -22.5498c-1.5498 -8.71973 -4.63965 -17.1699 -9.23926 -24.9102
c-4.53711 -7.9834 -10.3828 -14.9629 -17.3906 -20.8096c-2.35938 -8.49023 -6.2002 -16.6406 -11.4902 -24.04c-2.93945 -4.11035 -6.93945 -7.06055 -10.5498 -10.46c5.73047 -4.68066 11.2998 -9.64062 16.6201 -14.96l42.1602 -42.1504
c9.01953 -9.00977 4.34961 -24.4199 -8.15039 -26.9199l-135.93 -27.1797l-57.8301 -57.8105c-20.8604 -20.8496 -47.5 -36 -76.75 -39.75c-39.8203 -5.10938 -78.0195 7.91992 -105.41 35.2998l-60.7002 61.9707c-42.6396 49.3193 -40.7393 124.229 6.51074 171.46
l61.4795 61.46l27.1904 135.87c2.5 12.4893 17.9199 17.1592 26.9297 8.14941l42.1602 -42.1494c5.44043 -5.43066 10.1504 -11.1406 14.9404 -16.8203c3.95996 4.55957 7.7998 9.26953 12.8096 12.7998c7.46973 5.33008 15.71 9.23047 24.4004 11.5801
c5.58984 6.65039 12.3096 12.3096 19.9092 16.6104c7.84473 4.64746 16.7422 7.9834 26.0605 9.58008c6.60938 6.45996 14.4795 11.8496 23.3799 15.8594c8.51953 3.62012 17.46 5.65039 26.6299 6.07031c7.49219 5.72949 16.1475 10.1299 25.4502 12.79
c7.00977 2.07031 14.2598 3.12012 21.5303 3.12012c3.60938 0 7.18945 -0.25 10.7197 -0.75c10.3994 5.18945 22.0303 8.00977 34.1299 8.00977c2.46973 0 4.96973 -0.120117 7.04004 -0.320312zM64.3799 68.21l52.7402 52.7197
c27.29 27.2803 58.9795 47.1602 92.7695 59.1699c13.3203 53.1406 -2.98926 109.29 -48.9492 155.23l-18.3301 -91.6396l-71.7305 -71.7002c-28.2002 -28.2002 -30.5703 -73.1602 -6.5 -103.78zM307.62 78.7402l91.6602 18.3193
c-32.96 32.9502 -73.6299 48.4209 -114.84 48.4209c-47.4209 0 -95.5605 -20.4805 -133.48 -58.3906l-53.3896 -53.3701l27.5 -27.4893c30.3799 -30.3701 80.4395 -29.5605 110.819 0.80957zM447.95 342.6c47.0098 24.1201 -15.0205 86.75 -38.3906 42.0703
c-11.5791 11.2002 -25.0098 7.65039 -27.5898 6.88965c-9.66016 -2.75977 -17.0098 -10.1094 -19.7695 -19.2998c-5.2998 3.43066 -15.5703 7.2002 -27.1299 2.2998c-9.19043 -4.13965 -15.1699 -12.4092 -16.7803 -21.3799
c-0.360352 0.169922 -13.3203 6.91016 -26.9004 -1.13965c-8.50977 -4.83008 -13.5693 -13.5703 -14.2598 -22.5303c-6.63965 2.5 -17.1699 3.32031 -26.6602 -3.45996c-6.26953 -4.41992 -9.56934 -11.2197 -10.9297 -18.4102
c18.9297 -37.0596 26.1299 -76.6592 21.29 -115.62c7.83008 0.850586 15.71 1.32031 23.6201 1.32031c30.4795 0 60.0303 -6.87988 87.2197 -19.5303c6.24023 1.6709 12.1699 4.6709 16.29 10.4404c5.74023 8.0498 6.66016 17.9297 3.44043 26.4297
c9.19922 0.69043 17.9297 5.74023 22.7695 14.25c5.0498 8.51074 5.28027 18.6201 1.13965 26.8906c9.19043 1.60938 17.4707 7.35938 21.6104 16.5498c4.13965 9.18945 2.98047 19.2998 -2.07031 27.1201c8.95996 2.75 16.5508 9.87988 19.5508 19.5293
c2.97949 10.1104 0 20.4502 -6.4502 27.5801z" />
    <glyph glyph-name="cow" unicode="&#xf6c8;" horiz-adv-x="640" 
d="M624.48 210.01c10.0098 -11.6201 15.5195 -26.4502 15.5195 -41.79v-104.22c0 -35.3496 -28.6602 -64 -64 -64h-14.1904c-21.875 0.00292969 -41.084 11.2812 -52.1396 28.4004l-35.46 54.8896c-6.67969 10.3496 -10.2402 22.4102 -10.2402 34.7295v41.9805
l-15.9395 15.96l-0.0400391 -143.97c-0.00976562 -17.6699 -14.3301 -31.9902 -32 -31.9902h-63.96c-17.6699 0 -32 14.3301 -32 32v40.0098c-2.52051 -0.859375 -5.33984 -1.29004 -7.95996 -2.0293v-13.9805c0 -8.83984 -7.16016 -16 -16 -16s-16 7.16016 -16 16v8.69043
c-2.73047 -0.150391 -13.3203 -0.160156 -16 -0.0107422v-8.67969c0 -8.83984 -7.16016 -16 -16 -16s-16 7.16016 -16 16v13.9297c-2.64062 0.75 -5.49023 1.18066 -8.04004 2.05078v-39.9805c0 -17.6699 -14.3301 -32 -32 -32h-64c-17.6699 0 -32 14.3301 -32 32v288
c0 4.46973 0.479492 8.83008 1.34961 13.04c-14.8096 -5.86035 -25.3799 -20.1602 -25.3799 -37.04v-96c0 -39.7598 -32.2402 -72 -72 -72v32c0 20.1201 9.48047 37.8604 23.9902 49.5898v86.4102c0 48.5996 39.3994 88 88 88h318.97
c31.998 -0.000976562 60.3135 -15.5977 77.7705 -39.6904l59.9893 -69.5996c4.78027 4.48047 10.0205 8.54004 16.1006 11.5801c10.6299 5.32031 23.1494 -2.41992 23.1494 -14.3096v-42.8203zM210.11 127.43c61.5996 -20.9893 62.4893 -20.8896 123.79 0.0400391
c-6.9707 27.7998 -31.9707 48.5303 -61.8906 48.5303c-29.9297 0 -54.9502 -20.75 -61.8994 -48.5703zM592 64v104.2c0 3.83984 -1.37988 7.5498 -3.87988 10.46l-118.28 137.49c-9 12.4297 -23.5303 19.8496 -38.8701 19.8496h-51.2695
c-0.799805 -1.5 -25.3604 -34.8203 -25.3604 -34.8203c-21.8096 -28.9297 -51.3896 -45.1797 -82.2295 -45.1797h-0.169922c-30.8408 0 -60.4209 16.25 -82.2305 45.1797c0 0 -24.5596 33.3203 -25.3604 34.8203h-4.31934c-8.82031 0 -16 -7.17969 -16 -16v-272h32v64
c0 45.3096 37.8398 96 95.9893 96c57.8506 0 95.9902 -50.4102 95.9902 -96v-64h31.9707l0.0390625 192.68c0 18.8799 22.8203 28.3301 36.1709 14.9805l75.7695 -75.7705v-61.8701c0.870117 -2.95996 1.69043 -5.72949 2.55957 -8.67969l35.4609 -54.8994
c2.60938 -4.03027 7.0293 -6.44043 11.8291 -6.44043h14.1904c8.82031 0 16 7.17969 16 16zM560 144c8.83984 0 16 -7.16016 16 -16s-7.16016 -16 -16 -16s-16 7.16016 -16 16s7.16016 16 16 16z" />
    <glyph glyph-name="dagger" unicode="&#xf6cb;" horiz-adv-x="384" 
d="M344 352c22.0898 0 40 -17.9102 40 -40s-17.9102 -40 -40 -40c-19.25 0 -34.5703 13.8799 -38.3799 32h-33.6201v-264.05l-63.3604 -95.04c-3.95996 -5.94043 -10.2998 -8.91016 -16.6396 -8.91016s-12.6797 2.96973 -16.6396 8.91016l-63.3604 95.04v264.05h-33.6201
c-3.80957 -18.1201 -19.1299 -32 -38.3799 -32c-22.0898 0 -40 17.9102 -40 40s17.9102 40 40 40h128v80c0 8.83984 7.16016 16 16 16h16c8.83984 0 16 -7.16016 16 -16v-80h128zM224 54.4805v249.52h-64v-249.52l32 -48z" />
    <glyph glyph-name="dice-d10" unicode="&#xf6cd;" 
d="M503.88 186.71c11.7998 -13.2002 10.6006 -33.5 -2.68945 -45.21l-224.08 -197.53c-6.03027 -5.30957 -13.5703 -7.96973 -21.1104 -7.96973s-15.0801 2.65039 -21.1104 7.96973l-224.08 197.521c-13.29 11.7197 -14.5 32.0098 -2.68945 45.2197l224.08 250.65
c6.34961 7.08984 15.0693 10.6396 23.7998 10.6396s17.4502 -3.5498 23.7998 -10.6396zM256 160.17l66.0801 44.0498l-66.0801 154.181l-66.0801 -154.181zM142.63 215.73l40.6797 94.9199l-97.5791 -109.15zM155.53 169.47l-80.9199 -20.2295l157.39 -138.721v107.971z
M280 118.49v-107.98l157.39 138.74l-80.9199 20.2197zM369.37 215.73l56.8994 -14.2305l-97.5791 109.15z" />
    <glyph glyph-name="dice-d12" unicode="&#xf6ce;" 
d="M508.62 262.76c2.21973 -4.4502 3.37988 -9.34961 3.37012 -14.3096v-112.891c0 -4.96973 -1.16016 -9.86914 -3.37988 -14.3096l-55.8506 -111.7c-3.10449 -6.19922 -8.11035 -11.2051 -14.3096 -14.3096l-111.7 -55.8506
c-4.44043 -2.21973 -9.33984 -3.37988 -14.3096 -3.37988h-112.891c-4.96973 0 -9.87012 1.16016 -14.3096 3.37988l-111.7 55.8506c-6.19922 3.10449 -11.2051 8.11035 -14.3096 14.3096l-55.8506 111.7c-2.21973 4.44043 -3.37988 9.33984 -3.37988 14.3096v112.891
c0.00292969 5.12891 1.23145 10.0098 3.37988 14.3096l55.8506 111.7c3.10449 6.19922 8.11035 11.2051 14.3096 14.3096l111.7 55.8506c4.43945 2.21973 9.33984 3.37988 14.3096 3.37988h112.9c5.12891 -0.00292969 10.0098 -1.23145 14.3096 -3.37988l111.7 -55.8506
c6.19922 -3.10449 11.2051 -8.11035 14.3096 -14.3096zM455 262.66l-35.21 70.4199l0.929688 -4.61035l-140.72 -28.1396v-93.5l96.8203 -48.4102zM300.56 -16l52.96 132.41l-97.5195 48.7598l-97.5098 -48.7598l52.96 -132.41h89.1094zM203.33 400l-64.2705 -32.1396
l116.94 -23.3906l116.95 23.3906l-64.2803 32.1396h-105.34zM92.21 333.08l-35.21 -70.4199l78.1797 -104.25l96.8203 48.4102v93.5l-140.72 28.1494zM48 139.33l51.7803 -103.55l49.0801 -24.54l-41.96 104.91l-58.9004 78.5293v-55.3496zM412.22 35.7803l51.7803 103.55
v55.3496l-58.9004 -78.5293l-41.96 -104.91z" />
    <glyph glyph-name="dice-d20" unicode="&#xf6cf;" horiz-adv-x="448" 
d="M431.88 331.87c9.96973 -5.81055 16.1201 -16.6201 16.1201 -28.3203v-223.09c0 -11.7002 -6.15039 -22.5098 -16.1201 -28.3203l-192 -111.84c-4.65527 -2.71973 -10.1377 -4.2793 -15.9141 -4.2793c-5.77539 0 -11.1904 1.55957 -15.8457 4.2793l-192 111.84
c-9.96973 5.81055 -16.1201 16.6104 -16.1201 28.3203v223.09c0 11.7002 6.15039 22.5098 16.1201 28.3105l192 111.84c4.65527 2.71973 10.1377 4.2793 15.9141 4.2793c5.77539 0 11.1904 -1.55957 15.8457 -4.2793zM224 360.13l-72.4697 -96.1299h144.939zM224 108.71
l68.2803 107.29h-136.561zM113.12 193.53l-20.0498 -80.21l83.4199 -19.3701zM334.88 193.53l-63.3701 -99.5801l83.4199 19.3701zM351.48 270.75l35.6094 31.6504l-106.02 61.7598zM96.5195 270.75l70.4102 93.4102l-106.02 -61.7598zM72.2803 228.09l-24.2803 21.5801
v-118.72zM200 39.2197l-110.29 25.6006l110.29 -64.2402v38.6396zM248 39.2197v-38.6396l110.29 64.25zM400 130.95v118.72l-24.2803 -21.5898z" />
    <glyph glyph-name="dice-d4" unicode="&#xf6d0;" 
d="M504.9 158.97c11.3096 -13.9893 8.83984 -34.5693 -5.4707 -45.4893l-224.05 -170.94c-5.71973 -4.37012 -12.5498 -6.5498 -19.3799 -6.5498c-0.00878906 0 -0.0419922 0.0136719 -0.0507812 0.0136719c-7.26562 0 -13.9658 2.43652 -19.3291 6.53613l-224.05 170.94
c-14.3105 10.9199 -16.7803 31.4893 -5.4707 45.4893l224.051 277.17c6.39941 7.90039 15.6191 11.8604 24.8496 11.8604s18.4502 -3.95996 24.8496 -11.8604zM232 360.83l-177.19 -219.2l177.19 -135.18v354.38zM280 6.4502l177.19 135.18l-177.19 219.2v-354.38z" />
    <glyph glyph-name="dice-d6" unicode="&#xf6d1;" horiz-adv-x="448" 
d="M431.88 331.87c9.96973 -5.81055 16.1201 -16.6201 16.1201 -28.3203v-223.09c0 -11.7002 -6.15039 -22.5098 -16.1201 -28.3203l-192 -111.84c-4.65527 -2.71973 -10.1377 -4.2793 -15.9141 -4.2793c-5.77539 0 -11.1904 1.55957 -15.8457 4.2793l-192 111.84
c-9.96973 5.81055 -16.1201 16.6104 -16.1201 28.3203v223.09c0 11.7002 6.15039 22.5098 16.1201 28.3105l192 111.84c4.65527 2.71973 10.1377 4.2793 15.9141 4.2793c5.77539 0 11.1904 -1.55957 15.8457 -4.2793zM224 397.4l-152.35 -88.7402l152.35 -88.8799
l152.35 88.8799zM48 266.88v-177.76l152 -88.54v177.64zM248 0.580078l152 88.54v177.76l-152 -88.6602v-177.64z" />
    <glyph glyph-name="dice-d8" unicode="&#xf6d2;" 
d="M502.12 215.86c13.1699 -13.1807 13.1699 -34.54 -0.0205078 -47.7305l-222.25 -222.25c-6.58984 -6.58984 -15.2295 -9.87988 -23.8594 -9.87988s-17.2705 3.29004 -23.8604 9.87988l-222.25 222.25c-13.1797 13.1797 -13.1797 34.5498 0 47.7305l222.26 222.26
c6.59082 6.58984 15.2207 9.87988 23.8604 9.87988s17.2695 -3.29004 23.8604 -9.87988zM280 370.1v-237.699l166.38 71.3193zM232 132.4v237.699l-166.38 -166.39zM232 80.1797l-115.96 49.6904l115.96 -115.96v66.2695zM280 80.1797v-66.2793l115.97 115.97z" />
    <glyph glyph-name="dragon" unicode="&#xf6d5;" horiz-adv-x="640" 
d="M481.12 328.02c-12.04 0.69043 -34.0498 12.8301 -27.5498 39.9609l58.4297 -15.3701c-3.51953 -14.7002 -15.96 -25.4404 -30.8799 -24.5908zM563.67 191.12c49.2002 -23.9297 79.0898 -74.1602 76.1299 -127.97c-3.91992 -71.3105 -66.5801 -127.16 -142.649 -127.15
l-449.17 0.0400391c-26.4609 0 -47.9805 21.3301 -47.9805 47.54c0 22.1797 15.8799 41.71 37.7402 46.4297c74.2598 16.0498 174.38 38.4404 321.46 48.5205c-6.43066 9.17969 -12.1006 18.9395 -17.0098 29.1699l-180.761 -24.2305
c-26.5498 -3.66992 -46.5293 25.0801 -31.8193 48.3604l-91.5205 -17.21c-29.0098 -4.13965 -47.4502 25.6494 -33.0596 48.25l88.75 126.24c13.0293 18.4893 36.5 27.25 58.5293 21.7695l167.69 -41.8398v12.9502l-38.79 14.9697
c-29.25 14.21 -29.3799 55.7998 -0.00976562 70.0801c1.18945 0.580078 0.30957 0.209961 4.75 2.00977l-12.5205 9.94043c-27.9395 22.2402 -12.29 69.0098 24.9902 69.0098h213.7c18.8701 0 36.9502 -8.83984 48.3799 -23.6504l67.0898 -86.9395
c14.0303 -18.1904 16.3301 -43.1201 5.83984 -63.5098l-12.8799 -25.04c-10.4199 -20.2607 -31.1895 -32.8506 -54.2197 -32.8506h-27.8701c-17.8398 0 -26.1299 5.39062 -42.6504 16.1201c-3.33984 2.16992 -7.34961 4.77051 -12.25 7.88965h-18.6797
c0.955078 -2.0459 2.57617 -3.69629 4.60059 -4.68945zM68.0303 169.05l101.109 19.0498l41.4004 58.8701l-69.8203 17.3301c-3.09961 0.850586 -6.0293 -0.429688 -7.68945 -2.80957zM191.06 135.87l135.66 18.1797c-6.58984 28.71 -6.71973 44.2305 -6.71973 65.4805
l-59.5596 15.0098zM497.15 -16c49.75 -0.00976562 92.2393 36.6797 94.7197 81.8096c1.91992 34.9805 -16.9297 66.4707 -49.2002 82.1602l-93.5898 43.9199c-20.4805 9.9502 -33.0801 29.8506 -33.0801 52.04v44.1104h81.4004s19.4395 -12.3096 24.5596 -15.6396
c12.8896 -8.37012 12.8896 -8.37012 16.5 -8.37012h27.8701c4.87988 0 9.41016 2.66016 11.5303 6.79004l12.8799 25.04c2.01953 3.92969 1.58984 8.65918 -1.11035 12.1592l-67.1299 87.0107c-2.41992 3.12988 -6.16016 4.96973 -10.1201 4.96973h-188.22l56.0703 -44.5195
l-57.3408 -23.2402l45.1104 -17.2207v-106.05c0 -19.71 -0.219727 -91.3496 72.3604 -143.06c14.0898 -10.0303 7.29004 -31.1201 -9.29004 -31.79c-186.34 -7.45996 -291.16 -31.1396 -383.181 -51.0205z" />
    <glyph glyph-name="duck" unicode="&#xf6d8;" horiz-adv-x="576" 
d="M416 304c0 -8.83984 -7.16016 -16 -16 -16s-16 7.16016 -16 16s7.16016 16 16 16s16 -7.16016 16 -16zM464 208h-16v-28.1504c19.1104 -21.8594 31.2803 -49.9395 31.9697 -81.0693c1.58984 -71.9404 -63.0596 -130.78 -135.02 -130.78h-91.1699
c-7.73047 0 -15.3799 0.389648 -22.9102 1.16016c-118.65 10.54 -214.05 101.899 -230.561 218.71c-2.69922 19.0996 12.6504 36.1299 31.9404 36.1299h34.2402c2.60938 -16.7031 7.49316 -33.0273 14.1494 -48h-29.2793c20.3896 -85.5303 94.9297 -151.14 183.76 -159.04
c6.55957 -0.660156 12.6299 -0.969727 18.6602 -0.969727h91.1699c23.7998 0 47.2695 10.04 64.3896 27.54c15.0303 15.3701 23.0703 34.6201 22.6406 54.1895c-0.510742 23.3301 -11.2305 40.3604 -20.1201 50.54l-11.8604 13.5703v71.6299l27.3301 13.0498
c23.0703 11.0205 42.8203 37.8301 34.9199 72.8906c-5.13965 22.7793 -23.7998 41.5693 -46.46 46.7695c-5.29004 1.20996 -10.5996 1.83008 -15.79 1.83008c-35.29 0 -64 -28.71 -64 -64v-128l-102.22 0.429688c-26.4102 0 -51.8604 4.90039 -75.2402 14.2705
c20.3799 -41.79 60.1396 -72.29 105.91 -77.4902c7.95996 -0.910156 13.8994 -7.75 13.8994 -15.7695v-16.0908c0 -9.51953 -8.2998 -17 -17.7695 -16.0098c-92.3701 9.62988 -164.58 93.3105 -164.58 188.021c0 11.4697 9.37988 19.0596 19.1602 19.0596
c4.87988 0 9.85938 -1.88965 13.8203 -6.13965c26.6094 -28.5205 65.7891 -42.2803 104.789 -42.2803h54.2305v80c0 61.8604 50.1396 112 112 112c8.65039 0 17.5303 -0.980469 26.5303 -3.0498c40.5693 -9.2998 73.3896 -42.3906 82.54 -83
c0.759766 -3.37012 0.899414 -6.62988 1.35938 -9.9502h65.5703c0 -61.8604 -50.1396 -112 -112 -112z" />
    <glyph glyph-name="dungeon" unicode="&#xf6d9;" 
d="M512 152.57v-57.1406c0 -8.37012 -1.87012 -16.3096 -5.2002 -23.4297c3.33984 -7.12012 5.2002 -15.0596 5.2002 -23.4297v-57.1406c0 -30.5596 -24.8701 -55.4297 -55.4297 -55.4297h-401.141c-30.5596 0 -55.4297 24.8701 -55.4297 55.4297v57.1406
c0 8.37012 1.86035 16.3096 5.2002 23.4297c-3.33984 7.12012 -5.2002 15.0596 -5.2002 23.4297v57.1406c0 0.0205078 0.0302734 0.0898438 0.0302734 0.110352c0 8.44043 1.89746 16.4414 5.29004 23.5996c-3.66016 7.89941 -5.4707 16.6299 -5.14062 25.3994
c1.33008 35.2207 9.77051 69.2002 25.1006 101.021c4.31934 8.96973 10.9697 16.4502 19.0195 21.8398c1.43457 9.84473 5.49316 18.9453 11.4102 26.3896c21.3398 26.8506 47.3604 48.8203 77.3496 65.3203c8.13086 4.46973 17.3301 6.83008 26.6201 6.83008
c0.430664 0 0.870117 -0.00976562 1.31055 -0.0205078c6.71973 7.04004 15.2295 12.2705 24.7197 14.9902c22.9697 6.60059 46.6201 9.9502 70.29 9.9502s47.3203 -3.34961 70.2695 -9.94043c9.5 -2.72949 18.0205 -7.95996 24.7402 -15
c0.430664 0.0205078 0.870117 0.0205078 1.31055 0.0205078c9.62891 -0.00878906 18.7461 -2.50977 26.6396 -6.83984c29.9805 -16.4902 56 -38.46 77.3301 -65.2998c6.12012 -7.7002 10.0098 -16.8301 11.4102 -26.4004c8.0498 -5.40039 14.7002 -12.8799 19.0195 -21.8496
c15.3203 -31.8105 23.7705 -65.8008 25.0898 -101c0.34082 -8.79004 -1.47949 -17.5205 -5.13965 -25.4209c3.41992 -7.18945 5.33008 -15.2295 5.33008 -23.6992zM112 -8.57031v57.1406c0 4.09961 -3.33008 7.42969 -7.42969 7.42969h-49.1406
c-4.09961 0 -7.42969 -3.33008 -7.42969 -7.42969v-57.1406c0 -4.09961 3.33008 -7.42969 7.42969 -7.42969h49.1406c4.09961 0 7.42969 3.33008 7.42969 7.42969zM112 95.4297v57.1406c0 4.09961 -3.33008 7.42969 -7.42969 7.42969h-49.1406
c-4.09961 0 -7.42969 -3.33008 -7.42969 -7.42969v-57.1406c0 -4.09961 3.33008 -7.42969 7.42969 -7.42969h49.1406c4.09961 0 7.42969 3.33008 7.42969 7.42969zM133.22 243.83c1.44043 3.34961 0.350586 7.16992 -2.73926 9.09961l-51.1104 31.9404
c-1.25 0.780273 -2.66016 1.14941 -4.0498 1.14941c-2.79004 0 -5.51074 -1.5 -6.80078 -4.16992c-12.0391 -24.9893 -19.2695 -52.71 -20.3691 -81.9893c-0.160156 -4.24023 3.40918 -7.86035 7.65918 -7.86035h59.4805c3.92969 0 6.96973 3.12012 7.19043 7.04004
c0.889648 15.8604 4.75977 30.8701 10.7393 44.79zM150.16 276.94c2.08984 0 4.14941 0.90918 5.62012 2.58984c8.73438 9.99023 18.7646 18.5186 30.0898 25.5498c3.04004 1.88965 4.37988 5.55957 3.07031 8.88965l-22.1006 56.2402
c-1.17969 3.00977 -4.13965 4.86035 -7.16992 4.86035c-0.00878906 0 -0.0234375 -0.00488281 -0.0322266 -0.00488281c-1.25586 0 -2.4375 -0.321289 -3.46777 -0.885742c-24.3496 -13.3994 -45.7002 -31.5 -62.8896 -53.1201
c-2.77051 -3.48926 -1.76074 -8.75 2.01953 -11.1094l51.0703 -31.9199c1.18945 -0.740234 2.49023 -1.08984 3.79004 -1.08984zM208 -8v282.65c-12.7803 -7.45996 -23.8398 -17.4805 -32 -29.7803v-252.87c0 -4.41992 3.58008 -8 8 -8h16c4.41992 0 8 3.58008 8 8zM272 -8
v294.38c-5.23047 0.889648 -10.5195 1.62012 -16 1.62012s-10.7695 -0.730469 -16 -1.62012v-294.38c0 -4.41992 3.58008 -8 8 -8h16c4.41992 0 8 3.58008 8 8zM288.88 321.27c2.98047 0 5.79004 1.69043 6.91016 4.55078l22.04 56.0996
c1.59961 4.08008 -0.589844 8.79004 -4.7998 10c-18.1299 5.20996 -37.2402 8.08008 -57.0303 8.08008s-38.9004 -2.87012 -57.0303 -8.08984c-4.20996 -1.20996 -6.39941 -5.91992 -4.7998 -10l22.04 -56.0898c1.12012 -2.86035 3.92969 -4.56055 6.91016 -4.56055
c0.649414 0 1.2998 0.0800781 1.9502 0.25c10.9199 2.79004 20.8994 4.2002 30.9199 4.2002c9.95996 0 19.96 -1.38965 30.9502 -4.2002c0.639648 -0.160156 1.2998 -0.240234 1.93945 -0.240234zM336 -8v252.86c-8.16016 12.3096 -19.2197 22.3193 -32 29.7793v-282.64
c0 -4.41992 3.58008 -8 8 -8h16c4.41992 0 8 3.58008 8 8zM361.84 276.94c1.29004 0 2.60059 0.349609 3.79004 1.09961l51.0703 31.9199c3.78027 2.36035 4.79004 7.62012 2.01953 11.1104c-17.249 21.7246 -38.4287 39.6602 -62.8896 53.1201
c-1.11035 0.609375 -2.31055 0.889648 -3.5 0.889648c-3.04004 0 -5.99023 -1.84961 -7.16992 -4.86035l-22.1006 -56.2393c-1.30957 -3.33008 0.0302734 -7 3.07031 -8.89062c11.3232 -7.03418 21.3535 -15.5625 30.0898 -25.5498
c1.48047 -1.69043 3.54004 -2.59961 5.62012 -2.59961zM389.52 199.04c0.220703 -3.91992 3.26074 -7.04004 7.18066 -7.04004h59.4902c4.25 0 7.81934 3.62012 7.65918 7.86035c-1.09961 29.2793 -8.33008 57 -20.3691 81.9893
c-1.29004 2.66992 -4.01074 4.16992 -6.80078 4.16992c-0.00585938 0 -0.0205078 -0.00390625 -0.0273438 -0.00390625c-1.47559 0 -2.85352 -0.419922 -4.02246 -1.14551l-51.1104 -31.9404c-3.08984 -1.92969 -4.17969 -5.75 -2.73926 -9.09961
c5.97949 -13.9199 9.84961 -28.9404 10.7393 -44.79zM464 -8.57031v57.1406c0 4.09961 -3.33008 7.42969 -7.42969 7.42969h-49.1406c-4.09961 0 -7.42969 -3.33008 -7.42969 -7.42969v-57.1406c0 -4.09961 3.33008 -7.42969 7.42969 -7.42969h49.1406
c4.09961 0 7.42969 3.33008 7.42969 7.42969zM464 95.4297v57.1406c0 4.09961 -3.33008 7.42969 -7.42969 7.42969h-49.1406c-4.09961 0 -7.42969 -3.33008 -7.42969 -7.42969v-57.1406c0 -4.09961 3.33008 -7.42969 7.42969 -7.42969h49.1406
c4.09961 0 7.42969 3.33008 7.42969 7.42969z" />
    <glyph glyph-name="eye-evil" unicode="&#xf6db;" horiz-adv-x="640" 
d="M610.12 230.53c17.8799 -4.73047 29.8799 -20.2207 29.8799 -38.5303s-12 -33.7998 -29.8799 -38.54l-94.4697 -25.0801c14.9092 -23.3301 41.2197 -64.5303 41.2197 -64.5303c9.12012 -14.3594 8.17969 -32.1992 -2.41016 -45.4795
c-10.96 -13.8105 -29.6504 -19.1299 -46.6201 -13.0801l-101.62 36.0498c-3.96973 -1.7002 -8.0293 -3.30957 -12.1895 -4.80957l-36.75 -77.1201c-6.87012 -14.4404 -21.1602 -23.4102 -37.2803 -23.4102s-30.4102 8.96973 -37.29 23.4102l-36.75 77.1201
c-4.16016 1.5 -8.21973 3.10938 -12.1904 4.80957l-101.619 -36.0596c-16.9004 -5.99023 -35.6201 -0.740234 -46.6201 13.0898c-10.6006 13.2803 -11.5303 31.1299 -2.44043 45.4395c0.0302734 0.0302734 26.3398 41.25 41.25 64.5801l-94.5 25.0801
c-17.8398 4.73047 -29.8398 20.2207 -29.8398 38.5303s12 33.7998 29.8701 38.5303l94.5303 25.0898c-14.9707 23.3604 -41.2803 64.5 -41.2803 64.5c-9.12012 14.3799 -8.17969 32.2197 2.41992 45.5c11 13.7803 29.6797 19.0996 46.6201 13.0801l101.62 -36.04
c3.96973 1.7002 8.0293 3.30957 12.1895 4.80957l36.75 77.1406c6.87012 14.4395 21.1602 23.3896 37.2803 23.3896s30.4102 -8.9502 37.2803 -23.3799l36.75 -77.1602c4.16016 -1.5 8.21973 -3.11035 12.1895 -4.80957l101.62 36.0596
c16.96 5.92969 35.6201 0.719727 46.6201 -13.0898c10.5996 -13.2803 11.5303 -31.1299 2.44043 -45.4404c-0.0302734 -0.0400391 -26.3408 -41.1992 -41.3105 -64.5596zM486.31 170.27l81.8809 21.7305l-81.8906 21.7305l-5 6.66992
c-4.12012 5.5 -8.68945 11.2393 -13.8096 17.1592l-12.0898 13.8809l10.2793 15.2695c1.44043 2.21973 23.6602 36.9102 38.1904 59.6602l-100.25 -35.5605l-9.06055 4.41016c-7.71973 3.78027 -16.1299 7.10059 -24.9395 9.83008l-10.0303 3.12012l-39.5898 83.1104
l-39.5898 -83.1006l-10.0303 -3.12012c-8.82031 -2.73926 -17.2197 -6.0498 -24.9395 -9.8291l-9.06055 -4.41016l-100.25 35.5596c14.5303 -22.7295 36.7803 -57.4697 38.2803 -59.7803l10 -15.2197l-11.9102 -13.7998
c-5.12012 -5.92969 -9.69043 -11.6602 -13.8096 -17.1602l-5 -6.66992l-81.8809 -21.75l81.8809 -21.75l5 -6.66992c4.08984 -5.48047 8.65918 -11.21 13.7793 -17.1201l11.9404 -13.7695l-10.0303 -15.2002c-1.33984 -2.03027 -23.6895 -37.0098 -38.2803 -59.8906
l100.28 35.5801l9.06055 -4.41016c7.71973 -3.7793 16.1299 -7.09961 24.9395 -9.8291l10.0303 -3.12012l39.5898 -83.0898l39.5996 83.1191l10.0303 3.12012c8.82031 2.74023 17.2197 6.0498 24.9404 9.83008l9.05957 4.41016l100.28 -35.5801
c-14.5898 22.8701 -36.9697 57.8701 -38.3105 59.9502l-9.87988 15.1699l11.8105 13.7305c4.82617 5.56348 9.36914 11.207 13.7793 17.1191zM344.21 225.98c20.8203 3 39.6904 9.75977 55.5898 19.3291c10.21 -15.25 16.2002 -33.5791 16.2002 -53.3096
c0 -53.0195 -42.9805 -96 -96 -96s-96 42.9805 -96 96c0 19.7305 5.99023 38.0596 16.2002 53.3096c15.9102 -9.56934 34.7695 -16.3291 55.5898 -19.3291c-4.41992 -9.25 -7.79004 -20.4102 -7.79004 -33.9805c0 -42.6699 32 -64 32 -64s32 21.3301 32 64
c0 13.5703 -3.37988 24.7305 -7.79004 33.9805z" />
    <glyph glyph-name="fist-raised" unicode="&#xf6de;" horiz-adv-x="448" 
d="M400 267.67c28.9404 -20.2695 48 -53.7295 48 -91.6699v-48c0 -39.7344 -16.1084 -75.7549 -42.1699 -101.82l-37.8301 -37.8301v-36.3496c0 -8.83984 -7.16016 -16 -16 -16h-16c-8.83984 0 -16 7.16016 -16 16v56.2402l51.8799 51.8799
c18.0098 18 28.1201 42.4199 28.1201 67.8799v48c0 35.3496 -28.6504 64 -64 64h-80.1504c-8.7793 0 -15.8994 -7.12012 -15.8994 -15.9004v-0.739258c0 -26.1602 21.2002 -47.3604 47.3594 -47.3604h16.6807c8.83984 0 16 -7.16016 16 -16v-16.8496
c0 -8.05078 -5.98047 -14.9902 -13.9805 -15.8506c-36.5596 -3.91016 -54.0195 -24.5801 -83.2998 -68.4902c-5.92969 -8.89941 -17.96 -11.3096 -26.8701 -5.36914l-7.68945 5.11914c-8.91016 5.93066 -11.3203 17.96 -5.38086 26.8701
c16.0303 24.0205 31.2207 44.5898 49.5 60.2002c-4.34961 3.10059 -8.53906 6.46973 -12.3896 10.3301c-8.71973 8.73047 -15.4395 18.8896 -20.1602 29.9805c-9.0293 -6.24023 -19.9395 -9.94043 -31.7197 -9.94043h-24c-11.9102 0 -22.9102 3.7998 -32 10.1699
c-9.08984 -6.37012 -20.0898 -10.1699 -32 -10.1699h-24c-2.74023 0 -5.37012 0.429688 -8 0.80957v-59.79c0 -27.3594 11.0898 -54.1797 30.4697 -73.5391l33.5303 -33.54v-57.9404c0 -8.83984 -7.16016 -16 -16 -16h-16c-8.83984 0 -16 7.16016 -16 16v38.0703
l-19.5098 19.5195c-28.4902 28.4902 -44.4902 67.1406 -44.4902 107.43v210.98c0 30.9297 25.0703 56 56 56h24c4.40039 0 8.63965 -0.629883 12.75 -1.59961c8.66016 19.7393 28.3496 33.5996 51.25 33.5996h24c4.40039 0 8.63965 -0.629883 12.75 -1.59961
c8.66016 19.7393 28.3496 33.5996 51.25 33.5996h24c22.9004 0 42.5898 -13.8604 51.25 -33.5996c4.11035 0.969727 8.34961 1.59961 12.75 1.59961h24c30.9297 0 56 -25.0703 56 -56v-92.3301zM80 224c4.41016 0 8 3.58984 8 8v96c0 4.41016 -3.58984 8 -8 8h-24
c-4.41016 0 -8 -3.58984 -8 -8v-96c0 -4.41016 3.58984 -8 8 -8h24zM176 232v128c0 4.41016 -3.58984 8 -8 8h-24c-4.41016 0 -8 -3.58984 -8 -8v-128c0 -4.41016 3.58984 -8 8 -8h24c4.41016 0 8 3.58984 8 8zM224 279.13c9.44043 5.49023 20.2695 8.87012 31.9697 8.87012
h8.03027v104c0 4.41016 -3.58984 8 -8 8h-24c-4.41016 0 -8 -3.58984 -8 -8v-112.87zM312 288h24c5.48047 0 10.7305 -0.860352 16 -1.62012v73.6201c0 4.41016 -3.58984 8 -8 8h-24c-4.41016 0 -8 -3.58984 -8 -8v-72z" />
    <glyph glyph-name="ghost" unicode="&#xf6e2;" horiz-adv-x="384" 
d="M192 448c106.04 0 192 -85.96 192 -192v-271.97c0 -9.64062 -7.90039 -16.0303 -16.1201 -16.0303c-3.92969 0 -7.93945 1.45996 -11.2002 4.71973l-24.9199 18.5303c-2.66211 1.98047 -5.97168 3.16797 -9.54199 3.16797c-4.75977 0 -9.03711 -2.08398 -11.9678 -5.3877
l-42.9502 -48.3506c-3.12012 -3.12988 -7.21973 -4.68945 -11.3096 -4.68945s-8.19043 1.56934 -11.3105 4.68945l-40.7197 45.8506c-3.17969 3.58984 -7.57031 5.37988 -11.96 5.37988s-8.78027 -1.7998 -11.96 -5.37988l-40.7197 -45.8506
c-3.12012 -3.12988 -7.2207 -4.68945 -11.3105 -4.68945s-8.18945 1.56934 -11.3096 4.68945l-42.9502 48.3506c-3.15039 3.5498 -7.54004 5.37988 -11.9697 5.37988c-3.33008 0 -6.68066 -1.04004 -9.54004 -3.16016l-24.9199 -18.5303
c-3.26074 -3.25977 -7.27051 -4.71973 -11.2002 -4.71973c-8.23047 0 -16.1201 6.38965 -16.1201 16.0303v263.92c0 105.13 81.0098 196.81 186.09 199.96c1.98047 0.0595703 3.9502 0.0898438 5.91016 0.0898438zM336 40.9297v215.07c0 79.4004 -64.5996 144 -144 144
l-4.48047 -0.0703125c-76.9297 -2.30957 -139.529 -70.4893 -139.529 -151.979v-207.021c4.47949 0.980469 9.08984 1.48047 13.7695 1.48047c19.0312 -0.00390625 36.124 -8.29492 47.8604 -21.4902l18.3799 -20.6895l16.1504 18.1797
c12.1396 13.6602 29.5801 21.5 47.8496 21.5s35.7197 -7.83984 47.8496 -21.5l16.1504 -18.1797l18.3701 20.6797c12.1396 13.6699 29.5801 21.5 47.8604 21.5c4.67969 0 9.28906 -0.5 13.7695 -1.48047zM128 288c17.6699 0 32 -14.3301 32 -32s-14.3301 -32 -32 -32
s-32 14.3301 -32 32s14.3301 32 32 32zM256 288c17.6699 0 32 -14.3301 32 -32s-14.3301 -32 -32 -32s-32 14.3301 -32 32s14.3301 32 32 32z" />
    <glyph glyph-name="hammer" unicode="&#xf6e3;" horiz-adv-x="576" 
d="M571.31 254.06c6.25 -6.25 6.25 -16.3799 0.0205078 -22.6299l-113.14 -113.14c-6.26074 -6.25 -16.3809 -6.24023 -22.6309 0l-22.6191 22.6299c-6.25 6.25 -6.25 16.3799 0 22.6299l11.3096 11.3105l-28.9102 28.8994
c-5.46973 -1.43945 -11.0898 -2.16992 -16.7002 -2.16992c-8.0293 0 -16.0498 1.52051 -23.6094 4.52051l-230.92 -247.341c-14.1504 -15.1494 -33.2705 -22.7695 -52.4199 -22.7695c-18.3203 0 -36.6602 6.96973 -50.6904 21
c-28.6797 28.6797 -27.8799 75.4297 1.76953 103.11l247.57 231.13c-2.87988 7.35938 -4.5 15.2197 -4.5 23.2695v18.75l-67.8799 67.8799c31.2402 31.2402 72.1904 46.8604 113.14 46.8604c40.9502 0 81.8906 -15.6201 113.131 -46.8604l45.25 -45.25
c16.71 -16.71 21.9795 -40.2998 16.3496 -61.6094l28.9102 -28.9004l11.3096 11.3105c6.25 6.25 16.3799 6.23926 22.6299 0zM89.0195 -8.46973l228.521 244.77l-17.2402 17.2402l-244.77 -228.521c-9.03027 -8.41992 -10.7998 -23.8594 -0.589844 -34.0791
c8.71973 -8.7207 24.2197 -9.9707 34.0791 0.589844zM469.49 197.49l22.6396 22.6396l-59.7402 59.7305l7.05078 26.6895c0.55957 2.14062 1.94922 9.56055 -3.89062 15.4004l-45.25 45.25c-21.1602 21.1494 -49.2803 32.7998 -79.2002 32.7998
c-13.04 0 -25.7295 -2.20996 -37.6592 -6.45996l40.3994 -40.4004v-38.6396c0 -4.20996 1.70996 -8.33008 4.69043 -11.3096l49.1396 -49.1406c0.280273 -0.269531 5.90039 -6.39941 15.4004 -3.87988l26.6797 7.0498z" />
    <glyph glyph-name="hand-holding-magic" unicode="&#xf6e5;" horiz-adv-x="576" 
d="M551.94 135.97c15.8896 -13.5098 24.6396 -33.0293 24.0195 -53.5693c-0.620117 -20.5801 -10.5098 -39.5508 -27.1104 -52.0303l-100.81 -75.9102c-15.9102 -11.9795 -35.29 -18.46 -55.21 -18.46h-376.83c-8.83984 0 -16 7.16016 -16 16v16c0 8.83984 7.16016 16 16 16
h376.51c9.7207 0 19.1602 3.16016 26.9199 9l100.561 75.71c10.1299 7.62012 10.9199 22.1396 0.870117 30.6797c-7.93066 6.73047 -20.1504 6.2207 -28.4199 0l-61.29 -46.1494c-7.76074 -5.83984 -17.2207 -9 -26.9307 -9h-134.46
c-7.59961 0 -13.7598 6.16016 -13.7598 13.7598v0.0800781c0 7.59961 6.16016 13.7598 13.7598 13.7598h59.7598c30.2109 0 29 40.1602 1.14062 40.1602h-144c-17.9805 0 -35.4102 -5.82031 -49.3701 -16.4805l-41.2705 -31.5195h-80.0195c-8.83984 0 -16 7.16016 -16 16v16
c0 8.83984 7.16016 16 16 16h63.79l28.3799 21.6699c22.2402 16.9805 50.1201 26.3301 78.5 26.3301h144c38.6904 0 69.0303 -29.7305 69.2002 -67.7598h3.26953l60.4307 45.5c19.0195 14.3193 57.2598 24.6602 88.3701 -1.77051zM224 256c-46.8799 0 -88 41.1201 -88 88v16
c0 48.5303 39.4697 88 88 88h144c48.5303 0 88 -39.4697 88 -88v-34.7197c-0.530273 -69.5605 -57.9404 -127.511 -131.28 -133.28l38.8105 38.2803c28.6895 28.2793 44.4697 62.5596 44.4697 96.5v33.2197c0 22.0596 -17.9404 40 -40 40h-144
c-22.0596 0 -40 -17.9404 -40 -40v-16c0 -18.5 17.4697 -40 40 -40h41.6904c41.5 0 70.2197 12.8203 86.3096 22.7998c-8.03027 -40.3193 -43.6904 -70.7998 -86.3096 -70.7998h-41.6904z" />
    <glyph glyph-name="hanukiah" unicode="&#xf6e6;" horiz-adv-x="640" 
d="M456 288h16c4.41992 0 8 -3.58008 8 -8v-128h-32v128c0 4.41992 3.58008 8 8 8zM320 368c-13.25 0 -24 11.9502 -24 26.6699s24 53.3301 24 53.3301s24 -38.5996 24 -53.3301c0 -14.7295 -10.75 -26.6699 -24 -26.6699zM544 280v-128h-32v128c0 4.41992 3.58008 8 8 8h16
c4.41992 0 8 -3.58008 8 -8zM616 320c-13.25 0 -24 11.9404 -24 26.6699c0 14.7197 24 53.3301 24 53.3301s24 -38.6104 24 -53.3301c0 -14.7295 -10.75 -26.6699 -24 -26.6699zM392 288h16c4.41992 0 8 -3.58008 8 -8v-128h-32v128c0 4.41992 3.58008 8 8 8zM104 288h16
c4.41992 0 8 -3.58008 8 -8v-128h-32v128c0 4.41992 3.58008 8 8 8zM24 320c-13.25 0 -24 11.9404 -24 26.6699c0 14.7197 24 53.3301 24 53.3301s24 -38.6104 24 -53.3301c0 -14.7295 -10.75 -26.6699 -24 -26.6699zM624 288c8.83984 0 16 -7.16016 16 -16v-118.22
c0 -49.5801 -40.1904 -89.7803 -89.7803 -89.7803h-206.22v-80h184c8.83984 0 16 -7.16016 16 -16v-16c0 -8.83984 -7.16016 -16 -16 -16h-416c-8.83984 0 -16 7.16016 -16 16v16c0 8.83984 7.16016 16 16 16h184v80h-206.22c-49.5801 0 -89.7803 40.2002 -89.7803 89.7803
v118.22c0 8.83984 7.16016 16 16 16h16c8.83984 0 16 -7.16016 16 -16v-118.22c0 -23.0703 18.71 -41.7803 41.7803 -41.7803h206.22v208c0 8.83984 7.16016 16 16 16h16c8.83984 0 16 -7.16016 16 -16v-208h206.22c23.0703 0 41.7803 18.71 41.7803 41.7803v118.22
c0 8.83984 7.16016 16 16 16h16zM168 288h16c4.41992 0 8 -3.58008 8 -8v-128h-32v128c0 4.41992 3.58008 8 8 8zM232 288h16c4.41992 0 8 -3.58008 8 -8v-128h-32v128c0 4.41992 3.58008 8 8 8zM112 320c-13.25 0 -24 11.9502 -24 26.6699s24 53.3301 24 53.3301
s24 -38.5996 24 -53.3301c0 -14.7295 -10.75 -26.6699 -24 -26.6699zM176 320c-13.25 0 -24 11.9502 -24 26.6699s24 53.3301 24 53.3301s24 -38.5996 24 -53.3301c0 -14.7295 -10.75 -26.6699 -24 -26.6699zM240 320c-13.25 0 -24 11.9502 -24 26.6699
s24 53.3301 24 53.3301s24 -38.5996 24 -53.3301c0 -14.7295 -10.75 -26.6699 -24 -26.6699zM400 320c-13.25 0 -24 11.9502 -24 26.6699s24 53.3301 24 53.3301s24 -38.5996 24 -53.3301c0 -14.7295 -10.75 -26.6699 -24 -26.6699zM464 320
c-13.25 0 -24 11.9502 -24 26.6699s24 53.3301 24 53.3301s24 -38.5996 24 -53.3301c0 -14.7295 -10.75 -26.6699 -24 -26.6699zM528 320c-13.25 0 -24 11.9502 -24 26.6699s24 53.3301 24 53.3301s24 -38.5996 24 -53.3301c0 -14.7295 -10.75 -26.6699 -24 -26.6699z" />
    <glyph glyph-name="hat-witch" unicode="&#xf6e7;" horiz-adv-x="576" 
d="M572 14.9404c5.91992 -6.70996 5.24023 -17.2402 -1.84961 -22.71c-47.2305 -36.3701 -105.49 -56.2305 -165.771 -56.2305h-232.75c-60.2803 0 -118.55 19.8604 -165.78 56.2305c-7.09961 5.45996 -7.76953 16 -1.84961 22.71l10.46 11.8594
c5.58008 6.31055 14.9404 6.86035 21.6504 1.75977c11.0801 -8.40918 23.0195 -15.3994 35.3701 -21.5596l120.859 265.16c12.54 28.2197 33.3398 51.2295 59.6699 66.2598l166.83 103.26c7.24023 4.12988 15.4697 6.32031 23.7998 6.32031
c12.8301 0 24.8906 -4.99023 34.2207 -14.3203l69.0801 -72.3799c12.9395 -12.9395 17.3799 -31.7598 11.3096 -49.9102l-30.3604 -77.2393l-16.1299 -41.0303l-13.9395 41.8203l-14.04 42.1191c-2.18066 6.54004 -8.28027 10.9404 -15.1807 10.9404h-39.1992
c-0.00488281 0 -0.00585938 0.00292969 -0.0107422 0.00292969c-7.05957 0 -13.0566 -4.58789 -15.1699 -10.9434l-6.34961 -19.04c-3.71973 -11.1592 -3.20996 -23.2598 1.33008 -33.8691l96.7197 -216.971c12.21 6.12012 24.0098 13.0605 34.96 21.3799
c6.70996 5.09082 16.0801 4.55078 21.6504 -1.75977zM208 -16.8799v48.8799h-72.3701l-18.8496 -41.3701c17.8398 -4.49023 36.1201 -7.50977 54.8496 -7.50977h36.3701zM320 -16v64h-64v-64h64zM330 96c12.5898 0 23.2197 -6.5498 30.1396 -16h59.7705l-55.5498 124.6
c-9.45996 22.0605 -10.46 46.2705 -3.02051 68.6006l6.35059 19.04c8.44531 25.418 32.4131 43.7598 60.6514 43.7598h0.0585938h39.1992c0.0244141 0 0.0810547 -0.0146484 0.105469 -0.0146484c15.876 0 30.4072 -5.80469 41.585 -15.4053l2.67969 6.80957
l-69.3193 72.6006l-165.37 -102.38c-18.8398 -10.79 -32.71 -26.1299 -41.0703 -44.9404l-78.7002 -172.67h58.3506c6.91992 9.4502 17.5498 16 30.1396 16h84zM404.37 -16.8799c18.8994 0 37.3301 3.05957 55.3203 7.62988l-18.3906 41.25h-73.2998v-48.8799h36.3701z" />
    <glyph glyph-name="head-side" unicode="&#xf6e9;" 
d="M352 256c0 -17.6699 -14.3301 -32 -32 -32s-32 14.3301 -32 32s14.3301 32 32 32s32 -14.3301 32 -32zM509.21 173c9.40039 -21.1602 -6.08984 -45 -29.25 -45h-31.96v-64c0 -35.3496 -28.6504 -64 -64 -64h-32v-48c0 -8.83984 -7.16016 -16 -16 -16h-16
c-8.83984 0 -16 7.16016 -16 16v96h80c8.83984 0 16 7.16016 16 16v112h56.2197c-6.10938 16.21 -12.4199 34.8096 -18.9697 54.1299c-12.3203 36.3301 -29.1797 86.0898 -40.3799 102c-29.9004 42.5 -78.79 67.8701 -130.78 67.8701h-67.0996
c-55.8799 0 -109.79 -28.7803 -135.13 -78.5801c-30.9199 -60.7803 -14.75 -130.4 32.1895 -172.5l15.9502 -14.3096v-182.61c0 -8.83984 -7.16016 -16 -16 -16h-16c-8.83984 0 -16 7.16016 -16 16v161.18c-40.9004 36.6807 -66.1299 90.4902 -63.8604 150.271
c3.98047 104.47 95.3301 184.55 199.87 184.55h66.0801c68.4697 0 131.59 -33.5996 170.04 -88.25c24.6396 -35.0195 52.1396 -139.63 73.0801 -186.75z" />
    <glyph glyph-name="head-vr" unicode="&#xf6ea;" 
d="M398.34 400h81.6602c17.6699 0 32 -14.3301 32 -32v-128c0 -17.6699 -14.3301 -32 -32 -32h-192c-28.4502 0 -53.7402 12.6201 -71.3203 32.2803c-0.259766 -0.0205078 -0.410156 -0.280273 -0.679688 -0.280273h-184c-17.6699 0 -32 14.3301 -32 32v64
c0 17.6699 14.3301 32 32 32h6.16016c36.9502 48.71 96.71 80 161.85 80h66.0801c49.3701 0 95.7305 -17.7197 132.25 -48zM193.61 288c-0.879883 5.23047 -1.61035 10.5195 -1.61035 16s0.730469 10.7695 1.61035 16h-145.61v-32h145.61zM216 368
c0.269531 0 0.419922 -0.259766 0.679688 -0.280273c15.8799 17.7607 38.1299 29.3506 63.2705 31.4707c-4.60059 0.40918 -9.2002 0.80957 -13.8604 0.80957h-67.0996c-34.6904 0 -68.1504 -11.6396 -94.9199 -32h111.93zM384 256v96h-96c-26.4697 0 -48 -21.5303 -48 -48
s21.5303 -48 48 -48h96zM464 256v96h-32v-96h32zM56.5 208c8.00977 -22.3896 21.4102 -42.8203 39.5498 -59.0801l15.9502 -14.3096v-182.61c0 -8.83984 -7.16016 -16 -16 -16h-16c-8.83984 0 -16 7.16016 -16 16v161.18
c-27.7197 24.8604 -47.9697 57.7002 -57.6104 94.8203h50.1104zM507.99 176c0.389648 -0.919922 0.819336 -2.12012 1.20996 -3c9.41016 -21.1602 -6.08008 -45 -29.2402 -45h-31.96v-64c0 -35.3496 -28.6504 -64 -64 -64h-32v-48c0 -8.83984 -7.16016 -16 -16 -16h-16
c-8.83984 0 -16 7.16016 -16 16v96h80c8.83984 0 16 7.16016 16 16v112h107.99z" />
    <glyph glyph-name="helmet-battle" unicode="&#xf6eb;" horiz-adv-x="576" 
d="M32.0098 192c-20.8096 0 -36.0898 17.1602 -31.04 34.8701l63.0303 221.13v-227.94c0 -15.5 -14.3203 -28.0596 -31.9902 -28.0596zM575.03 226.87c5.0498 -17.71 -10.2305 -34.8701 -31.04 -34.8701c-17.6699 0 -31.9902 12.5596 -31.9902 28.0596v227.94zM480 237.18
c0 -82.7598 22.8604 -145.899 31.1504 -180.71c3.42969 -14.4297 -3.59082 -29.3701 -16.3203 -35.2393l-161.54 -78.7607c-8.74023 -4.25977 -18.3301 -6.46973 -28.0498 -6.46973h-34.46c-10.0322 0 -19.5947 2.34863 -28.0498 6.46973l-161.54 78.7607
c-12.7305 5.86914 -19.75 20.8096 -16.3203 35.2393c8.26953 34.8105 31.1299 97.9502 31.1299 180.71c0 120.471 192 210.82 192 210.82s192 -90.3496 192 -210.82zM312 -14.5l149.12 72.71c-0.770508 2.80957 -1.58008 5.77051 -2.42969 8.84961
c-10.6309 38.5801 -26.6904 96.8906 -26.6904 170.12c0 63.4404 -91.8799 127.71 -144 156.761c-52.1201 -29.0508 -144 -93.3203 -144 -156.761c0 -73.2295 -16.0596 -131.54 -26.6904 -170.13c-0.849609 -3.08984 -1.65918 -6.04004 -2.42969 -8.85938l149.12 -72.6904
v174.5l-88 32v32h224v-32l-88 -32v-174.5z" />
    <glyph glyph-name="hiking" unicode="&#xf6ec;" horiz-adv-x="384" 
d="M114.13 195.92c-4.41016 -17.0703 -22.4502 -30.0596 -42.6494 -25.2998l-44.4102 10.6396c-19.4102 4.68066 -30.8398 23.9902 -25.9404 42.6904l17.6201 68.46c10.9697 42 55.3496 67.5303 98.1904 57.2803c16.5996 -4 31.5293 -21.3809 25.9395 -42.6904z
M70.8203 220.14l21.6299 83.5205c-12.9102 -1.83008 -23.9404 -10.6904 -27.2197 -23.2803l-14.2803 -55.4697zM368 288c8.83984 0 16 -7.16016 16 -16v-320.01c0 -8.83984 -7.16016 -16 -16 -16h-16c-8.83984 0 -16 7.16016 -16 16v248h-48
c-6.90039 0 -13.5 2.99023 -18.0596 8.18945l-32.1602 36.75l-24.5498 -96.21l50.3691 -50.3799c10.6006 -10.5703 16.4102 -24.6396 16.4102 -39.5898v-98.75c0 -13.25 -10.75 -24 -24 -24s-24 10.75 -24 24v98.75c0 2.11035 -0.839844 4.16016 -2.33984 5.66016
l-73.8096 73.8096c-13.8799 13.8906 -19.5 34.2607 -14.7207 53.2305l22.5303 90.0801c5.62988 22.6396 25.8799 38.4697 49.25 38.4697c13.5303 0 26.2803 -5.25977 35.8701 -14.8398l50.0898 -57.1602h37.1201v24c0 8.83984 7.16016 16 16 16h16zM121.87 130.4
c3.33984 -5.20996 6.87988 -10.3408 11.3398 -14.8008l27.5498 -27.5498l-33.4697 -133.88c-2.71973 -10.8896 -12.5 -18.1699 -23.25 -18.1699c-1.92969 0 -3.90039 0.240234 -5.83984 0.719727c-12.8799 3.2207 -20.6904 16.25 -17.4697 29.1104zM239.99 352
c-26.5098 0 -48 21.4902 -48 48s21.4902 48 48 48s48 -21.4902 48 -48s-21.4902 -48 -48 -48z" />
    <glyph glyph-name="hockey-mask" unicode="&#xf6ee;" horiz-adv-x="448" 
d="M192 32c8.83984 0 16 -7.16016 16 -16s-7.16016 -16 -16 -16s-16 7.16016 -16 16s7.16016 16 16 16zM192 96c8.83984 0 16 -7.16016 16 -16s-7.16016 -16 -16 -16s-16 7.16016 -16 16s7.16016 16 16 16zM272 336c-8.83008 0 -16 7.16016 -16 16s7.16016 16 16 16
s16 -7.16016 16 -16s-7.16016 -16 -16 -16zM176 336c-8.83984 0 -16 7.16016 -16 16s7.16016 16 16 16s16 -7.16016 16 -16s-7.16016 -16 -16 -16zM192 160c8.83984 0 16 -7.16016 16 -16s-7.16016 -16 -16 -16s-16 7.16016 -16 16s7.16016 16 16 16zM256 32
c8.83984 0 16 -7.16016 16 -16s-7.16016 -16 -16 -16s-16 7.16016 -16 16s7.16016 16 16 16zM256 160c8.83984 0 16 -7.16016 16 -16s-7.16016 -16 -16 -16s-16 7.16016 -16 16s7.16016 16 16 16zM256 96c8.83984 0 16 -7.16016 16 -16s-7.16016 -16 -16 -16
s-16 7.16016 -16 16s7.16016 16 16 16zM224 320c8.83984 0 16 -7.16016 16 -16s-7.16016 -16 -16 -16s-16 7.16016 -16 16s7.16016 16 16 16zM376.61 393.54c64.0293 -56.04 102.399 -169.98 38.7598 -361.54c-31.9004 -96 -191.37 -96 -191.37 -96s-159.47 0 -191.37 96
c-63.6396 191.56 -25.2695 305.5 38.7598 361.54c41.4805 36.3096 97.04 54.46 152.61 54.46c55.5596 0 111.13 -18.1504 152.61 -54.46zM369.81 47.1299c47.21 142.08 38.1602 255.17 -24.8193 310.3c-30.9102 27.0508 -75.0098 42.5703 -120.99 42.5703
s-90.0801 -15.5195 -120.99 -42.5703c-62.9795 -55.1299 -72.0293 -168.22 -24.8193 -310.3c17.4092 -52.4199 119.439 -63.1299 145.81 -63.1299c32.3604 0.160156 128.86 12.0898 145.81 63.1299zM200 240c0 -35.3496 -28.6504 -64 -64 -64s-64 28.6504 -64 64
c0 17.6699 14.3301 32 32 32h64c17.6699 0 32 -14.3301 32 -32zM280 272h64c17.6699 0 32 -14.3301 32 -32c0 -35.3496 -28.6504 -64 -64 -64s-64 28.6504 -64 64c0 17.6699 14.3301 32 32 32z" />
    <glyph glyph-name="house-damage" unicode="&#xf6f1;" horiz-adv-x="576" 
d="M573.05 224c3.40039 -2.7998 3.90039 -7.7998 1.29004 -11.2002l-20.3096 -24.7998c-2.7998 -3.40039 -7.90039 -3.90039 -11.2998 -1.09961l-30.7705 27.3301v-262.23c0 -8.7998 -7.15039 -16 -15.9502 -16h-170.67l-42.6396 85.2803
c-5.41016 10.8301 -1.91016 23.9795 8.16016 30.7002l74.2598 49.4795l-68.9502 86.1201v-59.5801c0 -0.00683594 0.0244141 0.00195312 0.0244141 -0.00488281c0 -8.32812 -4.25781 -15.6699 -10.7139 -19.9648l-79.8301 -53.2002l47.5498 -118.83h-173.38
c-8.80078 0 -16.1104 7.2002 -16.1104 16v262.14l-30.2803 -27.6699c-3.5 -2.7998 -8.5 -2.2998 -11.2998 1.10059l-20.3096 24.7998c-2.80078 3.5 -2.30078 8.5 1.09961 11.2998l259.59 215.26c14.71 12.1006 36.0098 12.1006 50.7207 0l150.67 -123.399v60.5
c0 4.39941 3.59961 8 8 8h32.0195c4.40039 0 8 -3.60059 8 -8v-99.7998zM463.8 -16v269.53l-170.99 140c-2.88965 2.39941 -7.19922 2.39941 -10.0996 0l-170.97 -140v-269.53h70.5293l-28.4492 71.0996c-4.23047 10.5303 -0.470703 22.5703 8.96973 28.8701
l85.3604 56.8701v115.16c0 10.1904 6.43945 19.2598 16.0693 22.6396c9.57031 3.41016 20.3203 0.300781 26.7002 -7.63965l128.07 -160c4.18945 -5.26953 6 -12.0303 4.96973 -18.6904c-1.05469 -6.77832 -4.92871 -12.6309 -10.4102 -16.2793l-78.4199 -52.25
l19.9102 -39.7803h108.76z" />
    <glyph glyph-name="hryvnia" unicode="&#xf6f2;" horiz-adv-x="384" 
d="M368 208h-116.34l-30.6699 -32h147.01c8.83984 0 16 -7.16016 16 -16v-16c0 -8.83984 -7.16016 -16 -16 -16h-193.01l-37.71 -39.3398c-5.89062 -6.16016 -9.28027 -15.21 -9.28027 -24.7998c0 -17.2705 11.2197 -31.8604 24.5 -31.8604h73.8896
c8.26758 0.000976562 15.8193 3.14648 21.5 8.2998l22.7705 20.6602c6.54004 5.94043 16.6602 5.44043 22.5996 -1.09961l21.5 -23.71c5.94043 -6.54004 5.44043 -16.6602 -1.09961 -22.6006l-22.7705 -20.6494c-17.6699 -16.0205 -40.6592 -24.9004 -64.5098 -24.9004
h-73.8799c-48.7998 0 -88.5 43 -88.5 95.8604c0 23.7695 8.59961 46.6201 23.2197 64.1396h-71.2197c-8.83984 0 -16 7.16016 -16 16v16c0 8.83984 7.16016 16 16 16h116.34l30.6699 32h-147.01c-8.83984 0 -16 7.16016 -16 16v16c0 8.83984 7.16016 16 16 16h193.01
l37.71 39.3398c5.89062 6.16016 9.28027 15.21 9.28027 24.7998c0 17.2705 -11.2197 31.8604 -24.5 31.8604h-73.8496c-7.95996 0 -15.6406 -2.95996 -21.54 -8.30957l-22.7607 -20.6406c-6.54004 -5.93945 -16.6592 -5.43945 -22.5996 1.10059l-21.5 23.6992
c-5.94043 6.55078 -5.44043 16.6602 1.09961 22.6006l22.7803 20.6602c17.6602 16.0195 40.6504 24.8896 64.4902 24.8896h73.8799c48.7998 0 88.5 -43 88.5 -95.8604c0 -23.7695 -8.59961 -46.6201 -23.2197 -64.1396h71.2197c8.83984 0 16 -7.16016 16 -16v-16
c0 -8.83984 -7.16016 -16 -16 -16z" />
    <glyph glyph-name="key-skeleton" unicode="&#xf6f3;" 
d="M313.5 294.73c12.4902 12.4893 32.7402 12.4893 45.2305 0c12.4893 -12.4902 12.4893 -32.7402 0 -45.2305c-12.4902 -12.4902 -32.7402 -12.4902 -45.2305 0s-12.4902 32.7402 0 45.2305zM377.46 358.69c12.4902 12.4893 32.7402 12.4893 45.2305 0
c12.4893 -12.4902 12.4893 -32.7402 0 -45.2305c-12.4902 -12.4902 -32.7402 -12.4902 -45.2305 0s-12.4902 32.7402 0 45.2305zM448.04 448c35.3301 0 63.96 -28.6396 63.9404 -63.96v-159.89c0 -35.3203 -28.6406 -63.96 -63.9609 -63.96h-159.89
c-0.0224609 0 -0.0898438 0.0292969 -0.112305 0.0292969c-8.81738 0 -17.2188 1.79492 -24.8574 5.04004l-50.8105 -50.8096l39.1201 -39.1201c6.24023 -6.24023 6.24023 -16.3701 0 -22.6104l-15.7598 -15.7598c-6.24023 -6.25 -16.3701 -6.25 -22.6104 0
l-39.1191 39.1201l-30.8604 -30.8604l38.3096 -38.3096c6.24023 -6.24023 6.24023 -16.3701 0 -22.6104l-43.1299 -43.1299c-6.24023 -6.24023 -16.3701 -6.24023 -22.6094 0l-38.3105 38.3105l-38.79 -38.79c-6.24023 -6.24023 -16.3701 -6.24023 -22.6094 0
l-11.3008 11.2998c-6.23926 6.24023 -6.23926 16.3701 0 22.6094l224.58 224.58c-3.25977 7.66992 -5.06934 16.1104 -5.06934 24.9707v159.89c0 35.3203 28.6396 63.96 63.96 63.96h159.89zM464.03 224.15v159.89c0 8.82031 -7.16992 15.9902 -15.9902 15.9902h-159.89
c-8.82031 0 -15.9902 -7.16992 -15.9902 -15.9902v-159.89c0 -8.82031 7.16992 -15.9902 15.9902 -15.9902h159.89c8.82031 0 15.9902 7.16992 15.9902 15.9902z" />
    <glyph glyph-name="knife-kitchen" unicode="&#xf6f5;" horiz-adv-x="576" 
d="M566.28 359.43l-118.28 -119.43v-80l8.88965 -8.87988c12.6807 -12.6797 12.46 -33.3203 -0.489258 -45.7305l-104.4 -100.04c-51.0703 -49.1592 -125.66 -69.3496 -201.49 -69.3496c-48.1396 0 -96.79 8.13965 -140.22 22.1699
c-10.9102 3.53027 -13.7803 17.7305 -5.53027 25.6904l315.23 304.14l164.14 150.63c12.96 12.5 33.9805 12.5 46.9404 0l35.21 -33.9502c12.96 -12.4893 12.96 -32.75 0 -45.25zM496 384c-8.83984 0 -16 -7.16016 -16 -16s7.16016 -16 16 -16s16 7.16016 16 16
s-7.16016 16 -16 16zM318.71 39.9297l92.6797 88.8008l-91.9893 91.9893l-238.96 -230.55c23.2793 -4.07031 46.9092 -6.16992 70.0693 -6.16992c70.9902 0 130.73 19.8604 168.2 55.9297zM432 288c8.83008 0 16 7.16016 16 16s-7.16016 16 -16 16s-16 -7.16016 -16 -16
s7.16016 -16 16 -16z" />
    <glyph glyph-name="leaf-maple" unicode="&#xf6f6;" 
d="M457.73 146.87c17.4297 -15.3799 37.96 -29.4902 37.96 -61.7197c0 -31.5303 -19.1309 -45.1006 -37.9502 -61.71c9.70996 -45.6709 -31.9199 -83.6406 -74.0898 -74.21l-96.6006 19.9297c-10.7998 -20.3105 -31.9502 -33.1602 -55.2402 -33.1602
c-0.0136719 0 0.000976562 -0.0449219 -0.0136719 -0.0449219c-25.7959 0 -47.9648 15.6553 -57.5156 37.9746l-30.7207 71.6904l-102.59 -102.59c-4.68945 -4.69043 -10.8096 -7.03027 -16.9697 -7.03027s-12.2803 2.33984 -16.9697 7.03027
c-9.37012 9.37988 -9.37012 24.5596 0 33.9395l102.59 102.58l-71.6904 30.7305c-23.04 9.87012 -37.9297 32.4502 -37.9297 57.5195c0 0.0136719 -0.0644531 -0.0117188 -0.0644531 0.00195312c0 23.9268 13.4648 44.7334 33.2246 55.248l-19.7803 95.8906
c-4.12988 18.6299 0.330078 37.8398 12.2598 52.71c11.96 14.9092 29.7402 23.46 48.7803 23.46c4.36035 0 8.73047 -0.459961 13.0205 -1.37012l13.8291 15.6602c11.9209 14.1895 29.2803 22.29 47.8809 22.29c18.5898 0 35.96 -8.10059 47.8799 -22.2803l13.8301 -15.6699
c4.2998 0.910156 8.65918 1.37012 13.0195 1.37012c0.0185547 0 0.0332031 -0.0126953 0.0527344 -0.0126953c6.30273 0 12.3896 -0.936523 18.127 -2.67773l16.9307 26.5996c11.5498 18.1504 31.29 28.9805 52.7998 28.9805c22.2002 0 42.2598 -11.3604 53.6504 -30.3604
l2.94922 -4.91992c12.8008 0.879883 48.7402 5.28027 51.0303 5.28027c17.7598 0 34.75 -7.59961 46.6104 -20.8604c9.90527 -11.0869 15.9404 -25.6758 15.9404 -41.6982c0 -2.3457 -0.128906 -4.66211 -0.380859 -6.94141l-4.89941 -44.0801l4.91992 -2.9502
c18.7393 -11.25 30.0898 -31 30.3799 -52.8496c0.290039 -21.8506 -10.5498 -41.8896 -28.9805 -53.6201l-26.5898 -16.9297c3.0498 -9.99023 3.5498 -20.6807 1.31055 -31.2002zM442.22 73.7695c7.29004 5.84082 7.29004 16.9307 -0.00976562 22.7803l-43.1797 38.1104
l11.6201 21.6396c2.35938 9.43066 -4.91992 18.1299 -14.0801 18.1299c-2.51074 0 1.39941 0.820312 -57.7705 -14.3096l118.44 75.3604c9.13965 5.81934 8.96973 19.2295 -0.330078 24.8096l-31.3301 18.7998l8.2998 74.6904
c0.419922 3.76953 -2.03027 17.7002 -16.0996 16.1094l-74.6904 -8.2998l-18.7998 31.3301c-2.83008 4.70996 -7.66992 7.08008 -12.5098 7.08008c-4.70996 0 -9.43066 -2.24023 -12.2998 -6.75l-75.3701 -118.45l13.9492 54.54
c2.43066 10.9297 -7.60938 19.8506 -17.7695 17.3105l-21.6396 -11.6201l-38.1104 43.1797c-2.91992 3.65039 -7.15039 5.46973 -11.3896 5.46973c-4.24023 0 -8.4707 -1.81934 -11.3906 -5.46973l-38.1094 -43.1797l-21.6406 11.6201
c-9.91992 2.48926 -20.2598 -6.09082 -17.7695 -17.3105l27.7998 -134.76l-31.2002 -13.3701c-11.7803 -5.0498 -11.7803 -21.7598 0 -26.8096l89.3398 -38.29l124.851 124.87c9.37988 9.37988 24.5693 9.37988 33.9395 0c9.37012 -9.38086 9.37012 -24.5605 0 -33.9404
l-124.859 -124.86l38.29 -89.3301c2.5293 -5.88965 7.96973 -8.83984 13.4092 -8.83984c5.44043 0 10.8701 2.9502 13.4004 8.83984l13.3701 31.2002c146.37 -30.1895 135.78 -28.1602 137.99 -28.1602c9.16992 0 16.4492 8.7002 14.0898 18.1299l-11.6201 21.6406z" />
    <glyph glyph-name="leaf-oak" unicode="&#xf6f7;" 
d="M511.56 239.92c2.31055 -20.9902 -4.5498 -41.2998 -19.2998 -57.1895c-7.74023 -8.37012 -16.8701 -13.9902 -24.9502 -18.9609c-5.94922 -3.67969 -11.4092 -6.89941 -16.6797 -9.94922c11.79 -17.54 16.2803 -36.9404 12.6602 -55.21
c-3.95996 -20.1406 -17.5498 -37.7607 -38.29 -49.5908c-28.7803 -16.5098 -58.4102 -14.3594 -84.1299 -10.9297c0.990234 -10.3398 -0.469727 -20.6094 -4.40039 -30.1201c-7.45996 -17.9297 -23.2002 -31.29 -43.1895 -36.6494
c-8.23047 -2.2002 -17.1201 -3.32031 -25.9404 -3.32031c-7.4502 0 -14.9102 0.790039 -21.8594 2.40039c-10.8809 2.50977 -20.6406 6.42969 -30.0908 10.1992c-6.58008 2.63086 -13.1201 5.32031 -19.8896 7.2002c-7.63965 2.16992 -12.8799 1.83984 -14.2197 1.33984
c-34.9004 -12.6396 -67.1201 -12.04 -92.0205 0.790039l-46.6299 -46.6299c-4.87988 -4.85938 -11.2803 -7.2998 -17.6602 -7.2998s-12.79 2.44043 -17.6602 7.2998c-9.75 9.75 -9.75 25.5605 0 35.3105l46.8105 46.8398c-12.6396 25.21 -13.3398 57.8301 -1.03027 91.8896
c0.469727 1.35059 0.780273 6.56055 -1.33984 14.2002c-1.87012 6.75 -4.5498 13.2998 -7.16992 19.8604c-3.81055 9.44922 -7.7002 19.21 -10.2305 30.0898c-3.45996 15.1699 -3.13965 32.5996 0.94043 47.8096c5.33984 19.9404 18.6797 35.6699 36.5801 43.1406
c9.5498 3.95996 19.8701 5.37988 30.1895 4.43945c-3.35938 25.5703 -5.5791 55.2803 10.9502 84.1201c11.79 20.6904 29.4102 34.2998 49.5498 38.29c18.3105 3.58984 37.6709 -0.870117 55.2607 -12.6904c2.89941 5.05078 5.79004 9.99023 8.81934 14.8604
c6.08008 9.88965 11.6602 19.0098 20.0205 26.7705c15.8994 14.75 36.2598 21.6494 57.25 19.3291c21.3594 -2.31934 40.9697 -14.2598 53.8203 -32.75c2 -2.89941 3.95996 -5.85938 5.70996 -8.89941c47.6797 11.71 74.8398 -7.48047 87.0293 -20.3906
c12.0107 -11.2695 31.2207 -38.4297 19.4307 -86.0596c3.05957 -1.78027 6.01953 -3.74023 8.91992 -5.75c18.4893 -12.7998 30.4297 -32.4199 32.7393 -53.79zM457.12 215.26c6.63965 7.15039 7.38965 14.5205 6.80957 19.4805
c-0.80957 7.67969 -5.23926 14.6494 -12.4395 19.6396c-2.5498 1.79004 -5.14062 3.62988 -7.98047 4.87988c-17.7402 7.74023 -26.8701 28.1807 -21.2295 47.5303c4.12012 14.1396 6.51953 33.4004 -5.64062 44.8701c-12.4697 13.1396 -31.7393 10.7695 -45.8701 6.63965
c-19.3291 -5.66016 -39.75 3.45996 -47.5195 21.2305c-1.20996 2.76953 -3.08008 5.41016 -4.88965 8.00977c-4.9502 7.16016 -11.9404 11.5801 -19.6406 12.4102c-4.76953 0.629883 -12.29 -0.180664 -19.46 -6.81055
c-3.55957 -3.2998 -7.01953 -8.94922 -10.7002 -14.9199c-6.26953 -10.1797 -11.04 -18.6299 -16.0596 -27.5293l-21.0195 -36.7803l-27.6006 22.7598c-3.62012 3.04004 -6.76953 5.66016 -9.97949 8.15039c-5.55078 4.31934 -13.79 9.14941 -22.0508 7.47949
c-8.08008 -1.58984 -13.8496 -9.06934 -17.2793 -15.0693c-8.26074 -14.4404 -8.11035 -30.79 -5.02051 -54.1602c1.12012 -8.4502 1.95996 -16.9004 2.90039 -26.4102l7.01953 -67.1797l-48.6094 33.9697c-1.55078 1.10938 -2.52051 1.87012 -3.55078 2.47949
c-5.97949 3.43066 -12.1592 4.31055 -16.9893 2.28027c-5.30078 -2.2002 -7.66992 -7.36035 -8.73047 -11.2998c-2.05957 -7.66992 -2.24023 -17.1406 -0.530273 -24.7002c1.68066 -7.24023 4.74023 -14.8799 7.98047 -22.9902
c3.30957 -8.20996 6.5498 -16.4199 8.88965 -24.8701c3.15039 -11.3398 5.74023 -28.0596 0.220703 -43.3096c-4.91992 -13.6396 -6.75 -26.3896 -5.75 -37.3496l208.79 208.779c9.75 9.7207 25.5596 9.7207 35.3096 0c9.75 -9.75 9.75 -25.5596 0 -35.3096l-209.03 -209.04
c10.8301 -0.929688 23.5605 0.979492 37.5703 6.05957c6.47949 2.32031 13.25 3.16016 19.6104 3.16016c9.54004 0 18.1797 -1.87012 23.7295 -3.42969c8.41992 -2.33984 16.6504 -5.58008 24.8506 -8.87012c8.0791 -3.24023 15.75 -6.30957 22.9795 -7.98047
c7.5498 -1.7793 17.0303 -1.55957 24.6699 0.5c3.95996 1.07031 9.13965 3.44043 11.3506 8.76074c1.98926 4.79004 1.11914 10.9893 -2.34082 17.04c-0.55957 0.989258 -1.30957 1.93945 -2.39941 3.44922l-33.7705 48.6602l66.7002 -6.97949
c9.62988 -0.959961 18.1504 -1.7998 26.6602 -2.91992c23.4102 -3.08008 39.7197 -3.24023 54.1602 5.00977c5.97949 3.42969 13.4697 9.22949 15.0898 17.3203c1.58984 8.16992 -3.17969 16.4697 -7.48047 22c-2.39941 3.0498 -4.85938 6.01953 -7.69922 9.42969
l-23.1406 28.1699l36.9502 21.1396c8.79004 4.95996 17.1797 9.68066 25.3203 14.7207c7.91992 4.87988 13.5693 8.34961 16.8398 11.8994z" />
    <glyph glyph-name="mace" unicode="&#xf6f8;" 
d="M304 272c17.6699 0 32 -14.3301 32 -32s-14.3301 -32 -32 -32s-32 14.3301 -32 32s14.3301 32 32 32zM500.98 253.03c14.5898 -4.62012 14.7197 -17.1602 0.209961 -22.0703l-56.0303 -19.0098c-11.0801 -56.0205 -54.6201 -100.21 -110.23 -112.42l-17.9102 -56.5
c-4.61914 -14.5898 -17.1592 -14.7207 -22.0791 -0.220703l-19.0107 56.0303c-20.29 4.00977 -38.8994 12.4297 -55.1602 24l-183.319 -183.32c-4.68066 -4.68945 -12.2803 -4.68945 -16.9697 0l-16.9707 16.9707c-4.68945 4.67969 -4.68945 12.2793 0 16.9697
l183.32 183.31c-11.0205 15.4805 -19.0996 33.1104 -23.3105 52.29l-56.5 17.9102c-14.5898 4.62012 -14.7197 17.1602 -0.219727 22.0801l56.0303 19.0098c11.0801 56.0205 54.6201 100.21 110.229 112.421l17.9102 56.5c4.62012 14.5898 17.1602 14.7197 22.0801 0.219727
l19.0098 -56.0303c56.0205 -11.0801 100.21 -54.6201 112.421 -110.229zM304 144c52.9404 0 96 43.0703 96 96c0 52.9404 -43.0596 96 -96 96s-96 -43.0596 -96 -96c0 -52.9297 43.0596 -96 96 -96z" />
    <glyph glyph-name="mountain" unicode="&#xf6fc;" horiz-adv-x="640" 
d="M634.92 -14.7002c3.2041 -4.98145 5.06348 -10.9756 5.06348 -17.334c0 -5.53906 -1.41113 -10.751 -3.89355 -15.2959c-5.60938 -10.2803 -16.3799 -16.6699 -28.0898 -16.6699h-576c-12.1191 0 -22.6582 6.7168 -28.0898 16.6602
c-2.48242 4.5459 -3.89355 9.82715 -3.89355 15.3672c0 6.36035 1.85938 12.2891 5.06348 17.2725l288 448c5.88965 9.16016 16.0303 14.7002 26.9199 14.7002s21.0303 -5.54004 26.9199 -14.7002zM61.3096 -16h517.391l-138.86 216h-109.899l-73.9404 -73.9404
l-62.9199 62.9209zM320 386.41l-100.36 -156.11l36.3604 -36.3594l54.0596 54.0596h98.9209z" />
    <glyph glyph-name="mountains" unicode="&#xf6fd;" horiz-adv-x="640" 
d="M635.73 41.0898c11.7295 -18 -2.09082 -41.0898 -24.5908 -41.0898h-580.22c-24.1104 0 -38.9102 25.1904 -26.3398 44.8203l207.9 324.66c6.19922 9.67969 16.8594 14.5195 27.5195 14.5195s21.3203 -4.83984 27.5195 -14.5195l70.79 -110.551l52 79.7607
c5.79004 8.86914 15.7402 13.3096 25.6904 13.3096s19.9004 -4.44043 25.6904 -13.3096zM63.6104 48h352.779l-176.39 275.45zM473.39 48h100.53l-157.92 242.2l-49.29 -75.6006z" />
    <glyph glyph-name="network-wired" unicode="&#xf6ff;" horiz-adv-x="640" 
d="M640 184c0 -8.83984 -7.16016 -16 -16 -16h-104v-72h56c17.6699 0 32 -14.3301 32 -32v-96c0 -17.6699 -14.3301 -32 -32 -32h-160c-17.6699 0 -32 14.3301 -32 32v96c0 17.6699 14.3301 32 32 32h56v72h-304v-72h56c17.6699 0 32 -14.3301 32 -32v-96
c0 -17.6699 -14.3301 -32 -32 -32h-160c-17.6699 0 -32 14.3301 -32 32v96c0 17.6699 14.3301 32 32 32h56v72h-104c-8.83984 0 -16 7.16016 -16 16v16c0 8.83984 7.16016 16 16 16h280v72h-72c-17.6699 0 -32 14.3301 -32 32v96c0 17.6699 14.3301 32 32 32h192
c17.6699 0 32 -14.3301 32 -32v-96c0 -17.6699 -14.3301 -32 -32 -32h-72v-72h280c8.83984 0 16 -7.16016 16 -16v-16zM240 400v-64h160v64h-160zM208 48h-128v-64h128v64zM560 48h-128v-64h128v64z" />
    <glyph glyph-name="otter" unicode="&#xf700;" horiz-adv-x="640" 
d="M496 376c8.83984 0 16 -7.16016 16 -16s-7.16016 -16 -16 -16c-8.83008 0 -16 7.16016 -16 16s7.16016 16 16 16zM575.96 416c35.3096 0 64.04 -28.71 64.04 -64v-16c0 -61.7598 -50.3096 -112 -112.15 -112c-12.4297 0 -24.79 -3.07031 -35.75 -8.88965
l-31.1191 -16.5107l19.3496 -38.5996h16.5898c44.1602 0 80.0801 -35.8896 80.0801 -80c0 -26.5098 -21.4902 -48 -48 -48h-98.1299c-18.7793 0 -35.0254 10.7607 -42.9102 26.4902l-40.1299 80.0693l-13.9404 -7.38965c11.5908 -13.8799 18.5703 -31.7197 18.5703 -51.1699
c0 -26.5098 -21.4902 -48 -48 -48h-232.46c-13.2197 0 -24 -10.7695 -24 -24s10.7803 -24 24 -24h160c13.25 0 24 -10.75 24 -24s-10.75 -24 -24 -24h-160c-39.6904 0 -72 32.2998 -72 72c0 36.9902 28.1504 67.1904 64.0801 71.2002l-0.0800781 64.7998
c0 114.69 93.4805 208 208.38 208h18.71l149.96 85.4902c12.0605 6.87988 25.79 10.5098 39.6807 10.5098h20.5391c21.3809 0 41.4707 -8.30957 56.5908 -23.3896l8.62988 -8.61035h9.46973zM527.85 272c20.1699 0 37.9502 9.48047 49.71 24h-56.8994
c-14.8105 0 -29.0303 -7 -38.0303 -18.7305l-16.7002 -21.71l3.68066 1.9502c17.9297 9.52051 37.9297 14.4902 58.2393 14.4902zM592 336v15.9902c0 8.83984 -7.17969 16 -16.04 16h-29.3203l-9.39941 9.37988l-13.29 13.2598
c-6.0498 6.04004 -14.1104 9.37012 -22.6807 9.37012h-20.5391c-5.77148 0 -11.2256 -1.54395 -15.9102 -4.20996l-161.011 -91.79h-31.4297c-88.5703 0 -160.38 -71.6299 -160.38 -160v-64h192.46c0 17.6396 -14.3799 32 -32.0801 32h-77.0498l173.4 91.9902
l62.1396 -123.99h98.1299c0 17.6396 -14.3799 32 -32.0801 32h-46.2197l-53.6504 107.03l1.89062 1l-1.01074 0.959961l59.3203 75.7793c15.0303 19.5605 38.7197 31.2305 63.4102 31.2305h70.5303c0.339844 2.65039 0.80957 5.25977 0.80957 8z" />
    <glyph glyph-name="paw-alt" unicode="&#xf701;" horiz-adv-x="448" 
d="M400 304c26.5098 0 48 -21.4902 48 -48s-21.4902 -48 -48 -48s-48 21.4902 -48 48s21.4902 48 48 48zM144 320c-26.5098 0 -48 21.4902 -48 48s21.4902 48 48 48s48 -21.4902 48 -48s-21.4902 -48 -48 -48zM304 320c-26.5098 0 -48 21.4902 -48 48s21.4902 48 48 48
s48 -21.4902 48 -48s-21.4902 -48 -48 -48zM367.31 147.22c29.0605 -16.3994 48.6904 -47.3994 48.6904 -83.1699c0 -53.0098 -42.9805 -95.9795 -96 -95.9795c-1.30957 -0.0507812 -2.59961 -0.0703125 -3.87012 -0.0703125c-48.8799 0 -68.9199 32.0596 -92.1299 32.0596
s-43.25 -32.0596 -92.1299 -32.0596c-1.27051 0 -2.56055 0.0302734 -3.87012 0.0703125c-53.0195 0 -96 42.9697 -96 95.9795c0 35.7705 19.6299 66.7705 48.6797 83.1699c27.0508 15.2705 46.8799 60.8701 67.1699 97.8301
c15.7402 28.6406 45.9404 42.9502 76.1504 42.9502s60.4102 -14.3096 76.1396 -42.9502c20.0303 -36.4199 40.8799 -82.9902 67.1699 -97.8301zM320 16.0703c26.4697 0 48 21.5195 48 47.9697c0 17.3203 -9.08008 32.79 -24.29 41.3799
c-34.0898 19.25 -55.2695 59.2998 -75.7402 98.0303c-3.33008 6.30957 -6.62012 12.5303 -9.88965 18.4795c-9.20996 16.7705 -28.4102 18.0703 -34.0801 18.0703s-24.8701 -1.2998 -34.0801 -18.0703c-3.45996 -6.2793 -6.90039 -12.8594 -10.3799 -19.4795
c-20 -38.1006 -40.6904 -77.5 -75.25 -97.0205c-15.21 -8.58984 -24.29 -24.0596 -24.29 -41.3799c0 -26.46 21.5303 -47.9795 48 -47.9795h0.820312l0.80957 -0.0302734l2.24023 -0.0400391c15.71 0 25.29 5.70996 38.54 13.6201
c13.7598 8.21973 30.8896 18.4395 53.5898 18.4395s39.8301 -10.2197 53.5898 -18.4297c13.2598 -7.91992 22.8398 -13.6299 38.54 -13.6299l2.25 0.0400391l0.810547 0.0302734h0.80957zM96 256c0 -26.5098 -21.4902 -48 -48 -48s-48 21.4902 -48 48s21.4902 48 48 48
s48 -21.4902 48 -48z" />
    <glyph glyph-name="paw-claws" unicode="&#xf702;" 
d="M256 192c80.75 0 192 -108.19 192 -186.7c0 -42.0996 -34.0596 -69.2998 -86.7803 -69.2998c-46.2793 0 -76.2295 20.3799 -105.22 20.3799c-28.8203 0 -58.4404 -20.3799 -105.22 -20.3799c-52.7207 0 -86.7803 27.21 -86.7803 69.2998
c0 78.5098 111.25 186.7 192 186.7zM361.22 -16c14.4707 0 38.7803 2.76953 38.7803 21.2998c0 47.7598 -86.0898 138.7 -144 138.7s-144 -90.9297 -144 -138.7c0 -18.5303 24.3096 -21.2998 38.7803 -21.2998c38.1602 0 65.9893 20.3799 105.22 20.3799
c39.4404 0 67.4902 -20.3799 105.22 -20.3799zM493.5 257.63c13.6904 -18.7598 24.0703 -48.7402 15.2305 -78.2402c-10 -33.3096 -41.3701 -57.3496 -71.5605 -50.1299c-29.1201 6.95996 -44.29 40.6904 -33.8896 75.3398c7.20996 24.0303 24.8896 41.9102 44.7197 48.46
v66.9404zM446.4 168.38c19.0898 -6.12988 35.71 42.2705 19.2197 47.25c-19.4199 5.82031 -35.6699 -42.3096 -19.2197 -47.25zM318.55 225.39c-30.9297 8.14062 -46.4199 49.9404 -34.5693 93.3604c6.5293 23.9199 20.0693 43.0303 36.0195 54.29v74.96l64 -79.9902
c15.0195 -17.7002 20.4502 -47.8096 12.0098 -78.75c-7.64941 -28.0498 -37.0898 -74.5 -77.46 -63.8701zM322.56 308.22c-13.0693 -48.0098 19.2207 -65.75 34.8408 -8.43945c13.0898 47.8193 -19.1406 66.0596 -34.8408 8.43945zM108.73 204.61
c10.3994 -34.6504 -4.77051 -68.3799 -33.8809 -75.3506c-30.1992 -7.21973 -61.5596 16.8301 -71.5596 50.1299c-8.86035 29.5 1.51953 59.4805 15.21 78.2402l45.5098 62.3701v-66.9297c19.8301 -6.55078 37.5098 -24.4307 44.7207 -48.46zM65.5996 168.38
c16.4502 4.92969 0.200195 53.0605 -19.2197 47.25c-16.5 -4.96973 0.129883 -53.3701 19.2197 -47.25zM193.45 225.39c-40.3701 -10.6299 -69.8105 35.8203 -77.46 63.8701c-8.44043 30.9307 -3.00977 61.0498 12.0098 78.75l64.0098 79.9902v-74.96
c15.9502 -11.25 29.4902 -30.3701 36.0205 -54.29c11.8398 -43.4199 -3.64062 -85.2197 -34.5801 -93.3604zM189.44 308.22c-15.6904 57.6201 -47.9307 39.3799 -34.8408 -8.43945c15.6201 -57.3105 47.9102 -39.5703 34.8408 8.43945z" />
    <glyph glyph-name="pegasus" unicode="&#xf703;" horiz-adv-x="576" 
d="M464 336c-8.83984 0 -16 7.16016 -16 16s7.16016 16 16 16s16 -7.16016 16 -16s-7.16016 -16 -16 -16zM575.95 345.75l0.0498047 -65.3398c0.0195312 -25.3203 -16.0303 -47.8398 -39.9902 -56.0205l-31.0195 -10.5898
c-2.62988 -0.889648 -19.9902 -7.12988 -40.9404 -0.169922c0 0 -0.0302734 -7.5 -0.0800781 -8.42969c-0.660156 -30.5098 -12.0098 -59.0801 -31.9697 -81.5498v-155.65c0 -17.6699 -14.3301 -32 -32 -32h-80c-17.6699 0 -32 14.3301 -32 32v121.5l-60.9404 13.5303
l-9.47949 -26.4102l25.5303 -100.76c5.12012 -20.2207 -10.1602 -39.8604 -31.0205 -39.8604h-74.7002c-14.79 0 -27.6494 10.1396 -31.1094 24.5195l-24.1104 100.29c-1.42773 5.93652 -2.17578 12.0859 -2.17578 18.458c0 7.77637 1.12695 15.292 3.22559 22.3926
l12.9404 43.7598c-20.25 20.4902 -32.1602 48.4502 -32.1602 78.5801c0 2.62988 0.599609 5.08984 0.780273 7.67969c-9.91016 -7.29004 -16.7803 -18.46 -16.7803 -31.6797v-56c0 -8.83984 -7.16016 -16 -16 -16h-16c-8.83984 0 -16 7.16016 -16 16v56
c0 47.1602 37.3604 85.4502 83.9902 87.5996c5.84961 8.44043 13.2002 15.5508 21.1299 21.9805c5.03027 -16.2803 11.7295 -31.8301 20.6797 -46.0703c-8.62988 -10.8398 -13.7998 -24.54 -13.7998 -39.5098c0 -26.8301 16.54 -49.7197 39.9404 -59.2402l-22.7002 -76.7197
c-0.806641 -2.79297 -1.24121 -5.72266 -1.24121 -8.77441c0 -2.5498 0.301758 -5.0293 0.871094 -7.40527l21.1299 -87.8604h41.5303l-24.0801 95.0498l28.7295 80.0205l139.82 -31.0703v-144h48v160.36c19.3203 14.6094 32 37.5498 32 63.6396h0.0498047v80h32
l24.96 -24.9404c6.77051 -6.7793 14.9707 -4.34961 16.4805 -3.8291l31.0195 10.5898c4.50977 1.54004 7.54004 5.7793 7.54004 10.5498l-0.0498047 65.3496l-44.6699 54.2803h-51.3301c-53.0195 0 -96 -42.9805 -96 -96v-16h-70.2305
c-26.4092 0 -51.8594 4.90039 -75.2393 14.2695c17.3994 -35.6699 48.9795 -62.8799 86.3193 -73.3398c6.70996 -1.87012 11.1504 -8.25 11.1504 -15.21v-16.3594c0 -10.4404 -9.87988 -18.21 -19.9902 -15.6299c-80.25 20.4893 -140.01 97.1191 -140.01 183.21
c0 11.46 9.37988 19.0596 19.1602 19.0596c5.04004 0 10.1895 -2.01953 14.21 -6.55957c25.7695 -29.1309 65.5195 -41.4404 104.399 -41.4404h25.8105c14.5996 64.0498 72.0195 112 140.42 112h135.9c5.05957 0 8.94922 -4.67969 7.93945 -9.63965
c-3.42969 -16.8203 -16.54 -30.2607 -32.5596 -35.6602l21.7295 -26.4902c6.81934 -8.27734 10.9346 -18.9092 10.9404 -30.46z" />
    <glyph glyph-name="pumpkin" unicode="&#xf707;" horiz-adv-x="576" 
d="M494.59 343.72c52.5 -50 81.4102 -116.66 81.4102 -187.72s-28.9102 -137.72 -81.4102 -187.72c-37.6797 -35.8301 -95.6494 -42.54 -141.09 -16.3105c-2.12988 1.23047 -4.87988 1.08008 -7.41016 -0.389648c-17.1494 -10.3301 -36.71 -15.5801 -58.0898 -15.5801
s-40.9404 5.25 -58.0898 15.5801c-2.5 1.46973 -5.25 1.62012 -7.41016 0.389648c-45.4697 -26.2295 -103.43 -19.5 -141.09 16.2998c-52.5 50.0107 -81.4102 116.671 -81.4102 187.73s28.9102 137.72 81.4102 187.71c39.5596 37.6699 99.5596 42.5205 144.59 14.25
c8.83008 5.86035 18.6104 10.2402 28.8496 13.2305l26.7002 66.7393c3.46973 8.69043 13.6406 12.5605 22.0098 8.37012l39.6006 -19.7998c5.41992 -2.70996 8.83984 -8.25 8.83984 -14.3096v-53.1904c44.7998 26.9297 103.6 21.8496 142.59 -15.2803zM288 -20
c124.2 0 121.24 352 0 352c-124.2 0 -121.24 -352 0 -352zM48 156c0 -79.25 65.5596 -207.3 148.22 -163.54c-53.3398 80.8096 -53.3994 246.12 -0.0693359 326.98c-83 43.7393 -148.15 -85.3701 -148.15 -163.44zM379.78 -7.5498
c82.5498 -43.79 148.22 85.1699 148.22 163.55c0 78.3398 -64.9102 207.18 -148.14 163.43c12.6592 -19.2295 16.7197 -32.0195 17.6699 -33.6797c35.4502 -91.5703 27.96 -224.11 -17.75 -293.3z" />
    <glyph glyph-name="ram" unicode="&#xf70a;" horiz-adv-x="640" 
d="M609.81 347.08c18.6602 -9.61035 30.1904 -28.4902 30.2002 -49.5498c0 -8.33984 -2.17969 -23.2803 -21.1201 -56.4805c-8.90918 -15.4902 -25.4697 -25.0498 -43.2197 -25.0498h-68.1299c2.79004 -7.66016 4.46973 -15.8301 4.46973 -24.3096
c0 -18.6807 -7.37988 -36.2402 -20 -49.0205c1.94043 -17.9395 -3.0293 -36.3096 -14.2793 -50.8896c-7.98047 -10.0801 -18.3408 -17.2998 -29.7002 -21.6406v-102.14c0 -17.6699 -14.3301 -32 -32 -32h-80c-17.6699 0 -32 14.3301 -32 32v65.4902
c-6.56055 1.12988 -12.8301 2.81934 -18.5205 5.58984c-9.21973 -4.63965 -19.4395 -7.08984 -29.9395 -7.08984c-5.25293 0.000976562 -10.3281 0.616211 -15.2305 1.76953l14.6699 -57.9102c5.12012 -20.2197 -10.1602 -39.8594 -31.0195 -39.8594h-74.7002
c-14.79 0 -27.6504 10.1396 -31.1104 24.5195l-20.79 86.46c-7.20996 5.20996 -13.3994 11.8604 -18.1699 19.5703c-17.5898 2.09961 -33.9697 11.2402 -45.25 25.9102c-11.3398 14.3193 -16.3398 32.7695 -14.2793 50.9395
c-12.4404 12.7305 -19.6904 30.2402 -19.6904 48.9199c0 18.6807 7.37988 36.2402 20 49.0205c-1.94043 17.9395 3.03027 36.3096 14.2803 50.8799c11.5996 14.6699 28.0693 23.75 45.6602 25.8301c9.56934 15.2295 24.8096 26.3203 42.6895 30.3398
c14.7803 3.15039 29.3701 1.52051 42.3105 -4.37012c18.5596 10.0801 42.6299 10.4707 61.4697 1c11.5098 5.73047 24.7295 7.44043 37.5498 5.9707c6.03027 54.4092 51.7598 97.0195 107.73 97.0195c27.1494 0 52.7998 -8.91016 74.21 -24h62.9092
c36.5 0 67.0303 -26.1602 73.7803 -60.7197zM161.89 -16h41.5303l-12.3301 48.6699c-9.43945 0.679688 -18.7295 2.94043 -26.9102 7.40039c-4.72949 -2.12988 -9.67969 -3.48047 -14.6992 -4.45996zM400.02 -16v55.1602
c-3.44922 -1.41016 -6.94922 -2.71973 -10.6494 -3.5498c-12.9297 -2.79004 -25.6504 -1.64062 -37.3506 2.58984v-54.2002h48zM575.66 264c21.2197 43.8896 30.46 29.4199 -39.6602 71.1299v13.6602c0 15.0195 -12.1904 27.2197 -27.1904 27.2197h-68.4092
c-17.04 19.6201 -41.96 32 -68.7207 32c-38 0 -68.9395 -30.9297 -68.9395 -68.9502c0 -28.21 22.9395 -51.1592 51.1602 -51.1592c20.3496 0 36.9092 16.5596 36.9092 36.9199c0 17.1299 -11.8896 22.0801 -23.5898 26.1992c-3.75 2 -6.21973 6.01074 -6.21973 10.4805
v16.2803c0 8.16992 8.28027 14.8896 18.8096 10.96c29.5 -6.66016 51 -33.54 51 -63.9102c0 -42.4199 -34.5 -76.9199 -76.9092 -76.9199c-53.04 0 -72.8105 39.5596 -84.4404 50.6396c-7.40039 7.11035 -19.3096 7.00977 -26.5898 0.0302734l-16.9102 -16.1602
l-16.5898 16.4502c-7.94043 7.86035 -21.7803 3.91992 -26.2197 -0.580078l-15.9707 -16.4199l-17.1602 15.2002c-11.6797 10.4297 -28.0195 3.31934 -31.8799 -9.91992l-6.0293 -20.6699l-21.1904 3.76953c-15.3203 2.75 -28.0098 -13.8604 -21.7803 -29.4697
l7.75 -19.5303l-18.3398 -10.2695c-14.2803 -8.03027 -13.7295 -29.75 -0.30957 -37.3105l18.3398 -10.2695l-7.75 -19.5205c-6.40039 -16.1104 6.87988 -32.1201 21.4697 -29.4795l21.4102 3.83008l5.94043 -20.9102c3.92969 -13.9307 20.1699 -20.2305 32.1895 -10.0508
l17.1602 14.6406l15.6904 -16.2305c4.30957 -4.5293 18.1299 -8.47949 26.6895 -0.25l16.8398 16.1406l16.5898 -16.3701c6.9707 -6.83008 18.5908 -6.79004 26 0.229492l16.5303 15.8398l16.5898 -15.7793c8.4707 -8.06055 20.3203 -6.5498 26.8799 0.229492l16 16.4404
l17.1602 -15.2197c11.8604 -10.5605 28.0703 -3.15039 31.8799 9.91992l6.03027 20.6699l21.1904 -3.77051c15.5596 -2.58008 27.9697 13.9502 21.7793 29.4707l-7.75 19.5293l18.3408 10.2705c14.2793 8.0293 13.7295 29.75 0.30957 37.3096l-18.3398 10.2705
l17.2295 43.3896h123.021zM496 336c8.83984 0 16 -7.16016 16 -16s-7.16016 -16 -16 -16s-16 7.16016 -16 16s7.16016 16 16 16z" />
    <glyph glyph-name="ring" unicode="&#xf70b;" 
d="M256 384c145.94 0 256 -61.9102 256 -144v-98.1299c0 -78.3506 -114.62 -141.87 -256 -141.87s-256 63.5195 -256 141.87v98.1299c0 82.0898 110.06 144 256 144zM256 336c-110.46 0 -200 -35.8203 -200 -80c0 -9.08984 3.96973 -17.79 10.9502 -25.9297
c46.8096 25.6992 114.05 41.9297 189.05 41.9297s142.24 -16.2305 189.05 -41.9297c6.98047 8.13965 10.9502 16.8398 10.9502 25.9297c0 44.1797 -89.54 80 -200 80zM397.7 199.55c-35.7002 14.1504 -84.0801 24.4502 -141.7 24.4502s-106 -10.2998 -141.7 -24.4502
c36.2197 -14.54 86.3203 -23.5498 141.7 -23.5498s105.48 9.00977 141.7 23.5498zM464 141.87v39.7695c-46.4297 -32.4199 -122.15 -53.6396 -208 -53.6396s-161.57 21.2197 -208 53.6504v-39.7803c0 -38.2803 81.0303 -93.8701 208 -93.8701s208 55.5996 208 93.8701z" />
    <glyph glyph-name="sheep" unicode="&#xf711;" horiz-adv-x="640" 
d="M496 352c8.83984 0 16 -7.16016 16 -16s-7.16016 -16 -16 -16s-16 7.16016 -16 16s7.16016 16 16 16zM609.81 347.08c18.6602 -9.61035 30.1904 -28.4902 30.2002 -49.5498c0 -8.33984 -2.17969 -23.2803 -21.1201 -56.4805
c-8.90918 -15.4902 -25.4697 -25.0498 -43.2197 -25.0498h-68.1299c2.79004 -7.66016 4.46973 -15.8301 4.46973 -24.3096c0 -18.6807 -7.37988 -36.2402 -20 -49.0205c1.94043 -17.9395 -3.0293 -36.3096 -14.2793 -50.8896
c-7.98047 -10.0801 -18.3408 -17.2998 -29.7002 -21.6406v-102.14c0 -17.6699 -14.3301 -32 -32 -32h-80c-17.6699 0 -32 14.3301 -32 32v65.5098c-6.56055 1.12012 -12.8799 2.82031 -18.5205 5.57031c-9.21973 -4.63965 -19.4395 -7.08984 -29.9395 -7.08984
c-5.25293 0.000976562 -10.3281 0.616211 -15.2305 1.76953l14.6699 -57.9102c5.12012 -20.2197 -10.1602 -39.8594 -31.0195 -39.8594h-74.7002c-14.79 0 -27.6504 10.1396 -31.1104 24.5195l-20.79 86.46c-7.20996 5.20996 -13.3994 11.8604 -18.1699 19.5703
c-17.5898 2.09961 -33.9697 11.2402 -45.25 25.9102c-11.3398 14.3193 -16.3398 32.7695 -14.2793 50.9395c-12.4404 12.7305 -19.6904 30.2402 -19.6904 48.9199c0 18.6807 7.37988 36.2402 20 49.0205c-1.94043 17.9395 3.03027 36.3096 14.2803 50.8799
c11.5996 14.6699 28.0693 23.75 45.6602 25.8301c9.56934 15.2295 24.8096 26.3203 42.6895 30.3398c14.75 3.15039 29.3701 1.52051 42.3105 -4.37012c18.5596 10.0801 42.6299 10.4707 61.4697 1c18.3994 9.14062 41.1797 9.14062 59.5898 -0.0595703
c21.04 10.5596 44.7002 8.4502 61.8096 -1c11.3604 5.09961 23.8008 6.71973 36.1904 5.00977v67.04c0 17.6699 14.3301 32 32 32c14.8398 0 26.7598 -10.2998 30.3799 -24h81.6201c30.8799 0 56 -25.1299 56 -56v-5.55957zM161.89 -16h41.5303l-12.3301 48.6699
c-9.42969 0.679688 -18.7197 2.94043 -26.9102 7.40039c-4.72949 -2.12988 -9.67969 -3.48047 -14.6992 -4.45996zM400.02 -16v55.1602c-3.44922 -1.41016 -6.94922 -2.71973 -10.6494 -3.5498c-12.9502 -2.79004 -25.6504 -1.64062 -37.3506 2.58984v-54.2002h48z
M453.44 173.03c14.2793 8.04004 13.7295 29.7598 0.30957 37.3301l-18.3398 10.2695l7.75 19.5205c6.37012 16.04 -6.83984 32.1699 -21.4697 29.4795l-21.4102 -3.83008l-5.94043 20.9102c-3.88965 13.7705 -20.04 20.3496 -32.1895 10.0498l-17.1602 -14.6201
l-15.6602 16.2002c-4.82031 4.99023 -16.6504 9.98047 -26.6904 0.280273l-16.5596 -15.9102l-16.6201 15.8398c-7.40039 7.11035 -19.3096 7.00977 -26.5898 0.0302734l-16.9102 -16.1602l-16.5898 16.4502c-7.94043 7.86035 -21.7803 3.91992 -26.2197 -0.580078
l-15.9707 -16.4199l-17.1602 15.2002c-11.6592 10.4102 -28.0098 3.34961 -31.8799 -9.91992l-6.0293 -20.6699l-21.1904 3.76953c-15.3203 2.75 -28.0098 -13.8604 -21.7803 -29.4697l7.75 -19.5303l-18.3398 -10.2695
c-14.2803 -8.03027 -13.7295 -29.75 -0.30957 -37.3105l18.3398 -10.2695l-7.75 -19.5205c-6.40039 -16.1104 6.87988 -32.1201 21.4697 -29.4795l21.4102 3.83008l5.94043 -20.9102c4.20996 -14.9199 20.9795 -19.5508 32.1895 -10.0508l17.1602 14.6406l15.6904 -16.2305
c4.30957 -4.5293 18.1299 -8.47949 26.6895 -0.25l16.8398 16.1406l16.5898 -16.3701c6.94043 -6.83008 18.5908 -6.79004 26 0.229492l16.5303 15.8398l16.5898 -15.7793c8.4707 -8.06055 20.3203 -6.5498 26.8799 0.229492l16 16.4404l17.1602 -15.2197
c11.7402 -10.5303 28.0498 -3.2207 31.8799 9.91992l6.03027 20.6699l21.1904 -3.77051c15.5596 -2.58008 27.9795 13.9502 21.7793 29.4707l-7.75 19.5293zM575.66 264c18.9199 30.9199 19.9795 36.1299 10.3203 41.4102l-49.9707 29.7197v32.8701
c0 4.41016 -3.58984 8 -8 8h-96v-57.5098c0.230469 -0.370117 0.549805 -0.660156 0.780273 -1.03027c17.5898 -2.09961 33.9697 -11.2402 45.25 -25.9102c6.41992 -8.10938 10.5703 -17.5898 12.79 -27.5498h84.8301z" />
    <glyph glyph-name="shield-cross" unicode="&#xf712;" horiz-adv-x="448" 
d="M420.43 364.31c16.6904 -7.44922 27.5703 -24.9297 27.5703 -44.3096c0 -221.28 -126.87 -344.64 -206.77 -380.31c-5.51074 -2.45996 -11.3701 -3.69043 -17.2305 -3.69043s-11.7197 1.23047 -17.2305 3.69043c-99.9092 44.5996 -206.77 181.819 -206.77 380.31
c0 19.3799 10.8799 36.8604 27.5703 44.3096l179.199 80c5.51074 2.45996 11.3701 3.69043 17.2305 3.69043s11.7197 -1.23047 17.2305 -3.69043zM398.33 280c1.03027 12.9199 1.66992 26.1904 1.66992 40l-152 68.5898v-108.59h150.33zM200 388.72l-152.86 -68.2393
c0.0703125 -13.8809 0.879883 -27.29 2.03027 -40.4805h150.83v108.72zM55.7598 232c21.7705 -112.89 82.0605 -194.28 144.24 -233.96v233.96h-144.24zM248 -1.75c52.1699 34.3301 120.77 110.04 143.84 233.75h-143.84v-233.75z" />
    <glyph glyph-name="shovel" unicode="&#xf713;" 
d="M502.71 358.45c12.3896 -12.3906 12.3896 -32.4697 0 -44.8604l-28.29 -28.2998c-17.54 -17.5303 -41 -29.2002 -65.7002 -29.2002c-9.05957 0 -25.4297 1.5 -43.2598 11.4502l-124.32 -124.32l52.6602 -52.6602c12.4902 -12.4893 12.4902 -32.7393 0 -45.2295
l-69.6201 -69.6201c-28.7197 -28.71 -83.6699 -39.71 -130.29 -39.71c-36.0801 0 -67.1797 6.58984 -77.2295 16.6504c-23.0605 23.0596 -27.8799 156.59 23.0596 207.529l69.6201 69.6201c6.24023 6.25 14.4297 9.37012 22.6104 9.37012
c8.17969 0 16.3701 -3.12012 22.6094 -9.37012l52.6602 -52.6602l124.29 124.29c-4.45996 7.99023 -11.3896 22.7402 -11.3896 43.2305c0 23.2402 9.13965 45.7197 25.9102 62.4902l31.5596 31.5596c6.19043 6.19043 14.3105 9.29004 22.4297 9.29004
c8.12012 0 16.2402 -3.09961 22.4307 -9.29004zM190.26 9.62988l58.2998 58.3301l-116.63 116.63l-58.3096 -58.3203c-26.9404 -26.9395 -29.5 -108.68 -21.6299 -137.989c8 -2.04004 22.4199 -4.31055 41.8994 -4.31055c42.29 0 81.0205 10.3105 96.3701 25.6602z
M440.49 319.22l16.8096 16.8105l-57.2803 57.2793l-20.0693 -20.0693c-25.3604 -25.3701 -7.21973 -69.1504 27.7803 -69.1504c11.5898 0 23.1494 5.52051 32.7598 15.1299z" />
    <glyph glyph-name="slash" unicode="&#xf715;" horiz-adv-x="640" 
d="M604 -60.4902l-597.99 467.51c-6.89941 5.52051 -8.01953 15.5908 -2.49023 22.4902l9.99023 12.4902c5.52051 6.90039 15.5898 8.00977 22.4902 2.49023l598 -467.51c6.90039 -5.52051 8.01953 -15.5908 2.49023 -22.4902l-10 -12.4902
c-5.52051 -6.90039 -15.5898 -8.00977 -22.4902 -2.49023z" />
    <glyph glyph-name="snake" unicode="&#xf716;" horiz-adv-x="640" 
d="M512 200c8.83984 0 16 -7.16016 16 -16s-7.16016 -16 -16 -16s-16 7.16016 -16 16s7.16016 16 16 16zM611.76 283.09c16.7803 -5.16992 28.2402 -20.6895 28.2305 -38.2695v-75.8506c0 -17.7393 -11.6602 -33.3701 -28.6504 -38.3994
c-94.0303 -32.6602 -97.2695 -35.5205 -115.47 -35.5205c-17.6299 0 -34.3398 5.93066 -47.8701 16.0898v-31.1396c0 -79.4004 -64.5996 -144 -144 -144c-102.48 0 -144 94.2998 -144 149.7v218.3c0 8.82031 -7.17969 16 -16 16s-16 -7.17969 -16 -16v-159.53
c0 -64.3193 -11.4502 -127.479 -34.04 -187.71c-4.72949 -12.6094 -16.4902 -20.7598 -29.96 -20.7598s-25.2305 8.15039 -29.96 20.7695c-22.5898 60.2305 -34.04 123.381 -34.04 187.7v159.53c0 79.5303 64.5596 144 144 144c102.48 0 144 -94.3096 144 -149.7v-218.3
c0 -8.82031 7.17969 -16 16 -16s16 7.17969 16 16v48c0 64.0703 42.3496 117.87 100.31 136.49c10.6201 32.75 41.3301 55.4902 75.71 55.4902c18 0 18.9404 -1.9209 115.74 -36.8906zM592 177.02v61.9307c-93.3604 34.0498 -88.54 33.04 -95.9805 33.04
c-13.4395 0 -25.7891 -9.16992 -30.0498 -22.29l-7.58008 -23.3799l-23.3896 -7.52051c-19.1201 -6.13965 -67 -30.7002 -67 -90.7998v-48c0 -83.5498 -128 -87.25 -128 3.59961v214.7c0 53.8105 -40.9404 101.7 -96 101.7c-34.0801 0 -96 -25.1104 -96 -99.46v-156.07
c0 -42.0195 5.37012 -83.4893 16 -123.819c10.6299 40.3301 16 81.7998 16 123.819v159.53c0 38.8398 34.7695 69.71 74.8301 63.1104c31.4697 -5.18066 53.1797 -34.8203 53.1797 -66.71v-214.7c0 -137.59 192 -131 192 -5.7002v41.1299
c0 33.8398 26.79 61.2305 60.2998 62.6104l5.66016 -17.4707c4.26074 -13.1191 16.6104 -22.2891 30.0498 -22.2891c7.4209 0 2.61035 -1.01074 95.9805 33.0391zM496 232c0 8.83984 7.16016 16 16 16s16 -7.16016 16 -16s-7.16016 -16 -16 -16s-16 7.16016 -16 16z" />
    </font>
</defs>
</svg>
