<?xml version="1.0" standalone="no"?>
<!DOCTYPE svg PUBLIC "-//W3C//DTD SVG 1.1//EN" "http://www.w3.org/Graphics/SVG/1.1/DTD/svg11.dtd" >
<svg xmlns="http://www.w3.org/2000/svg" xmlns:xlink="http://www.w3.org/1999/xlink" version="1.1">
<metadata>
Created by FontForge 20201107 at Tue Mar 16 10:16:49 2021
 By Robert Madole
Copyright (c) Font Awesome
</metadata>
<!-- Font Awesome Pro 5.15.3 by @fontawesome - https://fontawesome.com License - https://fontawesome.com/license (Commercial License) --><defs>
<font id="FontAwesome5Pro-Regular" horiz-adv-x="640" >
  <font-face 
    font-family="Font Awesome 5 Pro Regular"
    font-weight="400"
    font-stretch="normal"
    units-per-em="512"
    panose-1="2 0 5 3 0 0 0 0 0 0"
    ascent="448"
    descent="-64"
    bbox="-0.0593225 -64.0996 640.053 448.05"
    underline-thickness="25"
    underline-position="-50"
    unicode-range="U+0020-F8FF"
  />
    <missing-glyph />
    <glyph glyph-name="bolt" unicode="&#xf0e7;" horiz-adv-x="384" 
d="M377.8 280.1c8.2998 -14.2998 8.2998 -31.5 -0.0996094 -45.7998l-183.2 -276.7c-7.2998 -12.7998 -22.5 -21.5996 -38.7998 -21.5996c-14.1006 0 -27.2002 6.2998 -35.9004 17.4004c-8.7002 11 -11.7998 25.1992 -8.59961 38.8994l34.8994 151.7h-98.0996
c-13.9004 0 -27.0996 6 -36.2002 16.5c-9.09961 10.5 -13.2002 24.4004 -11.2998 38.2002l52.4004 212.2c2.5 20 22 37.0996 44.7998 37.0996h130.5c14.2998 0 27.5996 -6.5 36.3994 -17.7998c8.7002 -11.4004 11.6006 -25.9004 7.90039 -39.7002l-28.7002 -87.5h94.4004
c16.5 0 31.3994 -8.59961 39.5996 -22.9004zM160.1 -9.40039l173.9 264.4h-156.5l47.7998 145.9l-127.6 -0.900391l-50.2002 -208h158.9z" />
    <glyph glyph-name="sun" unicode="&#xf185;" horiz-adv-x="512" 
d="M494.2 226.1c11.2002 -7.59961 17.7998 -20.0996 17.8994 -33.6992c0 -13.4004 -6.69922 -26 -17.7998 -33.5l-59.7998 -40.5l13.7002 -71c2.5 -13.2002 -1.60059 -26.8008 -11.1006 -36.3008s-22.8994 -13.7998 -36.2998 -11.0996l-70.8994 13.7002l-40.4004 -59.9004
c-7.5 -11.0996 -20.0996 -17.7998 -33.5 -17.7998s-26 6.7002 -33.5 17.9004l-40.4004 59.8994l-70.7998 -13.7002c-13.3994 -2.59961 -26.7998 1.60059 -36.2998 11.1006s-13.7002 23.0996 -11.0996 36.2998l13.6992 71l-59.7998 40.5
c-11.0996 7.5 -17.7998 20 -17.7998 33.5s6.59961 26 17.7998 33.5996l59.7998 40.5l-13.6992 71c-2.60059 13.2002 1.59961 26.7002 11.0996 36.3008c9.5 9.59961 23 13.6992 36.2998 11.1992l70.7998 -13.6992l40.4004 59.8994c15.0996 22.2998 51.9004 22.2998 67 0
l40.4004 -59.8994l70.8994 13.6992c13 2.60059 26.6006 -1.59961 36.2002 -11.0996c9.5 -9.59961 13.7002 -23.2002 11.0996 -36.4004l-13.6992 -71zM381.3 140.5l76.7998 52.0996l-76.7998 52l17.6006 91.1006l-91 -17.6006l-51.9004 76.9004l-51.7998 -76.7998
l-91 17.5996l17.5996 -91.2002l-76.7998 -52l76.7998 -52l-17.5996 -91.1992l90.8994 17.5996l51.9004 -77l51.9004 76.9004l91 -17.6006zM256 296c57.2998 0 104 -46.7002 104 -104s-46.7002 -104 -104 -104s-104 46.7002 -104 104s46.7002 104 104 104zM256 136
c30.9004 0 56 25.0996 56 56s-25.0996 56 -56 56s-56 -25.0996 -56 -56s25.0996 -56 56 -56z" />
    <glyph glyph-name="snowflake" unicode="&#xf2dc;" horiz-adv-x="448" 
d="M440.1 92.7998c7.60059 -4.39941 10.1006 -14.2002 5.5 -21.7002l-7.89941 -13.8994c-4.40039 -7.7002 -14 -10.2998 -21.5 -5.90039l-39.2002 23l9.09961 -34.7002c2.30078 -8.5 -2.69922 -17.2998 -11.0996 -19.5996l-15.2002 -4.09961
c-8.39941 -2.30078 -17.0996 2.7998 -19.2998 11.2998l-21.2998 81l-71.9004 42.2002v-84.5l58.2998 -59.3008c6.10059 -6.19922 6.10059 -16.3994 0 -22.5996l-11.0996 -11.2998c-6.09961 -6.2002 -16.0996 -6.2002 -22.2002 0l-24.8994 25.3994v-46.0996
c0 -8.7998 -7 -16 -15.7002 -16h-15.7002c-8.7002 0 -15.7002 7.2002 -15.7002 16v45.9004l-24.8994 -25.4004c-6.10059 -6.2002 -16.1006 -6.2002 -22.2002 0l-11.1006 11.2998c-6.09961 6.2002 -6.09961 16.4004 0 22.6006l58.3008 59.2998v84.5l-71.9004 -42.2002
l-21.2998 -81c-2.2998 -8.5 -10.9004 -13.5996 -19.2998 -11.2998l-15.2002 4.09961c-8.40039 2.2998 -13.2998 11.1006 -11.1006 19.6006l9.10059 34.6992l-39.2002 -23c-7.5 -4.39941 -17.2002 -1.7998 -21.5 5.90039l-7.90039 13.9004
c-4.2998 7.69922 -1.69922 17.5 5.80078 21.8994l39.1992 23l-34.0996 9.2998c-8.40039 2.30078 -13.2998 11.1006 -11.0996 19.6006l4.09961 15.5c2.2998 8.5 10.9004 13.5996 19.2998 11.2998l79.7002 -21.7002l71.9004 42.2002l-71.9004 42.2002l-79.7002 -21.7002
c-8.39941 -2.2998 -17.0996 2.7998 -19.2998 11.2998l-4.09961 15.5c-2.30078 8.5 2.69922 17.2998 11.0996 19.6006l34.0996 9.09961l-39.1992 23c-7.60059 4.5 -10.1006 14.2002 -5.80078 21.9004l7.90039 13.8994c4.40039 7.7002 14 10.2998 21.5 5.90039l39.2002 -23
l-9.10059 34.7002c-2.2998 8.5 2.7002 17.2998 11.1006 19.5996l15.2002 4.09961c8.39941 2.30078 17.0996 -2.7998 19.2998 -11.2998l21.2998 -81l71.9004 -42.2002v84.5l-58.3008 59.3008c-6.09961 6.19922 -6.09961 16.3994 0 22.5996l11.5 11.2998
c6.10059 6.2002 16.1006 6.2002 22.2002 0l24.9004 -25.3994v46.0996c0 8.7998 7 16 15.7002 16h15.6992c8.7002 0 15.7002 -7.2002 15.7002 -16v-45.9004l24.9004 25.4004c6.09961 6.2002 16.0996 6.2002 22.2002 0l11.0996 -11.2998
c6.09961 -6.2002 6.09961 -16.4004 0 -22.6006l-58.2998 -59.2998v-84.5l71.8994 42.2002l21.3008 81c2.2998 8.5 10.8994 13.5996 19.2998 11.2998l15.2002 -4.09961c8.39941 -2.2998 13.2998 -11.1006 11.0996 -19.6006l-9.09961 -34.6992l39.1992 23
c7.5 4.39941 17.2002 1.7998 21.5 -5.90039l7.90039 -13.9004c4.2998 -7.69922 1.7002 -17.5 -5.7998 -21.8994l-39.2002 -23l34.0996 -9.2998c8.40039 -2.30078 13.3008 -11.1006 11.1006 -19.6006l-4.10059 -15.5c-2.2998 -8.5 -10.8994 -13.5996 -19.2998 -11.2998
l-79.7002 21.7002l-71.8994 -42.2002l71.7998 -42.2002l79.7002 21.7002c8.39941 2.2998 17.0996 -2.7998 19.2998 -11.2998l4.09961 -15.5c2.30078 -8.5 -2.69922 -17.2998 -11.0996 -19.6006l-34.0996 -9.2998z" />
    <glyph glyph-name="cloud-moon" unicode="&#xf6c3;" 
d="M390.8 151.6c34.4004 -20.2998 57.2002 -57.7998 57.2002 -99.5996c0 -64 -52 -116 -116 -116h-204c-70.5996 0 -128 57.4004 -128 128c0 41 19.5996 78.9004 51.5996 102.7c14.1006 60.0996 68.4004 105.3 132.4 105.3c33.2002 0 64.5 -12 88.7998 -33.0996
c5 0.699219 10.1006 1.09961 15.2002 1.09961c52 0 95.2998 -38.4004 102.8 -88.4004zM332 -16c37.5 0 68 30.4004 68 68c0 34.5 -25.7002 62.5996 -58.9004 67.0996c1.7002 5.40039 2.90039 11 2.90039 16.9004c0 30.9004 -25.0996 56 -56 56
c-11 0 -21.2002 -3.2998 -29.9004 -8.7998c-15.6992 24.5 -42.8994 40.7998 -74.0996 40.7998c-48.2002 0 -87.2002 -38.7002 -87.9004 -86.7002c-28.2998 -12.2998 -48.0996 -40.5 -48.0996 -73.2998c0 -44.2002 35.7998 -80 80 -80h204zM637.6 160.8
c4.10059 -8.5 2.90039 -18.3994 -3.09961 -25.7998c-36.5996 -45.2002 -90.9004 -71.0996 -149 -71.0996c-2.09961 0 -4.2002 0.199219 -6.2998 0.299805c-1.5 17.3994 -6 34.2002 -13.2998 49.7002c6.5 -0.900391 12.8994 -2 19.5996 -2
c23.2998 0 45.7998 5.59961 65.9004 16c-75.9004 16.7998 -132.9 84.7998 -132.9 165.899c0 37.5 12.5 73.2998 34.4004 102.4c-62.3008 -14.5 -108.9 -69.7998 -110.801 -136.101c-14.7998 6.5 -30.7998 10.5 -47.5996 11.3008c7.90039 98.6992 90.5 176.6 191 176.6
c11.7998 0 23.5 -1.09961 35 -3.09961c10.0996 -1.90039 17.7998 -9.60059 19.5 -19.8008c1.7002 -10.0996 -3 -20 -11.9004 -25.0996c-38 -21.7002 -61.5996 -62.2998 -61.5996 -106c0 -67.2002 54.5 -121.9 121.5 -121.9c7.7002 0 15.5 0.700195 23.2002 2.2002
c1.59961 0.299805 3.09961 0.400391 4.59961 0.400391c9.40039 0 17.7002 -5.2998 21.7998 -13.9004z" />
    <glyph glyph-name="cloud-sun" unicode="&#xf6c4;" 
d="M582.8 151.6c34.4004 -20.2998 57.2002 -57.7998 57.2002 -99.5996c0 -64 -52 -116 -116 -116h-204c-70.5996 0 -128 57.4004 -128 128c0 41 19.5996 78.9004 51.5996 102.7c14.1006 60.0996 68.4004 105.3 132.4 105.3c33.2002 0 64.5 -12 88.7998 -33.0996
c5 0.699219 10.1006 1.09961 15.2002 1.09961c52 0 95.2998 -38.4004 102.8 -88.4004zM524 -16c37.5996 0 68 30.4004 68 68c0 34.5 -25.7002 62.5996 -58.9004 67.0996c1.7002 5.40039 2.90039 11 2.90039 16.9004c0 30.9004 -25.0996 56 -56 56
c-11 0 -21.2002 -3.2998 -29.9004 -8.7998c-15.6992 24.5 -42.8994 40.7998 -74.0996 40.7998c-48.2002 0 -87.2002 -38.7002 -87.9004 -86.7002c-28.2998 -12.2998 -48.0996 -40.5 -48.0996 -73.2998c0 -44.2002 35.7998 -80 80 -80h204zM106.5 106.7l43.7998 8.5
l19.7998 3.7998c-6.09961 -16.5996 -9.59961 -34.2002 -9.89941 -52.2002l-0.799805 1.2998l-62 -12c-2.30078 -0.399414 -4.60059 -0.599609 -6.80078 -0.599609c-9.39941 0 -18.2998 3.7002 -25 10.4004c-8.2998 8.2998 -11.8994 20.1992 -9.69922 31.7998l12 62.0996
l-52.3008 35.4004c-9.7998 6.59961 -15.5996 17.5 -15.5996 29.2998c0 11.7002 5.7998 22.7002 15.5 29.2998l52.2998 35.5l-12 62.1006c-2.2002 11.5996 1.40039 23.3994 9.7002 31.7998c6.7002 6.7002 15.7002 10.3994 25 10.3994
c2.2998 0 4.5 -0.299805 6.7998 -0.699219l62 -12l35.4004 52.3994c6.59961 9.7998 17.8994 14.7002 29.2998 14.7002c11.7998 0 22.7002 -5.7998 29.2002 -15.5996l35.3994 -52.4004l62 12c2.30078 0.400391 4.60059 0.599609 6.80078 0.599609
c9.39941 0 18.2998 -3.69922 25 -10.3994c8.2998 -8.2998 11.8994 -20.2002 9.69922 -31.7998l-9.09961 -47c-2.2998 0.0996094 -4.59961 0.599609 -7 0.599609c-14.7002 0 -29 -2.5 -42.9004 -6.2998l8.40039 43.5996l-43.5996 -8.5l-31.2002 -6l-17.7998 26.2998
l-24.9004 36.9004v1l-24.7998 -36.7002l-17.7998 -26.2998l-31.2002 6l-43.7002 8.5l8.5 -43.9004l6 -31.0996l-26.2002 -17.7998l-37 -25.1006l37 -25.0996l26.2002 -17.7998l-6 -31.1006zM215.7 185.7c0 -0.200195 -0.100586 -0.400391 -0.200195 -0.700195
c-12.9004 -11.0996 -23.7002 -24.0996 -32.4004 -38.5c-27.8994 14.7998 -47.0996 43.7998 -47.0996 77.5c0 48.5 39.5 88 88 88c27.0996 0 51.0996 -12.5996 67.2002 -32c-13.7998 -8.2002 -26.5 -18.0996 -37.5 -29.9004
c-7.2998 8.40039 -17.7002 13.9004 -29.7002 13.9004c-22.0996 0 -40 -17.9004 -40 -40c0 -19.0996 13.7002 -34.4004 31.7002 -38.2998z" />
    <glyph glyph-name="wind" unicode="&#xf72e;" horiz-adv-x="512" 
d="M16 224c-8.7998 0 -16 7.2002 -16 16v16c0 8.7998 7.2002 16 16 16h336c31.4004 0 55.9004 30.4004 45.5996 63.2998c-4.5 14.2998 -16.0996 26 -30.3994 30.4004c-28.5 8.89941 -55.1006 -8.2998 -61.7002 -33.5c-1.7998 -6.90039 -7.5 -12.1006 -14.7002 -12.1006
h-18.3994c-9.10059 0 -16.5 8.2002 -14.9004 17.2002c9.2998 51.2002 59.2002 88.2998 115.1 76.6006c36.3008 -7.60059 65.6006 -36.9004 73.2002 -73.2002c13 -62.1006 -34 -116.7 -93.7998 -116.7h-336zM160 192c59.7998 0 106.8 -54.5996 93.9004 -116.7
c-7.60059 -36.2998 -36.9004 -65.5996 -73.2002 -73.2002c-55.9004 -11.6992 -105.8 25.4004 -115.101 76.6006c-1.69922 9 5.7002 17.2002 14.9004 17.2002h18.2998c7.2002 0 12.9004 -5.2002 14.7002 -12.1006c6.59961 -25.2002 33.2002 -42.3994 61.7002 -33.5
c14.2998 4.5 26 16.1006 30.3994 30.4004c10.3008 33 -14.1992 63.2998 -45.5996 63.2998h-144c-8.7998 0 -16 7.2002 -16 16v16c0 8.7998 7.2002 16 16 16h144zM395.3 192c61.2998 0 114.8 -47.2998 116.601 -108.6c1.89941 -63.4004 -48.9004 -115.4 -111.9 -115.4
c-53 0 -97.0996 37 -108.7 86.5c-1.09961 4.90039 2.90039 9.5 7.90039 9.5h33.0996c3.5 0 6.40039 -2.2998 7.60059 -5.59961c8.89941 -24.7002 32.2998 -42.4004 60 -42.4004c37.3994 0 67.3994 32.2998 63.6992 70.4004c-3.19922 33.1992 -33.0996 57.5996 -66.5 57.5996
h-119.199c-4.7002 11.5996 -10.5 22.7998 -18.6006 32.7002c-4.59961 5.7002 -10.0996 10.5 -15.5 15.2998h151.5z" />
    <glyph glyph-name="ballot" unicode="&#xf732;" horiz-adv-x="448" 
d="M200 40c-4.40039 0 -8 3.59961 -8 8v32c0 4.40039 3.59961 8 8 8h144c4.40039 0 8 -3.59961 8 -8v-32c0 -4.40039 -3.59961 -8 -8 -8h-144zM112 32c-8.7998 0 -16 7.2002 -16 16v32c0 8.7998 7.2002 16 16 16h32c8.7998 0 16 -7.2002 16 -16v-32
c0 -8.7998 -7.2002 -16 -16 -16h-32zM112 160c-8.7998 0 -16 7.2002 -16 16v32c0 8.7998 7.2002 16 16 16h32c8.7998 0 16 -7.2002 16 -16v-32c0 -8.7998 -7.2002 -16 -16 -16h-32zM200 168c-4.40039 0 -8 3.59961 -8 8v32c0 4.40039 3.59961 8 8 8h144
c4.40039 0 8 -3.59961 8 -8v-32c0 -4.40039 -3.59961 -8 -8 -8h-144zM112 288c-8.7998 0 -16 7.2002 -16 16v32c0 8.7998 7.2002 16 16 16h32c8.7998 0 16 -7.2002 16 -16v-32c0 -8.7998 -7.2002 -16 -16 -16h-32zM200 296c-4.40039 0 -8 3.59961 -8 8v32
c0 4.40039 3.59961 8 8 8h144c4.40039 0 8 -3.59961 8 -8v-32c0 -4.40039 -3.59961 -8 -8 -8h-144zM416 448c17.7002 0 32 -14.2998 32 -32v-448c0 -17.7002 -14.2998 -32 -32 -32h-384c-17.7002 0 -32 14.2998 -32 32v448c0 17.7002 14.2998 32 32 32h384zM400 -16v416
h-352v-416h352z" />
    <glyph glyph-name="ballot-check" unicode="&#xf733;" horiz-adv-x="448" 
d="M344 88c4.40039 0 8 -3.59961 8 -8v-32c0 -4.40039 -3.59961 -8 -8 -8h-144c-4.40039 0 -8 3.59961 -8 8v32c0 4.40039 3.59961 8 8 8h144zM112 32c-8.7998 0 -16 7.2002 -16 16v32c0 8.7998 7.2002 16 16 16h32c8.7998 0 16 -7.2002 16 -16v-32
c0 -8.7998 -7.2002 -16 -16 -16h-32zM112 288c-8.7998 0 -16 7.2002 -16 16v32c0 8.7998 7.2002 16 16 16h32c8.7998 0 16 -7.2002 16 -16v-32c0 -8.7998 -7.2002 -16 -16 -16h-32zM200 296c-4.40039 0 -8 3.59961 -8 8v32c0 4.40039 3.59961 8 8 8h144
c4.40039 0 8 -3.59961 8 -8v-32c0 -4.40039 -3.59961 -8 -8 -8h-144zM416 448c17.7002 0 32 -14.2998 32 -32v-448c0 -17.7002 -14.2998 -32 -32 -32h-384c-17.7002 0 -32 14.2998 -32 32v448c0 17.7002 14.2998 32 32 32h384zM400 -16v416h-352v-416h352zM134.6 161.6
l-36.8994 37.4004c-2.10059 2.09961 -2.10059 5.5 0 7.59961l12.7002 12.6006c2.09961 2.09961 5.5 2.09961 7.59961 0l20.5996 -20.9004l47.6006 47.2002c2.09961 2.09961 5.5 2.09961 7.59961 0l12.6006 -12.7002c2.09961 -2.09961 2.09961 -5.5 0 -7.59961
l-64.2002 -63.6006c-2.10059 -2.09961 -5.5 -2.09961 -7.60059 0zM344 216c4.40039 0 8 -3.59961 8 -8v-32c0 -4.40039 -3.59961 -8 -8 -8h-149.8l34.7002 34.5c3.89941 3.7998 6.59961 8.5 8.5 13.5h106.6z" />
    <glyph glyph-name="booth-curtain" unicode="&#xf734;" horiz-adv-x="512" 
d="M0 416c0 17.7002 14.2998 32 32 32h456c13.2002 0 24 -10.7998 24 -24v-472c0 -8.7998 -7.2002 -16 -16 -16h-16c-8.7998 0 -16 7.2002 -16 16v52.4004c-7.5 -2.7002 -15.5 -4.40039 -24 -4.40039c-16.2998 0 -31.7002 5.5 -44 15
c-24.7002 -19.0996 -63.2998 -19.0996 -88 0c-24.7002 -19.0996 -63.2998 -19.0996 -88 0c-12.2998 -9.5 -27.7002 -15 -44 -15c-39.7002 0 -72 32.2998 -72 72v328h-56v-448c0 -8.7998 -7.2002 -16 -16 -16h-16c-8.7998 0 -16 7.2002 -16 16v464zM152 400v-328
c0 -13.2002 10.7998 -24 24 -24c9.5 0 18.2002 5.7002 22 14.5c3.7998 8.7002 12.4004 14.4004 22 14.4004s18.2002 -5.60059 22 -14.4004c7.59961 -17.5996 36.4004 -17.5996 44 0c7.59961 17.5 36.4004 17.5 44 0c7.59961 -17.5996 36.4004 -17.5996 44 0
c7.59961 17.5 36.4004 17.5 44 0c3.7998 -8.7998 12.5 -14.5 22 -14.5c13.2002 0 24 10.7998 24 24v328h-312z" />
    <glyph glyph-name="box-ballot" unicode="&#xf735;" horiz-adv-x="576" 
d="M573.8 165.5c1.40039 -3.59961 2.2002 -7.5 2.2002 -11.5l-0.200195 -185.9c0.100586 -17.7998 -14.2998 -32.1992 -32 -32.1992h-511.6c-17.7002 0 -32.1006 14.5 -32 32.1992l-0.200195 185.9c0 4 0.799805 7.90039 2.2002 11.5996l53.7998 134.101
c4.7998 12.2002 16.5996 20.2998 29.7998 20.2998h42.2002v96c0 17.7002 14.2998 32 32 32h256c17.7002 0 32 -14.2998 32 -32v-96h42.2002c13.2002 0 25 -8 29.7998 -20.2998zM176 400v-144h224v144h-224zM96.7002 272l-40.7998 -104h464.1l-40.7002 104h-31.2998v-64h-320
v64h-31.2998zM48.2998 -16h479.5l-0.799805 136h-478z" />
    <glyph glyph-name="clipboard-list-check" unicode="&#xf737;" horiz-adv-x="384" 
d="M126.2 161.6c-2.10059 -2.09961 -5.5 -2.09961 -7.40039 0l-37.0996 37.4004c-2.10059 2.09961 -2.10059 5.5 0 7.59961l12.7002 12.6006c2.09961 2.09961 5.5 2.09961 7.59961 0l20.5996 -20.9004l47.6006 47.2002c2.09961 2.09961 5.5 2.09961 7.59961 0
l12.6006 -12.7002c2.09961 -2.09961 2.09961 -5.5 0 -7.59961zM336 384c26.5 0 48 -21.5 48 -48v-352c0 -26.5 -21.5 -48 -48 -48h-288c-26.5 0 -48 21.5 -48 48v352c0 26.5 21.5 48 48 48h80c0 35.2998 28.7002 64 64 64s64 -28.7002 64 -64h80zM192 400
c-8.7998 0 -16 -7.2002 -16 -16s7.2002 -16 16 -16s16 7.2002 16 16s-7.2002 16 -16 16zM336 -8v336c0 4.40039 -3.59961 8 -8 8h-40v-32c0 -8.7998 -7.2002 -16 -16 -16h-160c-8.7998 0 -16 7.2002 -16 16v32h-40c-4.40039 0 -8 -3.59961 -8 -8v-336
c0 -4.40039 3.59961 -8 8 -8h272c4.40039 0 8 3.59961 8 8zM112 120c13.2998 0 24 -10.7002 24 -24s-10.7002 -24 -24 -24s-24 10.7002 -24 24s10.7002 24 24 24zM280 208c4.40039 0 8 -3.59961 8 -8v-16c0 -4.40039 -3.59961 -8 -8 -8h-93.7998l26.7998 26.5
c1.59961 1.59961 2.40039 3.7002 3.7002 5.5h63.2998zM280 112c4.40039 0 8 -3.59961 8 -8v-16c0 -4.40039 -3.59961 -8 -8 -8h-112c-4.40039 0 -8 3.59961 -8 8v16c0 4.40039 3.59961 8 8 8h112z" />
    <glyph glyph-name="cloud-drizzle" unicode="&#xf738;" horiz-adv-x="512" 
d="M48 88c8.7998 0 16 -7.2002 16 -16v-40c0 -8.7998 -7.2002 -16 -16 -16s-16 7.2002 -16 16v40c0 8.7998 7.2002 16 16 16zM144 8c8.7998 0 16 -7.2002 16 -16v-40c0 -8.7998 -7.2002 -16 -16 -16s-16 7.2002 -16 16v40c0 8.7998 7.2002 16 16 16zM240 88
c8.7998 0 16 -7.2002 16 -16v-40c0 -8.7998 -7.2002 -16 -16 -16s-16 7.2002 -16 16v40c0 8.7998 7.2002 16 16 16zM336 8c8.7998 0 16 -7.2002 16 -16v-40c0 -8.7998 -7.2002 -16 -16 -16s-16 7.2002 -16 16v40c0 8.7998 7.2002 16 16 16zM432 88
c8.7998 0 16 -7.2002 16 -16v-40c0 -8.7998 -7.2002 -16 -16 -16s-16 7.2002 -16 16v40c0 8.7998 7.2002 16 16 16zM410.7 343.8c56.3994 -3.5 101.3 -50.5 101.3 -107.8c0 -59.5 -48.4004 -108 -108 -108h-296c-59.5996 0 -108 48.5 -108 108
c0 43.5 25.5996 81.5996 64.2002 98.5996c3.39941 63.1006 55.7998 113.4 119.8 113.4c34.4004 0 66.2998 -14.5 88.7998 -39.7002c12.4004 5.10059 25.7002 7.7002 39.2002 7.7002c46 0 85.2002 -29.7998 98.7002 -72.2002zM404 176c33.0996 0 60 26.9004 60 60
s-26.9004 60 -60 60h-34.5l-2.2002 21.5996c-2.89941 28.7002 -26.7002 50.4004 -55.2998 50.4004c-11.5 0 -22.5996 -3.59961 -32.2002 -10.2998l-21.0996 -14.9004l-13.2998 22.1006c-13.2002 22 -36.2002 35.0996 -61.4004 35.0996c-39.7002 0 -72 -32.2998 -72 -72
c0 -1.40039 0.200195 -2.7002 0.400391 -4l2.7998 -24.9004l-20.7998 -4.7998c-27.3008 -6.2998 -46.4004 -30.2998 -46.4004 -58.2998c0 -33.0996 26.9004 -60 60 -60h296z" />
    <glyph glyph-name="cloud-hail" unicode="&#xf739;" horiz-adv-x="512" 
d="M384 96c17.7002 0 32 -14.2998 32 -32s-14.2998 -32 -32 -32s-32 14.2998 -32 32s14.2998 32 32 32zM192 0c17.7002 0 32 -14.2998 32 -32s-14.2998 -32 -32 -32s-32 14.2998 -32 32s14.2998 32 32 32zM320 0c17.7002 0 32 -14.2998 32 -32s-14.2998 -32 -32 -32
s-32 14.2998 -32 32s14.2998 32 32 32zM256 96c17.7002 0 32 -14.2998 32 -32s-14.2998 -32 -32 -32s-32 14.2998 -32 32s14.2998 32 32 32zM64 0c17.7002 0 32 -14.2998 32 -32s-14.2998 -32 -32 -32s-32 14.2998 -32 32s14.2998 32 32 32zM128 96
c17.7002 0 32 -14.2998 32 -32s-14.2998 -32 -32 -32s-32 14.2998 -32 32s14.2998 32 32 32zM410.7 343.8c56.3994 -3.5 101.3 -50.5 101.3 -107.8c0 -59.5 -48.4004 -108 -108 -108h-296c-59.5996 0 -108 48.5 -108 108c0 43.5 25.5996 81.5996 64.2002 98.5996
c3.39941 63.1006 55.7998 113.4 119.8 113.4c34.4004 0 66.2998 -14.5 88.7998 -39.7002c12.4004 5.10059 25.7002 7.7002 39.2002 7.7002c46 0 85.2002 -29.7998 98.7002 -72.2002zM404 176c33.0996 0 60 26.9004 60 60s-26.9004 60 -60 60h-34.5l-2.2002 21.5996
c-2.89941 28.7002 -26.7002 50.4004 -55.2998 50.4004c-11.5 0 -22.5996 -3.59961 -32.2002 -10.2998l-21.0996 -14.9004l-13.2998 22.1006c-13.2002 22 -36.2002 35.0996 -61.4004 35.0996c-39.7002 0 -72 -32.2998 -72 -72c0 -1.40039 0.200195 -2.7002 0.400391 -4
l2.7998 -24.9004l-20.7998 -4.7998c-27.3008 -6.2998 -46.4004 -30.2998 -46.4004 -58.2998c0 -33.0996 26.9004 -60 60 -60h296z" />
    <glyph glyph-name="cloud-hail-mixed" unicode="&#xf73a;" horiz-adv-x="512" 
d="M410.7 343.8c56.3994 -3.5 101.3 -50.5 101.3 -107.8c0 -59.5 -48.4004 -108 -108 -108h-296c-59.5996 0 -108 48.5 -108 108c0 43.5 25.5996 81.5996 64.2002 98.5996c3.39941 63.1006 55.7998 113.4 119.8 113.4c34.4004 0 66.2998 -14.5 88.7998 -39.7002
c12.4004 5.10059 25.7002 7.7002 39.2002 7.7002c46 0 85.2002 -29.7998 98.7002 -72.2002zM404 176c33.0996 0 60 26.9004 60 60s-26.9004 60 -60 60h-34.5l-2.2002 21.5996c-2.89941 28.7002 -26.7002 50.4004 -55.2998 50.4004
c-11.5 0 -22.5996 -3.59961 -32.2002 -10.2998l-21.0996 -14.9004l-13.2998 22.1006c-13.2002 22 -36.2002 35.0996 -61.4004 35.0996c-39.7002 0 -72 -32.2998 -72 -72c0 -1.40039 0.200195 -2.7002 0.400391 -4l2.7998 -24.9004l-20.7998 -4.7998
c-27.3008 -6.2998 -46.4004 -30.2998 -46.4004 -58.2998c0 -33.0996 26.9004 -60 60 -60h296zM87.2002 78.2998c7.89941 -3.89941 11 -13.5 7.2002 -21.5996l-16 -32c-2.80078 -5.60059 -8.5 -8.7998 -14.3008 -8.7998c-2.39941 0 -4.89941 0.599609 -7.19922 1.69922
c-8 4 -11.1006 13.6006 -7.2002 21.5l16 32c4 8 13.5996 11.1006 21.5 7.2002zM471.2 78.2998c7.89941 -3.89941 11 -13.5 7.2002 -21.5996l-16 -32c-2.80078 -5.60059 -8.5 -8.7998 -14.3008 -8.7998c-2.39941 0 -4.89941 0.599609 -7.19922 1.69922
c-8 4 -11.1006 13.6006 -7.2002 21.5l16 32c4 8 13.5996 11.1006 21.5 7.2002zM375.9 77.9004c7.69922 -4.40039 10.3994 -14.2002 6 -21.8008l-64 -112c-3 -5.19922 -8.40039 -8.09961 -13.9004 -8.09961c-2.7002 0 -5.40039 0.700195 -7.90039 2.09961
c-7.69922 4.30078 -10.3994 14.1006 -6 21.8008l64 112c4.40039 7.7998 14.2002 10.3994 21.8008 6zM279.2 78.2998c7.89941 -3.89941 11 -13.5 7.2002 -21.5996l-16 -32c-2.80078 -5.60059 -8.5 -8.7998 -14.3008 -8.7998c-2.39941 0 -4.89941 0.599609 -7.19922 1.69922
c-8 4 -11.1006 13.6006 -7.2002 21.5l16 32c4 8 13.5996 11.1006 21.5 7.2002zM183.9 77.9004c7.69922 -4.40039 10.3994 -14.2002 6 -21.8008l-64 -112c-3 -5.19922 -8.40039 -8.09961 -13.9004 -8.09961c-2.7002 0 -5.40039 0.700195 -7.90039 2.09961
c-7.69922 4.30078 -10.3994 14.1006 -6 21.8008l64 112c4.40039 7.7998 14.2002 10.3994 21.8008 6zM32 0c17.7002 0 32 -14.2998 32 -32s-14.2998 -32 -32 -32s-32 14.2998 -32 32s14.2998 32 32 32zM224 0c17.7002 0 32 -14.2998 32 -32s-14.2998 -32 -32 -32
s-32 14.2998 -32 32s14.2998 32 32 32zM416 0c17.7002 0 32 -14.2998 32 -32s-14.2998 -32 -32 -32s-32 14.2998 -32 32s14.2998 32 32 32z" />
    <glyph glyph-name="cloud-meatball" unicode="&#xf73b;" horiz-adv-x="576" 
d="M384.5 72.4004c20.5996 -10.7002 20.7002 -38 0 -48.8008l-16.7002 -8.69922l5.7002 -18c6.2998 -20 -8.5 -36.4004 -26.0996 -36.4004c-3.7002 0 -12.4004 3.2002 -26.3008 7.59961l-8.69922 -16.6992c-10.7002 -20.6006 -38 -20.7002 -48.8008 0l-8.69922 16.6992
c-13.8008 -4.39941 -22.6006 -7.59961 -26.3008 -7.59961c-17.5 0 -32.3994 16.5 -26.0996 36.4004l5.7002 18l-16.7002 8.69922c-20.7998 10.8008 -20.5 38.1006 0 48.8008l16.7002 8.69922l-5.7002 18c-6.09961 19.2002 7.5 35.9004 25.2998 35.9004
c6.2998 0 9.40039 -1.5 27.1006 -7.09961l8.69922 16.6992c10.7002 20.6006 38 20.7002 48.8008 0l8.69922 -16.6992c18.6006 5.89941 21.1006 7.09961 27.1006 7.09961c17.7998 0 31.3994 -16.7002 25.2998 -35.9004l-5.7002 -18zM576 192
c0 -70.5996 -57.4004 -128 -128 -127.9h-18.4004c-3.7998 13.1006 -12 24.8008 -23.6992 32.8008c0.899414 5.09961 1 10.1992 0.699219 15.1992h41.4004c44.0996 0 80 35.9004 80 80c0 41.3008 -32.4004 76.1006 -73.9004 79.3008l-24.8994 1.89941l2.7998 24.1006
c-0.900391 49.8994 -55.4004 87.3994 -104.4 62.5l-16.1992 -8.2002l-12.3008 13.2998c-20.8994 22.5996 -49 35 -79.0996 35c-59.5996 0 -108 -48.5 -108 -108c0.200195 0 0.299805 -1.40039 0.400391 -2.7998l0.799805 -16.9004l-15.6006 -6.39941
c-30.1992 -12.4004 -49.5996 -41.4004 -49.5996 -73.9004c0 -44.0996 35.9004 -80 80 -80h41.4004c-0.300781 -5 -0.200195 -10.0996 0.799805 -15.2002c-11.7002 -8 -19.9004 -19.7002 -23.7002 -32.7998h-18.5c-70.5996 0 -128 57.4004 -128 128
c0 46.4004 24.7998 88.4004 64.4004 111c5.69922 80.9004 73.2998 145 155.6 145c38 0 73.5996 -13.5 102 -38.5c12.4004 4.2998 25.2002 6.5 38 6.5c59.4004 0 108.9 -43.4004 118.4 -100.2c56.0996 -13.7002 97.5996 -64.5996 97.5996 -123.8zM64 32
c17.7002 0 32 -14.2998 32 -32s-14.2998 -32 -32 -32s-32 14.2998 -32 32s14.2998 32 32 32zM512 32c17.7002 0 32 -14.2998 32 -32s-14.2998 -32 -32 -32s-32 14.2998 -32 32s14.2998 32 32 32z" />
    <glyph glyph-name="cloud-moon-rain" unicode="&#xf73c;" 
d="M268.5 29.9004c7.7002 -4.40039 10.2998 -14.1006 6 -21.8008l-36.5996 -64c-3 -5.19922 -8.40039 -8.09961 -13.9004 -8.09961c-2.7002 0 -5.40039 0.700195 -7.90039 2.09961c-7.69922 4.40039 -10.3994 14.1006 -6 21.8008l36.6006 64
c4.39941 7.7998 14.2002 10.2998 21.7998 6zM172.5 29.9004c7.7002 -4.40039 10.2998 -14.1006 6 -21.8008l-36.5996 -64c-3 -5.19922 -8.40039 -8.09961 -13.9004 -8.09961c-2.7002 0 -5.40039 0.700195 -7.90039 2.09961c-7.69922 4.40039 -10.3994 14.1006 -6 21.8008
l36.6006 64c4.39941 7.7998 14.2002 10.2998 21.7998 6zM76.5 29.9004c7.7002 -4.40039 10.2998 -14.1006 6 -21.8008l-36.5996 -64c-3 -5.19922 -8.40039 -8.09961 -13.9004 -8.09961c-2.7002 0 -5.40039 0.700195 -7.90039 2.09961
c-7.69922 4.40039 -10.3994 14.1006 -6 21.8008l36.6006 64c4.39941 7.7998 14.2002 10.2998 21.7998 6zM364.5 29.9004c7.7002 -4.40039 10.2998 -14.1006 6 -21.8008l-36.5996 -64c-3 -5.19922 -8.40039 -8.09961 -13.9004 -8.09961
c-2.7002 0 -5.40039 0.700195 -7.90039 2.09961c-7.69922 4.40039 -10.3994 14.1006 -6 21.8008l36.6006 64c4.39941 7.7998 14.2002 10.2998 21.7998 6zM363.4 264.6c31.7998 -19 52.5996 -53.7998 52.5996 -92.5996c0 -59.5996 -48.4004 -108 -108 -108h-200
c-59.5996 0 -108 48.4004 -108 108c0 48 31.4004 88.7002 74.7998 102.8c19.6006 45.9004 64.7998 77.2002 117.2 77.2002c27.2002 0 53.2998 -8.7002 74.9004 -24.5c3 0.299805 6 0.5 9.09961 0.5c40.7002 0 75.4004 -26.5996 87.4004 -63.4004zM308 112
c33.0996 0 60 26.9004 60 60c0 29.2002 -20.9004 53.4004 -48.5 58.7998c0.200195 1.7998 0.5 3.40039 0.5 5.2002c0 24.2998 -19.7002 44 -44 44c-8 0 -15.4004 -2.2998 -21.9004 -6.09961c-14.6992 18.1992 -36.8994 30.0996 -62.0996 30.0996
c-41.5996 0 -75.4004 -31.9004 -79.2002 -72.5c-1.59961 0.0996094 -3.2002 0.5 -4.7998 0.5c-33.0996 0 -60 -26.9004 -60 -60s26.9004 -60 60 -60h200zM637.8 211.3c3.7998 -8 2.7002 -17.2002 -2.59961 -24.0996c-30.6006 -37.6006 -75.7998 -59.2002 -124.2 -59.2002
c-23.7002 0 -45.9004 5.5 -66.0996 14.7002c2 9.5 3.2998 19.2002 3.2998 29.2998c0 4.90039 -0.400391 9.7998 -0.900391 14.7002c18.5 -11.7002 40.2002 -18.7002 63.6006 -18.7002c21.5 0 42.1992 5.7002 60.1992 16.2002
c-64.0996 11.2998 -112.899 67.3994 -112.899 134.8c0 32.2002 11.3994 62.9004 31.2998 87.0996c-56 -10.0996 -98.5996 -59.1992 -98.5996 -118.1c0 -1.2002 0.399414 -2.40039 0.399414 -3.59961c-0.599609 0.399414 -1 0.899414 -1.59961 1.2998
c-7.60059 17.2998 -18.7998 32.2002 -32.6006 44.0996c18.5 67.9004 80 118.2 153.601 118.2c9.7998 0 19.5996 -0.900391 29.2998 -2.7002c9.5 -1.7998 16.7002 -9.09961 18.2998 -18.5996c1.60059 -9.60059 -2.7998 -18.7998 -11.2002 -23.6006
c-30.1992 -17.1992 -49 -49.5 -49 -84.1992c0 -53.4004 43.3008 -96.8008 96.5 -96.8008c6.10059 0 12.3008 0.600586 18.4004 1.80078l2.7998 0.399414h1.5c8.7002 0 16.7002 -5.09961 20.5 -13z" />
    <glyph glyph-name="cloud-rain" unicode="&#xf73d;" horiz-adv-x="512" 
d="M88 73.7998c2.5 8.5 13.7998 8.10059 16 0c12.7998 -44.5996 40 -56.2998 40 -87.7002c0 -27.6992 -21.5 -50.0996 -48 -50.0996s-48 22.4004 -48 50.0996c0 31.3008 27.2002 43.3008 40 87.7002zM248 73.7998c2.5 8.5 13.7998 8.10059 16 0
c12.7998 -44.5996 40 -56.2998 40 -87.7002c0 -27.6992 -21.5 -50.0996 -48 -50.0996s-48 22.4004 -48 50.0996c0 31.3008 27.2002 43.3008 40 87.7002zM408 73.7998c2.5 8.5 13.7998 8.10059 16 0c12.7998 -44.5996 40 -56.2998 40 -87.7002
c0 -27.6992 -21.5 -50.0996 -48 -50.0996s-48 22.4004 -48 50.0996c0 31.3008 27.2002 43.3008 40 87.7002zM410.7 343.8c56.3994 -3.5 101.3 -50.5 101.3 -107.8c0 -59.5 -48.4004 -108 -108 -108h-296c-59.5996 0 -108 48.5 -108 108
c0 43.5 25.5996 81.5996 64.2002 98.5996c3.39941 63.1006 55.7998 113.4 119.8 113.4c34.4004 0 66.2998 -14.5 88.7998 -39.7002c12.4004 5.10059 25.7002 7.7002 39.2002 7.7002c46 0 85.2002 -29.7998 98.7002 -72.2002zM404 176c33.0996 0 60 26.9004 60 60
s-26.9004 60 -60 60h-34.5l-2.2002 21.5996c-2.89941 28.7002 -26.7002 50.4004 -55.2998 50.4004c-11.5 0 -22.5996 -3.59961 -32.2002 -10.2998l-21.0996 -14.9004l-13.2998 22.1006c-13.2002 22 -36.2002 35.0996 -61.4004 35.0996c-39.7002 0 -72 -32.2998 -72 -72
c0 -1.40039 0.200195 -2.7002 0.400391 -4l2.7998 -24.9004l-20.7998 -4.7998c-27.3008 -6.2998 -46.4004 -30.2998 -46.4004 -58.2998c0 -33.0996 26.9004 -60 60 -60h296z" />
    <glyph glyph-name="cloud-rainbow" unicode="&#xf73e;" horiz-adv-x="576" 
d="M560.6 400c-123.699 -5.59961 -229.399 -78.5 -283.6 -182.3c11.2002 4.09961 23 6.5 35 6.5c9.40039 0 18.5 -1.5 27.2002 -3.90039c49.3994 70.4004 129 118.2 220.1 123.4c9.10059 0.5 16.7002 -7.10059 16.7002 -16.2002v-16
c0 -8.59961 -6.7998 -15.2998 -15.2998 -15.7998c-73.6006 -4.60059 -138.101 -42.5 -179.3 -98.5c13.2998 -12.1006 23.6992 -27.4004 29.2998 -45.2002c1.09961 -0.0996094 2 -0.400391 3 -0.5c31.7002 48.7002 84.5 82.5996 145.5 87.9004
c9.09961 0.799805 16.7998 -6.90039 16.7998 -16.1006v-16.0996c0 -8.5 -6.7002 -15 -15.0996 -15.9004c-40.6006 -4.2002 -76 -25.5 -99.7002 -56.2002c30.3994 -19.1992 50.7998 -52.5996 50.7998 -91.0996c0 -59.5 -48.4004 -108 -108 -108h-296
c-59.5996 0 -108 48.5 -108 108c0 43.5 25.5996 81.5996 64.2002 98.5996c3.39941 63.1006 55.7998 113.4 119.8 113.4c18.4004 0 36 -4.40039 51.9004 -12.2002c62.5996 116.9 183.3 198.2 323.5 204.2c9 0.400391 16.5996 -7.2002 16.5996 -16.2002v-16.0996
c0 -8.60059 -6.7998 -15.2998 -15.4004 -15.7002zM312 176c-11.5 0 -22.5996 -3.59961 -32.2002 -10.2998l-21.0996 -14.9004l-13.2998 22.1006c-13.2002 22 -36.2002 35.0996 -61.4004 35.0996c-39.7002 0 -72 -32.2998 -72 -72c0 -1.40039 0.200195 -2.7002 0.400391 -4
l2.7998 -24.9004l-20.7998 -4.7998c-27.3008 -6.2998 -46.4004 -30.2998 -46.4004 -58.2998c0 -33.0996 26.9004 -60 60 -60h296c33.0996 0 60 26.9004 60 60s-26.9004 60 -60 60h-34.5l-2.2002 21.5996c-2.89941 28.7002 -26.7002 50.4004 -55.2998 50.4004z" />
    <glyph glyph-name="cloud-showers" unicode="&#xf73f;" horiz-adv-x="512" 
d="M48 80c8.7998 0 16 -7.2002 16 -16v-80c0 -8.7998 -7.2002 -16 -16 -16s-16 7.2002 -16 16v80c0 8.7998 7.2002 16 16 16zM144 48c8.7998 0 16 -7.2002 16 -16v-80c0 -8.7998 -7.2002 -16 -16 -16s-16 7.2002 -16 16v80c0 8.7998 7.2002 16 16 16zM240 80
c8.7998 0 16 -7.2002 16 -16v-80c0 -8.7998 -7.2002 -16 -16 -16s-16 7.2002 -16 16v80c0 8.7998 7.2002 16 16 16zM336 48c8.7998 0 16 -7.2002 16 -16v-80c0 -8.7998 -7.2002 -16 -16 -16s-16 7.2002 -16 16v80c0 8.7998 7.2002 16 16 16zM432 80
c8.7998 0 16 -7.2002 16 -16v-80c0 -8.7998 -7.2002 -16 -16 -16s-16 7.2002 -16 16v80c0 8.7998 7.2002 16 16 16zM410.7 343.8c56.3994 -3.5 101.3 -50.5 101.3 -107.8c0 -59.5 -48.4004 -108 -108 -108h-296c-59.5996 0 -108 48.5 -108 108
c0 43.5 25.5996 81.5996 64.2002 98.5996c3.39941 63.1006 55.7998 113.4 119.8 113.4c34.4004 0 66.2998 -14.5 88.7998 -39.7002c12.4004 5.10059 25.7002 7.7002 39.2002 7.7002c46 0 85.2002 -29.7998 98.7002 -72.2002zM404 176c33.0996 0 60 26.9004 60 60
s-26.9004 60 -60 60h-34.5l-2.2002 21.5996c-2.89941 28.7002 -26.7002 50.4004 -55.2998 50.4004c-11.5 0 -22.5996 -3.59961 -32.2002 -10.2998l-21.0996 -14.9004l-13.2998 22.1006c-13.2002 22 -36.2002 35.0996 -61.4004 35.0996c-39.7002 0 -72 -32.2998 -72 -72
c0 -1.40039 0.200195 -2.7002 0.400391 -4l2.7998 -24.9004l-20.7998 -4.7998c-27.3008 -6.2998 -46.4004 -30.2998 -46.4004 -58.2998c0 -33.0996 26.9004 -60 60 -60h296z" />
    <glyph glyph-name="cloud-showers-heavy" unicode="&#xf740;" horiz-adv-x="512" 
d="M87.9004 77.9004c7.69922 -4.40039 10.3994 -14.2002 6 -21.8008l-64 -112c-3 -5.19922 -8.40039 -8.09961 -13.9004 -8.09961c-2.7002 0 -5.40039 0.700195 -7.90039 2.09961c-7.69922 4.30078 -10.3994 14.1006 -6 21.8008l64 112
c4.40039 7.7998 14.2002 10.3994 21.8008 6zM471.9 77.9004c7.69922 -4.40039 10.3994 -14.2002 6 -21.8008l-64 -112c-3 -5.19922 -8.40039 -8.09961 -13.9004 -8.09961c-2.7002 0 -5.40039 0.700195 -7.90039 2.09961c-7.69922 4.30078 -10.3994 14.1006 -6 21.8008
l64 112c4.40039 7.7998 14.2002 10.3994 21.8008 6zM375.9 77.9004c7.69922 -4.40039 10.3994 -14.2002 6 -21.8008l-64 -112c-3 -5.19922 -8.40039 -8.09961 -13.9004 -8.09961c-2.7002 0 -5.40039 0.700195 -7.90039 2.09961
c-7.69922 4.30078 -10.3994 14.1006 -6 21.8008l64 112c4.40039 7.7998 14.2002 10.3994 21.8008 6zM279.9 77.9004c7.69922 -4.40039 10.3994 -14.2002 6 -21.8008l-64 -112c-3 -5.19922 -8.40039 -8.09961 -13.9004 -8.09961
c-2.7002 0 -5.40039 0.700195 -7.90039 2.09961c-7.69922 4.30078 -10.3994 14.1006 -6 21.8008l64 112c4.40039 7.7998 14.2002 10.3994 21.8008 6zM183.9 77.9004c7.69922 -4.40039 10.3994 -14.2002 6 -21.8008l-64 -112
c-3 -5.19922 -8.40039 -8.09961 -13.9004 -8.09961c-2.7002 0 -5.40039 0.700195 -7.90039 2.09961c-7.69922 4.30078 -10.3994 14.1006 -6 21.8008l64 112c4.40039 7.7998 14.2002 10.3994 21.8008 6zM410.7 343.8c56.3994 -3.5 101.3 -50.5 101.3 -107.8
c0 -59.5 -48.4004 -108 -108 -108h-296c-59.5996 0 -108 48.5 -108 108c0 43.5 25.5996 81.5996 64.2002 98.5996c3.39941 63.1006 55.7998 113.4 119.8 113.4c34.4004 0 66.2998 -14.5 88.7998 -39.7002c12.4004 5.10059 25.7002 7.7002 39.2002 7.7002
c46 0 85.2002 -29.7998 98.7002 -72.2002zM404 176c33.0996 0 60 26.9004 60 60s-26.9004 60 -60 60h-34.5l-2.2002 21.5996c-2.89941 28.7002 -26.7002 50.4004 -55.2998 50.4004c-11.5 0 -22.5996 -3.59961 -32.2002 -10.2998l-21.0996 -14.9004l-13.2998 22.1006
c-13.2002 22 -36.2002 35.0996 -61.4004 35.0996c-39.7002 0 -72 -32.2998 -72 -72c0 -1.40039 0.200195 -2.7002 0.400391 -4l2.69922 -24.9004l-20.6992 -4.7998c-27.3008 -6.2998 -46.4004 -30.2998 -46.4004 -58.2998c0 -33.0996 26.9004 -60 60 -60h296z" />
    <glyph glyph-name="cloud-sleet" unicode="&#xf741;" horiz-adv-x="512" 
d="M87.2002 94.2998c7.89941 -3.89941 11 -13.5 7.2002 -21.5996l-64 -128c-2.80078 -5.60059 -8.5 -8.7998 -14.3008 -8.7998c-2.39941 0 -4.89941 0.599609 -7.19922 1.69922c-8 4 -11.1006 13.6006 -7.2002 21.5l64 128c4 7.90039 13.5996 11.1006 21.5 7.2002z
M343.2 94.2998c7.89941 -3.89941 11 -13.5 7.2002 -21.5996l-64 -128c-2.80078 -5.60059 -8.5 -8.7998 -14.3008 -8.7998c-2.39941 0 -4.89941 0.599609 -7.19922 1.69922c-8 4 -11.1006 13.6006 -7.2002 21.5l64 128c4 7.90039 13.5996 11.1006 21.5 7.2002zM494.9 58.9004
c2.19922 -3.80078 0.899414 -8.7002 -2.90039 -10.9004l-27.9004 -16l27.9004 -16c3.7998 -2.2002 5.09961 -7.09961 2.90039 -10.9004l-8 -13.8994c-2.2002 -3.7998 -7.10059 -5.10059 -10.9004 -2.90039l-28 16.1006v-28.4004c0 -4.40039 -3.59961 -8 -8 -8h-16
c-4.40039 0 -8 3.59961 -8 8v28.4004l-28 -16.1006c-3.7998 -2.2002 -8.7002 -0.899414 -10.9004 2.90039l-8 13.8994c-2.19922 3.80078 -0.899414 8.7002 2.90039 10.9004l27.9004 16l-27.9004 16c-3.7998 2.2002 -5.09961 7.09961 -2.90039 10.9004l8 13.8994
c2.2002 3.7998 7.10059 5.10059 10.9004 2.90039l28 -16.1006v28.4004c0 4.40039 3.59961 8 8 8h16c4.40039 0 8 -3.59961 8 -8v-28.4004l28 16.1006c3.7998 2.2002 8.7002 0.899414 10.9004 -2.90039zM238.9 58.9004c2.19922 -3.80078 0.899414 -8.7002 -2.90039 -10.9004
l-27.9004 -16l27.9004 -16c3.7998 -2.2002 5.09961 -7.09961 2.90039 -10.9004l-8 -13.8994c-2.2002 -3.7998 -7.10059 -5.10059 -10.9004 -2.90039l-28 16.1006v-28.4004c0 -4.40039 -3.59961 -8 -8 -8h-16c-4.40039 0 -8 3.59961 -8 8v28.4004l-28 -16.1006
c-3.7998 -2.2002 -8.7002 -0.899414 -10.9004 2.90039l-8 13.8994c-2.19922 3.80078 -0.899414 8.7002 2.90039 10.9004l27.9004 16l-27.9004 16c-3.7998 2.2002 -5.09961 7.09961 -2.90039 10.9004l8 13.8994c2.2002 3.7998 7.10059 5.10059 10.9004 2.90039l28 -16.1006
v28.4004c0 4.40039 3.59961 8 8 8h16c4.40039 0 8 -3.59961 8 -8v-28.4004l28 16.1006c3.7998 2.2002 8.7002 0.899414 10.9004 -2.90039zM512 236c0 -59.5 -48.4004 -108 -108 -108h-296c-59.5996 0 -108 48.5 -108 108c0 43.5 25.5996 81.5996 64.2002 98.5996
c3.39941 63.1006 55.7998 113.4 119.8 113.4c34.4004 0 66.2998 -14.5 88.7998 -39.7002c12.4004 5.10059 25.7002 7.7002 39.2002 7.7002c46 0 85.2002 -29.7998 98.7002 -72.2002c56.3994 -3.5 101.3 -50.5 101.3 -107.8zM48 236c0 -33.0996 26.9004 -60 60 -60h296
c33.0996 0 60 26.9004 60 60s-26.9004 60 -60 60h-34.5l-2.2002 21.5996c-2.89941 28.7002 -26.7002 50.4004 -55.2998 50.4004c-11.5 0 -22.5996 -3.59961 -32.2002 -10.2998l-21.0996 -14.9004l-13.2998 22.1006c-13.2002 22 -36.2002 35.0996 -61.4004 35.0996
c-39.7002 0 -72 -32.2998 -72 -72c0 -1.40039 0.200195 -2.7002 0.400391 -4l2.7998 -24.9004l-20.7998 -4.7998c-27.3008 -6.2998 -46.4004 -30.2998 -46.4004 -58.2998z" />
    <glyph glyph-name="cloud-snow" unicode="&#xf742;" horiz-adv-x="512" 
d="M510.9 58.9004c2.19922 -3.80078 0.899414 -8.7002 -2.90039 -10.9004l-27.9004 -16l27.9004 -16c3.7998 -2.2002 5.09961 -7.09961 2.90039 -10.9004l-8 -13.8994c-2.2002 -3.7998 -7.10059 -5.10059 -10.9004 -2.90039l-28 16.1006v-28.4004
c0 -4.40039 -3.59961 -8 -8 -8h-16c-4.40039 0 -8 3.59961 -8 8v28.4004l-28 -16.1006c-3.7998 -2.2002 -8.7002 -0.899414 -10.9004 2.90039l-8 13.8994c-2.19922 3.80078 -0.899414 8.7002 2.90039 10.9004l27.9004 16l-27.9004 16
c-3.7998 2.2002 -5.09961 7.09961 -2.90039 10.9004l8 13.8994c2.2002 3.7998 7.10059 5.10059 10.9004 2.90039l28 -16.1006v28.4004c0 4.40039 3.59961 8 8 8h16c4.40039 0 8 -3.59961 8 -8v-28.4004l28 16.1006c3.7998 2.2002 8.7002 0.899414 10.9004 -2.90039z
M126.9 58.9004c2.19922 -3.80078 0.899414 -8.7002 -2.90039 -10.9004l-27.9004 -16l27.9004 -16c3.7998 -2.2002 5.09961 -7.09961 2.90039 -10.9004l-8 -13.8994c-2.2002 -3.7998 -7.10059 -5.10059 -10.9004 -2.90039l-28 16.1006v-28.4004c0 -4.40039 -3.59961 -8 -8 -8
h-16c-4.40039 0 -8 3.59961 -8 8v28.4004l-28 -16.1006c-3.7998 -2.2002 -8.7002 -0.899414 -10.9004 2.90039l-8 13.8994c-2.19922 3.80078 -0.899414 8.7002 2.90039 10.9004l27.9004 16l-27.9004 16c-3.7998 2.2002 -5.09961 7.09961 -2.90039 10.9004l8 13.8994
c2.2002 3.7998 7.10059 5.10059 10.9004 2.90039l28 -16.1006v28.4004c0 4.40039 3.59961 8 8 8h16c4.40039 0 8 -3.59961 8 -8v-28.4004l28 16.1006c3.7998 2.2002 8.7002 0.899414 10.9004 -2.90039zM318.9 26.9004c2.19922 -3.80078 0.899414 -8.7002 -2.90039 -10.9004
l-27.9004 -16l27.9004 -16c3.7998 -2.2002 5.09961 -7.09961 2.90039 -10.9004l-8 -13.8994c-2.2002 -3.7998 -7.10059 -5.10059 -10.9004 -2.90039l-28 16.1006v-28.4004c0 -4.40039 -3.59961 -8 -8 -8h-16c-4.40039 0 -8 3.59961 -8 8v28.4004l-28 -16.1006
c-3.7998 -2.2002 -8.7002 -0.899414 -10.9004 2.90039l-8 13.8994c-2.19922 3.80078 -0.899414 8.7002 2.90039 10.9004l27.9004 16l-27.9004 16c-3.7998 2.2002 -5.09961 7.09961 -2.90039 10.9004l8 13.8994c2.2002 3.7998 7.10059 5.10059 10.9004 2.90039l28 -16.1006
v28.4004c0 4.40039 3.59961 8 8 8h16c4.40039 0 8 -3.59961 8 -8v-28.4004l28 16.1006c3.7998 2.2002 8.7002 0.899414 10.9004 -2.90039zM108 128c-59.5996 0 -108 48.5 -108 108c0 43.5 25.5996 81.5996 64.2002 98.5996c3.39941 63.1006 55.7998 113.4 119.8 113.4
c34.4004 0 66.2998 -14.5 88.7998 -39.7002c12.4004 5.10059 25.7002 7.7002 39.2002 7.7002c46 0 85.2002 -29.7998 98.7002 -72.2002c56.3994 -3.5 101.3 -50.5 101.3 -107.8c0 -59.5 -48.4004 -108 -108 -108h-296zM94.4004 294.3
c-27.3008 -6.2998 -46.4004 -30.2998 -46.4004 -58.2998c0 -33.0996 26.9004 -60 60 -60h296c33.0996 0 60 26.9004 60 60s-26.9004 60 -60 60h-34.5l-2.2002 21.5996c-2.89941 28.7002 -26.7002 50.4004 -55.2998 50.4004c-11.5 0 -22.5996 -3.59961 -32.2002 -10.2998
l-21.0996 -14.9004l-13.2998 22.1006c-13.2002 22 -36.2002 35.0996 -61.4004 35.0996c-39.7002 0 -72 -32.2998 -72 -72c0 -1.40039 0.200195 -2.7002 0.400391 -4l2.69922 -24.9004z" />
    <glyph glyph-name="cloud-sun-rain" unicode="&#xf743;" 
d="M588.5 29.9004c7.7002 -4.40039 10.2998 -14.1006 6 -21.8008l-36.5996 -64c-3 -5.19922 -8.40039 -8.09961 -13.9004 -8.09961c-2.7002 0 -5.40039 0.700195 -7.90039 2.09961c-7.69922 4.40039 -10.3994 14.1006 -6 21.8008l36.6006 64
c4.39941 7.7998 14.2002 10.2998 21.7998 6zM492.5 29.9004c7.7002 -4.40039 10.2998 -14.1006 6 -21.8008l-36.5996 -64c-3 -5.19922 -8.40039 -8.09961 -13.9004 -8.09961c-2.7002 0 -5.40039 0.700195 -7.90039 2.09961c-7.69922 4.40039 -10.3994 14.1006 -6 21.8008
l36.6006 64c4.39941 7.7998 14.2002 10.2998 21.7998 6zM396.5 29.9004c7.7002 -4.40039 10.2998 -14.1006 6 -21.8008l-36.5996 -64c-3 -5.19922 -8.40039 -8.09961 -13.9004 -8.09961c-2.7002 0 -5.40039 0.700195 -7.90039 2.09961
c-7.69922 4.40039 -10.3994 14.1006 -6 21.8008l36.6006 64c4.39941 7.7998 14.2002 10.2998 21.7998 6zM300.5 29.9004c7.7002 -4.40039 10.2998 -14.1006 6 -21.8008l-36.5996 -64c-3 -5.19922 -8.40039 -8.09961 -13.9004 -8.09961
c-2.7002 0 -5.40039 0.700195 -7.90039 2.09961c-7.69922 4.40039 -10.3994 14.1006 -6 21.8008l36.6006 64c4.39941 7.7998 14.2002 10.2998 21.7998 6zM587.4 264.6c31.7998 -19 52.5996 -53.7998 52.5996 -92.5996c0 -59.5996 -48.4004 -108 -108 -108h-200
c-59.5996 0 -108 48.4004 -108 108c0 48 31.4004 88.7002 74.7998 102.8c19.6006 45.9004 64.7998 77.2002 117.2 77.2002c27.2002 0 53.2998 -8.7002 74.9004 -24.5c3 0.299805 6 0.5 9.09961 0.5c40.7002 0 75.4004 -26.5996 87.4004 -63.4004zM532 112
c33.0996 0 60 26.9004 60 60c0 29.2002 -20.9004 53.4004 -48.5 58.7998c0.200195 1.7998 0.5 3.40039 0.5 5.2002c0 24.2998 -19.7002 44 -44 44c-8 0 -15.4004 -2.2998 -21.9004 -6.09961c-14.6992 18.1992 -36.8994 30.0996 -62.0996 30.0996
c-41.5996 0 -75.4004 -31.9004 -79.2002 -72.5c-1.59961 0.0996094 -3.2002 0.5 -4.7998 0.5c-33.0996 0 -60 -26.9004 -60 -60s26.9004 -60 60 -60h200zM192.9 184.3c-0.400391 -4.09961 -0.900391 -8.09961 -1.10059 -12.3994c0 -20.2002 4.5 -39.3008 12.2998 -56.7002
l-5.19922 -7.7998c-5.10059 -7.7002 -14.1006 -11.5 -23 -11.5c-9.2002 0 -17.8008 4.59961 -23 12.2998l-27.8008 41.2002l-48.6992 -9.40039c-1.7002 -0.299805 -3.5 -0.5 -5.30078 -0.5c-7.2998 0 -14.3994 2.90039 -19.5996 8.2002
c-6.5 6.59961 -9.40039 15.8994 -7.59961 25l9.39941 48.7998l-41.0996 27.7998c-7.60059 5.2002 -12.2002 13.9004 -12.2002 23.1006c0 9.19922 4.59961 17.7998 12.2998 22.8994l41.1006 27.9004l-9.40039 48.7998c-1.7998 9.09961 1.09961 18.4004 7.59961 25
c5.30078 5.2998 12.3008 8.2002 19.6006 8.2002c1.7002 0 3.5 -0.200195 5.2998 -0.5l48.7002 -9.40039l27.7998 41.2002c5.09961 7.7002 14.0996 11.5 23 11.5c9.2002 0 17.9004 -4.59961 23 -12.2002l28 -41.2998l48.7002 9.40039c1.7002 0.299805 3.5 0.5 5.2998 0.5
c7.2998 0 14.4004 -2.90039 19.5996 -8.2002c6.5 -6.60059 9.40039 -15.9004 7.60059 -25l-7 -36.1006c-10 -10.3994 -18.7002 -22.1992 -25.7002 -35.1992c-5.7002 -2.5 -11.0996 -5.5 -16.4004 -8.7002l-13.5 9.2002l6 31.0996l3.80078 19.5996l-19.4004 -3.69922
l-31.2002 -6l-17.7998 26.2998l-11.2002 16.7998l-10.7998 -16l-17.7998 -26.2002l-31.2002 6l-19.4004 3.7998l3.80078 -19.5l6 -31.0996l-26.2002 -17.7998l-16.5 -11.2002l16.5 -11.2002l26.2002 -17.7998l-6 -31.0996l-3.80078 -19.6006l19.4004 3.7998l31.2002 6
l17.7998 -26.2998l11.2002 -16.7002l10.7998 16zM176 312c22.0996 0 40 -17.9004 40 -40s-17.9004 -40 -40 -40s-40 17.9004 -40 40s17.9004 40 40 40z" />
    <glyph glyph-name="clouds" unicode="&#xf744;" 
d="M538.7 151.8c56.3994 -3.5 101.3 -50.5 101.2 -107.8c0 -59.5 -48.4004 -108 -108 -108h-296c-59.6006 0 -108 48.5 -108 108c0 43.5 25.5996 81.5996 64.1992 98.5996c0.400391 6 1.5 11.7002 2.7002 17.4004h-90.7998c-57.2998 0 -104 46.7002 -104 104
c0 51.2002 37.2002 93.9004 86 102.4c15.2998 47.6992 60.0996 81.5996 111.3 81.5996c40.7002 0 78.2002 -21.5996 99.2998 -55.4004c6.80078 1.40039 13.7002 2.10059 20.7002 2.10059c57.2998 0 104 -46.7002 104 -104c0 -25.2998 -9.5 -49.9004 -26.5 -68.9004
c1.90039 -1.89941 4.2002 -3.39941 6 -5.5c12.4004 5.10059 25.7002 7.7002 39.2002 7.7002c46 0 85.2002 -29.7998 98.7002 -72.2002zM104 208h112.1c21.9004 29.0996 56.6006 48 95.7002 48c14.5 0 28.2998 -3.09961 41.2998 -7.90039l1.30078 1.2002
c12.0996 10.9004 18.7998 25.6006 18.7998 41.4004c0 30.8994 -25.1006 56 -56 56c-7.7998 0 -15.5 -1.7002 -23 -5.10059l-23.2998 -10.5996l-9 24c-10.3008 27.2998 -35.6006 45 -64.6006 45c-34 0 -63.3994 -25.5996 -68.2002 -59.5l-3 -21.2998l-23.3994 0.799805
c-30.2998 -0.700195 -54.7002 -25.5996 -54.7002 -56c0 -30.9004 25.0996 -56 56 -56zM532 -16c33.0996 0 60 26.9004 60 60s-26.9004 60 -60 60h-34.5l-2.2002 21.5996c-2.89941 28.7002 -26.7002 50.4004 -55.2998 50.4004c-11.5 0 -22.5996 -3.5 -32.2002 -10.2998
l-21.0996 -14.9004l-13.2998 22.1006c-13.2002 22 -36.2002 35.0996 -61.4004 35.0996c-39.7002 0 -72 -32.2998 -72 -72c0 -1.40039 0.200195 -2.7002 0.400391 -4l2.7998 -24.9004l-20.7998 -4.7998c-27.3008 -6.2998 -46.4004 -30.2998 -46.4004 -58.2998
c0 -33.0996 26.9004 -60 60 -60h296z" />
    <glyph glyph-name="clouds-moon" unicode="&#xf745;" 
d="M382.8 174.1c55.7998 -9.89941 98.2002 -59.0996 98.2002 -118.1c0 -66.2002 -53.5 -120 -119.2 -120h-238.399c-65.7002 0 -119.2 53.7998 -119.2 120c0 37.7002 17.2002 71.2998 44.3994 93.2002c-29.0996 18.3994 -48.5996 50.5 -48.5996 87.5
c0 49.8994 35.0996 91.7998 81.9004 101.7c23.6992 31.2998 60.7998 50.2998 100.899 50.2998c39 0 75.2998 -18.4004 99 -48.1006c55.2998 -1.89941 99.7002 -47.7998 99.7002 -103.899c0 -17.1006 -4.5 -32.9004 -11.9004 -47
c4.7002 -4.90039 9.40039 -9.7998 13.2002 -15.6006zM47.7002 236.7c0 -26 17.5996 -47.6006 41.5996 -53.9004c23 34.7998 62.2998 57.2002 105.8 57.2002c23.9004 0 47.2002 -6.90039 67.2002 -19.5996c9.10059 2.39941 18.5 3.59961 28.1006 3.59961
c13.7998 0 26.6992 -3.2998 39 -8c2.59961 6.5 4.39941 13.2998 4.39941 20.7002c0 30.8994 -24.8994 56 -55.5996 56c-7.5 0 -14.6006 -1.5 -21.1006 -4.2002c-11.2998 30.4004 -40.0996 52.2002 -74.2998 52.2002c-32.5996 0 -60.5 -19.7998 -72.7998 -48h-6.7002
c-30.7002 0 -55.5996 -25.1006 -55.5996 -56zM361.8 -16c39.5 0 71.6006 32.2002 71.5 72c0 39.7998 -32 72 -71.5 72c-3.39941 0 -6.59961 -0.5 -9.89941 -1c-6.7002 28.0996 -31.6006 49 -61.6006 49c-13.3994 0 -25.7998 -4.2002 -36 -11.2998
c-14.5996 16.5996 -35.7002 27.2998 -59.3994 27.2998c-38.6006 0 -70.8008 -27.9004 -77.9004 -64.7002c-36.4004 -3.2998 -65.0996 -33.7002 -65.0996 -71.2998c0 -39.7998 32 -72 71.5 -72h238.399zM637.7 186c3.89941 -8.2002 2.7998 -17.7002 -2.7998 -24.7998
c-31.7002 -39.2998 -77.9004 -62.5 -127.801 -64.7002c-5 17.9004 -12.7998 34.5996 -23.5 49.2998c5.2002 -0.700195 10.2002 -1.7998 15.6006 -1.7998c17.7998 0 35.0996 3.7002 51 10.7002c-65.9004 18.3994 -114.4 79.3994 -114.4 151.7
c0 31.8994 9.7002 62.5996 26.9004 88.1992c-36.1006 -10.8994 -65 -37.6992 -79.7998 -72.0996c-10.5 13 -23.2002 24.0996 -37.8008 32.4004c29.4004 55.2998 87.4004 93.0996 154 93.0996c10.6006 0 21.4004 -1 31.7002 -3
c9.7998 -1.7998 17.1006 -9.40039 18.7998 -19.2002c1.7002 -9.7998 -2.7998 -19.3994 -11.3994 -24.2998c-33.9004 -19.4004 -54.9004 -55.9004 -54.9004 -95.0996c0 -60.3008 48.6006 -109.4 108.3 -109.4c6.90039 0 13.8008 0.700195 20.7002 2l2.90039 0.400391h1.5
c8.89941 0 17.0996 -5.2002 21 -13.4004z" />
    <glyph glyph-name="clouds-sun" unicode="&#xf746;" 
d="M640 211.2c0 -29.2002 -13.2002 -54.7998 -33.2998 -72.9004c20.5 -21.5 33.2998 -50.2998 33.2998 -82.2998c0 -66.2002 -53.7998 -120 -120 -120h-240c-66.2002 0 -120 53.7998 -120 120c0 50.9004 31.4004 94.4004 76.7998 111.7
c11.4004 23.5 29.7998 42.5996 52.1006 55.2998c4.19922 35.4004 26.8994 65.2002 58.5996 79c18.5996 39.5996 58.5 66 104.5 66c42.4004 0 80 -23.4004 100.2 -58.2002c49.2998 -5.7002 87.7998 -47.7998 87.7998 -98.5996zM520 -16c39.7998 0 72 32.2002 72 72
s-32.2002 72 -72 72c-3.5 0 -6.7002 -0.5 -10 -1c-6.7002 28.0996 -31.7998 49 -62 49c-13.4004 0 -25.9004 -4.2002 -36.2002 -11.2998c-14.7002 16.5996 -35.8994 27.2998 -59.7998 27.2998c-39 0 -71.2998 -27.9004 -78.5 -64.7002
c-36.5996 -3.2998 -65.5 -33.7002 -65.5 -71.2998c0 -39.7998 32.2002 -72 72 -72h240zM565.6 166.7c15.7002 8.7002 26.4004 25.2998 26.4004 44.3994c0 28.3008 -22.9004 51.2002 -51.2002 51.2002c-7.7002 0 -14.7998 -2.2002 -21.2998 -5.2998
c-2.7002 35.0996 -31.7002 62.9004 -67.5 62.9004c-34.0996 0 -62.0996 -25.1006 -67 -57.8008c-16.5996 -0.699219 -30.5996 -9.69922 -39.4004 -22.5996c2.2002 0.0996094 4.2002 0.5 6.40039 0.5c24.0996 0 47.5 -6.90039 67.7002 -19.5996
c9.09961 2.39941 18.7002 3.59961 28.2998 3.59961c38.4004 0 72.7998 -19.2998 93.0996 -49.7998c8.60059 -1.5 16.7002 -4.2998 24.5 -7.5zM115 150.6l-8.40039 -43.7998l32.7002 6.2998c-6.39941 -15.8994 -10.0996 -33.0996 -10.7998 -51l-31.0996 -6
c-2.30078 -0.399414 -4.60059 -0.599609 -6.80078 -0.599609c-9.39941 0 -18.2998 3.7002 -25 10.4004c-8.2998 8.2998 -11.8994 20.1992 -9.69922 31.7998l12 62.0996l-52.3008 35.4004c-9.7998 6.59961 -15.5996 17.5 -15.5996 29.2998
c0 11.7002 5.7998 22.7002 15.5 29.2998l52.2998 35.5l-12 62.1006c-2.2002 11.5996 1.40039 23.3994 9.7002 31.7998c6.7002 6.7002 15.7002 10.3994 25 10.3994c2.2998 0 4.5 -0.299805 6.7998 -0.699219l62 -12l35.4004 52.3994
c6.59961 9.7998 17.8994 14.7002 29.2998 14.7002c11.7998 0 22.7002 -5.7998 29.4004 -15.5996l35.3994 -52.4004l62 12c2.2998 0.400391 4.60059 0.599609 6.7998 0.599609c9.2002 0 18 -3.69922 24.6006 -10.1992c-19.2998 -10.3008 -36.1006 -24.8008 -49.2002 -42.8008
l-35.0996 -6.7998l-31.2002 -6l-17.7998 26.2998l-24.9004 36.9004v1l-24.7998 -36.7002l-17.7998 -26.2998l-31.2002 6l-43.7002 8.5l8.5 -43.9004l6 -31.0996l-26.2002 -17.7998l-37 -25.1006l37 -25.0996l26.2002 -17.7998zM224 264c-22.0996 0 -40 -17.9004 -40 -40
c0 -15.7002 9.2998 -29 22.5 -35.5c-15.0996 -8.2998 -28.4004 -18.7002 -39.5 -31c-18.7998 16.2002 -31 39.7998 -31 66.5c0 48.5 39.5 88 88 88c22.4004 0 42.5996 -8.7002 58.0996 -22.4004c-10.3994 -14 -17.7998 -30 -22 -47.0996
c-0.199219 -0.200195 -0.5 -0.400391 -0.799805 -0.599609c-6.59961 13 -19.7998 22.0996 -35.2998 22.0996z" />
    <glyph glyph-name="democrat" unicode="&#xf747;" 
d="M638.7 226.8c2.39941 -3.59961 1.39941 -8.59961 -2.2002 -11.0996l-26.7002 -17.7002c-1.7998 -1.2002 -3.7998 -1.7002 -6 -1.2002c-2.09961 0.400391 -3.89941 1.60059 -5.09961 3.40039l-19.6006 29.3994c-1 1.5 -2.2998 2.5 -3.2998 3.90039
c0.100586 -0.5 0.200195 -1 0.200195 -1.5v-256c0 -22.0996 -17.9004 -40 -40 -40h-72.0996c-22 0 -40 17.9004 -40 40v40h-96.1006v-40c0 -22.0996 -17.8994 -40 -40 -40h-72.0996c-22 0 -40 17.9004 -40 40v139.5l-26.2998 68.2998l-10.3008 -8.7002
c-9 -9.09961 -23.3994 -15.0996 -38.1992 -15.0996h-31c-21.3008 0 -40.5 11.7998 -50.1006 30.9004l-13.7002 27.3994c-10.0996 20.1006 -7.19922 44.2998 7.5 61.4004l93 108.7c-13 16.2998 -14.5 38.7998 -3.09961 56c2.7998 4.19922 8.7998 4.7998 12.4004 1.19922
l41.8994 -41.7998l40.9004 40.7998c4.39941 4.40039 11.7998 3.7002 15.2002 -1.5c12.3994 -18.7998 12.1992 -42.6992 0.899414 -61.8994l73.6006 -61.2002h219c45.0996 -2.5 86.3994 -25.9004 111.6 -63.7002zM527.9 -16v112h-304.301v-112h56.1006v64
c0 8.7998 7.2002 16 16 16h160.1c8.7998 0 16 -7.2002 16 -16v-64h56.1006zM527.9 144v88c0 22.0996 -17.9004 40 -40 40h-216.9l-96.0996 80h-36.3008l-88.6992 -103.5c-2.10059 -2.5 -2.5 -5.90039 -1.10059 -8.7998l13.7002 -27.2998
c1.40039 -2.7002 4.09961 -4.40039 7.2002 -4.40039h31c2.09961 0 4.2002 0.799805 5.7002 2.2998l46 39.1006c8.5 7.19922 21.5 3.7998 25.3994 -6.60059l36.9004 -98.7998h313.2zM283.7 221.2l18.0996 -2.7002c3.2998 -0.5 4.60059 -4.5 2.2002 -6.7998l-13.2002 -12.9004
l3.10059 -18.2002c0.599609 -3.2998 -2.90039 -5.69922 -5.80078 -4.19922l-16.2998 8.59961l-16.2998 -8.59961c-2.90039 -1.60059 -6.40039 0.899414 -5.7998 4.19922l3.09961 18.2002l-13.2002 12.9004c-2.39941 2.2998 -1.09961 6.2998 2.2002 6.7998l18.2998 2.7002
l8.2002 16.5c1.5 3 5.7002 3 7.2002 0zM379.5 221.2l18.0996 -2.7002c3.30078 -0.5 4.60059 -4.5 2.2002 -6.7998l-13.2002 -12.9004l3.10059 -18.2002c0.599609 -3.2998 -2.90039 -5.69922 -5.7998 -4.19922l-16.3008 8.59961l-16.2998 -8.59961
c-2.89941 -1.60059 -6.39941 0.899414 -5.7998 4.19922l3.09961 18.2002l-13.1992 12.9004c-2.40039 2.2998 -1.10059 6.2998 2.19922 6.7998l18.3008 2.7002l8.19922 16.5c1.5 3 5.7002 3 7.2002 0zM475.7 221.2l18.0996 -2.7002c3.2998 -0.5 4.60059 -4.5 2.2002 -6.7998
l-13.2002 -12.9004l3.10059 -18.2002c0.599609 -3.2998 -2.90039 -5.69922 -5.80078 -4.19922l-16.2998 8.59961l-16.2998 -8.59961c-2.90039 -1.60059 -6.40039 0.899414 -5.7998 4.19922l3.09961 18.2002l-13.2002 12.9004c-2.39941 2.2998 -1.09961 6.2998 2.2002 6.7998
l18.2998 2.7002l8.2002 16.5c1.5 3 5.7002 3 7.2002 0z" />
    <glyph glyph-name="dewpoint" unicode="&#xf748;" horiz-adv-x="448" 
d="M176 448c12.5996 0 25.2002 -7.09961 29.2002 -20.7002c47 -148.5 146.8 -219.5 146.8 -324.3c0 -92.2998 -78.7002 -167 -176 -167s-176 74.7002 -176 167c0 104.2 100 176.4 146.8 324.3c4.5 13.9004 16.7998 20.7002 29.2002 20.7002zM304 103
c0 43.0996 -25 82.9004 -56.5996 133.3c-23.8008 37.7998 -50 79.5 -71.4004 131.2c-21.2998 -51.4004 -47.5 -93.2002 -71.2002 -131c-31.7002 -50.5996 -56.7998 -90.5996 -56.7998 -133.5c0 -65.5996 57.4004 -119 128 -119s128 53.4004 128 119zM368 448
c44.0996 0 80 -35.9004 80 -80s-35.9004 -80 -80 -80s-80 35.9004 -80 80s35.9004 80 80 80zM368 336c17.7002 0 32 14.2998 32 32s-14.2998 32 -32 32s-32 -14.2998 -32 -32s14.2998 -32 32 -32z" />
    <glyph glyph-name="eclipse" unicode="&#xf749;" 
d="M448 384c106 0 192 -86 192 -192s-86 -192 -192 -192s-192 86 -192 192s86 192 192 192zM448 48c79.4004 0 144 64.5996 144 144s-64.5996 144 -144 144s-144 -64.5996 -144 -144s64.5996 -144 144 -144zM256 -10l31.2002 46.2998
c11.2998 -11.5 23.5996 -21.8994 37.0996 -30.8994l-34.7998 -51.6006c-7.5 -11.0996 -20.0996 -17.7998 -33.5 -17.7998s-26 6.7002 -33.5 17.9004l-40.4004 59.8994l-70.7998 -13.7002c-13.3994 -2.59961 -26.7998 1.60059 -36.2998 11.1006
s-13.7002 23.0996 -11.0996 36.2998l13.6992 71l-59.7998 40.5c-11.0996 7.5 -17.7998 20 -17.7998 33.5s6.59961 26 17.7998 33.5996l59.7998 40.5l-13.6992 71c-2.60059 13.2002 1.59961 26.7002 11.0996 36.3008c9.5 9.59961 23 13.6992 36.4004 11.1992
l70.7998 -13.6992l40.3994 59.8994c15.1006 22.2998 51.9004 22.2998 67 0l35.3008 -52.3994c-13.5 -8.90039 -26 -19.3008 -37.2002 -30.8008l-31.7002 46.9004l-51.7998 -76.7998l-91 17.5996l17.5996 -91.2002l-76.7998 -52l76.7998 -52l-17.5996 -91.1992
l90.8994 17.5996zM229.6 241.1c-17.5 -9.5 -29.5996 -27.6992 -29.5996 -49c0 -21.2998 12.0996 -39.5996 29.5996 -49.0996c4.30078 -19.2002 11 -37.4004 19.9004 -54.2998c-54.2998 3.39941 -97.5 48.2002 -97.5 103.3s43.2002 99.9004 97.5 103.4
c-8.90039 -17 -15.5996 -35.2002 -19.9004 -54.3008z" />
    <glyph glyph-name="eclipse-alt" unicode="&#xf74a;" horiz-adv-x="512" 
d="M326.1 138.8c4.10059 0.799805 7 -4 4.30078 -7.2998c-17.9004 -22 -44.9004 -35.5 -74.5 -35.5c-53 0 -95.9004 43 -95.9004 96c0 53.0996 43 96 95.9004 96c5.89941 0 11.6992 -0.5 17.5 -1.59961c4.09961 -0.700195 5 -6.2002 1.39941 -8.30078
c-23.5 -13.3994 -38 -38.2998 -38 -65.3994c0 -47.1006 42.7998 -82.7998 89.2998 -73.9004zM494.2 226.1c11.2002 -7.59961 17.7998 -20.0996 17.8994 -33.6992c0 -13.4004 -6.69922 -26 -17.7998 -33.5l-59.7998 -40.5l13.7002 -71
c2.5 -13.2002 -1.60059 -26.8008 -11.1006 -36.3008s-22.8994 -13.7998 -36.2998 -11.0996l-70.8994 13.7002l-40.4004 -59.9004c-7.5 -11.0996 -20.0996 -17.7998 -33.5 -17.7998s-26 6.7002 -33.5 17.9004l-40.4004 59.8994l-70.7998 -13.7002
c-13.3994 -2.59961 -26.7998 1.60059 -36.2998 11.1006s-13.7002 23.0996 -11.0996 36.2998l13.6992 71l-59.7998 40.5c-11.0996 7.5 -17.7998 20 -17.7998 33.5s6.59961 26 17.7998 33.5996l59.7998 40.5l-13.6992 71c-2.60059 13.2002 1.59961 26.7002 11.0996 36.3008
c9.5 9.59961 23 13.6992 36.2998 11.1992l70.7998 -13.6992l40.4004 59.8994c15.0996 22.2998 51.9004 22.2998 67 0l40.4004 -59.8994l70.8994 13.6992c13 2.60059 26.6006 -1.59961 36.2002 -11.0996c9.5 -9.59961 13.7002 -23.2002 11.0996 -36.4004l-13.6992 -71z
M381.3 140.5l76.7998 52.0996l-76.7998 52l17.6006 91.1006l-91 -17.6006l-51.9004 76.9004l-51.7998 -76.7998l-91 17.5996l17.5996 -91.2002l-76.7998 -52l76.7998 -52l-17.5996 -91.1992l90.8994 17.5996l51.9004 -77l51.9004 76.9004l91 -17.6006z" />
    <glyph glyph-name="fire-smoke" unicode="&#xf74b;" horiz-adv-x="576" 
d="M456 176c66.2002 0 120 -53.7998 120 -120s-53.7998 -120 -120 -120h-336c-66.2002 0 -120 53.7998 -120 120s53.7998 120 120 120c27.4004 0 53.0996 -9.2002 74 -25.7998c23.9004 26.2998 57.7998 41.7998 94 41.7998s70.0996 -15.5 94 -41.7998
c20.9004 16.5996 46.7002 25.7998 74 25.7998zM456 -16c39.7002 0 72.0996 32.4004 72.0996 72.0996c0 39.7002 -32.2998 72 -72 72c-22.7998 0 -43.7998 -10.6992 -57.5996 -29.2998l-22.5 -30.2002l-17.9004 33.1006c-14.0996 26.0996 -41 42.2998 -70.0996 42.2998
s-56 -16.2002 -70 -42.4004l-17.9004 -33.0996l-22.5 30.2002c-13.8994 18.5996 -34.8994 29.2998 -57.5996 29.2998c-39.7002 0 -72 -32.2998 -72 -72s32.2998 -72 72 -72h336zM320 248l42.2998 32.5996c3.10059 -5.2998 5.90039 -10.3994 8.40039 -15.3994
c11.0996 -21.9004 13.2998 -47.1006 7.39941 -69.9004c-26.3994 18.2002 -57.6992 28.7002 -90.0996 28.7002c-33.5 0 -65.9004 -11 -92.7998 -30.5c-3 9.7002 -5 19.9004 -5 31.2998c0 29.9004 18.2002 56.2002 54.3994 101.101
c5.2002 -6.2002 75.4004 -77.9004 75.4004 -77.9004zM120 208c-1.90039 0 -3.7002 -0.5 -5.59961 -0.599609c-1.40039 9 -2.40039 18.1992 -2.40039 27.5996c0 54.2002 54.7998 144.1 132 213c30.0996 -26.9004 56.5996 -55.7002 78 -84.2002
c13.0996 15.5 27.9004 30.7998 44.2002 45.4004c57 -50.7998 97.7998 -133.9 97.7998 -174.2c0 -9.40039 -0.900391 -18.5996 -2.40039 -27.5996c-1.89941 0.0996094 -3.69922 0.599609 -5.59961 0.599609c-15.7002 0 -30.9004 -2.59961 -45.4004 -7.2002
c3.2002 10.9004 5.40039 22.2998 5.40039 34.2002c0 17.4004 -19.0996 64.2998 -51 105.2c-2.2002 -2.40039 -4.2998 -4.7998 -6.40039 -7.2998l-38.7998 -45.8008l-36.0996 47.9004c-11.6006 15.4004 -25 31 -39.5 46.0996
c-52.7002 -56.3994 -84.2002 -116.3 -84.2002 -146.1c0 -11.9004 2.2002 -23.2998 5.40039 -34.2002c-14.5 4.60059 -29.7002 7.2002 -45.4004 7.2002z" />
    <glyph glyph-name="flag-alt" unicode="&#xf74c;" horiz-adv-x="512" 
d="M472.5 448c20.9004 0 39.5 -13 39.5996 -33.4004v-326.399c0 -13.2998 -8.7998 -25.7998 -22.7998 -31.2002c-48.5996 -18.5 -88.3994 -25 -123.7 -25c-81.2998 0 -137.899 34.4004 -219.1 34.4004c-28.9004 0 -61.2002 -4.7002 -98.5 -16.5v-101.9
c0 -6.59961 -5.40039 -12 -12 -12h-24c-6.59961 0 -12 5.40039 -12 12v476c0 13.2998 10.7002 24 24 24c11.2998 0 20.2998 -7.90039 22.9004 -18.4004c42.2998 13.1006 76.0996 18 104.5 18c76.2998 0 114.699 -34.5 180.8 -34.5c31.2998 0 68.5996 7.60059 119.1 30.3008
c6.90039 3.09961 14.2002 4.59961 21.2002 4.59961zM464 98.9004v297.699c-49.5 -21.5 -91.5 -31.5 -131.8 -31.5c-75.6006 0 -114.5 34.5 -180.8 34.5c-29.7002 0 -63.7002 -6.59961 -103.5 -20.0996v-279.3c34 9.5 66.5996 14.2002 98.5 14.2002
c90.5996 0 143.6 -34.4004 219.1 -34.4004c30.9004 0 63.2002 6.2002 98.5 18.9004z" />
    <glyph glyph-name="flag-usa" unicode="&#xf74d;" horiz-adv-x="512" 
d="M472.5 448c20.9004 0 39.5 -13 39.5996 -33.4004v-326.399c0 -13.2998 -8.7998 -25.7998 -22.7998 -31.2002c-48.5996 -18.5 -88.3994 -25 -123.7 -25c-81.2998 0 -137.899 34.4004 -219.1 34.4004c-28.9004 0 -61.2002 -4.7002 -98.5 -16.5v-101.9
c0 -6.59961 -5.40039 -12 -12 -12h-24c-6.59961 0 -12 5.40039 -12 12v476c0 13.2998 10.7002 24 24 24c11.2998 0 20.2998 -7.90039 22.9004 -18.4004c42.2998 13.1006 76.0996 18 104.5 18c76.2998 0 114.699 -34.5 180.8 -34.5c31.2998 0 68.5996 7.60059 119.1 30.3008
c6.90039 3.09961 14.2002 4.59961 21.2002 4.59961zM176 408c-8.7998 0 -16 -7.2002 -16 -16s7.2002 -16 16 -16s16 7.2002 16 16s-7.2002 16 -16 16zM176 352c-8.7998 0 -16 -7.2002 -16 -16s7.2002 -16 16 -16s16 7.2002 16 16s-7.2002 16 -16 16zM104 408
c-8.7998 0 -16 -7.2002 -16 -16s7.2002 -16 16 -16s16 7.2002 16 16s-7.2002 16 -16 16zM104 352c-8.7998 0 -16 -7.2002 -16 -16s7.2002 -16 16 -16s16 7.2002 16 16s-7.2002 16 -16 16zM464 98.9004v63.0996c-100.2 -31.4004 -159.6 -15 -213.8 -1.2998
c-56.2002 14.2002 -109.601 27.2998 -202.2 -5.2002v-55.2998c87.4004 24.3994 146.6 13.7998 219.6 -4.40039c70.6006 -17.5996 117.4 -25.2998 196.4 3.10059zM464 212.5v61.5c-100.2 -31.4004 -159.6 -15 -213.8 -1.2002
c-56.2002 14.2002 -109.601 27.2998 -202.2 -5.2002v-61.5996c96.5 30.2998 156.4 15.7998 213.9 1.2998c56.0996 -14.2002 109.6 -27.2002 202.1 5.2002zM464 324.5v72.0996c-49.5 -21.5 -91.5 -31.5 -131.8 -31.5c-29.2998 0 -54 5.5 -76.2002 11.9004v-56.2002
c57.0996 -14.3994 111.5 -30.0996 208 3.7002z" />
    <glyph glyph-name="fog" unicode="&#xf74e;" 
d="M208 -16c8.7998 0 16 -7.2002 16 -16v-16c0 -8.7998 -7.2002 -16 -16 -16h-128c-8.7998 0 -16 7.2002 -16 16v16c0 8.7998 7.2002 16 16 16h128zM624 -16c8.7998 0 16 -7.2002 16 -16v-16c0 -8.7998 -7.2002 -16 -16 -16h-336c-8.7998 0 -16 7.2002 -16 16v16
c0 8.7998 7.2002 16 16 16h336zM576 40c0 -8.7998 -7.2002 -16 -16 -16h-544c-8.7998 0 -16 7.2002 -16 16v16c0 8.7998 7.2002 16 16 16h544c8.7998 0 16 -7.2002 16 -16v-16zM172 128c-59.5996 0 -108 48.5 -108 108c0 43.5 25.5996 81.5996 64.2002 98.5996
c3.39941 63.1006 55.7998 113.4 119.8 113.4c34.4004 0 66.2998 -14.5 88.7998 -39.7002c12.4004 5.10059 25.7002 7.7002 39.2002 7.7002c46 0 85.2002 -29.7998 98.7002 -72.2002c56.3994 -3.5 101.3 -50.5 101.3 -107.8c0 -59.5 -48.4004 -108 -108 -108h-296z
M158.4 294.3c-27.3008 -6.2998 -46.4004 -30.2998 -46.4004 -58.2998c0 -33.0996 26.9004 -60 60 -60h296c33.0996 0 60 26.9004 60 60s-26.9004 60 -60 60h-34.5l-2.2002 21.5996c-2.89941 28.7002 -26.7002 50.4004 -55.2998 50.4004
c-11.5 0 -22.5996 -3.59961 -32.2002 -10.2998l-21.0996 -14.9004l-13.2998 22.1006c-13.2002 22 -36.2002 35.0996 -61.4004 35.0996c-39.7002 0 -72 -32.2998 -72 -72c0 -1.40039 0.200195 -2.7002 0.400391 -4l2.7998 -24.9004z" />
    <glyph glyph-name="house-flood" unicode="&#xf74f;" horiz-adv-x="576" 
d="M38.0996 203.2l-20.2998 24.7998c-2.7998 3.5 -2.2998 8.5 1.10059 11.2998l243.8 199.601c14.7002 12.0996 36 12.0996 50.7002 0l150.6 -123.4v60.5c0 4.40039 3.59961 8 8 8h32c4.40039 0 8 -3.59961 8 -8v-99.7998l45.0996 -36.9004
c3.40039 -2.7998 3.90039 -7.7998 1.30078 -11.2002l-20.3008 -24.7998c-2.7998 -3.39941 -7.89941 -3.89941 -11.2998 -1.09961l-14.7002 12v-177.601c-9.2998 6.7002 -20.5 10.7002 -32.0996 10.7002c-5.5 0 -10.7998 -1.2998 -16 -2.7998v179.5h-0.0996094v29.5
l-170.9 140c-2.90039 2.40039 -7.2002 2.40039 -10.0996 0l-170.9 -140v-209c-5.2002 1.5 -10.5 2.7002 -16 2.7002c-11.5996 0 -22.5996 -4 -31.9004 -10.6006v177.5l-14.6992 -12c-3.5 -2.7998 -8.5 -2.2998 -11.3008 1.10059zM561.5 -15.9004
c8.09961 -0.899414 14.5 -7.19922 14.4004 -15.2998v-16.7002c0 -9.09961 -7.60059 -16.7998 -16.7002 -16c-28.7002 2.5 -56.2998 11.5 -79.2002 25.8008c-54.0996 -33.9004 -137.1 -34.2002 -192 0c-54.0996 -33.9004 -137.1 -34.2002 -192 0
c-22.7998 -14.3008 -50.4004 -23.3008 -79.2998 -25.8008c-9.10059 -0.799805 -16.7002 6.90039 -16.7002 16v16.5c0 8.2002 6.5 14.6006 14.7002 15.5c25.3994 2.5 48.8994 11.6006 66.0996 25.8008c8.7002 7.09961 21.6006 7.19922 30.2998 0.0996094
c20.6006 -16.7002 50.8008 -26.7002 80.9004 -26.7002c30.7998 0 60.2998 9.7002 80.7998 26.6006c8.7002 7.09961 21.6006 7.19922 30.2998 0.0996094c20.6006 -16.7002 50.8008 -26.7002 80.9004 -26.7002c30.7998 0 60.2998 9.7002 80.7998 26.6006
c8.7002 7.09961 21.6006 7.19922 30.2998 0.0996094c17.2002 -14 41.3008 -23.2998 66.4004 -25.9004zM240 256h96c8.7998 0 16 -7.2002 16 -16v-96c0 -8.7998 -7.2002 -16 -16 -16h-96c-8.7998 0 -16 7.2002 -16 16v96c0 8.7998 7.2002 16 16 16z" />
    <glyph glyph-name="humidity" unicode="&#xf750;" horiz-adv-x="384" 
d="M160 156c0 -15.5 -12.5 -28 -28 -28s-28 12.5 -28 28s12.5 28 28 28s28 -12.5 28 -28zM252 96c15.5 0 28 -12.5 28 -28s-12.5 -28 -28 -28s-28 12.5 -28 28s12.5 28 28 28zM223.9 425.9c51.1992 -158.5 160.1 -200.101 160.1 -311.801
c0 -98.3994 -85.9004 -178.1 -192 -178.1s-192 79.7002 -192 178.1c0 111.2 109.1 154.101 160.2 311.801c4.7998 14.8994 18.2998 22.0996 31.7998 22.0996c13.7998 0 27.5 -7.5 31.9004 -22.0996zM192 -16c79.4004 0 144 58.4004 144 130.2
c0 40.5996 -19.2002 67.7002 -56.0996 116c-28.1006 36.7002 -61.9004 81 -87.9004 143.6c-25.9004 -62.2998 -59.7002 -106.7 -87.7002 -143.5c-37 -48.5996 -56.2998 -75.8994 -56.2998 -116.2c0 -71.6992 64.5996 -130.1 144 -130.1zM253 180.2
c3.40039 -2.7002 4 -7.7998 1.2002 -11.2002l-99.5 -134c-2.7002 -3.40039 -7.7002 -4 -11.2002 -1.2002l-12.5 10c-3.40039 2.7002 -4 7.7002 -1.2002 11.2002l99.5 134c2.7002 3.40039 7.7002 4 11.2002 1.2002z" />
    <glyph glyph-name="landmark-alt" unicode="&#xf752;" horiz-adv-x="512" 
d="M496 -16c8.7998 0 16 -7.2002 16 -16v-16c0 -8.7998 -7.2002 -16 -16 -16h-480c-8.7998 0 -16 7.2002 -16 16v16c0 8.7998 7.2002 16 16 16h16v80c0 8.7998 7.2002 16 16 16h16v112h-16c-8.7998 0 -16 7.2002 -16 16v16c0 8.7998 7.2002 16 16 16h16.7998
c7.5 90.4004 77.9004 163.1 167.2 174.3v17.7002c0 8.7998 7.2002 16 16 16h16c8.7998 0 16 -7.2002 16 -16v-17.7002c89.2998 -11.2002 159.7 -83.8994 167.2 -174.3h16.7998c8.7998 0 16 -7.2002 16 -16v-16c0 -8.7998 -7.2002 -16 -16 -16h-16v-112h16
c8.7998 0 16 -7.2002 16 -16v-80h16zM256 368c-73.9004 0 -134.3 -56.2002 -142.4 -128h284.801c-8.10059 71.7998 -68.5 128 -142.4 128zM400 192h-64v-112h64v112zM288 192h-64v-112h64v112zM112 192v-112h64v112h-64zM432 -16v48h-352v-48h352z" />
    <glyph glyph-name="moon-cloud" unicode="&#xf754;" 
d="M283.6 271.9c55.7002 -1.90039 100.4 -47.8008 100.4 -103.9c0 -57.2998 -46.7002 -104 -104 -104h-176c-57.2998 0 -104 46.7002 -104 104c0 49.9004 35.4004 91.7998 82.4004 101.7c23.8994 31.2998 61.1992 50.2998 101.6 50.2998
c39.2002 0 75.7002 -18.2998 99.5996 -48.0996zM280 112c30.9004 0 56 25.0996 56 56s-25.0996 56 -56 56c-7.5 0 -14.5996 -1.5 -21.2002 -4.2002c-11.3994 30.4004 -40.3994 52.2002 -74.7998 52.2002c-32.7002 0 -60.7998 -19.7998 -73.2002 -48h-6.7998
c-30.9004 0 -56 -25.0996 -56 -56s25.0996 -56 56 -56h176zM637.6 96.7998c4.10059 -8.5 2.90039 -18.3994 -3.19922 -25.5996c-36.6006 -45.2002 -90.9004 -71.1006 -149 -71.1006c-51.4004 0 -97.7002 20.7002 -132 53.9004c13.5 8.7998 25.0996 20 34.7998 32.7998
c25.5 -23.8994 59.5 -38.7002 97.2002 -38.7002c23.2998 0 45.7998 5.60059 65.8994 16c-75.8994 16.8008 -132.899 84.8008 -132.899 165.9c0 37.5 12.5 73.2998 34.3994 102.4c-35.7002 -8.40039 -65.8994 -30.3008 -85.7002 -59.9004
c-12.1992 10.2002 -26.2998 18.2998 -41.6992 23.7002c34.0996 52.7002 92.7998 87.8994 160.1 87.8994c11.7002 0 23.5 -1.09961 35 -3.19922c10.0996 -1.90039 17.7998 -9.60059 19.5 -19.8008c1.7002 -10.0996 -3 -20 -11.9004 -25.0996
c-38 -21.7002 -61.5996 -62.2998 -61.5996 -106c0 -67.2002 54.5 -121.9 121.5 -121.9c15.9004 0 22.2998 2.60059 27.7998 2.60059c9.40039 0 17.7002 -5.2998 21.7998 -13.9004z" />
    <glyph glyph-name="moon-stars" unicode="&#xf755;" horiz-adv-x="512" 
d="M405.8 74.2002c6.90039 0 12.6006 -7.40039 9.2002 -14.5c-27.5996 -57.7998 -80 -101.7 -145.3 -117.5c-17.2998 -4.2002 -34.7002 -6.2002 -51.7998 -6.2002c-98.2002 0 -187.301 66.2998 -211.601 165c-28.5996 116 43.1006 232.9 160 261.2
c12.9004 3.09961 26.2002 5 39.5 5.7998h0.600586c9.09961 0 13.6992 -11.2002 7 -17.5c-44.7002 -41.9004 -63.3008 -104.1 -48.7002 -163.3c19.3994 -78.5 90.0996 -129.3 166 -129.3c23.5 0 47.5996 4.89941 70.7998 15.3994
c1.5 0.600586 2.90039 0.900391 4.2998 0.900391zM258.4 -11.0996c18.6992 4.5 36.0996 11.8994 51.7998 22c-92.2998 8.5 -169.7 73.7998 -192.101 164.8c-9.5 38.5 -8 78.2002 3.30078 115c-19.7002 -13.4004 -36.4004 -30.9004 -49.1006 -51.7998
c-23.2002 -38.2002 -30.0996 -83.1006 -19.3994 -126.4c18.5996 -75.7002 86.5 -128.5 165 -128.5c13.5 0 27.1992 1.7002 40.5 4.90039zM458.7 266.7l53.2998 -26.7002l-53.2998 -26.7002l-26.7002 -53.2998l-26.7002 53.2998l-53.2998 26.7002l53.2998 26.7002
l26.7002 53.2998zM304 352l-16 32l-32 16l32 16l16 32l16 -32l32 -16l-32 -16z" />
    <glyph glyph-name="person-booth" unicode="&#xf756;" horiz-adv-x="576" 
d="M192 -48v176h48v-176c0 -8.7998 -7.2002 -16 -16 -16h-16c-8.7998 0 -16 7.2002 -16 16zM63.5996 320c-26.5 0 -48 21.5 -48 48s21.5 48 48 48s48 -21.5 48 -48s-21.5 -48 -48 -48zM224.2 216c13.2998 0 24.0996 -10.7998 24.0996 -24s-10.7998 -24 -24 -24h-57.5996
c-10.5 0 -20.9004 4.2002 -28.2998 11.7002l-26.7002 26.7998v-116.2l17.8994 -13.3994c14.1006 -10.4004 22.5 -27.2002 22.5 -44.8008v-72c0 -13.1992 -10.7998 -24 -24 -24c-13.1992 0 -24 10.8008 -24 24v72c0 2.5 -1.19922 4.90039 -3.19922 6.40039l-51.4004 38.4004
c-0.200195 0.0996094 -0.299805 0.299805 -0.5 0.5c-0.299805 0.199219 -0.599609 0.299805 -0.799805 0.5l-0.200195 -117.9c0 -13.2998 -10.7998 -24 -24 -24c-13.2998 0 -24 10.7998 -24 24l0.200195 168l-0.100586 95.9004c-0.0996094 31 25 56.0996 56 56.0996h26.7002
c14.9004 0 29 -5.7998 39.5 -16.4004l47.6006 -47.5996h54.2998zM544 448c17.7002 0 32 -14.2998 32 -32v-464c0 -8.7998 -7.2002 -16 -16 -16h-16c-8.7998 0 -16 7.2002 -16 16v53.5c-8.7002 -3.5 -18.0996 -5.5 -28 -5.5c-14.2998 0 -28.0996 4 -40 11.5
c-23.7998 -15 -56.2002 -15 -80 0c-11.9004 -7.40039 -25.7002 -11.5 -40 -11.5c-41.9004 0 -76 34.0996 -76 76c0 29.2998 37.7998 86.9004 60.7002 119.2l-84.7002 204.7v-143.9h-48v160c0 17.7002 14.2998 32 32 32h320zM528 76v324h-236.1l82.1992 -198.8
c3.2002 -7.7998 2.2002 -16.6006 -2.7998 -23.4004c-30.7998 -42.0996 -58.5 -89.7998 -59.2998 -102c0 -15.2002 12.5996 -27.7998 28 -27.7998c8.2002 0 16 3.7998 21.5 10.4004c9.2002 11.0996 28 11.0996 37.0996 0c10.8008 -13.2002 32 -13.2002 42.9004 0
c4.5 5.59961 11.2998 8.7998 18.5 8.7998s13.9004 -3.2998 18.5 -8.7998c5.5 -6.60059 13.2998 -10.4004 21.5 -10.4004c15.4004 0 28 12.5996 28 28z" />
    <glyph glyph-name="person-sign" unicode="&#xf757;" horiz-adv-x="512" 
d="M501.5 381.3c8.2998 -3 12.5996 -12.2002 9.5 -20.5l-43.7998 -120.2c-1.7998 -4.89941 -9.2002 -13.6992 -20.5 -9.59961l-67.6006 24.5996l-46.1992 -126.899c-3 -8.2998 -12.2002 -12.6006 -20.5 -9.60059l-15 5.5c-8.30078 3 -12.6006 12.2002 -9.60059 20.5
l13.9004 38.3008l-46.2998 15.3994c-8.30078 2.7998 -15.8008 7.5 -21.9004 13.6006l-41.5996 48.2998v-109.601l53.0996 -81.1992c6.59961 -8 10.9004 -20.4004 10.9004 -33.1006v-76.7998c0 -13.2998 -10.8008 -24 -24 -24c-13.3008 0 -24 10.7998 -24 24v76.7998
c0 1.7998 -0.600586 3.60059 -1.7002 5l-51.2002 78.2002h-14l-21.2002 -163.1c-1.59961 -12.1006 -11.8994 -20.9004 -23.7998 -20.9004c-1 0 -2.09961 0.0996094 -3.09961 0.200195c-13.1006 1.7002 -22.4004 13.7002 -20.7002 26.8994l23.7998 182.5v96.7002
l-50.5996 -101.1c-4.80078 -9.40039 -18.1006 -17.7002 -32.2002 -10.7002c-11.7998 5.90039 -16.6006 20.2998 -10.7002 32.2002l63.0996 126.399c9.60059 19 28.7002 30.9004 50.1006 30.9004h62.8994c14.8008 0 29.2002 -6 39.6006 -16.4004l50.5 -58.5996
c-0.400391 0.599609 49.5 -16.5 49.5 -16.5l15.7998 43.5l-67.5996 24.5996c-8.30078 3 -12.6006 12.2002 -9.60059 20.5l43.7998 120.301c1.90039 5 9.40039 13.5996 20.5 9.5l67.7002 -24.6006l5.5 15c3 8.2998 12.2002 12.6006 20.5 9.60059l15 -5.5
c8.2998 -3 12.6006 -12.2002 9.60059 -20.5l-5.5 -15zM433.1 287l21.9004 60.0996l-120.2 43.8008l-21.8994 -60.1006zM144 351.9c-26.5 0 -48 21.5 -48 48s21.5 48 48 48s48 -21.5 48 -48s-21.5 -48 -48 -48z" />
    <glyph glyph-name="podium-star" unicode="&#xf758;" horiz-adv-x="448" 
d="M186 109.7l-26.2998 25.7002c-4.7998 4.59961 -2.10059 12.6992 4.39941 13.5996l36.5 5.2998l16.3008 33.1006c2.89941 6 11.3994 5.89941 14.2998 0l16.2998 -33.1006l36.5 -5.2998c6.5 -0.900391 9.09961 -9 4.40039 -13.5996l-26.4004 -25.7002l6.2002 -36.4004
c1.09961 -6.59961 -5.7998 -11.3994 -11.6006 -8.39941l-32.5996 17.1992l-32.5996 -17.1992c-5.80078 -3.10059 -12.7002 1.7998 -11.6006 8.39941zM432 288c8.7998 0 16 -7.2002 16 -16v-16c0 -8.7998 -7.2002 -16 -16 -16h-51l-23.7002 -256h42.7002
c8.7998 0 16 -7.2002 16 -16v-16c0 -8.7998 -7.2002 -16 -16 -16h-352c-8.7998 0 -16 7.2002 -16 16v16c0 8.7998 7.2002 16 16 16h42.7002l-23.7002 256h-51c-8.7998 0 -16 7.2002 -16 16v16c0 8.7998 7.2002 16 16 16h48c0 62.2002 44.5996 114.1 103.5 125.5
c10.7002 20.4004 31.9004 34.5 56.5 34.5h32c35.2998 0 64 -28.7002 64 -64s-28.7002 -64 -64 -64h-32c-27.7002 0 -51.0996 17.7002 -60 42.2998c-30.7998 -11.5996 -52 -40.5 -52 -74.2998h320zM224 400c-8.7998 0 -16 -7.2002 -16 -16s7.2002 -16 16 -16h32
c8.7998 0 16 7.2002 16 16s-7.2002 16 -16 16h-32zM309 -16l23.7998 256h-217.5l23.7002 -256h170z" />
    <glyph glyph-name="poo-storm" unicode="&#xf75a;" horiz-adv-x="448" 
d="M400 255.6c28.7998 -18.5 48 -50.8994 48 -87.5996c0 -57.2998 -46.7002 -104 -104 -104h-6l8.09961 14c6.10059 10.5 7.30078 23.0996 3.90039 34.5996c28 3 50 26.5 50 55.4004c0 30.9004 -25.0996 56 -56 56h-4.5c7.7002 8.5 12.5 19.7002 12.5 32
c0 26.5 -21.5 48 -48 48h-10.4004c2.7002 7.5 4.40039 15.5 4.40039 24c0 39.7998 -32.2002 72 -72 72c-3.7998 0 -7.59961 -0.5 -11.2998 -1.09961c7 -9.90039 11.2998 -21.9004 11.2998 -34.9004c0 -33.0996 -26.9004 -60 -60 -60h-22c-26.5 0 -48 -21.5 -48 -48
c0 -12.2998 4.7998 -23.5 12.5 -32h-4.5c-30.9004 0 -56 -25.0996 -56 -56s25.0996 -56 56 -56h30.5l-6.2002 -46.2002c0 -0.599609 0.100586 -1.2002 0 -1.7998h-24.2998c-57.2998 0 -104 46.7002 -104 104c0 36.7002 19.2002 69.0996 48 87.5996v0.400391
c0 52.9004 43.0996 96 96 96h22c6.59961 0 12 5.40039 12 12c0 2.40039 -0.799805 4.7998 -2.2998 6.90039c-9.7002 13.5 -11.7002 31.0996 -5.2998 46.5c6.39941 15.3994 20.2998 26.2998 36.7998 28.8994c4.09961 0.600586 11 1.7002 18.7998 1.7002
c61.2002 0 111.8 -46 119.1 -105.2c32.4004 -15.5 54.9004 -48.5996 54.9004 -86.7998v-0.400391zM308 112c9.2002 0 15 -10 10.4004 -18l-88 -152c-2.2002 -3.7998 -6.2002 -6 -10.4004 -6c-7.7002 0 -13.5 7.2002 -11.7002 14.7998l23 97.2002h-59.2998
c-7.2998 0 -12.9004 6.40039 -11.9004 13.5996l16 120c0.800781 5.90039 5.90039 10.4004 11.9004 10.4004h68c7.90039 0 13.5996 -7.5 11.5996 -15.0996l-17.2998 -64.9004h57.7002z" />
    <glyph glyph-name="raindrops" unicode="&#xf75c;" horiz-adv-x="448" 
d="M320 231.3c-14.7998 -28.2002 -31.0996 -50.2998 -45.2998 -69.5c-23.4004 -31.7002 -34.7002 -48 -34.7002 -71.2998c0 -41 35.9004 -74.4004 80 -74.4004s80 33.4004 80 74.4004c0 23.5 -11.2998 39.7002 -34.5996 71.2002
c-14.2002 19.2002 -30.6006 41.2998 -45.4004 69.5996zM160 416c4 0 8 -2.40039 9.2998 -6.90039c14.9004 -49.5 46.7002 -62.5 46.7002 -97.3994c0 -30.7998 -25 -55.7002 -56 -55.7002s-56 24.9004 -56 55.7002c0 34.7002 31.7998 48.0996 46.7002 97.3994
c1.39941 4.60059 5.39941 6.90039 9.2998 6.90039zM320 320c9.2002 0 18.2998 -5.2002 21.2002 -15.2002c34.2002 -109 106.8 -137.6 106.8 -214.399c0 -67.6006 -57.2002 -122.4 -128 -122.4s-128 54.7002 -128 122.4c0 76.5 72.7002 106 106.8 214.399
c3.2002 10.2002 12.2002 15.2002 21.2002 15.2002zM56 224c4 0 8 -2.40039 9.2998 -6.90039c14.9004 -49.5 46.7002 -62.5 46.7002 -97.3994c0 -30.7998 -25 -55.7002 -56 -55.7002s-56 24.9004 -56 55.7002c0 34.7002 31.7998 48.0996 46.7002 97.3994
c1.39941 4.60059 5.39941 6.90039 9.2998 6.90039z" />
    <glyph glyph-name="republican" unicode="&#xf75e;" 
d="M189 303.8c4.90039 -0.700195 6.7998 -6.7002 3.40039 -10.2002l-19.8008 -19.2998l4.7002 -27.2998c0.799805 -4.90039 -4.39941 -8.59961 -8.7002 -6.2998l-24.5 12.8994l-24.5 -12.8994c-4.39941 -2.2998 -9.5 1.39941 -8.69922 6.2998l4.69922 27.2998
l-19.7998 19.2998c-3.59961 3.40039 -1.59961 9.5 3.2998 10.2002l27.4004 4l12.2002 24.7998c2.2002 4.5 8.5 4.40039 10.7002 0l12.1992 -24.7998zM317 303.8c4.90039 -0.700195 6.7998 -6.7002 3.40039 -10.2002l-19.8008 -19.2998l4.7002 -27.2998
c0.799805 -4.90039 -4.39941 -8.59961 -8.7002 -6.2998l-24.5 12.8994l-24.5 -12.8994c-4.39941 -2.2998 -9.5 1.39941 -8.69922 6.2998l4.69922 27.2998l-19.7998 19.2998c-3.59961 3.40039 -1.59961 9.5 3.2998 10.2002l27.4004 4l12.2002 24.7998
c2.2002 4.5 8.5 4.40039 10.7002 0l12.1992 -24.7998zM445 303.8c4.90039 -0.700195 6.7998 -6.7002 3.40039 -10.2002l-19.8008 -19.2998l4.7002 -27.2998c0.799805 -4.90039 -4.39941 -8.59961 -8.7002 -6.2998l-24.5 12.8994l-24.5 -12.8994
c-4.39941 -2.2998 -9.5 1.39941 -8.69922 6.2998l4.69922 27.2998l-19.7998 19.2998c-3.59961 3.40039 -1.59961 9.5 3.2998 10.2002l27.4004 4l12.2002 24.7998c2.2002 4.5 8.5 4.40039 10.7002 0l12.1992 -24.7998zM624 128c8.7998 0 16 -7.2002 16 -16v-72
c0 -39.7002 -32.2998 -72 -72 -72c-2.5 0 -5.09961 0.0996094 -7.59961 0.400391c-37.4004 3.89941 -64.4004 38.2998 -64.4004 75.8994v19.7002h-48v-64c0 -17.7002 -14.2998 -32 -32 -32h-96c-17.7002 0 -32 14.2998 -32 32v64h-128v-64c0 -17.7002 -14.2998 -32 -32 -32
h-96c-17.7002 0 -32 14.2998 -32 32v256c0 88.4004 71.5996 160 160 160h224c88.4004 0 160 -71.5996 160 -160v-216c0 -13.2002 10.7998 -24 24 -24s24 10.7998 24 24v72c0 8.7998 7.2002 16 16 16h16zM496 112v48h-448v-144h64v64c0 17.7002 14.2998 32 32 32h160
c17.7002 0 32 -14.2998 32 -32v-64h64v64c0 17.7002 14.2998 32 32 32h64zM496 208v48c0 61.7998 -50.2002 112 -112 112h-224c-61.9004 0 -112 -50.0996 -112 -112v-48h448z" />
    <glyph glyph-name="smog" unicode="&#xf75f;" 
d="M624 80c8.7998 0 16 -7.2002 16 -16v-16c0 -8.7998 -7.2002 -16 -16 -16h-544c-8.7998 0 -16 7.2002 -16 16v16c0 8.7998 7.2002 16 16 16h544zM144 -16c8.7998 0 16 -7.2002 16 -16v-16c0 -8.7998 -7.2002 -16 -16 -16h-128c-8.7998 0 -16 7.2002 -16 16v16
c0 8.7998 7.2002 16 16 16h128zM560 -16c8.7998 0 16 -7.2002 16 -16v-16c0 -8.7998 -7.2002 -16 -16 -16h-336c-8.7998 0 -16 7.2002 -16 16v16c0 8.7998 7.2002 16 16 16h336zM144 160c-79.4004 0 -144 64.5996 -144 144s64.5996 144 144 144
c38.2998 0 74.4004 -15.2002 101.1 -41.5c29.2002 26.5996 66.8008 41.5 106.9 41.5c40.2002 0 78.7998 -15.5 108.3 -43c16.2998 7.2002 33.9004 11 51.7002 11c70.5996 0 128 -57.4004 128 -128s-57.4004 -128 -128 -128h-65c-27.9004 -21 -60.7002 -32 -95 -32
s-67 11 -95 32h-113zM144 400c-52.9004 0 -96 -43.0996 -96 -96s43.0996 -96 96 -96h129l12.7998 -9.59961c19.7998 -14.9004 42.1006 -22.4004 66.2002 -22.4004s46.4004 7.5 66.2002 22.4004l12.7998 9.59961h81c44.0996 0 80 35.9004 80 80s-35.9004 80 -80 80
c-11.0996 0 -21.9004 -2.2998 -32.2002 -6.90039l-29 -12.8994l-23.2002 21.7002c-20.8994 19.3994 -47.6992 30.0996 -75.5996 30.0996c-27.5996 0 -54.0996 -10.2998 -74.5996 -29l-33.7002 -30.7002l-32.4004 32c-18 17.9004 -41.8994 27.7002 -67.2998 27.7002z" />
    <glyph glyph-name="smoke" unicode="&#xf760;" 
d="M640 200c0 -25.7998 -6.90039 -49.7998 -18.4004 -70.9004c11.4004 -19.1992 18.4004 -41.2998 18.4004 -65.0996c0 -70.5996 -57.4004 -128 -128 -128h-352c-88.2002 0 -160 71.7998 -160 160c0 38.7002 14.4004 73.7998 37.4004 101.5
c-23.1006 26.5 -37.4004 60.7002 -37.4004 98.5c0 83.7998 68.2002 152 152 152c39.9004 0 77.5996 -15.7002 105.9 -43.7002c18.7998 7.7998 38.2998 11.7002 58.0996 11.7002c54.5 0 102.2 -28.2998 130 -70.7002c13.5996 4 27.5996 6.7002 42 6.7002
c83.7998 0 152 -68.2002 152 -152zM592 200c0 57.2998 -46.7002 104 -104 104c-30.9004 0 -60.0996 -14.2002 -80.2002 -38.7998l-12.8994 -15.7998l-17.7002 10.0996c-14.4004 8.2998 -29.6006 12.5 -45.2002 12.5c-34 0 -63.2998 -18.7998 -79.0996 -46.2998
c8.09961 -5.7998 15.7998 -12.1006 22.6992 -19.4004c21.1006 11.6006 44.3008 17.7002 68.4004 17.7002c41.2998 0 79.7998 -17.5 106.9 -47.9004c18.6992 10.5 39.5 15.9004 61.0996 15.9004c27.9004 0 53.5 -9.09961 74.5 -24.2998c3.40039 10.2002 5.5 21 5.5 32.2998z
M152 400c-57.2998 0 -104 -46.7002 -104 -104c0 -25.2998 9.2998 -48.2998 24.5 -66.2998c25.2002 16.5 55.2002 26.2998 87.5 26.2998c17.2002 0 33.9004 -3.5 49.9004 -8.90039c23.7998 43.3008 69.2998 72.9004 122.1 72.9004c17.7002 0 35 -3.40039 51.5996 -10.2998
c5.7002 5.5 12.1006 10.2002 18.5 14.7002c-19.6992 26.2998 -50.7998 43.5996 -86.0996 43.5996c-17.7998 0 -35.4004 -4.7998 -52.0996 -14.0996l-17.9004 -10l-12.7002 16.0996c-20.0996 25.4004 -49.7002 40 -81.2998 40zM512 -16c44.0996 0 80 35.7998 80 79.9004
c0 44.0996 -35.9004 80 -80 80c-23.5 0 -40.7002 -10.3008 -51.0996 -19l-21.1006 -17.7002l-14.5996 23.3994c-17.7998 28.4004 -48.1006 45.4004 -81.2002 45.4004c-21 0 -41.2002 -7.09961 -58.5 -20.4004l-19.7998 -15.3994l-14.5 20.3994
c-21.1006 29.7002 -55.2002 47.4004 -91.2002 47.4004c-61.7998 0 -112 -50.2002 -112 -112s50.2002 -112 112 -112h352z" />
    <glyph glyph-name="snow-blowing" unicode="&#xf761;" 
d="M350.4 342.6c3.2998 -5.7998 1.2998 -13.1992 -4.5 -16.5l-26.6006 -15.2998l20.4004 -5.5c6.5 -1.7998 10.2998 -8.39941 8.59961 -14.8994l-3.09961 -11.7002c-1.7998 -6.5 -8.40039 -10.2998 -14.9004 -8.60059l-55.5996 14.9004l-50.2002 -29l50.2002 -29
l55.5996 14.9004c6.5 1.69922 13.2002 -2.10059 14.9004 -8.60059l3.09961 -11.7002c1.7002 -6.5 -2.09961 -13.1992 -8.59961 -14.8994l-20.4004 -5.5l26.6006 -15.2998c5.7998 -3.40039 7.7998 -10.8008 4.39941 -16.6006l-12.0996 -21
c-3.40039 -5.7998 -10.7998 -7.7998 -16.6006 -4.39941l-26.5996 15.2998l5.5 -20.4004c1.7002 -6.5 -2.09961 -13.2002 -8.59961 -14.8994l-11.7002 -3.10059c-6.5 -1.7002 -13.2002 2.10059 -14.9004 8.60059l-14.8994 55.5996l-50.4004 29.0996v-56.8994
l40.4004 -40.2002c4.69922 -4.7002 4.69922 -12.2998 0 -17l-8.5 -8.5c-4.7002 -4.7002 -12.3008 -4.7002 -17 0l-14.8008 14.7998v-30.2998c0 -6.59961 -5.39941 -12 -12 -12h-24c-6.59961 0 -12 5.40039 -12 12v30.2998l-14.7998 -14.7998
c-4.7002 -4.7002 -12.2998 -4.7002 -17 0l-8.5 8.5c-4.7002 4.7002 -4.7002 12.2998 0 17l40.2002 40.2002v56.8994l-50.4004 -29.0996l-14.8994 -55.5996c-1.7998 -6.5 -8.40039 -10.3008 -14.9004 -8.60059l-11.7002 3.10059
c-6.5 1.7998 -10.2998 8.39941 -8.59961 14.8994l5.5 20.4004l-26.5996 -15.2998c-5.80078 -3.40039 -13.2002 -1.40039 -16.6006 4.39941l-12.0996 21c-3.40039 5.7998 -1.40039 13.2002 4.39941 16.6006l26.5 15.3994l-20.3994 5.5
c-6.5 1.7998 -10.2998 8.40039 -8.60059 14.9004l3.10059 11.7002c1.7998 6.5 8.39941 10.2998 14.8994 8.59961l55.7002 -15l50.2002 29l-50.2002 29l-55.5996 -14.9004c-6.5 -1.69922 -13.2002 2.10059 -14.9004 8.60059l-3.09961 11.7002
c-1.7002 6.5 2.09961 13.1992 8.59961 14.8994l20.4004 5.5l-26.6006 15.2998c-5.7998 3.40039 -7.7998 10.8008 -4.39941 16.6006l12.0996 21c3.40039 5.7998 10.7998 7.7998 16.6006 4.39941l26.5 -15.2998l-5.5 20.4004c-1.7002 6.5 2.09961 13.2002 8.59961 14.8994
l11.7002 3.2002c6.5 1.7002 13.2002 -2.09961 14.8994 -8.59961l15 -55.7002l50.4004 -29.0996v56.8994l-40.2998 40.2002c-4.7002 4.7002 -4.7002 12.2998 0 17l8.5 8.5c4.7002 4.7002 12.2998 4.7002 17 0l14.7998 -14.7998v30.2998c0 6.59961 5.40039 12 12 12h24
c6.59961 0 12 -5.40039 12 -12v-30.2998l14.7002 14.7998c4.7002 4.7002 12.2998 4.7002 17 0l8.5 -8.5c4.7002 -4.7002 4.7002 -12.2998 0 -17l-40.2002 -40.2002v-56.8994l50.4004 29.0996l15 55.5c1.7998 6.5 8.39941 10.2998 14.8994 8.59961l11.7002 -3.09961
c6.5 -1.7998 10.2998 -8.40039 8.59961 -14.9004l-5.5 -20.3994l26.6006 15.2998c5.7998 3.40039 13.2002 1.40039 16.5996 -4.40039zM544 128c59.7998 0 106.8 -54.5996 93.7998 -116.7c-7.59961 -36.2998 -36.8994 -65.5996 -73.2002 -73.2002
c-55.8994 -11.6992 -105.8 25.4004 -115.1 76.6006c-1.7002 9 5.7002 17.2002 14.9004 17.2002h18.3994c7.2002 0 12.9004 -5.2002 14.7002 -12.1006c6.59961 -25.2002 33.2002 -42.3994 61.7002 -33.5c14.2998 4.5 26 16.1006 30.3994 30.4004
c10.3008 33 -14.1992 63.2998 -45.5996 63.2998h-176c-8.7998 0 -16 7.2002 -16 16v16c0 8.7998 7.2002 16 16 16h176zM400 160c-8.7998 0 -16 7.2002 -16 15.9004v16c0 8.7998 7.2002 16 16 16h144c31.4004 0 55.7998 30.3994 45.5996 63.2998
c-4.5 14.2998 -16.0996 25.8994 -30.3994 30.3994c-28.5 8.90039 -55.1006 -8.2998 -61.7002 -33.5c-1.7998 -6.89941 -7.5 -12.0996 -14.7002 -12.0996h-18.3994c-9.10059 0 -16.5 8.2002 -14.9004 17.2002c9.2998 51.2002 59.2002 88.2998 115.1 76.5996
c36.3008 -7.59961 65.6006 -36.8994 73.2002 -73.2002c13 -62 -34 -116.6 -93.7998 -116.6h-144z" />
    <glyph glyph-name="sun-cloud" unicode="&#xf763;" 
d="M580.5 222c35.2002 -15.2998 59.5 -50.2002 59.5 -90.7998c0 -54.7002 -44.5 -99.2002 -99.2002 -99.2002h-153.6c-54.7002 0 -99.2002 44.5 -99.2002 99.2002c0 50.8994 38.4004 92.8994 87.7998 98.5996c20.2002 34.7998 57.7998 58.2002 100.2 58.2002
c45.9004 0 85.7998 -26.4004 104.5 -66zM540.8 80c28.2998 0 51.2002 22.9004 51.2002 51.2002c0 27.5996 -21.7998 49.7998 -49 51c-5 32.7002 -32.9004 57.7998 -67 57.7998c-35.7998 0 -64.7998 -27.7998 -67.5 -62.9004c-6.5 3.10059 -13.5996 5.30078 -21.2998 5.30078
c-28.2998 0 -51.2002 -22.9004 -51.2002 -51.2002s22.9004 -51.2002 51.2002 -51.2002h153.6zM256 -10l35.2002 52.2998c11 -11.7998 24.0996 -21.3994 38.7002 -28.5996l-40.4004 -59.9004c-7.5 -11.0996 -20.0996 -17.7998 -33.5 -17.7998s-26 6.7002 -33.5 17.9004
l-40.4004 59.8994l-70.7998 -13.7002c-13.3994 -2.59961 -26.7998 1.60059 -36.2998 11.1006s-13.7002 23.0996 -11.0996 36.2998l13.6992 71l-59.7998 40.5c-11.0996 7.5 -17.7998 20 -17.7998 33.5s6.59961 26 17.7998 33.5996l59.7998 40.5l-13.6992 71
c-2.60059 13.2002 1.59961 26.7002 11.0996 36.3008c9.5 9.59961 23 13.6992 36.2998 11.1992l70.7998 -13.6992l40.4004 59.8994c15.0996 22.2998 51.9004 22.2998 67 0l40.4004 -59.8994l70.8994 13.6992c13 2.60059 26.6006 -1.59961 36.2002 -11.0996
c9.5 -9.59961 13.7002 -23.2002 11.0996 -36.4004l-4.09961 -21.2998c-19.2998 -4.2998 -37.5 -12.5996 -53.5 -24.0996l8.40039 43.5l-91 -17.6006l-51.9004 76.9004l-51.7998 -76.7998l-91 17.5996l17.5996 -91.2002l-76.7998 -52l76.7998 -52l-17.5996 -91.1992
l90.8994 17.5996zM256 248c-30.9004 0 -56 -25.0996 -56 -56s25.0996 -56 56 -56h0.400391c0 -1.59961 -0.400391 -3.2002 -0.400391 -4.7998c0 -14.9004 3.09961 -29 7.7002 -42.4004c-2.60059 -0.200195 -5.10059 -0.799805 -7.7002 -0.799805
c-57.2998 0 -104 46.7002 -104 104s46.7002 104 104 104c34.4004 0 64.7002 -17 83.7002 -42.7998c-15.2998 -6 -29.2998 -14.5 -41.1006 -25.2998c-10.2998 12.1992 -25.5 20.0996 -42.5996 20.0996z" />
    <glyph glyph-name="sun-dust" unicode="&#xf764;" horiz-adv-x="512" 
d="M160 0c17.7002 0 32 -14.2998 32 -32s-14.2998 -32 -32 -32s-32 14.2998 -32 32s14.2998 32 32 32zM480 256c-17.7002 0 -32 14.2998 -32 32s14.2998 32 32 32s32 -14.2998 32 -32s-14.2998 -32 -32 -32zM384 160c0 -17.7002 -14.2998 -32 -32 -32s-32 14.2998 -32 32
s14.2998 32 32 32s32 -14.2998 32 -32zM240 96c17.7002 0 32 -14.2998 32 -32s-14.2998 -32 -32 -32s-32 14.2998 -32 32s14.2998 32 32 32zM400 96c17.7002 0 32 -14.2998 32 -32s-14.2998 -32 -32 -32s-32 14.2998 -32 32s14.2998 32 32 32zM480 0
c17.7002 0 32 -14.2998 32 -32s-14.2998 -32 -32 -32s-32 14.2998 -32 32s14.2998 32 32 32zM480 192c17.7002 0 32 -14.2998 32 -32s-14.2998 -32 -32 -32s-32 14.2998 -32 32s14.2998 32 32 32zM320 0c17.7002 0 32 -14.2998 32 -32s-14.2998 -32 -32 -32
s-32 14.2998 -32 32s14.2998 32 32 32zM256 248c-30.9004 0 -56 -25.0996 -56 -56c0 -15.4004 6.2998 -29.4004 16.4004 -39.5996l-33.9004 -33.9004c-18.7998 18.7998 -30.5 44.7998 -30.5 73.5c0 57.2998 46.7002 104 104 104c28.7002 0 54.7002 -11.7002 73.5 -30.5
l-33.9004 -33.9004c-10.1992 10.1006 -24.1992 16.4004 -39.5996 16.4004zM400.8 385.1c13 2.5 26.7002 -1.59961 36.2998 -11.0996c0.200195 -0.0996094 0.200195 -0.299805 0.400391 -0.5l-38.7998 -38.7998l0.200195 1l-91 -17.6006l-51.9004 76.9004l-51.9004 -76.9004
l-91 17.6006l17.6006 -91.2002l-76.7998 -52l76.7998 -52l-17.6006 -91.2002l0.300781 0.100586l-38.3008 -38.3008l-0.0996094 0.100586c-9.5 9.5 -13.7002 23.0996 -11.0996 36.2998l13.6992 71l-59.7998 40.5c-11.0996 7.5 -17.7998 20 -17.7998 33.5
s6.59961 26 17.7998 33.5996l59.7998 40.5l-13.6992 71c-2.60059 13.2002 1.59961 26.7002 11.0996 36.3008c9.5 9.59961 23 13.6992 36.2998 11.1992l70.7998 -13.6992l40.4004 59.8994c15.0996 22.2998 51.9004 22.2998 67 0l40.4004 -59.8994z" />
    <glyph glyph-name="sun-haze" unicode="&#xf765;" 
d="M80 112c-8.7998 0 -16 7.2002 -16 16v16c0 8.7998 7.2002 16 16 16h336c8.7998 0 16 -7.2002 16 -16v-16c0 -8.7998 -7.2002 -16 -16 -16h-336zM624 160c8.7998 0 16 -7.2002 16 -16v-16c0 -8.7998 -7.2002 -16 -16 -16h-128c-8.7998 0 -16 7.2002 -16 16v16
c0 8.7998 7.2002 16 16 16h128zM208 -16c8.7998 0 16 -7.2002 16 -16v-16c0 -8.7998 -7.2002 -16 -16 -16h-128c-8.7998 0 -16 7.2002 -16 16v16c0 8.7998 7.2002 16 16 16h128zM624 -16c8.7998 0 16 -7.2002 16 -16v-16c0 -8.7998 -7.2002 -16 -16 -16h-336
c-8.7998 0 -16 7.2002 -16 16v16c0 8.7998 7.2002 16 16 16h336zM576 40c0 -8.7998 -7.2002 -16 -16 -16h-544c-8.7998 0 -16 7.2002 -16 16v16c0 8.7998 7.2002 16 16 16h544c8.7998 0 16 -7.2002 16 -16v-16zM194.7 244.5l-53.7998 -36.4004h-73.4004
c3 7.2002 7.7998 13.6006 14.4004 18.1006l59.7998 40.5l-13.7002 71c-2.59961 13.2002 1.59961 26.7002 11.0996 36.2998c9.5 9.5 23 13.7002 36.3008 11.0996l70.7998 -13.6992l40.3994 59.8994c15.1006 22.2998 51.9004 22.2998 67 0l40.4004 -59.8994l70.9004 13.6992
c13 2.60059 26.5996 -1.59961 36.1992 -11.0996c9.5 -9.59961 13.7002 -23.2002 11.1006 -36.4004l-13.7002 -71l59.7998 -40.5c6.60059 -4.5 11.4004 -10.8994 14.4004 -18.0996h-73.4004l-54 36.5996l17.6006 91.1006l-91 -17.6006l-51.9004 76.9004l-51.9004 -76.9004
l-91 17.6006zM217.6 208c7.80078 49.7002 50.5 88 102.4 88s94.5996 -38.2998 102.4 -88h-49c-6.90039 23 -28.1006 40 -53.4004 40s-46.5 -17 -53.4004 -40h-49z" />
    <glyph glyph-name="sunrise" unicode="&#xf766;" horiz-adv-x="576" 
d="M560 -16c8.7998 0 16 -7.2002 16 -16v-16c0 -8.7998 -7.2002 -16 -16 -16h-544c-8.7998 0 -16 7.2002 -16 16v16c0 8.7998 7.2002 16 16 16h68.7002l-29.7002 45c-7.5 11.2002 -8.7998 25.2998 -3.7002 37.7998c5.2002 12.5 16 21.5 29.2998 24.2002l70.7002 14.4004
l14.4004 70.7998c5.39941 26.5 39.3994 40.5996 61.8994 25.7002l60.2002 -39.9004l60.2998 39.7998c11 7.2998 25.2002 8.7998 37.7002 3.60059c12.5 -5.2002 21.5 -16.2002 24.2002 -29.4004l14.5 -70.7998l70.7002 -14.5
c13.2002 -2.7002 24.0996 -11.7998 29.2998 -24.2002c5.09961 -12.5 3.7998 -26.5996 -3.59961 -37.7998l-29.4004 -44.7002h68.5zM234.6 -16h107c-0.5 1.7998 -0.899414 3.59961 -1.59961 5.40039c-11.7998 28.5 -44.7002 42.0996 -73.2002 30.2998
c-16.2002 -6.7002 -27.5 -20.1006 -32.2002 -35.7002zM434 -16l40.9004 61.9004l-90.8008 18.6992l-18.6992 90.9004l-77.3008 -51.0996l-77.3994 51.1992l-18.5 -90.8994l-90.7998 -18.6006l40.8994 -62.0996h43.4004c5.39941 34.5996 28.0996 65.7002 62.7998 80.0996
c53 21.9004 114 -3.2998 135.9 -56.2998c3.19922 -7.7998 5.09961 -15.7998 6.2998 -23.7998h43.2998zM190.2 312.4l-11.2998 11.3994c-6.2002 6.2002 -6.2002 16.4004 0.0996094 22.6006l97.7002 97c6.2002 6.19922 16.2998 6.19922 22.5 0l97.7002 -97
c6.2998 -6.2002 6.2998 -16.3008 0.0996094 -22.6006l-11.2998 -11.3994c-6.2002 -6.30078 -16.2998 -6.30078 -22.6006 -0.100586l-51.0996 50.7998v-107.1c0 -8.7998 -7.2002 -16 -16 -16h-16c-8.7998 0 -16 7.2002 -16 16v107.1l-51.2002 -50.7998
c-6.2002 -6.2002 -16.3994 -6.2002 -22.5996 0.100586z" />
    <glyph glyph-name="sunset" unicode="&#xf767;" horiz-adv-x="576" 
d="M560 -16c8.7998 0 16 -7.2002 16 -16v-16c0 -8.7998 -7.2002 -16 -16 -16h-544c-8.7998 0 -16 7.2002 -16 16v16c0 8.7998 7.2002 16 16 16h68.7002l-29.7002 45c-7.5 11.2002 -8.7998 25.2998 -3.7002 37.7998c5.2002 12.5 16 21.5 29.2998 24.2002l70.7002 14.4004
l14.4004 70.7998c5.39941 26.5 39.3994 40.5996 61.8994 25.7002l60.2002 -39.9004l60.2998 39.7998c11 7.2998 25.2002 8.7998 37.7002 3.60059c12.5 -5.2002 21.5 -16.2002 24.2002 -29.4004l14.5 -70.7998l70.7002 -14.5
c13.2002 -2.7002 24.0996 -11.7998 29.2998 -24.2002c5.09961 -12.5 3.7998 -26.5996 -3.59961 -37.7998l-29.4004 -44.7002h68.5zM234.6 -16h107c-0.5 1.7998 -0.899414 3.59961 -1.59961 5.40039c-11.7998 28.5 -44.7002 42.0996 -73.2002 30.2998
c-16.2002 -6.7002 -27.5 -20.1006 -32.2002 -35.7002zM434 -16l40.9004 61.9004l-90.8008 18.6992l-18.6992 90.9004l-77.3008 -51.0996l-77.3994 51.1992l-18.5 -90.8994l-90.7998 -18.6006l40.8994 -62.0996h43.4004c5.39941 34.5996 28.0996 65.7002 62.7998 80.0996
c53 21.9004 114 -3.2998 135.9 -56.2998c3.19922 -7.7998 5.09961 -15.7998 6.2998 -23.7998h43.2998zM276.7 244.6l-97.6006 97c-6.2998 6.2002 -6.2998 16.3008 -0.0996094 22.6006l11.2998 11.3994c6.2002 6.30078 16.2998 6.30078 22.6006 0.100586l51.0996 -50.7998
v107.1c0 8.7998 7.2002 16 16 16h16c8.7998 0 16 -7.2002 16 -16v-107.1l51.0996 50.7998c6.2002 6.2002 16.4004 6.2002 22.6006 -0.100586l11.2998 -11.3994c6.2002 -6.2002 6.2002 -16.4004 -0.0996094 -22.6006l-97.7002 -97
c-6.2002 -6.19922 -16.2998 -6.19922 -22.5 0z" />
    <glyph glyph-name="temperature-frigid" unicode="&#xf768;" horiz-adv-x="576" 
d="M200 322.8v-56.8994l88 50.7998v-56.1006l-63.4004 -36.5996l63.4004 -36.5996v-7.2002c-8.2998 -11.7998 -14.5996 -24.5 -19.7002 -37.5l-68.2998 39.3994v-56.8994l40.4004 -40.2002c4.69922 -4.7002 4.69922 -12.2998 0 -17l-8.5 -8.5
c-4.7002 -4.7002 -12.3008 -4.7002 -17 0l-14.8008 14.7998v-30.2998c0 -6.59961 -5.39941 -12 -12 -12h-24c-6.59961 0 -12 5.40039 -12 12v30.2998l-14.7998 -14.7998c-4.7002 -4.7002 -12.2998 -4.7002 -17 0l-8.5 8.5c-4.7002 4.7002 -4.7002 12.2998 0 17
l40.2002 40.2002v56.8994l-50.4004 -29.0996l-14.8994 -55.5996c-1.7998 -6.5 -8.40039 -10.3008 -14.9004 -8.60059l-11.7002 3.10059c-6.5 1.7998 -10.2998 8.39941 -8.59961 14.8994l5.5 20.4004l-26.5996 -15.2998
c-5.80078 -3.40039 -13.2002 -1.40039 -16.6006 4.39941l-12.0996 21c-3.40039 5.7998 -1.40039 13.2002 4.39941 16.6006l26.5 15.3994l-20.3994 5.5c-6.5 1.7998 -10.2998 8.40039 -8.60059 14.9004l3.10059 11.7002c1.7998 6.5 8.39941 10.2998 14.8994 8.59961
l55.7002 -15l50.2002 29l-50.2002 29l-55.7002 -14.9004c-6.5 -1.69922 -13.1992 2.10059 -14.8994 8.60059l-3.10059 11.7002c-1.69922 6.5 2.10059 13.1992 8.60059 14.8994l20.3994 5.5l-26.5996 15.2998c-5.7998 3.40039 -7.7998 10.8008 -4.40039 16.6006l12.1006 21
c3.39941 5.7998 10.7998 7.7998 16.5996 4.39941l26.6006 -15.2998l-5.5 20.4004c-1.7002 6.5 2.09961 13.2002 8.59961 14.8994l11.7002 3.2002c6.5 1.7002 13.2002 -2.09961 14.8994 -8.59961l15 -55.7002l50.3008 -29.0996v56.8994l-40.2002 40.2002
c-4.7002 4.7002 -4.7002 12.2998 0 17l8.5 8.5c4.7002 4.7002 12.2998 4.7002 17 0l14.7998 -14.7998v30.2998c0 6.59961 5.40039 12 12 12h24c6.59961 0 12 -5.40039 12 -12v-30.2998l14.7002 14.7998c4.7002 4.7002 12.2998 4.7002 17 0l8.5 -8.5
c4.7002 -4.7002 4.7002 -12.2998 0 -17zM544 169.5c19.7002 -24.5996 32 -55.5 32 -89.5c0 -79.5 -64.5 -144 -144 -144s-144 64.5 -144 144c0 34 12.2998 64.9004 32 89.5v166.5c0 61.9004 50.0996 112 112 112s112 -50.0996 112 -112v-166.5zM432 -16
c52.9004 0 96 43.0996 96 96c0 27 -11.7002 47.2998 -21.5 59.5996l-10.5 13.1006v183.3c0 35.2998 -28.7002 64 -64 64s-64 -28.7002 -64 -64v-183.4l-10.5 -13.0996c-9.7998 -12.2002 -21.5 -32.5 -21.5 -59.5c0 -52.9004 43.0996 -96 96 -96zM448 125.1
c18.5996 -6.59961 32 -24.1992 32 -45.0996c0 -26.5 -21.5 -48 -48 -48s-48 21.5 -48 48c0 20.9004 13.4004 38.5 32 45.0996v18.9004c0 8.7998 7.2002 16 16 16s16 -7.2002 16 -16v-18.9004z" />
    <glyph glyph-name="temperature-high" unicode="&#xf769;" horiz-adv-x="448" 
d="M368 448c44.0996 0 80 -35.9004 80 -80s-35.9004 -80 -80 -80s-80 35.9004 -80 80s35.9004 80 80 80zM368 336c17.7002 0 32 14.2998 32 32s-14.2998 32 -32 32s-32 -14.2998 -32 -32s14.2998 -32 32 -32zM256 336v-166.5c19.7002 -24.5996 32 -55.5 32 -89.5
c0 -79.5 -64.5 -144 -144 -144s-144 64.5 -144 144c0 34 12.2998 64.9004 32 89.5v166.5c0 61.9004 50.0996 112 112 112s112 -50.0996 112 -112zM144 -16c52.9004 0 96 43.0996 96 96c0 27 -11.7002 47.2998 -21.5 59.5996l-10.5 13.1006v183.3
c0 35.2998 -28.7002 64 -64 64s-64 -28.7002 -64 -64v-183.4l-10.5 -13.0996c-9.7998 -12.2002 -21.5 -32.5 -21.5 -59.5c0 -52.9004 43.0996 -96 96 -96zM160 125.1c18.5996 -6.59961 32 -24.1992 32 -45.0996c0 -26.5 -21.5 -48 -48 -48s-48 21.5 -48 48
c0 20.9004 13.4004 38.5 32 45.0996v210.9c0 8.7998 7.2002 16 16 16s16 -7.2002 16 -16v-210.9z" />
    <glyph glyph-name="temperature-hot" unicode="&#xf76a;" horiz-adv-x="576" 
d="M448 125.1c18.5996 -6.59961 32 -24.1992 32 -45.0996c0 -26.5 -21.5 -48 -48 -48s-48 21.5 -48 48c0 20.9004 13.4004 38.5 32 45.0996v210.9c0 8.7998 7.2002 16 16 16s16 -7.2002 16 -16v-210.9zM258.7 109.5c-1.7002 -9.7002 -2.7002 -19.5 -2.7002 -29.4004
c0 -17.2998 2.59961 -33.8994 7.2998 -49.6992l-9.89941 -14.7002c-6.34473 -9.42676 -17.0723 -15.6338 -29.2793 -15.6338s-22.9766 6.20703 -29.3213 15.6338l-35.3994 52.3994l-62 -12c-2.30078 -0.399414 -4.60059 -0.599609 -6.80078 -0.599609
c-9.39941 0 -18.2998 3.7002 -25 10.4004c-8.2998 8.2998 -11.8994 20.1992 -9.69922 31.7998l12 62.0996l-52.3008 35.4004c-9.7998 6.59961 -15.5996 17.5 -15.5996 29.2998c0 11.7002 5.7998 22.7002 15.5 29.2998l52.2998 35.5l-12 62.1006
c-2.2002 11.5996 1.40039 23.3994 9.7002 31.7998c6.7002 6.7002 15.7002 10.3994 25 10.3994c2.2998 0 4.5 -0.299805 6.7998 -0.699219l62 -12l35.4004 52.3994c6.59961 9.7998 17.8994 14.7002 29.2998 14.7002s22.7002 -4.90039 29.2998 -14.7002l35.4004 -52.3994
l7.7002 1.5c-5.10059 -14.6006 -8.40039 -30.1006 -8.40039 -46.4004v-4.09961l-21.4004 -4.10059l-17.6992 26.2998l-24.9004 36.9004l-24.7998 -36.7002l-17.7998 -26.2998l-31.2002 6l-43.7002 8.5l8.5 -43.9004l6 -31.0996l-26.2002 -17.7998l-37 -25.1006l37 -25.0996
l26.2002 -17.7998l-6 -31.1006l-8.5 -43.8994l43.5996 8.5l31.2002 6l17.7998 -26.2998l24.9004 -36.9004l24.9004 36.9004zM544 169.5c19.7002 -24.5996 32 -55.5 32 -89.5c0 -79.5 -64.5 -144 -144 -144s-144 64.5 -144 144c0 34 12.2998 64.9004 32 89.5v166.5
c0 61.9004 50.0996 112 112 112s112 -50.0996 112 -112v-166.5zM432 -16c52.9004 0 96 43.0996 96 96c0 27 -11.7002 47.2998 -21.5 59.5996l-10.5 13.1006v183.3c0 35.2998 -28.7002 64 -64 64s-64 -28.7002 -64 -64v-183.4l-10.5 -13.0996
c-9.7998 -12.2002 -21.5 -32.5 -21.5 -59.5c0 -52.9004 43.0996 -96 96 -96zM288 284v-103.8c-6.7998 -9.60059 -12.0996 -19.7002 -16.7002 -30.1006c-13.7002 -8.7998 -29.7998 -14.0996 -47.2998 -14.0996c-48.5 0 -88 39.5 -88 88s39.5 88 88 88
c25.2998 0 47.9004 -10.9004 64 -28zM224 184c22.0996 0 40 17.9004 40 40s-17.9004 40 -40 40s-40 -17.9004 -40 -40s17.9004 -40 40 -40z" />
    <glyph glyph-name="temperature-low" unicode="&#xf76b;" horiz-adv-x="448" 
d="M160 125.1c18.5996 -6.59961 32 -24.1992 32 -45.0996c0 -26.5 -21.5 -48 -48 -48s-48 21.5 -48 48c0 20.9004 13.4004 38.5 32 45.0996v18.9004c0 8.7998 7.2002 16 16 16s16 -7.2002 16 -16v-18.9004zM256 336v-166.5c19.7002 -24.5996 32 -55.5 32 -89.5
c0 -79.5 -64.5 -144 -144 -144s-144 64.5 -144 144c0 34 12.2998 64.9004 32 89.5v166.5c0 61.9004 50.0996 112 112 112s112 -50.0996 112 -112zM144 -16c52.9004 0 96 43.0996 96 96c0 27 -11.7002 47.2998 -21.5 59.5996l-10.5 13.1006v183.3
c0 35.2998 -28.7002 64 -64 64s-64 -28.7002 -64 -64v-183.4l-10.5 -13.0996c-9.7998 -12.2002 -21.5 -32.5 -21.5 -59.5c0 -52.9004 43.0996 -96 96 -96zM368 448c44.0996 0 80 -35.9004 80 -80s-35.9004 -80 -80 -80s-80 35.9004 -80 80s35.9004 80 80 80zM368 336
c17.7002 0 32 14.2998 32 32s-14.2998 32 -32 32s-32 -14.2998 -32 -32s14.2998 -32 32 -32z" />
    <glyph glyph-name="thunderstorm" unicode="&#xf76c;" horiz-adv-x="512" 
d="M337 160c11.5 0 18.7002 -12.5 13 -22.5l-98 -194c-2.7998 -4.7998 -7.7998 -7.5 -13 -7.5c-9.59961 0 -16.7998 9 -14.5996 18.5l31.5996 141.5h-81c-9.09961 0 -16.0996 8 -14.9004 17l16 130c1 7.40039 7.40039 13 14.9004 13h82c9.90039 0 17 -9.40039 14.5 -18.9004
l-22.5996 -77.0996h72.0996zM410.7 343.8c56.3994 -3.5 101.3 -50.5 101.3 -107.8c0 -59.5 -48.4004 -108 -108 -108h-23.5996c5.09961 13.2002 4.5 28.0996 -2.7002 40.5c-1.60059 2.7998 -3.7002 5.09961 -5.7998 7.5h32.0996c33.0996 0 60 26.9004 60 60
s-26.9004 60 -60 60h-34.5l-2.2002 21.5996c-2.89941 28.7002 -26.7002 50.4004 -55.2998 50.4004c-11.5 0 -22.5996 -3.59961 -32.2002 -10.2998l-21.0996 -14.9004l-13.2998 22.1006c-13.2002 22 -36.2002 35.0996 -61.4004 35.0996c-39.7002 0 -72 -32.2998 -72 -72
c0 -1.40039 0.200195 -2.7002 0.400391 -4l2.7998 -24.9004l-20.7998 -4.7998c-27.3008 -6.2998 -46.4004 -30.2998 -46.4004 -58.2998c0 -33.0996 26.9004 -60 60 -60h27.5996l-5.89941 -48h-21.7002c-59.5996 0 -108 48.5 -108 108
c0 43.5 25.5996 81.5996 64.2002 98.5996c3.39941 63.1006 55.7998 113.4 119.8 113.4c34.4004 0 66.2998 -14.5 88.7998 -39.7002c12.4004 5.10059 25.7002 7.7002 39.2002 7.7002c46 0 85.2002 -29.7998 98.7002 -72.2002z" />
    <glyph glyph-name="thunderstorm-moon" unicode="&#xf76d;" 
d="M277.6 112.7c9.30078 0 15 -10.1006 10.5 -18l-88 -152.601c-2.19922 -3.7998 -6.19922 -6 -10.3994 -6c-7.7002 0 -13.5 7.2002 -11.7002 14.8008l23 97.5996h-59.4004c-7.2998 0 -12.8994 6.40039 -11.8994 13.5996l16 120.5c0.799805 6 5.89941 10.5 11.8994 10.5h68
c7.90039 0 13.6006 -7.59961 11.6006 -15.1992l-17.2998 -65.2002h57.6992zM363.4 263.9c31.7998 -19.1006 52.5996 -54.1006 52.5 -93.1006c0 -59.7998 -48.4004 -108.399 -108 -108.399h-1.5l9.19922 16c5.80078 10.1992 7.30078 22.2998 4.40039 33.3994
c27.4004 5.60059 47.9004 29.9004 47.9004 59c0 29.2998 -20.9004 53.7002 -48.5 59.1006c0.199219 1.69922 0.5 3.39941 0.5 5.19922c0 24.4004 -19.7002 44.2002 -44 44.2002c-8 0 -15.4004 -2.2998 -21.9004 -6.09961
c-14.7002 18.2998 -36.9004 30.2002 -62.0996 30.2002c-41.6006 0 -75.4004 -32 -79.2002 -72.8008c-1.60059 0.100586 -3.2002 0.5 -4.7998 0.5c-33.1006 0 -60 -26.8994 -60 -60.1992c0 -31.9004 24.7998 -57.7002 56 -59.8008l-5.90039 -44.7998
c-0.200195 -0.899414 0 -1.89941 -0.0996094 -2.7998c-54.7002 5.2002 -97.9004 51.0996 -97.9004 107.4c0 48.1992 31.4004 89.0996 74.7998 103.199c19.6006 46.1006 64.7998 77.5 117.2 77.5c27.2998 0 53.2998 -8.69922 74.9004 -24.5996c3 0.299805 6 0.5 9.09961 0.5
c40.7002 0 75.2998 -26.7002 87.4004 -63.5996zM637.8 210.4c3.7998 -8 2.7002 -17.3008 -2.59961 -24.2002c-30.6006 -37.7998 -75.7998 -59.5 -124.2 -59.5c-23.7002 0 -45.9004 5.5 -66.0996 14.7998c2 9.5 3.2998 19.2998 3.2998 29.4004
c0 4.89941 -0.400391 9.7998 -0.900391 14.6992c18.5 -11.7998 40.2002 -18.7998 63.6006 -18.7998c21.5 0 42.1992 5.7002 60.1992 16.2998c-64.0996 11.3008 -112.899 67.7002 -112.899 135.301c0 32.3994 11.3994 63.1992 31.2998 87.5
c-56 -10.2002 -98.5996 -59.5 -98.5996 -118.601c0 -1.2002 0.399414 -2.39941 0.399414 -3.59961c-0.599609 0.399414 -1 0.899414 -1.59961 1.2998c-7.60059 17.4004 -18.7998 32.4004 -32.6006 44.2998c18.5 68.2002 80 118.7 153.601 118.7
c9.7998 0 19.5996 -0.900391 29.2998 -2.7998c9.5 -1.7002 16.7002 -9 18.2998 -18.6006c1.60059 -9.59961 -2.7998 -18.8994 -11.2002 -23.6992c-30.1992 -17.2002 -49 -49.6006 -49 -84.5c0 -53.6006 43.3008 -97.2002 96.5 -97.2002
c6.10059 0 12.3008 0.599609 18.4004 1.7998l2.7998 0.5h1.5c8.7002 0 16.7002 -5.2002 20.5 -13.0996z" />
    </font>
</defs>
</svg>
