<?xml version="1.0" standalone="no"?>
<!DOCTYPE svg PUBLIC "-//W3C//DTD SVG 1.1//EN" "http://www.w3.org/Graphics/SVG/1.1/DTD/svg11.dtd" >
<svg xmlns="http://www.w3.org/2000/svg" xmlns:xlink="http://www.w3.org/1999/xlink" version="1.1">
<metadata>
Created by FontForge 20201107 at Tue Mar 16 10:16:41 2021
 By Robert Madole
Copyright (c) Font Awesome
</metadata>
<!-- Font Awesome Pro 5.15.3 by @fontawesome - https://fontawesome.com License - https://fontawesome.com/license (Commercial License) --><defs>
<font id="FontAwesome5Pro-Solid" horiz-adv-x="640" >
  <font-face 
    font-family="Font Awesome 5 Pro Solid"
    font-weight="900"
    font-stretch="normal"
    units-per-em="512"
    panose-1="2 0 5 3 0 0 0 0 0 0"
    ascent="448"
    descent="-64"
    bbox="-0.0563158 -64.0752 640.01 448.035"
    underline-thickness="25"
    underline-position="-50"
    unicode-range="U+0020-F8FF"
  />
    <missing-glyph />
    <glyph glyph-name="search-minus" unicode="&#xf010;" horiz-adv-x="512" 
d="M304 256v-32c0 -6.59961 -5.40039 -12 -12 -12h-168c-6.59961 0 -12 5.40039 -12 12v32c0 6.59961 5.40039 12 12 12h168c6.59961 0 12 -5.40039 12 -12zM505 -28.7002l-28.2998 -28.2998c-9.40039 -9.40039 -24.6006 -9.40039 -33.9004 0l-99.7998 99.7002
c-4.5 4.5 -7 10.5996 -7 17v16.2998c-35.2998 -27.5996 -79.7002 -44 -128 -44c-114.9 0 -208 93.0996 -208 208s93.0996 208 208 208s208 -93.0996 208 -208c0 -48.2998 -16.4004 -92.7002 -44 -128h16.2998c6.40039 0 12.5 -2.5 17 -7l99.7002 -99.7002
c9.2998 -9.39941 9.2998 -24.5996 0 -34zM344 240c0 75.2002 -60.7998 136 -136 136s-136 -60.7998 -136 -136s60.7998 -136 136 -136s136 60.7998 136 136z" />
    <glyph glyph-name="plus" unicode="&#xf067;" horiz-adv-x="448" 
d="M416 240c17.6699 0 32 -14.3301 32 -32v-32c0 -17.6699 -14.3301 -32 -32 -32h-144v-144c0 -17.6699 -14.3301 -32 -32 -32h-32c-17.6699 0 -32 14.3301 -32 32v144h-144c-17.6699 0 -32 14.3301 -32 32v32c0 17.6699 14.3301 32 32 32h144v144
c0 17.6699 14.3301 32 32 32h32c17.6699 0 32 -14.3301 32 -32v-144h144z" />
    <glyph glyph-name="plane" unicode="&#xf072;" horiz-adv-x="576" 
d="M480 256c35.3496 0 96 -28.6504 96 -64s-60.6504 -64 -96 -64h-114.29l-105.11 -183.94c-2.84961 -4.97949 -8.14941 -8.05957 -13.8896 -8.05957h-65.5c-10.6299 0 -18.2998 10.1797 -15.3799 20.4004l49.0303 171.6h-102.86l-43.2002 -57.5996
c-3.01953 -4.03027 -7.75977 -6.40039 -12.7998 -6.40039h-39.9902c-10.4102 0 -18.0498 9.78027 -15.5195 19.8799l31.5098 108.12l-31.5098 108.12c-2.53027 10.0996 5.10938 19.8799 15.5195 19.8799h39.9902c5.03027 0 9.78027 -2.37012 12.7998 -6.40039
l43.2002 -57.5996h102.86l-49.0303 171.61c-2.91992 10.2197 4.75 20.3896 15.3799 20.3896h65.5c5.95117 0 11.1396 -3.23633 13.9004 -8.05957l105.1 -183.94h114.29z" />
    <glyph glyph-name="wrench" unicode="&#xf0ad;" horiz-adv-x="512" 
d="M507.73 338.9c11.7891 -47.4102 -0.84082 -99.6602 -37.9102 -136.73c-39.9004 -39.9004 -97.25 -50.9297 -147.37 -34.2197l-213.21 -213.21c-24.9902 -24.9902 -65.5098 -24.9902 -90.5 0s-24.9902 65.5098 0 90.5l213.39 213.39
c-16.5 50.1006 -5.58984 107.561 34.0498 147.2c37.0303 37.0195 89.2002 49.6699 136.58 37.9297c9.08984 -2.25977 12.2803 -13.54 5.66016 -20.1602l-74.3604 -74.3594l11.3105 -67.8799l67.8799 -11.3105l74.3604 74.3604
c6.58008 6.58008 17.8799 3.51953 20.1201 -5.50977zM64 -24c13.25 0 24 10.75 24 24c0 13.2598 -10.75 24 -24 24s-24 -10.7402 -24 -24c0 -13.25 10.75 -24 24 -24z" />
    <glyph glyph-name="money-bill" unicode="&#xf0d6;" 
d="M608 384c17.6699 0 32 -14.3301 32 -32v-320c0 -17.6699 -14.3301 -32 -32 -32h-576c-17.6699 0 -32 14.3301 -32 32v320c0 17.6699 14.3301 32 32 32h576zM48 48h64c0 35.3496 -28.6504 64 -64 64v-64zM48 272c35.3496 0 64 28.6504 64 64h-64v-64zM320 96
c44.1699 0 80 42.9697 80 96c0 53.0195 -35.8203 96 -80 96s-80 -42.9805 -80 -96c0 -53.0098 35.8096 -96 80 -96zM592 48v64c-35.3496 0 -64 -28.6504 -64 -64h64zM592 272v64h-64c0 -35.3496 28.6504 -64 64 -64z" />
    <glyph glyph-name="sitemap" unicode="&#xf0e8;" 
d="M128 96c17.6699 0 32 -14.3301 32 -32v-96c0 -17.6699 -14.3301 -32 -32 -32h-96c-17.6699 0 -32 14.3301 -32 32v96c0 17.6699 14.3301 32 32 32h96zM104 176v-48h-48v57.5898c0 21.1797 17.2305 38.4102 38.4102 38.4102h201.59v64h-40c-17.6699 0 -32 14.3301 -32 32
v96c0 17.6699 14.3301 32 32 32h128c17.6699 0 32 -14.3301 32 -32v-96c0 -17.6699 -14.3301 -32 -32 -32h-40v-64h201.59c21.1797 0 38.4102 -17.2402 38.4102 -38.4102v-57.5898h-48v48h-192v-48h-48v48h-192zM368 96c17.6699 0 32 -14.3301 32 -32v-96
c0 -17.6699 -14.3301 -32 -32 -32h-96c-17.6699 0 -32 14.3301 -32 32v96c0 17.6699 14.3301 32 32 32h96zM608 96c17.6699 0 32 -14.3301 32 -32v-96c0 -17.6699 -14.3301 -32 -32 -32h-96c-17.6699 0 -32 14.3301 -32 32v96c0 17.6699 14.3301 32 32 32h96z" />
    <glyph glyph-name="microphone" unicode="&#xf130;" horiz-adv-x="352" 
d="M176 96c-53.0195 0 -96 42.9805 -96 96v160c0 53.0195 42.9805 96 96 96s96 -42.9805 96 -96v-160c0 -53.0195 -42.9805 -96 -96 -96zM336 256c8.83984 0 16 -7.16016 16 -16v-48c0 -88.9004 -66.29 -162.47 -152 -174.23v-33.7695h56c8.83984 0 16 -7.16016 16 -16v-16
c0 -8.83984 -7.16016 -16 -16 -16h-160c-8.83984 0 -16 7.16016 -16 16v16c0 8.83984 7.16016 16 16 16h56v34.1504c-88.0303 12.1396 -152 92.0498 -152 181.689v40.1602c0 8.83984 7.16016 16 16 16h16c8.83984 0 16 -7.16016 16 -16v-42.2998
c0 -66.8105 48.71 -126.59 115.21 -133.08c76.2998 -7.44043 140.79 52.5801 140.79 127.38v48c0 8.83984 7.16016 16 16 16h16z" />
    <glyph glyph-name="microphone-slash" unicode="&#xf131;" 
d="M633.82 -10.0996c6.97949 -5.43066 8.22949 -15.4805 2.81934 -22.4502l-19.6396 -25.2705c-5.42969 -6.97949 -15.4805 -8.23926 -22.46 -2.80957l-588.36 454.729c-6.97949 5.43066 -8.22949 15.4805 -2.80957 22.4502l19.6396 25.2705
c5.41992 6.97949 15.4805 8.22949 22.46 2.80957l178.54 -137.99v45.3604c0 53.0195 42.9805 96 96 96c53.0205 0 96 -42.9805 96 -96v-160.01c0 -10.4502 -2.17969 -20.2705 -5.2793 -29.6699l26.5498 -20.5205c6.75977 15.4004 10.7197 32.2803 10.7197 50.2002v48
c0 8.83984 7.16016 16 16 16h16c8.83984 0 16 -7.16016 16 -16v-48c0 -29.0098 -7.38965 -56.1299 -19.9805 -80.1396zM400 -16c8.83984 0 16 -7.16016 16 -16v-16c0 -8.83984 -7.16016 -16 -16 -16h-160c-8.83984 0 -16 7.16016 -16 16v16c0 8.83984 7.16016 16 16 16h56
v34.1504c-88.0303 12.1396 -152 92.0498 -152 181.689v6.85059l52.0303 -40.2305c12.4395 -53.2197 55.3301 -96.4004 111.18 -101.85c6.94043 -0.669922 13.6396 -0.200195 20.3496 0.199219l50.1104 -38.7295c-10.8203 -3.77051 -22.0098 -6.70996 -33.6699 -8.31055
v-33.7695h56z" />
    <glyph glyph-name="balance-scale" unicode="&#xf24e;" 
d="M256 112c0 -44.1797 -57.3096 -80 -128 -80s-128 35.8203 -128 80h0.0195312c0 15.6699 -2.0791 7.25 85.04 181.51c17.6807 35.3604 68.2207 35.29 85.8701 0c86.3906 -172.779 85.0508 -165.33 85.0508 -181.51h0.0195312zM128 272l-72 -144h144zM639.98 112
c0 -44.1797 -57.29 -80 -127.98 -80s-128 35.8203 -128 80h0.0195312c0 15.6699 -2.0791 7.25 85.04 181.51c17.6807 35.3604 68.2207 35.29 85.8701 0c86.3906 -172.779 85.0508 -165.33 85.0508 -181.51zM440 128h144l-72 144zM528 0c8.83984 0 16 -7.16016 16 -16v-32
c0 -8.83984 -7.16016 -16 -16 -16h-416c-8.83984 0 -16 7.16016 -16 16v32c0 8.83984 7.16016 16 16 16h176v294.75c-23.5195 10.29 -41.1602 31.4902 -46.3896 57.25h-129.61c-8.83984 0 -16 7.16016 -16 16v32c0 8.83984 7.16016 16 16 16h144.36
c14.5996 19.3203 37.5498 32 63.6396 32s49.04 -12.6797 63.6396 -32h144.36c8.83984 0 16 -7.16016 16 -16v-32c0 -8.83984 -7.16016 -16 -16 -16h-129.61c-5.22949 -25.7695 -22.8799 -46.96 -46.3896 -57.25v-294.75h176z" />
    <glyph glyph-name="microphone-alt" unicode="&#xf3c9;" horiz-adv-x="352" 
d="M336 256c8.83984 0 16 -7.16016 16 -16v-48c0 -88.9004 -66.29 -162.47 -152 -174.23v-33.7695h56c8.83984 0 16 -7.16016 16 -16v-16c0 -8.83984 -7.16016 -16 -16 -16h-160c-8.83984 0 -16 7.16016 -16 16v16c0 8.83984 7.16016 16 16 16h56v34.1504
c-88.0303 12.1396 -152 92.0498 -152 181.689v40.1602c0 8.83984 7.16016 16 16 16h16c8.83984 0 16 -7.16016 16 -16v-42.2998c0 -66.8105 48.71 -126.59 115.21 -133.08c76.2998 -7.44043 140.79 52.5801 140.79 127.38v48c0 8.83984 7.16016 16 16 16h16zM176 96
c-53.0195 0 -96 42.9805 -96 96v160c0 53.0195 42.9805 96 96 96s96 -42.9805 96 -96h-85.3301c-5.88965 0 -10.6699 -3.58008 -10.6699 -8v-16c0 -4.41992 4.78027 -8 10.6699 -8h85.3301v-32h-85.3301c-5.88965 0 -10.6699 -3.58008 -10.6699 -8v-16
c0 -4.41992 4.78027 -8 10.6699 -8h85.3301v-32h-85.3301c-5.88965 0 -10.6699 -3.58008 -10.6699 -8v-16c0 -4.41992 4.78027 -8 10.6699 -8h85.3301c0 -53.0195 -42.9805 -96 -96 -96z" />
    <glyph glyph-name="money-bill-alt" unicode="&#xf3d1;" 
d="M352 160c4.41992 0 8 -3.58008 8 -8v-16c0 -4.41992 -3.58008 -8 -8 -8h-64c-4.41992 0 -8 3.58008 -8 8v16c0 4.41992 3.58008 8 8 8h16v55.4404l-0.469727 -0.310547c-1.26855 -0.845703 -2.79395 -1.35156 -4.43164 -1.35156
c-2.77734 0 -5.22559 1.41895 -6.6582 3.57129l-8.88086 13.3105c-0.845703 1.26758 -1.35156 2.79395 -1.35156 4.43066c0 2.77734 1.41992 5.22656 3.57227 6.65918l15.3301 10.2197c3.93945 2.62988 8.56934 4.03027 13.3096 4.03027h13.5801c4.41992 0 8 -3.58008 8 -8
v-88h16zM608 384c17.6699 0 32 -14.3301 32 -32v-320c0 -17.6699 -14.3301 -32 -32 -32h-576c-17.6699 0 -32 14.3301 -32 32v320c0 17.6699 14.3301 32 32 32h576zM48 48h64c0 35.3496 -28.6504 64 -64 64v-64zM48 272c35.3496 0 64 28.6504 64 64h-64v-64zM320 80
c53 0 96 50.1299 96 112c0 61.8604 -42.9805 112 -96 112s-96 -50.1396 -96 -112c0 -61.8496 42.9805 -112 96 -112zM592 48v64c-35.3496 0 -64 -28.6504 -64 -64h64zM592 272v64h-64c0 -35.3496 28.6504 -64 64 -64z" />
    <glyph glyph-name="blender" unicode="&#xf517;" horiz-adv-x="512" 
d="M416 64c35.3496 0 64 -28.6504 64 -64v-32c0 -17.6699 -14.3301 -32 -32 -32h-320c-17.6699 0 -32 14.3301 -32 32v32c0 35.3496 28.6504 64 64 64h256zM288 -32c17.6699 0 32 14.3301 32 32s-14.3301 32 -32 32s-32 -14.3301 -32 -32s14.3301 -32 32 -32zM328 384
c-4.41992 0 -8 -3.58008 -8 -8v-16c0 -4.41992 3.58008 -8 8 -8h157.82l-17.46 -64h-140.36c-4.41992 0 -8 -3.58008 -8 -8v-16c0 -4.41992 3.58008 -8 8 -8h131.64l-17.46 -64h-114.18c-4.41992 0 -8 -3.58008 -8 -8v-16c0 -4.41992 3.58008 -8 8 -8h105.46l-17.46 -64
h-256l-8.73047 96h-103.27c-26.5098 0 -48 21.4902 -48 48v160c0 26.5098 21.4902 48 48 48h464l-17.46 -64h-166.54zM64 256h81.46l-11.6396 128h-69.8203v-128z" />
    <glyph glyph-name="broadcast-tower" unicode="&#xf519;" 
d="M150.94 256c-7.01074 0 -13.46 4.5 -15.4004 11.2402c-4.90039 16.9697 -7.54004 34.6396 -7.54004 52.7598s2.63965 35.79 7.53027 52.7695c1.9502 6.74023 8.39941 11.2305 15.4102 11.2305h33.7295c11.0098 0 18.6201 -10.8301 14.8604 -21.1797
c-4.93066 -13.5801 -7.5498 -27.9805 -7.5498 -42.8203s2.61914 -29.2402 7.5498 -42.8203c3.75 -10.3496 -3.85059 -21.1797 -14.8604 -21.1797h-33.7295zM89.9199 424.66c-16.54 -31.1406 -49.6104 -115.97 0.169922 -209.29
c5.66016 -10.6299 -1.92969 -23.3701 -13.9502 -23.3701h-34.8398c-6.18945 0 -11.9902 3.50977 -14.6094 9.13965c-23.5703 50.5303 -26.6904 94.1104 -26.6904 118.86c0 42.3496 9.40039 82.46 25.8896 118.69c2.60059 5.71973 8.4707 9.30957 14.7402 9.30957h35.3301
c12.0098 0 19.5996 -12.7197 13.96 -23.3398zM614.06 438.71c16.5205 -36.2295 25.9404 -76.3496 25.9404 -118.71s-9.42969 -82.4805 -25.96 -118.71c-2.59961 -5.70996 -8.45996 -9.29004 -14.7305 -9.29004h-35.2295c-12.1104 0 -19.6299 12.8398 -13.9102 23.5195
c48.1396 89.8105 17.9902 174.94 -0.280273 209.23c-5.63965 10.5898 2.04004 23.25 14.0205 23.25h35.4199c6.26953 0 12.1299 -3.58008 14.7295 -9.29004zM489.06 384c7.01074 0 13.46 -4.49023 15.4004 -11.2402c4.90039 -16.9697 7.54004 -34.6396 7.54004 -52.7598
s-2.62988 -35.79 -7.53027 -52.7598c-1.9502 -6.75 -8.38965 -11.2402 -15.4102 -11.2402h-33.7295c-11.0098 0 -18.6201 10.8301 -14.8604 21.1797c4.93066 13.5801 7.5498 27.9805 7.5498 42.8203s-2.61914 29.2402 -7.5498 42.8203
c-3.75 10.3496 3.85059 21.1797 14.8604 21.1797h33.7295zM372.76 283.88l130.5 -313.41c3.39062 -8.14941 -0.459961 -17.5195 -8.60938 -20.9199l-29.5107 -12.3096c-8.14941 -3.40039 -17.5098 0.450195 -20.9092 8.60938l-49.2002 118.15h-150.07l-49.1904 -118.15
c-3.38965 -8.14941 -12.7598 -12.0098 -20.9092 -8.60938l-29.5107 12.3096c-8.14941 3.40039 -12.0098 12.7705 -8.60938 20.9199l130.5 313.41c-7.0498 10.29 -11.2002 22.71 -11.2002 36.1201c0 35.3496 28.6396 64 63.96 64c35.3301 0 63.96 -28.6504 63.96 -64
c0 -13.4102 -4.15039 -25.8301 -11.2002 -36.1201zM271.62 128h96.7598l-48.3799 116.19z" />
    <glyph glyph-name="broom" unicode="&#xf51a;" 
d="M256.47 231.23l86.7305 -109.181s-16.6006 -102.359 -76.5703 -150.12c-59.9697 -47.7793 -266.63 -34.1201 -266.63 -34.1201s3.7998 23.1406 11 55.4307l94.6201 112.17c3.96973 4.7002 -0.870117 11.6201 -6.65039 9.5l-60.3994 -22.0898
c14.4395 41.6602 32.7197 80.04 54.5996 97.4697c59.9697 47.7598 163.3 40.9404 163.3 40.9404zM636.53 416.97c5.48926 -6.91016 4.33984 -16.96 -2.5498 -22.4395l-232.48 -177.8l34.0898 -42.9209c5.08008 -6.39941 1.66016 -15.9092 -6.33984 -17.5996
l-58.7998 -12.4502l-86.7305 109.181l25.3301 54.5498c3.4502 7.41992 13.5 8.62012 18.5898 2.20996l34.1406 -42.9697l232.479 177.8c6.89062 5.48926 16.9199 4.33984 22.4102 -2.56055z" />
    <glyph glyph-name="chalkboard" unicode="&#xf51b;" 
d="M96 384v-352h-64v376c0 22.0596 17.9404 40 40 40h496c22.0596 0 40 -17.9404 40 -40v-376h-64v352h-448zM624 0c8.83984 0 16 -7.16016 16 -16v-32c0 -8.83984 -7.16016 -16 -16 -16h-608c-8.83984 0 -16 7.16016 -16 16v32c0 8.83984 7.16016 16 16 16h272v64h192v-64
h144z" />
    <glyph glyph-name="chalkboard-teacher" unicode="&#xf51c;" 
d="M208 96c62.0596 0 112.33 -50.4805 112 -112.62c-0.139648 -26.2598 -21.7305 -47.3799 -48 -47.3799h-224c-26.2695 0 -47.8604 21.1201 -48 47.3799c-0.330078 62.1396 49.9404 112.62 112 112.62c2.38965 0 4.76953 -0.349609 7.0498 -1.08984
c12.9697 -4.20996 26.6006 -6.91016 40.9502 -6.91016s27.9805 2.7002 40.9404 6.91016c2.2793 0.740234 4.66992 1.08984 7.05957 1.08984zM160 128c-53.0195 0 -96 42.9805 -96 96s42.9805 96 96 96s96 -42.9805 96 -96s-42.9805 -96 -96 -96zM592 448
c26.4697 0 48 -22.25 48 -49.5898v-316.82c0 -27.3398 -21.5303 -49.5898 -48 -49.5898h-244.55c-6.57031 25.2695 -20.5898 47.3096 -39.6904 64h76.2402v64h128v-64h64v288h-352v-49.7998c-18.9004 11.0195 -40.5801 17.7998 -64 17.7998v46.4102
c0 27.3398 21.5303 49.5898 48 49.5898h384z" />
    <glyph glyph-name="church" unicode="&#xf51d;" 
d="M464.46 201.32c9.63965 -5.78027 15.54 -16.2002 15.54 -27.4404v-237.88h-96v96c0 35.3496 -28.6504 64 -64 64s-64 -28.6504 -64 -64v-96h-96v237.88c0 11.6572 6.21387 21.8467 15.54 27.4404l112.46 67.4795v51.2002h-48c-8.83984 0 -16 7.16016 -16 16v32
c0 8.83984 7.16016 16 16 16h48v48c0 8.83984 7.16016 16 16 16h32c8.83984 0 16 -7.16016 16 -16v-48h48c8.83984 0 16 -7.16016 16 -16v-32c0 -8.83984 -7.16016 -16 -16 -16h-48v-51.2002zM0 52.04c0.00292969 13.1953 7.97949 24.5215 19.3896 29.4199l108.61 46.54
v-192h-112c-8.83984 0 -16 7.16016 -16 16v100.04zM620.61 81.46c11.7598 -5.0498 19.3896 -16.6201 19.3896 -29.4199v-100.04c0 -8.83984 -7.16016 -16 -16 -16h-112v192z" />
    <glyph glyph-name="coins" unicode="&#xf51e;" horiz-adv-x="512" 
d="M0 42.7002c41.2998 -29.1006 116.8 -42.7002 192 -42.7002s150.7 13.5996 192 42.7002v-42.7002c0 -35.2998 -86 -64 -192 -64s-192 28.7002 -192 64v42.7002zM320 320c-106 0 -192 28.7002 -192 64s86 64 192 64s192 -28.7002 192 -64s-86 -64 -192 -64zM0 147.6
c41.2998 -34 116.9 -51.5996 192 -51.5996s150.7 17.5996 192 51.5996v-51.5996c0 -35.2998 -86 -64 -192 -64s-192 28.7002 -192 64v51.5996zM416 136.6v63.6006c38.7002 6.89941 72.7998 18.0996 96 34.5v-42.7002c0 -23.7002 -38.7002 -44.2998 -96 -55.4004zM192 288
c106 0 192 -35.7998 192 -80s-86 -80 -192 -80s-192 35.7998 -192 80s86 80 192 80zM411.3 231.7c-8.7998 23.7002 -30.5 42.8994 -60 57.2002c64.2002 3.19922 125.2 16.6992 160.7 41.7998v-42.7002c0 -24.2998 -40.7002 -45.5 -100.7 -56.2998z" />
    <glyph glyph-name="crow" unicode="&#xf520;" 
d="M544 416c53.0195 0 96 -28.6504 96 -64l-96 -16v-80c0 -87.2598 -58.2598 -160.8 -137.97 -184.14l41.2393 -111.53c2.27051 -6.23047 -0.939453 -13.1104 -7.16992 -15.3799l-22.5498 -8.20996c-6.22949 -2.27051 -13.1094 0.939453 -15.3799 7.16992l-44.5098 120.38
c-1.90039 -0.0595703 -3.75 -0.290039 -5.66016 -0.290039h-39.0596l38.3291 -103.68c2.27051 -6.23047 -0.939453 -13.1104 -7.16992 -15.3799l-22.5498 -8.20996c-6.22949 -2.27051 -13.1094 0.939453 -15.3799 7.16992l-44.4102 120.1h-96.4902l-121.539 -60.7695
c-20.0908 -10.04 -43.7305 4.56934 -43.7305 27.0293c0.00195312 9.8877 4.7373 18.6572 12.0898 24.1699l371.91 292.59v20.9805c0 44.1797 35.8203 80 80 80c26.0898 0 49.04 -12.6797 63.6396 -32h16.3604zM464 344c13.25 0 24 10.75 24 24c0 13.2598 -10.75 24 -24 24
s-24 -10.7402 -24 -24c0 -13.25 10.75 -24 24 -24z" />
    <glyph glyph-name="crown" unicode="&#xf521;" 
d="M528 0c8.7998 0 16 -7.2002 16 -16v-32c0 -8.7998 -7.2002 -16 -16 -16h-416c-8.7998 0 -16 7.2002 -16 16v32c0 8.7998 7.2002 16 16 16h416zM592 320c26.5 0 48 -21.5 48 -48s-21.5 -48 -48 -48c-2.59961 0 -5.2002 0.400391 -7.7002 0.799805l-72.2998 -192.8h-384
l-72.2998 192.8c-2.5 -0.399414 -5.10059 -0.799805 -7.7002 -0.799805c-26.5 0 -48 21.5 -48 48s21.5996 48 48.0996 48s48 -21.5 48 -48c0 -7.09961 -1.69922 -13.7998 -4.39941 -19.7998l72.2998 -43.4004c15.2998 -9.2002 35.2998 -4 44.2002 11.6006l81.5 142.6
c-10.7002 8.7998 -17.7002 22 -17.7002 37c0 26.5 21.5 48 48 48s48 -21.5 48 -48c0 -15 -7 -28.2002 -17.7002 -37l81.5 -142.6c8.90039 -15.6006 28.7998 -20.8008 44.2002 -11.6006l72.4004 43.4004c-2.80078 6.09961 -4.40039 12.7002 -4.40039 19.7998
c0 26.5 21.5 48 48 48z" />
    <glyph glyph-name="dice" unicode="&#xf522;" 
d="M592 256c26.5098 0 48 -21.4902 48 -48v-224c0 -26.5098 -21.4902 -48 -48 -48h-224c-26.5098 0 -48 21.4902 -48 48v46.4199l136.26 136.26c24.1201 24.1201 29.6904 59.7305 17 89.3203h118.74zM480 72c13.25 0 24 10.75 24 24c0 13.2598 -10.75 24 -24 24
s-24 -10.7402 -24 -24c0 -13.25 10.75 -24 24 -24zM433.63 258.7c19.1602 -19.1602 19.1602 -50.2305 0 -69.4004l-174.939 -174.93c-19.1602 -19.1602 -50.2305 -19.1602 -69.3906 0l-174.93 174.939c-19.1602 19.1602 -19.1602 50.2305 0 69.3906l174.939 174.93
c19.1602 19.1602 50.2305 19.1602 69.3906 0zM96 200c13.25 0 24 10.75 24 24c0 13.2598 -10.75 24 -24 24s-24 -10.7402 -24 -24c0 -13.25 10.75 -24 24 -24zM224 72c13.25 0 24 10.75 24 24c0 13.2598 -10.75 24 -24 24s-24 -10.7402 -24 -24c0 -13.25 10.75 -24 24 -24z
M224 200c13.25 0 24 10.75 24 24c0 13.2598 -10.75 24 -24 24s-24 -10.7402 -24 -24c0 -13.25 10.75 -24 24 -24zM224 328c13.25 0 24 10.75 24 24c0 13.2598 -10.75 24 -24 24s-24 -10.7402 -24 -24c0 -13.25 10.75 -24 24 -24zM352 200c13.25 0 24 10.75 24 24
c0 13.2598 -10.75 24 -24 24s-24 -10.7402 -24 -24c0 -13.25 10.75 -24 24 -24z" />
    <glyph glyph-name="dice-five" unicode="&#xf523;" horiz-adv-x="448" 
d="M384 416c35.3496 0 64 -28.6504 64 -64v-320c0 -35.3496 -28.6504 -64 -64 -64h-320c-35.3496 0 -64 28.6504 -64 64v320c0 35.3496 28.6504 64 64 64h320zM128 64c17.6699 0 32 14.3301 32 32s-14.3301 32 -32 32s-32 -14.3301 -32 -32s14.3301 -32 32 -32zM128 256
c17.6699 0 32 14.3301 32 32s-14.3301 32 -32 32s-32 -14.3301 -32 -32s14.3301 -32 32 -32zM224 160c17.6699 0 32 14.3301 32 32s-14.3301 32 -32 32s-32 -14.3301 -32 -32s14.3301 -32 32 -32zM320 64c17.6699 0 32 14.3301 32 32s-14.3301 32 -32 32
s-32 -14.3301 -32 -32s14.3301 -32 32 -32zM320 256c17.6699 0 32 14.3301 32 32s-14.3301 32 -32 32s-32 -14.3301 -32 -32s14.3301 -32 32 -32z" />
    <glyph glyph-name="dice-four" unicode="&#xf524;" horiz-adv-x="448" 
d="M384 416c35.3496 0 64 -28.6504 64 -64v-320c0 -35.3496 -28.6504 -64 -64 -64h-320c-35.3496 0 -64 28.6504 -64 64v320c0 35.3496 28.6504 64 64 64h320zM128 64c17.6699 0 32 14.3301 32 32s-14.3301 32 -32 32s-32 -14.3301 -32 -32s14.3301 -32 32 -32zM128 256
c17.6699 0 32 14.3301 32 32s-14.3301 32 -32 32s-32 -14.3301 -32 -32s14.3301 -32 32 -32zM320 64c17.6699 0 32 14.3301 32 32s-14.3301 32 -32 32s-32 -14.3301 -32 -32s14.3301 -32 32 -32zM320 256c17.6699 0 32 14.3301 32 32s-14.3301 32 -32 32
s-32 -14.3301 -32 -32s14.3301 -32 32 -32z" />
    <glyph glyph-name="dice-one" unicode="&#xf525;" horiz-adv-x="448" 
d="M384 416c35.3496 0 64 -28.6504 64 -64v-320c0 -35.3496 -28.6504 -64 -64 -64h-320c-35.3496 0 -64 28.6504 -64 64v320c0 35.3496 28.6504 64 64 64h320zM224 160c17.6699 0 32 14.3301 32 32s-14.3301 32 -32 32s-32 -14.3301 -32 -32s14.3301 -32 32 -32z" />
    <glyph glyph-name="dice-six" unicode="&#xf526;" horiz-adv-x="448" 
d="M384 416c35.3496 0 64 -28.6504 64 -64v-320c0 -35.3496 -28.6504 -64 -64 -64h-320c-35.3496 0 -64 28.6504 -64 64v320c0 35.3496 28.6504 64 64 64h320zM128 64c17.6699 0 32 14.3301 32 32s-14.3301 32 -32 32s-32 -14.3301 -32 -32s14.3301 -32 32 -32zM128 160
c17.6699 0 32 14.3301 32 32s-14.3301 32 -32 32s-32 -14.3301 -32 -32s14.3301 -32 32 -32zM128 256c17.6699 0 32 14.3301 32 32s-14.3301 32 -32 32s-32 -14.3301 -32 -32s14.3301 -32 32 -32zM320 64c17.6699 0 32 14.3301 32 32s-14.3301 32 -32 32
s-32 -14.3301 -32 -32s14.3301 -32 32 -32zM320 160c17.6699 0 32 14.3301 32 32s-14.3301 32 -32 32s-32 -14.3301 -32 -32s14.3301 -32 32 -32zM320 256c17.6699 0 32 14.3301 32 32s-14.3301 32 -32 32s-32 -14.3301 -32 -32s14.3301 -32 32 -32z" />
    <glyph glyph-name="dice-three" unicode="&#xf527;" horiz-adv-x="448" 
d="M384 416c35.3496 0 64 -28.6504 64 -64v-320c0 -35.3496 -28.6504 -64 -64 -64h-320c-35.3496 0 -64 28.6504 -64 64v320c0 35.3496 28.6504 64 64 64h320zM128 256c17.6699 0 32 14.3301 32 32s-14.3301 32 -32 32s-32 -14.3301 -32 -32s14.3301 -32 32 -32zM224 160
c17.6699 0 32 14.3301 32 32s-14.3301 32 -32 32s-32 -14.3301 -32 -32s14.3301 -32 32 -32zM320 64c17.6699 0 32 14.3301 32 32s-14.3301 32 -32 32s-32 -14.3301 -32 -32s14.3301 -32 32 -32z" />
    <glyph glyph-name="dice-two" unicode="&#xf528;" horiz-adv-x="448" 
d="M384 416c35.3496 0 64 -28.6504 64 -64v-320c0 -35.3496 -28.6504 -64 -64 -64h-320c-35.3496 0 -64 28.6504 -64 64v320c0 35.3496 28.6504 64 64 64h320zM128 256c17.6699 0 32 14.3301 32 32s-14.3301 32 -32 32s-32 -14.3301 -32 -32s14.3301 -32 32 -32zM320 64
c17.6699 0 32 14.3301 32 32s-14.3301 32 -32 32s-32 -14.3301 -32 -32s14.3301 -32 32 -32z" />
    <glyph glyph-name="divide" unicode="&#xf529;" horiz-adv-x="448" 
d="M224 96c35.3496 0 64 -28.6504 64 -64s-28.6504 -64 -64 -64s-64 28.6504 -64 64s28.6504 64 64 64zM224 288c-35.3496 0 -64 28.6504 -64 64s28.6504 64 64 64s64 -28.6504 64 -64s-28.6504 -64 -64 -64zM416 240c17.6699 0 32 -14.3301 32 -32v-32
c0 -17.6699 -14.3301 -32 -32 -32h-384c-17.6699 0 -32 14.3301 -32 32v32c0 17.6699 14.3301 32 32 32h384z" />
    <glyph glyph-name="door-closed" unicode="&#xf52a;" 
d="M624 0c8.83984 0 16 -7.16016 16 -16v-32c0 -8.83984 -7.16016 -16 -16 -16h-608c-8.83984 0 -16 7.16016 -16 16v32c0 8.83984 7.16016 16 16 16h111.99v397.2c0 28.0195 21.5293 50.7998 48 50.7998h288.01c26.4697 0 48 -22.7803 48 -50.7998v-397.2h112zM415.99 160
c17.6797 0 32.0098 14.3301 32 32c0 17.6699 -14.3301 32 -32 32s-32 -14.3301 -32 -32s14.3301 -32 32 -32z" />
    <glyph glyph-name="door-open" unicode="&#xf52b;" 
d="M624 0c8.83984 0 16 -7.16016 16 -16v-32c0 -8.83984 -7.16016 -16 -16 -16h-144v384h-96v64h112c26.4697 0 48 -22.1904 48 -49.4502v-334.55h80zM312.24 446.99c20.2002 5.24023 39.7598 -10.5898 39.7598 -32.1699v-478.82h-336c-8.83984 0 -16 7.16016 -16 16v32
c0 8.83984 7.16016 16 16 16h80v365.08c0 15.2197 9.99023 28.4795 24.2402 32.1699zM264 160c13.25 0 24 14.3301 24 32s-10.75 32 -24 32s-24 -14.3301 -24 -32s10.75 -32 24 -32z" />
    <glyph glyph-name="equals" unicode="&#xf52c;" horiz-adv-x="448" 
d="M416 144c17.6699 0 32 -14.3301 32 -32v-32c0 -17.6699 -14.3301 -32 -32 -32h-384c-17.6699 0 -32 14.3301 -32 32v32c0 17.6699 14.3301 32 32 32h384zM416 336c17.6699 0 32 -14.3301 32 -32v-32c0 -17.6699 -14.3301 -32 -32 -32h-384c-17.6699 0 -32 14.3301 -32 32
v32c0 17.6699 14.3301 32 32 32h384z" />
    <glyph glyph-name="frog" unicode="&#xf52e;" horiz-adv-x="576" 
d="M446.53 350.57c0 0 58.4297 -19.0605 98.9893 -41.2803c18.7607 -10.2803 30.4805 -29.8301 30.4805 -51.2305c0 -21.793 -11.9512 -40.7695 -29.71 -50.7295l-154.44 -86.6504l98.5205 -104.68h53.6299c17.6699 0 32 -14.3301 32 -32c0 -8.83984 -7.16016 -16 -16 -16
h-90.3799l-118.53 125.94c5.07031 54.1494 -29.9297 85.0596 -40.7998 93.21c-36.8496 27.6191 -88.29 27.6592 -125.13 0l-34.7803 -26.0908c-7.07031 -5.2998 -8.49023 -15.3291 -3.18945 -22.4092c5.31934 -7.10059 15.3496 -8.5 22.4092 -3.19043l32.7607 24.5898
c20.6895 15.5303 48.3496 20.8105 72.2393 10.8799c44.0605 -18.3193 57.8506 -70.3701 33.71 -106.6l-35.7998 -48.3301h79.4902c17.6699 0 32 -14.3301 32 -32c0 -8.83984 -7.16016 -16 -16 -16h-304c-34.9199 0 -63.8896 28.0996 -64 63.0195
c-0.5 166.86 126.75 304.021 289.46 319.44c6.82031 37.25 39.3096 65.54 78.54 65.54c39.1904 0 71.6699 -28.2305 78.5303 -65.4297zM368 312c13.25 0 24 10.75 24 24c0 13.2598 -10.75 24 -24 24c-13.2598 0 -24 -10.7402 -24 -24c0 -13.25 10.7402 -24 24 -24z" />
    <glyph glyph-name="glasses" unicode="&#xf530;" horiz-adv-x="576" 
d="M574.1 167.63c1.26074 -5.07031 1.90039 -10.2695 1.90039 -15.5v-70.25c0 -62.8896 -51.5801 -113.88 -115.2 -113.88h-37.1201c-60.2793 0 -110.37 45.9404 -114.87 105.37l-2.92969 38.6299h-35.75l-2.92969 -38.6299
c-4.50977 -59.4297 -54.6006 -105.37 -114.88 -105.37h-37.1201c-63.6201 0 -115.2 50.9902 -115.2 113.89v70.25c0.000976562 5.35059 0.663086 10.5205 1.90039 15.4902l45.3398 181.73c5.91016 23.6895 21.5898 44.0293 43 55.7998
c21.4395 11.7402 46.9697 14.1094 70.1895 6.33008l15.25 -5.08008c8.39062 -2.79004 12.9199 -11.8604 10.1201 -20.2402l-5.05957 -15.1797c-2.79004 -8.37988 -11.8506 -12.9102 -20.2305 -10.1201l-13.1699 4.38965
c-10.8701 3.62012 -22.9902 3.57031 -33.1494 -1.72949c-10.29 -5.36035 -17.5908 -14.5605 -20.3809 -25.8105l-38.46 -153.83c22.1904 6.81055 49.79 12.46 81.21 12.46c34.7803 0 73.9902 -7.00977 114.86 -26.75h73.1797
c40.8701 19.7207 80.0801 26.7402 114.851 26.7402c31.4102 0 59.0098 -5.64941 81.2002 -12.46l-38.46 153.82c-2.80078 11.2598 -10.0801 20.4502 -20.3701 25.8193c-10.1602 5.30078 -22.29 5.35059 -33.1602 1.73047l-13.1797 -4.38965
c-8.38086 -2.79004 -17.4404 1.73926 -20.2305 10.1201l-5.05957 15.1797c-2.80078 8.37988 1.72949 17.4502 10.1191 20.2402l15.25 5.08008c23.2207 7.7793 48.75 5.39941 70.1904 -6.33008c21.4102 -11.7607 37.0898 -32.1104 43 -55.8105zM203.38 78.21l3.12988 41.2197
c-22.6699 8.58984 -46.0693 12.9199 -69.9297 12.9199c-29.1602 0 -54.46 -6.42969 -72.5801 -12.9199v-37.54c0 -27.5098 22.9697 -49.8896 51.2002 -49.8896h37.1201c26.6602 0 49.0898 20.2998 51.0596 46.21zM512 81.8799l-0.00976562 37.54
c-18.1201 6.49023 -43.4307 12.9297 -72.5498 12.9297c-23.8701 0 -47.2803 -4.33008 -69.9502 -12.9199l3.12988 -41.2197c1.95996 -25.9102 24.3896 -46.21 51.0596 -46.21h37.1201c28.2305 0 51.2002 22.3701 51.2002 49.8799z" />
    <glyph glyph-name="greater-than" unicode="&#xf531;" horiz-adv-x="384" 
d="M365.52 238.15c11.2803 -5.25 18.4805 -16.5605 18.4902 -29.0107v-34.2295c-0.00195312 -12.8398 -7.55469 -23.9062 -18.4795 -29l-306.471 -142.91c-16.0195 -7.46973 -35.0596 -0.540039 -42.5293 15.4805l-13.5205 29
c-7.46973 16.0195 -0.540039 35.0596 15.4805 42.5293l218.47 101.891l-218.43 101.85c-16.0605 7.49023 -23.0107 26.5801 -15.5205 42.6396l13.5703 29.0801c7.49023 16.0605 26.5801 23.0107 42.6396 15.5205z" />
    <glyph glyph-name="greater-than-equal" unicode="&#xf532;" horiz-adv-x="448" 
d="M55.2197 340.31c-18.29 6 -27.7393 24.2607 -21.0996 40.79l12.0303 29.9199c6.63965 16.5303 26.8594 25.0605 45.1494 19.0605l301.72 -119.98c13.7705 -4.51953 22.9805 -16.6094 22.9805 -30.1699v-15.96c0 -13.5596 -9.20996 -25.6494 -22.9805 -30.1699
l-301.409 -119.859c-18.3906 -6.04004 -38.7002 2.54004 -45.3799 19.1494l-12.0908 30.0801c-6.67969 16.6104 2.81055 34.9697 21.2002 41l175.44 68.0498zM424 48c13.25 0 24 -10.7402 24 -24v-48c0 -13.25 -10.75 -24 -24 -24h-400c-13.25 0 -24 10.75 -24 24v48
c0 13.2598 10.75 24 24 24h400z" />
    <glyph glyph-name="helicopter" unicode="&#xf533;" 
d="M304 64c-10.4707 0 -19.7627 5.01465 -25.5996 12.7998l-86.4004 115.2l-160 64l-31.5098 108.12c-2.53027 10.0996 5.10938 19.8799 15.5195 19.8799h39.9902c5.03027 0 9.78027 -2.37012 12.7998 -6.40039l43.2002 -57.5996h208v64h-176c-8.83984 0 -16 7.16016 -16 16
v32c0 8.83984 7.16016 16 16 16h416c8.83984 0 16 -7.16016 16 -16v-32c0 -8.83984 -7.16016 -16 -16 -16h-176v-64c123.71 0 224 -100.29 224 -224c0 -17.6699 -14.3301 -32 -32 -32h-272zM416 252.49v-124.49h124.79c-12.7598 62.5596 -62.2402 111.7 -124.79 124.49z
M635.37 -10.8096c6.58984 -6.61035 6.04004 -17.5205 -0.980469 -23.6602c-33.1494 -29.0498 -53.5693 -29.5205 -68.4492 -29.5205h-325.94c-8.83984 0 -16 7.18066 -16 16.0303v32.0596c0 8.85059 7.16016 16.0303 16 16.0303h325.94
c10.7998 0 17.5498 4.48047 24.6396 11.25c6.40039 6.11035 16.3896 6.27051 22.6396 0.00976562z" />
    <glyph glyph-name="kiwi-bird" unicode="&#xf535;" horiz-adv-x="576" 
d="M575.81 230.02c0.300781 -5.7793 0.160156 -246.02 0.160156 -246.02c0 -7.30957 -4.95996 -13.7002 -12.0498 -15.5c-1.30957 -0.339844 -2.63965 -0.5 -3.9502 -0.5c-5.75 0 -11.1895 3.11035 -14.0498 8.33984l-74.4102 136.44
c-7.04004 -0.470703 2.43066 -0.780273 -23.0498 -0.780273c-54.5996 0 -106.39 -19.25 -152.13 -49.0596c-12.46 -8.12012 -26.0996 -14.4502 -40.3398 -19.5107v-59.4297c0 -8.83984 -7.16016 -16 -16 -16h-16c-8.83984 0 -16 7.16016 -16 16v49.1797
c-5.32031 -0.449219 -10.5605 -1.17969 -16 -1.17969c-16.6006 0 -32.6406 2.2998 -48 6.25977v-54.2598c0 -8.83984 -7.16016 -16 -16 -16h-16c-8.83984 0 -16 7.16016 -16 16v73.9902c-57.3105 33.21 -95.9502 95.0596 -95.9902 166.01
c-0.0800781 145.76 129.3 182.88 147.31 186.94c57.1709 12.9199 111.221 0.259766 153.21 -28.7002c43.4902 -29.9902 94.9209 -46.2402 147.74 -46.2402h9.37012c60.6504 0 115.01 -45.4102 118.18 -105.98zM463.97 200c13.25 0 24 10.75 24 24
c0 13.2598 -10.75 24 -24 24s-24 -10.7402 -24 -24c0 -13.25 10.75 -24 24 -24zM543.97 46.75v99.0596c-11.1299 -11.3799 -24.7393 -20.1494 -39.8594 -25.9795z" />
    <glyph glyph-name="less-than" unicode="&#xf536;" horiz-adv-x="384" 
d="M365.46 90.2598c16.0703 -7.49023 23.0205 -26.5801 15.5303 -42.6396l-13.5605 -29.0801c-7.48926 -16.0596 -26.5801 -23.0098 -42.6396 -15.5205l-306.31 142.83c-11.2705 5.25 -18.4805 16.5605 -18.4805 29v34.2402c0.00488281 12.8389 7.55664 23.9043 18.4805 29
l306.46 142.91c16.0195 7.46973 35.0596 0.540039 42.5293 -15.4805l13.5205 -29c7.46973 -16.0195 0.540039 -35.0596 -15.4805 -42.5293l-218.47 -101.88z" />
    <glyph glyph-name="less-than-equal" unicode="&#xf537;" horiz-adv-x="448" 
d="M54.9805 233.8c-13.7705 4.52051 -22.9805 16.6104 -22.9805 30.1699v15.96c0 13.5703 9.20996 25.6602 22.9805 30.1807l301.71 119.96c18.29 6 38.5098 -2.53027 45.1494 -19.0605l12.0303 -29.9199c6.63965 -16.5195 -2.81055 -34.79 -21.1006 -40.79
l-175.56 -68.0898l175.44 -68.0498c18.3896 -6.03027 27.8896 -24.3906 21.21 -41l-12.0908 -30.0801c-6.66992 -16.6104 -26.9893 -25.1797 -45.3799 -19.1504zM424 48c13.25 0 24 -10.7402 24 -24v-48c0 -13.25 -10.75 -24 -24 -24h-400c-13.25 0 -24 10.75 -24 24v48
c0 13.2598 10.75 24 24 24h400z" />
    <glyph glyph-name="memory" unicode="&#xf538;" 
d="M640 317.06c-18.5996 -6.60938 -32 -24.1895 -32 -45.0596s13.4004 -38.4502 32 -45.0596v-98.9404h-640v98.9404c18.5996 6.60938 32 24.1895 32 45.0596s-13.4004 38.4502 -32 45.0596v34.9404c0 17.6699 14.3301 32 32 32h576c17.6699 0 32 -14.3301 32 -32v-34.9404z
M224 192v128h-64v-128h64zM352 192v128h-64v-128h64zM480 192v128h-64v-128h64zM0 0v96h640v-96h-64v26.6699c0 8.83984 -7.16016 16 -16 16s-16 -7.16016 -16 -16v-26.6699h-128v26.6699c0 8.83984 -7.16016 16 -16 16s-16 -7.16016 -16 -16v-26.6699h-128v26.6699
c0 8.83984 -7.16016 16 -16 16s-16 -7.16016 -16 -16v-26.6699h-128v26.6699c0 8.83984 -7.16016 16 -16 16s-16 -7.16016 -16 -16v-26.6699h-64z" />
    <glyph glyph-name="microphone-alt-slash" unicode="&#xf539;" 
d="M633.82 -10.0996c6.97949 -5.43066 8.22949 -15.4805 2.81934 -22.4502l-19.6396 -25.2705c-5.42969 -6.97949 -15.4805 -8.23926 -22.46 -2.80957l-588.36 454.729c-6.97949 5.43066 -8.22949 15.4805 -2.80957 22.4502l19.6396 25.2705
c5.41992 6.97949 15.4805 8.22949 22.46 2.80957l178.53 -138v45.3604c0 53.0195 42.9805 96 96 96s96 -42.9805 96 -96h-85.3301c-5.88965 0 -10.6699 -3.58008 -10.6699 -8v-16c0 -4.41992 4.78027 -8 10.6699 -8h85.3301v-32h-85.3301
c-5.88965 0 -10.6699 -3.58008 -10.6699 -8v-16c0 -4.41992 4.78027 -8 10.6699 -8h85.3301v-32h-85.0596l41.3994 -32h43.6699c0 -10.4502 -2.17969 -20.2705 -5.2793 -29.6699l26.5498 -20.5205c6.75977 15.4004 10.7197 32.2803 10.7197 50.2002v48
c0 8.83984 7.16016 16 16 16h16c8.83984 0 16 -7.16016 16 -16v-48c0 -28.9805 -7.25977 -56.21 -19.7402 -80.3301zM400 -16c8.83984 0 16 -7.16016 16 -16v-16c0 -8.83984 -7.16016 -16 -16 -16h-160c-8.83984 0 -16 7.16016 -16 16v16c0 8.83984 7.16016 16 16 16h56
v34.1504c-88.0303 12.1396 -152 92.0498 -152 181.689v6.85059l52.0303 -40.2207c12.4395 -53.2197 55.3301 -96.3994 111.18 -101.85c6.94043 -0.669922 13.6396 -0.200195 20.3496 0.200195l50.4004 -38.96c-10.8604 -3.80078 -22.25 -6.45996 -33.96 -8.08008v-33.7803
h56z" />
    <glyph glyph-name="money-bill-wave" unicode="&#xf53a;" 
d="M621.16 393.54c11.6094 -4.87012 18.8398 -16.8301 18.8496 -29.4697v-317.25c0 -18.4902 -15.04 -31.8105 -32.25 -31.8105c-3.39941 0 -6.87988 0.520508 -10.3496 1.62012c-30.8906 9.7998 -61.7598 13.7197 -92.6504 13.7197
c-123.17 0 -246.34 -62.3496 -369.51 -62.3496c-38.7998 0 -77.6201 6.19043 -116.41 22.4697c-11.6094 4.86035 -18.8398 16.8301 -18.8398 29.46v317.261c0 18.4893 15.04 31.8096 32.25 31.8096c3.40039 0 6.87988 -0.519531 10.3496 -1.62012
c30.8906 -9.7998 61.7607 -13.7197 92.6504 -13.7197c123.17 0 246.33 62.3496 369.5 62.3398c38.7998 0 77.6201 -6.19043 116.41 -22.46zM48 315.78v-60.4707c31 0 56.8398 22.1504 62.7197 51.54c-21.5996 1.36035 -42.5996 3.89062 -62.7197 8.93066zM48 30.7803
c20.1201 -7.31055 41.1797 -11.8105 63.71 -13.6201c-1.53027 34.1299 -29.3398 61.3994 -63.71 61.3994v-47.7793zM320 96c44.1699 0 80 42.9697 80 96c0 53.0195 -35.8203 96 -80 96s-80 -42.9805 -80 -96c0 -53.0098 35.8096 -96 80 -96zM592 68.2197v57.7207
c-26.8203 -3.40039 -48.4502 -23.2002 -54.3203 -49.2803c18.6104 -1.58984 36.8008 -4.0498 54.3203 -8.44043zM592 304.33v48.8896c-17.7197 6.43066 -36.2695 10.4902 -55.8096 12.6602c0.949219 -31.8496 24.9199 -57.6396 55.8096 -61.5498z" />
    <glyph glyph-name="money-bill-wave-alt" unicode="&#xf53b;" 
d="M621.16 393.54c11.6094 -4.87012 18.8398 -16.8301 18.8496 -29.4697v-317.25c0 -18.4902 -15.04 -31.8105 -32.25 -31.8105c-3.39941 0 -6.87988 0.520508 -10.3496 1.62012c-30.8906 9.7998 -61.7598 13.7197 -92.6504 13.7197
c-123.17 0 -246.34 -62.3496 -369.51 -62.3496c-38.7998 0 -77.6201 6.19043 -116.41 22.4697c-11.6094 4.86035 -18.8398 16.8301 -18.8398 29.46v317.261c0 18.4893 15.04 31.8096 32.25 31.8096c3.40039 0 6.87988 -0.519531 10.3496 -1.62012
c30.8906 -9.7998 61.7607 -13.7197 92.6504 -13.7197c123.17 0 246.33 62.3496 369.5 62.3398c38.7998 0 77.6201 -6.19043 116.41 -22.46zM320 96c44.1699 0 80 42.9697 80 96c0 53.0195 -35.8203 96 -80 96s-80 -42.9805 -80 -96c0 -53.0098 35.8096 -96 80 -96z" />
    <glyph glyph-name="money-check" unicode="&#xf53c;" 
d="M0 0v320h640v-320c0 -17.6699 -14.3301 -32 -32 -32h-576c-17.6699 0 -32 14.3301 -32 32zM448 208v-32c0 -8.83984 7.16016 -16 16 -16h96c8.83984 0 16 7.16016 16 16v32c0 8.83984 -7.16016 16 -16 16h-96c-8.83984 0 -16 -7.16016 -16 -16zM448 88v-16
c0 -4.41992 3.58008 -8 8 -8h112c4.41992 0 8 3.58008 8 8v16c0 4.41992 -3.58008 8 -8 8h-112c-4.41992 0 -8 -3.58008 -8 -8zM64 184v-16c0 -4.41992 3.58008 -8 8 -8h304c4.41992 0 8 3.58008 8 8v16c0 4.41992 -3.58008 8 -8 8h-304c-4.41992 0 -8 -3.58008 -8 -8z
M64 88v-16c0 -4.41992 3.58008 -8 8 -8h176c4.41992 0 8 3.58008 8 8v16c0 4.41992 -3.58008 8 -8 8h-176c-4.41992 0 -8 -3.58008 -8 -8zM624 416c8.83984 0 16 -7.16016 16 -16v-48h-640v48c0 8.83984 7.16016 16 16 16h608z" />
    <glyph glyph-name="money-check-alt" unicode="&#xf53d;" 
d="M608 416c17.6699 0 32 -14.3301 32 -32v-384c0 -17.6699 -14.3301 -32 -32 -32h-576c-17.6699 0 -32 14.3301 -32 32v384c0 17.6699 14.3301 32 32 32h576zM176 120.12c23.6201 0.629883 42.6699 20.54 42.6699 45.0703c0 19.9697 -12.9902 37.8096 -31.5801 43.3896
l-45 13.5c-5.16016 1.54004 -8.76953 6.78027 -8.76953 12.7295c0 7.27051 5.2998 13.1904 11.7998 13.1904h28.1104c4.55957 0 8.94922 -1.29004 12.8193 -3.71973c3.24023 -2.03027 7.36035 -1.91016 10.1299 0.729492l11.75 11.21
c3.53027 3.37012 3.33008 9.20996 -0.569336 12.1406c-9.10059 6.83984 -20.0801 10.7695 -31.3701 11.3496v16.29c0 4.41992 -3.58008 8 -8 8h-16c-4.41992 0 -8 -3.58008 -8 -8v-16.1201c-23.6201 -0.629883 -42.6699 -20.5498 -42.6699 -45.0703
c0 -19.9697 12.9893 -37.8096 31.5801 -43.3896l45 -13.5c5.15918 -1.54004 8.76953 -6.78027 8.76953 -12.7295c0 -7.27051 -5.2998 -13.1904 -11.7998 -13.1904h-28.1104c-4.55957 0 -8.9502 1.2998 -12.8193 3.71973
c-3.24023 2.03027 -7.36035 1.91016 -10.1309 -0.729492l-11.75 -11.21c-3.5293 -3.37012 -3.3291 -9.20996 0.570312 -12.1406c9.10059 -6.83008 20.0801 -10.7695 31.3701 -11.3496v-16.29c0 -4.41992 3.58008 -8 8 -8h16c4.41992 0 8 3.58008 8 8v16.1201zM416 136v16
c0 4.41992 -3.58008 8 -8 8h-112c-4.41992 0 -8 -3.58008 -8 -8v-16c0 -4.41992 3.58008 -8 8 -8h112c4.41992 0 8 3.58008 8 8zM576 136v16c0 4.41992 -3.58008 8 -8 8h-80c-4.41992 0 -8 -3.58008 -8 -8v-16c0 -4.41992 3.58008 -8 8 -8h80c4.41992 0 8 3.58008 8 8z
M576 232v16c0 4.41992 -3.58008 8 -8 8h-272c-4.41992 0 -8 -3.58008 -8 -8v-16c0 -4.41992 3.58008 -8 8 -8h272c4.41992 0 8 3.58008 8 8z" />
    <glyph glyph-name="not-equal" unicode="&#xf53e;" horiz-adv-x="448" 
d="M416 240h-98.4199l-74.5303 -96h172.95c17.6699 0 32 -14.3301 32 -32v-32c0 -17.6699 -14.3301 -32 -32 -32h-247.48l-82.0898 -105.73c-5.37012 -7.00977 -15.4102 -8.34961 -22.4297 -2.96973l-25.4102 19.46c-7.00977 5.37988 -8.33984 15.4199 -2.96973 22.4307
l51.8701 66.8096h-55.4902c-17.6699 0 -32 14.3301 -32 32v32c0 17.6699 14.3301 32 32 32h130.03l74.5293 96h-204.56c-17.6699 0 -32 14.3301 -32 32v32c0 17.6699 14.3301 32 32 32h279.09l82.0801 105.73c5.37988 7.00977 15.4199 8.34961 22.4404 2.96973
l25.4092 -19.46c7.01074 -5.37012 8.34082 -15.4102 2.9707 -22.4307l-51.8701 -66.8096h23.8799c17.6699 0 32 -14.3301 32 -32v-32c0 -17.6699 -14.3301 -32 -32 -32z" />
    <glyph glyph-name="palette" unicode="&#xf53f;" horiz-adv-x="512" 
d="M204.3 443c163.8 31.9004 307.2 -92.0996 307.7 -249.7c-0.0996094 -35.7002 -29.0996 -65.2998 -64.9004 -65.2998h-79.6992c-51 0 -84 -53 -60.9004 -98.4004c18.9004 -37.0996 -1.2998 -85.2998 -42.5 -91.6992c-127.1 -19.7002 -295.8 119.699 -258.8 306.699
c19.5996 99.1006 99.7002 179 199.1 198.4zM96 128c17.7002 0 32 14.2998 32 32s-14.2998 32 -32 32s-32 -14.2998 -32 -32s14.2998 -32 32 -32zM128 256c17.7002 0 32 14.2998 32 32s-14.2998 32 -32 32s-32 -14.2998 -32 -32s14.2998 -32 32 -32zM256 320
c17.7002 0 32 14.2998 32 32s-14.2998 32 -32 32s-32 -14.2998 -32 -32s14.2998 -32 32 -32zM384 256c17.7002 0 32 14.2998 32 32s-14.2998 32 -32 32s-32 -14.2998 -32 -32s14.2998 -32 32 -32z" />
    <glyph glyph-name="parking" unicode="&#xf540;" horiz-adv-x="448" 
d="M400 416c26.5 0 48 -21.5 48 -48v-352c0 -26.5 -21.5 -48 -48 -48h-352c-26.5 0 -48 21.5 -48 48v352c0 26.5 21.5 48 48 48h352zM240 128c52.9004 0 96 43.0996 96 96s-43.0996 96 -96 96h-96c-8.7998 0 -16 -7.2002 -16 -16v-224c0 -8.7998 7.2002 -16 16 -16h32
c8.7998 0 16 7.2002 16 16v48h48zM240 256c17.5996 0 32 -14.4004 32 -32s-14.4004 -32 -32 -32h-48v64h48z" />
    <glyph glyph-name="percentage" unicode="&#xf541;" horiz-adv-x="384" 
d="M109.25 274.75c-24.9902 -25 -65.5098 -25 -90.5098 0c-24.9902 24.9902 -24.9902 65.5195 0 90.5098s65.5195 24.9902 90.5098 0s24.9902 -65.5195 0 -90.5098zM365.25 109.26c25 -25 25 -65.5195 0 -90.5098c-24.9902 -24.9902 -65.5195 -24.9902 -90.5098 0
s-24.9902 65.5195 0 90.5098s65.5195 24.9902 90.5098 0zM363.31 340.69c12.5 -12.5 12.5 -32.7607 0 -45.25l-274.75 -274.75c-12.4893 -12.5 -32.75 -12.5 -45.25 0l-22.6191 22.6191c-12.5 12.4902 -12.5 32.75 0 45.25l274.75 274.75c12.4893 12.5 32.75 12.5 45.25 0z
" />
    <glyph glyph-name="project-diagram" unicode="&#xf542;" 
d="M384 128c17.6699 0 32 -14.3301 32 -32v-128c0 -17.6699 -14.3301 -32 -32 -32h-128c-17.6699 0 -32 14.3301 -32 32v128c0 17.6699 14.3301 32 32 32h128zM192 416v-32h224v-64h-224v-47.5098l64.2803 -112.49h-0.280273c-23.5996 0 -44.0195 -12.9805 -55.1201 -32.04
l-73.1602 128.04h-95.7197c-17.6699 0 -32 14.3301 -32 32v128c0 17.6699 14.3301 32 32 32h128c17.6699 0 32 -14.3301 32 -32zM608 448c17.6699 0 32 -14.3301 32 -32v-128c0 -17.6699 -14.3301 -32 -32 -32h-128c-17.6699 0 -32 14.3301 -32 32v128
c0 17.6699 14.3301 32 32 32h128z" />
    <glyph glyph-name="receipt" unicode="&#xf543;" horiz-adv-x="384" 
d="M358.4 444.8c10.5996 7.90039 25.5996 0.400391 25.5996 -12.7998v-480c0 -13.2002 -15.0996 -20.7002 -25.5996 -12.7998l-38.4004 44.7998l-54.4004 -44.7998c-2.66602 -2.01953 -6.01367 -3.21777 -9.6123 -3.21777c-3.59961 0 -6.9209 1.19824 -9.58691 3.21777
l-54.4004 44.7998l-54.4004 -44.7998c-2.66602 -2.01953 -6.01367 -3.21777 -9.6123 -3.21777c-3.59961 0 -6.9209 1.19824 -9.58691 3.21777l-54.4004 44.7998l-38.4004 -44.7998c-10.5996 -7.90039 -25.5996 -0.400391 -25.5996 12.7998v480
c0 13.2002 15 20.7002 25.5996 12.7998l38.4004 -44.7998l54.4004 44.7998c2.66602 2.01953 6.01367 3.21777 9.6123 3.21777c3.59961 0 6.9209 -1.19824 9.58691 -3.21777l54.4004 -44.7998l54.4004 44.7998c2.66602 2.01953 6.01367 3.21777 9.6123 3.21777
c3.59961 0 6.9209 -1.19824 9.58691 -3.21777l54.4004 -44.7998zM320 88v16c0 4.40039 -3.59961 8 -8 8h-240c-4.40039 0 -8 -3.59961 -8 -8v-16c0 -4.40039 3.59961 -8 8 -8h240c4.40039 0 8 3.59961 8 8zM320 184v16c0 4.40039 -3.59961 8 -8 8h-240
c-4.40039 0 -8 -3.59961 -8 -8v-16c0 -4.40039 3.59961 -8 8 -8h240c4.40039 0 8 3.59961 8 8zM320 280v16c0 4.40039 -3.59961 8 -8 8h-240c-4.40039 0 -8 -3.59961 -8 -8v-16c0 -4.40039 3.59961 -8 8 -8h240c4.40039 0 8 3.59961 8 8z" />
    <glyph glyph-name="ruler" unicode="&#xf545;" 
d="M635.7 280.8c8.7998 -15 3.59961 -34.2002 -11.6006 -42.7998l-496.8 -281.9c-15.2002 -8.59961 -34.7002 -3.5 -43.5 11.5l-79.5996 135.601c-8.7998 15 -3.5 34.0996 11.7002 42.7998l69 39.0996l59.6992 -101.399c2.2002 -3.7998 7.10059 -5.10059 10.9004 -2.90039
l13.7998 7.7998c3.7998 2.2002 5.10059 7 2.90039 10.7002l-59.7002 101.7l55.2002 31.2998l27.8994 -47.5c2.2002 -3.7998 7.10059 -5.09961 10.9004 -2.89941l13.7998 7.7998c3.7998 2.2002 5.10059 6.89941 2.90039 10.7002l-27.9004 47.3994l55.2002 31.2998
l59.7002 -101.699c2.2002 -3.80078 7.09961 -5.10059 10.8994 -2.90039l13.8008 7.7998c3.7998 2.2002 5.09961 7 2.89941 10.7002l-59.7998 101.7l55.2002 31.2998l27.8994 -47.2998c2.2002 -3.7998 7.10059 -5.10059 10.9004 -2.90039l13.7998 7.7998
c3.7998 2.2002 5.10059 6.90039 2.90039 10.7002l-27.9004 47.4004l55.2002 31.2998l59.7002 -101.6c2.2002 -3.80078 7.09961 -5.10059 10.8994 -2.90039l13.8008 7.7998c3.7998 2.2002 5.09961 6.90039 2.89941 10.7002l-59.7002 101.7l69 39.0996
c15.2002 8.60059 34.7002 3.5 43.5 -11.5z" />
    <glyph glyph-name="ruler-combined" unicode="&#xf546;" horiz-adv-x="512" 
d="M160 160v-41.3799l-158.43 -158.42c-0.660156 2.55957 -1.57031 5.03027 -1.57031 7.7998v448c0 17.6699 14.3301 32 32 32h96c17.6699 0 32 -14.3301 32 -32v-32h-56c-4.41992 0 -8 -3.58008 -8 -8v-16c0 -4.41992 3.58008 -8 8 -8h56v-64h-56
c-4.41992 0 -8 -3.58008 -8 -8v-16c0 -4.41992 3.58008 -8 8 -8h56v-64h-56c-4.41992 0 -8 -3.58008 -8 -8v-16c0 -4.41992 3.58008 -8 8 -8h56zM480 96c17.6699 0 32 -14.3301 32 -32v-96c0 -17.6699 -14.3301 -32 -32 -32h-448
c-2.75977 0 -5.24023 0.910156 -7.7998 1.57031l158.43 158.43h41.3701v-56c0 -4.41992 3.58008 -8 8 -8h16c4.41992 0 8 3.58008 8 8v56h64v-56c0 -4.41992 3.58008 -8 8 -8h16c4.41992 0 8 3.58008 8 8v56h64v-56c0 -4.41992 3.58008 -8 8 -8h16c4.41992 0 8 3.58008 8 8
v56h32z" />
    <glyph glyph-name="ruler-horizontal" unicode="&#xf547;" horiz-adv-x="576" 
d="M544 320c17.6699 0 32 -14.3301 32 -32v-192c0 -17.6699 -14.3301 -32 -32 -32h-512c-17.6699 0 -32 14.3301 -32 32v192c0 17.6699 14.3301 32 32 32h48v-88c0 -4.41992 3.58008 -8 8 -8h16c4.41992 0 8 3.58008 8 8v88h64v-88c0 -4.41992 3.58008 -8 8 -8h16
c4.41992 0 8 3.58008 8 8v88h64v-88c0 -4.41992 3.58008 -8 8 -8h16c4.41992 0 8 3.58008 8 8v88h64v-88c0 -4.41992 3.58008 -8 8 -8h16c4.41992 0 8 3.58008 8 8v88h64v-88c0 -4.41992 3.58008 -8 8 -8h16c4.41992 0 8 3.58008 8 8v88h48z" />
    <glyph glyph-name="ruler-vertical" unicode="&#xf548;" horiz-adv-x="256" 
d="M168 32h88v-64c0 -17.6699 -14.3301 -32 -32 -32h-192c-17.6699 0 -32 14.3301 -32 32v448c0 17.6699 14.3301 32 32 32h192c17.6699 0 32 -14.3301 32 -32v-64h-88c-4.41992 0 -8 -3.58008 -8 -8v-16c0 -4.41992 3.58008 -8 8 -8h88v-64h-88
c-4.41992 0 -8 -3.58008 -8 -8v-16c0 -4.41992 3.58008 -8 8 -8h88v-64h-88c-4.41992 0 -8 -3.58008 -8 -8v-16c0 -4.41992 3.58008 -8 8 -8h88v-64h-88c-4.41992 0 -8 -3.58008 -8 -8v-16c0 -4.41992 3.58008 -8 8 -8z" />
    <glyph glyph-name="school" unicode="&#xf549;" 
d="M0 224c0 17.6699 14.3301 32 32 32h64v-320h-80c-8.83984 0 -16 7.16016 -16 16v272zM360 272c4.41992 0 8 -3.58008 8 -8v-16c0 -4.41992 -3.58008 -8 -8 -8h-48c-4.41992 0 -8 3.58008 -8 8v64c0 4.41992 3.58008 8 8 8h16c4.41992 0 8 -3.58008 8 -8v-40h24z
M497.75 335.96c8.90039 -5.92969 14.25 -15.9297 14.25 -26.6299v-373.33h-128v144c0 8.83984 -7.16016 16 -16 16h-96c-8.83984 0 -16 -7.16016 -16 -16v-144h-128v373.34c0.00195312 11.1084 5.64453 20.8828 14.25 26.6201l160 106.67
c5.0752 3.38086 11.2324 5.35156 17.7822 5.35156s12.6426 -1.9707 17.7178 -5.35156zM320 192c44.1797 0 80 35.8203 80 80s-35.8203 80 -80 80s-80 -35.8203 -80 -80s35.8203 -80 80 -80zM608 256c17.6699 0 32 -14.3301 32 -32v-272c0 -8.83984 -7.16016 -16 -16 -16h-80
v320h64z" />
    <glyph glyph-name="screwdriver" unicode="&#xf54a;" horiz-adv-x="512" 
d="M448 448l64 -64l-96 -128h-62.0596l-83.0303 -83.0303c-4.25 6.79004 -9.07031 13.2705 -14.8701 19.0703c-5.7998 5.80957 -12.2803 10.6201 -19.0703 14.8701l83.0303 83.0303v62.0596zM128 169.41c29.1104 29.1094 76.2998 29.1094 105.41 0
c29.1094 -29.1104 29.1094 -76.2998 0 -105.41l-117.08 -117.08c-14.5605 -14.5596 -38.1504 -14.5596 -52.71 0l-52.7002 52.7002c-14.5498 14.5596 -14.5498 38.1602 0 52.71z" />
    <glyph glyph-name="shoe-prints" unicode="&#xf54b;" 
d="M192 288c-35.3496 0 -64 28.6504 -64 64s28.6504 64 64 64h32v-128h-32zM0 32c0 35.3496 28.6504 64 64 64h32v-128h-32c-35.3496 0 -64 28.6504 -64 64zM337.46 160c90.3604 0 174.54 -32 174.54 -96c0 -45.2197 -39.0996 -97.2998 -148.58 -120.82
c-31.9795 -6.87012 -64.8896 -8.50977 -97.5801 -6.19922c-27.2998 1.92969 -54.0996 7.76953 -80.3096 15.0498l-57.5303 15.9697v128c60.21 0 79.9404 15.6201 104.73 32c28.5693 18.8799 69.8193 32 104.729 32zM491.42 440.81
c109.48 -23.5098 148.58 -75.5898 148.58 -120.81c0 -64 -84.1797 -96 -174.54 -96c-34.9102 0 -76.1602 13.1201 -104.729 32c-24.79 16.3799 -44.5303 32 -104.73 32v128l57.5303 15.9697c26.21 7.27051 53.0098 13.1104 80.3096 15.04
c32.6904 2.32031 65.6006 0.669922 97.5801 -6.2002z" />
    <glyph glyph-name="smoking-ban" unicode="&#xf54d;" horiz-adv-x="512" 
d="M96 144v64c0 8.7998 7.2002 16 16 16h21.5l96 -96h-117.5c-8.7998 0 -16 7.2002 -16 16zM256 448c141.4 0 256 -114.6 256 -256s-114.6 -256 -256 -256s-256 114.6 -256 256s114.6 256 256 256zM256 0c41.4004 0 79.7002 13.2998 111.1 35.7002l-267.399 267.399
c-22.4004 -31.3994 -35.7002 -69.6992 -35.7002 -111.1c0 -105.9 86.0996 -192 192 -192zM301.2 192l32 -32h50.7998v32h-82.7998zM412.3 80.9004c22.4004 31.3994 35.7002 69.6992 35.7002 111.1c0 105.9 -86.0996 192 -192 192
c-41.4004 0 -79.7002 -13.2998 -111.1 -35.7002l124.3 -124.3h130.8c8.7998 0 16 -7.2002 16 -16v-64c0 -8.7998 -7.2002 -16 -16 -16h-34.7998zM320.6 320c32.1006 0 58.7002 -23.7002 63.3008 -54.5996c0.699219 -4.90039 -3 -9.40039 -8 -9.40039h-16.2002
c-3.7002 0 -7 2.5 -7.7002 6.09961c-2.7998 14.7002 -15.7998 25.9004 -31.4004 25.9004c-32.0996 0 -58.6992 23.7002 -63.2998 54.5996c-0.700195 4.90039 3 9.40039 8 9.40039h16.2002c3.7002 0 7 -2.5 7.7002 -6.09961
c2.7998 -14.7002 15.7998 -25.9004 31.3994 -25.9004z" />
    <glyph glyph-name="store-alt" unicode="&#xf54f;" 
d="M320 64v160h64v-256c0 -17.7002 -14.2998 -32 -32 -32h-256c-17.7002 0 -32 14.2998 -32 32v256h64v-160h192zM634.6 305.8c14.1006 -21.2998 -1.09961 -49.7998 -26.5996 -49.7998h-575.9c-25.5996 0 -40.7998 28.5 -26.5996 49.7998l85.2998 128
c5.90039 8.90039 15.9004 14.2002 26.6006 14.2002h405.199c10.7002 0 20.7002 -5.2998 26.7002 -14.2002zM512 -48v272h64v-272c0 -8.7998 -7.2002 -16 -16 -16h-32c-8.7998 0 -16 7.2002 -16 16z" />
    <glyph glyph-name="stream" unicode="&#xf550;" horiz-adv-x="512" 
d="M16 320c-8.83984 0 -16 7.16016 -16 16v64c0 8.83984 7.16016 16 16 16h416c8.83984 0 16 -7.16016 16 -16v-64c0 -8.83984 -7.16016 -16 -16 -16h-416zM496 240c8.83984 0 16 -7.16016 16 -16v-64c0 -8.83984 -7.16016 -16 -16 -16h-416c-8.83984 0 -16 7.16016 -16 16
v64c0 8.83984 7.16016 16 16 16h416zM432 64c8.83984 0 16 -7.16016 16 -16v-64c0 -8.83984 -7.16016 -16 -16 -16h-416c-8.83984 0 -16 7.16016 -16 16v64c0 8.83984 7.16016 16 16 16h416z" />
    <glyph glyph-name="stroopwafel" unicode="&#xf551;" horiz-adv-x="512" 
d="M188.12 237.26l45.25 -45.2598l-45.2598 -45.25l-45.25 45.25zM301.25 259.88l-45.25 -45.25l-45.25 45.2598l45.25 45.25zM210.75 124.12l45.25 45.25l45.2598 -45.25l-45.2598 -45.2598zM256 448c141.38 0 256 -114.62 256 -256s-114.62 -256 -256 -256
s-256 114.62 -256 256s114.62 256 256 256zM442.68 152.4c1.44629 1.4502 2.3418 3.45312 2.3418 5.66113s-0.895508 4.20801 -2.3418 5.6582l-28.29 28.2803l28.2705 28.3096c3.12012 3.12012 3.12012 8.19043 0 11.3105l-11.3105 11.3096
c-3.11914 3.12012 -8.18945 3.12012 -11.3096 0l-28.29 -28.29l-45.25 45.2607l33.9404 33.9395l16.9697 -16.9697c3.12012 -3.12012 8.18945 -3.12012 11.3096 0l11.3105 11.3096c3.12012 3.12012 3.12012 8.19043 0 11.3105l-16.9707 16.9697l16.9707 16.9697
c3.12012 3.12012 3.12012 8.19043 0 11.3105l-11.3105 11.3096c-3.12012 3.12012 -8.18945 3.12012 -11.3096 0l-16.9697 -16.9697l-16.9707 16.9697c-3.12012 3.12012 -8.18945 3.12012 -11.3096 0l-11.3105 -11.3096c-3.11914 -3.12012 -3.11914 -8.19043 0 -11.3105
l16.9707 -16.9697l-33.9404 -33.9404l-45.2598 45.25l28.29 28.29c3.12012 3.12012 3.12012 8.19043 0 11.3105l-11.3105 11.3096c-3.11914 3.12012 -8.18945 3.12012 -11.3096 0l-28.29 -28.29l-28.3096 28.2705c-3.12012 3.12012 -8.19043 3.12012 -11.3105 0
l-11.3096 -11.3105c-3.12012 -3.11914 -3.12012 -8.18945 0 -11.3096l28.29 -28.29l-45.2607 -45.25l-33.9395 33.9404l16.9697 16.9697c3.12012 3.12012 3.12012 8.18945 0 11.3096l-11.3096 11.3105c-3.12012 3.12012 -8.19043 3.12012 -11.3105 0l-16.9697 -16.9707
l-16.9697 16.9707c-3.12012 3.12012 -8.19043 3.12012 -11.3105 0l-11.3096 -11.3105c-3.12012 -3.12012 -3.12012 -8.18945 0 -11.3096l16.9697 -16.9697l-16.9697 -16.9707c-3.12012 -3.12012 -3.12012 -8.18945 0 -11.3096l11.3096 -11.3105
c3.12012 -3.11914 8.19043 -3.11914 11.3105 0l16.9697 16.9707l33.9404 -33.9404l-45.25 -45.2598l-28.29 28.29c-3.12012 3.12012 -8.19043 3.12012 -11.3105 0l-11.3096 -11.3105c-3.12012 -3.11914 -3.12012 -8.18945 0 -11.3096l28.29 -28.29l-28.29 -28.29
c-3.12012 -3.12012 -3.12012 -8.19043 0 -11.3096l11.3398 -11.3301c3.12012 -3.12012 8.18945 -3.12012 11.3096 0l28.29 28.29l45.25 -45.25l-33.9395 -33.9404l-16.9707 16.9697c-3.11914 3.12012 -8.18945 3.12012 -11.3096 0l-11.3096 -11.3096
c-3.12012 -3.12012 -3.12012 -8.19043 0 -11.3105l16.9697 -16.9697l-16.9697 -16.9697c-3.12012 -3.12012 -3.12012 -8.19043 0 -11.3105l11.3096 -11.3096c3.12012 -3.12012 8.19043 -3.12012 11.3096 0l16.9707 16.9697l16.9697 -16.9697
c3.12012 -3.12012 8.19043 -3.12012 11.3096 0l11.3105 11.3096c3.12012 3.12012 3.12012 8.19043 0 11.3105l-16.9697 16.9697l33.9395 33.9404l45.25 -45.2598l-28.29 -28.29c-3.12012 -3.12012 -3.12012 -8.19043 0 -11.3105l11.3105 -11.3096
c3.11914 -3.12012 8.18945 -3.12012 11.3096 0l28.29 28.29l28.3096 -28.2705c3.12012 -3.12012 8.19043 -3.12012 11.3105 0l11.3096 11.3105c3.12012 3.11914 3.12012 8.18945 0 11.3096l-28.29 28.29l45.2607 45.2598l33.9395 -33.9395l-16.9697 -16.9707
c-3.12012 -3.11914 -3.12012 -8.18945 0 -11.3096l11.3096 -11.3096c3.12012 -3.12012 8.19043 -3.12012 11.3105 0l16.9697 16.9697l16.9697 -16.9697c3.12012 -3.12012 8.19043 -3.12012 11.3105 0l11.3096 11.3096c3.12012 3.12012 3.12012 8.19043 0 11.3096
l-16.9697 16.9707l16.9697 16.9697c3.12012 3.12012 3.12012 8.19043 0 11.3096l-11.3096 11.3105c-3.12012 3.12012 -8.19043 3.12012 -11.3105 0l-16.9697 -16.9697l-33.9404 33.9395l45.25 45.25l28.29 -28.29c3.12012 -3.12012 8.19043 -3.12012 11.3105 0zM278.63 192
l45.2598 45.2598l45.25 -45.2598l-45.25 -45.25z" />
    <glyph glyph-name="toolbox" unicode="&#xf552;" horiz-adv-x="512" 
d="M502.63 233.37c6 -6 9.37012 -14.1396 9.37012 -22.6201v-82.75h-128v16c0 8.83984 -7.16016 16 -16 16h-32c-8.83984 0 -16 -7.16016 -16 -16v-16h-128v16c0 8.83984 -7.16016 16 -16 16h-32c-8.83984 0 -16 -7.16016 -16 -16v-16h-128v82.7402
c0 8.49023 3.37012 16.6299 9.37012 22.6299l45.25 45.2598c6.00977 6 14.1396 9.37012 22.6299 9.37012h50.75v80c0 26.5098 21.4902 48 48 48h160c26.5098 0 48 -21.4902 48 -48v-80.0098h50.75c8.49023 0 16.6299 -3.37012 22.6299 -9.37012zM320 288v64h-128v-64h128z
M384 80v16h128v-96c0 -17.6699 -14.3301 -32 -32 -32h-448c-17.6699 0 -32 14.3301 -32 32v96h128v-16c0 -8.83984 7.16016 -16 16 -16h32c8.83984 0 16 7.16016 16 16v16h128v-16c0 -8.83984 7.16016 -16 16 -16h32c8.83984 0 16 7.16016 16 16z" />
    <glyph glyph-name="walking" unicode="&#xf554;" horiz-adv-x="320" 
d="M208 352c-26.5 0 -48 21.5 -48 48s21.5 48 48 48s48 -21.5 48 -48s-21.5 -48 -48 -48zM302.5 202.9c15.7002 -7.90039 22 -27.3008 14.2998 -43c-7.89941 -15.8008 -26.8994 -22.2002 -42.5 -14.3008l-23.2998 11.8008c-15 7.59961 -26.4004 20.8994 -31.7002 37
l-5.5 16.5l-17.2002 -68.7002l45.5 -49.7002c7.2002 -7.7998 12.3008 -17.4004 14.9004 -27.7002l22.2002 -89c4.2998 -17.0996 -6.2002 -34.5 -23.2998 -38.7998c-17.1006 -4.2998 -34.5 6.2002 -38.8008 23.2998l-18.2998 73.2998
c-2.59961 10.3008 -7.7002 19.8008 -14.8994 27.7002l-59.9004 65.4004c-14.5 15.8994 -20.0996 38 -14.9004 58.7998l15.2002 60.7002l-26.7998 -10.7998c-7.2002 -2.90039 -13 -8.40039 -16.5 -15.4004l-6.7002 -13.5996
c-7.89941 -15.8008 -26.8994 -22.2002 -42.5 -14.3008c-15.7002 7.90039 -22 27.1006 -14.2002 42.9004l6.7002 13.5996c10.4004 21 28.1006 37.5 49.7002 46.2002c37.4004 15.1006 57.2998 25.2998 93.2998 25.2002c46.5 -0.0996094 87.5 -31.2998 102.2 -75.9004
l9.7002 -29.3994zM73.5996 62.2002l20.7002 51.5c8.7002 -11.9004 -7.89941 6.59961 47.4004 -53.7002l-13.5 -33.7998c-3.2998 -8.10059 -8.10059 -15.4004 -14.2002 -21.5l-59.4004 -59.4004c-12.5 -12.5 -32.6992 -12.5 -45.1992 0s-12.5 32.7998 0 45.2998l50 50.1006
c6.19922 6.09961 11 13.3994 14.1992 21.5z" />
    <glyph glyph-name="wallet" unicode="&#xf555;" horiz-adv-x="512" 
d="M461.2 320c28.0195 0 50.7998 -21.5303 50.7998 -48v-256c0 -26.4697 -22.7803 -48 -50.7998 -48h-397.2c-35.3496 0 -64 28.6504 -64 64v320c0 35.3496 28.6504 64 64 64h368c26.5098 0 48 -21.4902 48 -48c0 -8.83984 -7.16016 -16 -16 -16h-384
c-8.83984 0 -16 -7.16016 -16 -16s7.16016 -16 16 -16h381.2zM416 112c17.6699 0 32 14.3301 32 32s-14.3301 32 -32 32s-32 -14.3301 -32 -32s14.3301 -32 32 -32z" />
  </font>
</defs>
</svg>
