<?xml version="1.0" standalone="no"?>
<!DOCTYPE svg PUBLIC "-//W3C//DTD SVG 1.1//EN" "http://www.w3.org/Graphics/SVG/1.1/DTD/svg11.dtd" >
<svg xmlns="http://www.w3.org/2000/svg" xmlns:xlink="http://www.w3.org/1999/xlink" version="1.1">
<metadata>
Created by FontForge 20201107 at Tue Mar 16 10:16:39 2021
 By Robert Madole
Copyright (c) Font Awesome
</metadata>
<!-- Font Awesome Pro 5.15.3 by @fontawesome - https://fontawesome.com License - https://fontawesome.com/license (Commercial License) --><defs>
<font id="FontAwesome5Pro-Solid" horiz-adv-x="512" >
  <font-face 
    font-family="Font Awesome 5 Pro Solid"
    font-weight="900"
    font-stretch="normal"
    units-per-em="512"
    panose-1="2 0 5 3 0 0 0 0 0 0"
    ascent="448"
    descent="-64"
    bbox="-0.0226506 -64.0996 640.033 448.023"
    underline-thickness="25"
    underline-position="-50"
    unicode-range="U+0020-F8FF"
  />
    <missing-glyph />
    <glyph glyph-name="video" unicode="&#xf03d;" horiz-adv-x="576" 
d="M336.2 384c26.3994 0 47.7998 -21.4004 47.7998 -47.7998v-288.4c0 -26.3994 -21.4004 -47.7998 -47.7998 -47.7998h-288.4c-26.3994 0 -47.7998 21.4004 -47.7998 47.7998v288.4c0 26.3994 21.4004 47.7998 47.7998 47.7998h288.4zM525.6 346.3
c21.3008 14.6006 50.4004 -0.399414 50.4004 -25.7998v-256.9c0 -25.5 -29.2002 -40.3994 -50.4004 -25.7998l-109.6 75.5v157.4z" />
    <glyph glyph-name="leaf" unicode="&#xf06c;" horiz-adv-x="576" 
d="M546.2 438.3c19 -42.3994 29.7998 -94.3994 29.7998 -144.6c0 -172.4 -110.5 -313.2 -267.5 -324.601c-80.9004 -8.59961 -142.5 33.3008 -174.9 77.2002c-51 -42.7002 -70.3994 -87 -71.8994 -90.5996c-6.7998 -16.2002 -25.4004 -24.1006 -41.7998 -17.2998
c-16.3008 6.69922 -24.1006 25.2998 -17.5 41.5996c23.5996 57.9004 130.199 212 381.6 212c8.7998 0 16 7.2002 16 16s-7.2002 16 -16 16c-130.6 0 -222.7 -38.7998 -286.5 -84.5c-0.700195 6.7998 -1.5 13.5 -1.5 20.5c0 106 86 192 192 192h80
c63.4004 0 118.9 33.5996 149.9 87.5c6.69922 11.7998 22.6992 11.2998 28.2998 -1.2002z" />
    <glyph glyph-name="comments" unicode="&#xf086;" horiz-adv-x="576" 
d="M416 256c0 -88.4004 -93.0996 -160 -208 -160c-41 0 -79.0996 9.2998 -111.3 25c-21.7998 -12.7002 -52.1006 -25 -88.7002 -25c-3.2002 0 -6 1.7998 -7.2998 4.7998s-0.700195 6.40039 1.5 8.7002c0.299805 0.299805 22.3994 24.2998 35.7998 54.5
c-23.9004 26.0996 -38 57.7002 -38 92c0 88.4004 93.0996 160 208 160s208 -71.5996 208 -160zM538 36c13.4004 -30.2998 35.5 -54.2002 35.7998 -54.5c2.2002 -2.40039 2.7998 -5.7998 1.5 -8.7002c-1.2002 -2.89941 -4.09961 -4.7998 -7.2998 -4.7998
c-36.5996 0 -66.9004 12.2998 -88.7002 25c-32.2002 -15.7998 -70.2998 -25 -111.3 -25c-86.2002 0 -160.2 40.4004 -191.7 97.9004c10.4004 -1.10059 20.9004 -1.90039 31.7002 -1.90039c132.3 0 240 86.0996 240 192c0 6.7998 -0.400391 13.5 -1.2998 20.0996
c75.7998 -23.8994 129.3 -81.1992 129.3 -148.1c0 -34.2998 -14.0996 -66 -38 -92z" />
    <glyph glyph-name="suitcase" unicode="&#xf0f2;" 
d="M128 -32v400c0 26.5 21.5 48 48 48h160c26.5 0 48 -21.5 48 -48v-400h-256zM192 352v-32h128v32h-128zM512 272v-256c0 -26.5 -21.5 -48 -48 -48h-48v352h48c26.5 0 48 -21.5 48 -48zM96 -32h-48c-26.5 0 -48 21.5 -48 48v256c0 26.5 21.5 48 48 48h48v-352z" />
    <glyph glyph-name="quote-left" unicode="&#xf10d;" 
d="M464 192c26.5 0 48 -21.5 48 -48v-128c0 -26.5 -21.5 -48 -48 -48h-128c-26.5 0 -48 21.5 -48 48v240c0 88.4004 71.5996 160 160 160h8c13.2998 0 24 -10.7002 24 -24v-48c0 -13.2998 -10.7002 -24 -24 -24h-8c-35.2998 0 -64 -28.7002 -64 -64v-64h80zM176 192
c26.5 0 48 -21.5 48 -48v-128c0 -26.5 -21.5 -48 -48 -48h-128c-26.5 0 -48 21.5 -48 48v240c0 88.4004 71.5996 160 160 160h8c13.2998 0 24 -10.7002 24 -24v-48c0 -13.2998 -10.7002 -24 -24 -24h-8c-35.2998 0 -64 -28.7002 -64 -64v-64h80z" />
    <glyph glyph-name="quote-right" unicode="&#xf10e;" 
d="M464 416c26.5 0 48 -21.5 48 -48v-240c0 -88.4004 -71.5996 -160 -160 -160h-8c-13.2998 0 -24 10.7002 -24 24v48c0 13.2998 10.7002 24 24 24h8c35.2998 0 64 28.7002 64 64v64h-80c-26.5 0 -48 21.5 -48 48v128c0 26.5 21.5 48 48 48h128zM176 416
c26.5 0 48 -21.5 48 -48v-240c0 -88.4004 -71.5996 -160 -160 -160h-8c-13.2998 0 -24 10.7002 -24 24v48c0 13.2998 10.7002 24 24 24h8c35.2998 0 64 28.7002 64 64v64h-80c-26.5 0 -48 21.5 -48 48v128c0 26.5 21.5 48 48 48h128z" />
    <glyph glyph-name="archive" unicode="&#xf187;" 
d="M32 0v288h448v-288c0 -17.7002 -14.2998 -32 -32 -32h-384c-17.7002 0 -32 14.2998 -32 32zM192 212v-8c0 -6.59961 5.40039 -12 12 -12h104c6.59961 0 12 5.40039 12 12v8c0 6.59961 -5.40039 12 -12 12h-104c-6.59961 0 -12 -5.40039 -12 -12zM480 416
c17.7002 0 32 -14.2998 32 -32v-48c0 -8.7998 -7.2002 -16 -16 -16h-480c-8.7998 0 -16 7.2002 -16 16v48c0 17.7002 14.2998 32 32 32h448z" />
    <glyph glyph-name="handshake" unicode="&#xf2b5;" horiz-adv-x="640" 
d="M434.7 384c8.5 0 16.7002 -3.40039 22.5996 -9.40039l54.6006 -54.5996v-193.5c-2.40039 2.7002 -5 5.2998 -7.90039 7.7002l-145.6 118.2l26.0996 23.8994c6.5 6 7 16.1006 1 22.6006c-5.90039 6.5 -16.0996 6.89941 -22.5996 1l-79.9004 -73.2002
c-0.0996094 -0.100586 -0.299805 -0.100586 -0.400391 -0.200195c-16.6992 -14.9004 -43.3994 -11.2002 -56.0996 2.7002c-14.2002 15.5 -14.5 40.3994 2.09961 56c0.100586 0.0996094 0.200195 0.299805 0.300781 0.399414l98.2998 90
c5.89941 5.40039 13.5996 8.40039 21.5996 8.40039h85.9004zM544 319.8h96v-255.899h-64c-17.7002 0 -32 14.2998 -32 32v223.899zM592 95.9004c8.7998 0 16 7.19922 16 16c0 8.7998 -7.2002 16 -16 16s-16 -7.2002 -16 -16c0 -8.80078 7.2002 -16 16 -16zM0 64v255.8h96
v-223.8c0 -17.7002 -14.2998 -32 -32 -32h-64zM48 127.9c-8.7998 0 -16 -7.10059 -16 -16c0 -8.80078 7.2002 -16 16 -16s16 7.19922 16 16c0 8.7998 -7.2002 16 -16 16zM483.9 109.3c13.6992 -11.2002 15.7998 -31.2998 4.59961 -45.0996l-9.5 -11.7002
c-11.0996 -13.7998 -31.2998 -15.7998 -45 -4.7002l-5.40039 4.40039l-31.3994 -38.6006c-12.9004 -15.8994 -36.4004 -18.3994 -52.2998 -5.39941l-17.9004 15.5l-0.200195 -0.200195c-22.2998 -27.4004 -62.5996 -31.5996 -90 -9.2998l-90.5 81.8994h-18.2998v223.9
l54.7002 54.5996c6 6 14.0996 9.40039 22.5996 9.40039h83.7998l-81.7998 -74.9004c-29.2002 -26.7998 -31.2998 -72.2998 -4.39941 -101.699c26.5 -28.9004 72 -31.5 101.699 -4.40039l30 27.5z" />
    <glyph glyph-name="usd-square" unicode="&#xf2e9;" horiz-adv-x="448" 
d="M400 416c26.5 0 48 -21.5 48 -48v-352c0 -26.5 -21.5 -48 -48 -48h-352c-26.5 0 -48 21.5 -48 48v352c0 26.5 21.5 48 48 48h352zM248 64c37.5996 0.200195 68.2002 32.0996 68 71.4004c0 31.5996 -20.2002 59.7998 -49.2002 68.5996l-72 21.9004
c-8.89941 2.7998 -15.2002 12.0996 -15.2002 22.6992c0 12.9004 9.2002 23.4004 20.5 23.4004h45c7 0 13.8008 -1.7998 19.9004 -5.40039c6.40039 -3.7998 14.2998 -3.5 19.7002 1.60059l12 11.2998c7.7002 7.09961 6.39941 19.2998 -2.2998 25.2002
c-13.8008 9.2998 -29.9004 14.5 -46.4004 15.0996v16.2002c0 8.7998 -7.2002 16 -16 16h-16c-8.7998 0 -16 -7.2002 -16 -16v-16c-37.5996 -0.0996094 -68.2002 -32.0996 -68.2002 -71.4004c0 -31.5996 20.2002 -59.7998 49.2002 -68.5996l72.2002 -21.9004
c8.89941 -2.7998 15.2002 -12.0996 15.2002 -22.6992c0 -12.9004 -9.2002 -23.4004 -20.5 -23.4004h-45c-7 0 -13.8008 1.7998 -19.9004 5.40039c-6.40039 3.7998 -14.2998 3.5 -19.7002 -1.60059l-12 -11.2998c-7.7002 -7.09961 -6.39941 -19.2998 2.2998 -25.2002
c13.8008 -9.2998 29.9004 -14.5 46.4004 -15.0996v-16.2002c0 -8.7998 7.2002 -16 16 -16h16c8.7998 0 16 7.2002 16 16v16z" />
    <glyph glyph-name="poo" unicode="&#xf2fe;" 
d="M451.4 78.9004c34.2998 -5.5 60.5996 -35 60.5996 -70.9004c0 -39.7998 -32.2002 -72 -72 -72h-368c-39.7998 0 -72 32.2002 -72 72c0 35.9004 26.2998 65.4004 60.5996 70.9004c-17.2998 13.0996 -28.5996 33.6992 -28.5996 57.0996c0 39.7998 32.2002 72 72 72h14.0996
c-13.3994 11.7002 -22.0996 28.7998 -22.0996 48c0 35.2998 28.7002 64 64 64h16c44.2002 0 80 35.7998 80 80c0 17.4004 -5.7002 33.4004 -15.0996 46.5c4.89941 0.799805 9.89941 1.5 15.0996 1.5c53 0 96 -43 96 -96c0 -11.2998 -2.2998 -21.9004 -5.90039 -32h5.90039
c35.2998 0 64 -28.7002 64 -64c0 -19.2002 -8.7002 -36.2998 -22.0996 -48h14.0996c39.7998 0 72 -32.2002 72 -72c0 -23.4004 -11.2998 -44 -28.5996 -57.0996zM192 192c-17.7002 0 -32 -14.2998 -32 -32s14.2998 -32 32 -32s32 14.2998 32 32s-14.2998 32 -32 32z
M351.5 53c2 5.2998 -2 11 -7.7998 11h-175.4c-5.7998 0 -9.7998 -5.7002 -7.7998 -11c10.5 -27.9004 58.5 -53 95.5 -53s85 25.0996 95.5 53zM320 128c17.7002 0 32 14.2998 32 32s-14.2998 32 -32 32s-32 -14.2998 -32 -32s14.2998 -32 32 -32z" />
    <glyph glyph-name="phone-slash" unicode="&#xf3dd;" horiz-adv-x="640" 
d="M268.2 66.5996c11.5 5.40039 22.7002 11.6006 33.5996 18.1006l80 -61.7998c-76 -54.5 -169 -86.9004 -269.7 -86.9004c-11.2998 0 -20.8994 7.7998 -23.3994 18.5996l-24 104c-2.60059 11.4004 3.2002 22.9004 13.8994 27.5l112 48
c9.80078 4.2002 21.2002 1.40039 28 -6.89941zM633.8 -10.0996c7 -5.40039 8.2998 -15.5 2.90039 -22.3008l-19.6006 -25.2998c-5.5 -7 -15.5 -8.2002 -22.5 -2.7998l-588.399 454.7c-7 5.39941 -8.2002 15.3994 -2.7998 22.3994l19.5996 25.2002
c5.5 7 15.5 8.2002 22.5 2.7998l353.9 -273.5c18.0996 22.5 33.7998 46.7002 46 72.8008l-60.6006 49.5996c-8.2998 6.7002 -11.0996 18.2002 -6.89941 28l48 112c4.59961 10.5996 16.1992 16.5 27.5 13.9004l104 -24c10.8994 -2.5 18.5996 -12.2002 18.5996 -23.4004
c0 -108.9 -38.0996 -208.4 -100.9 -287.5z" />
    <glyph glyph-name="hand-holding-box" unicode="&#xf47b;" horiz-adv-x="576" 
d="M112 192c-8.7998 0 -16 7.2002 -16 16v224c0 8.7998 7.2002 16 16 16h112v-128l64 32l64 -32v128h112c8.7998 0 16 -7.2002 16 -16v-224c0 -8.7998 -7.2002 -16 -16 -16h-352zM565.3 119.9c15.1006 -13.6006 13.9004 -36.8008 -1.2998 -48.9004l-151.2 -121
c-11.3994 -9.09961 -25.5 -14 -40 -14h-356.8c-8.7998 0 -16 7.2002 -16 16v96c0 8.7998 7.2002 16 16 16h55.4004l46.5 37.7002c21 17 47.0996 26.2998 74.0996 26.2998h160c19.5 0 34.9004 -17.4004 31.5996 -37.4004
c-2.59961 -15.6992 -17.3994 -26.5996 -33.2998 -26.5996h-78.2998c-8.7998 0 -16 -7.2002 -16 -16s7.2002 -16 16 -16h118.3c14.6006 0 28.7002 4.90039 40 14l92.4004 73.9004c12.3994 10 30.7998 10.6992 42.5996 0z" />
    <glyph glyph-name="hand-receiving" unicode="&#xf47c;" horiz-adv-x="640" 
d="M204.8 217.6l57.6006 -76.7998c16.5996 -22.2002 25.5996 -49.0996 25.5996 -76.7998v-112c0 -8.7998 -7.2002 -16 -16 -16h-131.7c-7.2002 0 -13.5 4.7002 -15.2998 11.5996c-2 7.80078 -5.40039 15.2002 -10.4004 21.7002l-104.1 134.3
c-6.7998 8.5 -10.5 19.1006 -10.5 30v218.4c0 17.7002 14.2998 32 32 32s32 -14.2998 32 -32v-148.4l89.7998 -107.8c6 -7.2998 16.9004 -7.7998 23.6006 -1.09961l12.7998 12.7998c5.59961 5.59961 6.2998 14.5 1.5 20.9004l-38.1006 50.7998
c-10.5996 14.0996 -7.69922 34.2002 6.40039 44.7998s34.2002 7.7002 44.7998 -6.40039zM608 384c17.7002 0 32 -14.2998 32 -32v-218.4c0 -10.8994 -3.7002 -21.5 -10.5 -30l-104.1 -134.3c-5 -6.5 -8.40039 -13.8994 -10.4004 -21.7002
c-1.7998 -6.89941 -8.2002 -11.5996 -15.2998 -11.5996h-131.7c-8.7998 0 -16 7.2002 -16 16v112c0 27.7002 9 54.5996 25.5996 76.7998l57.6006 76.7998c10.5996 14.1006 30.7002 17 44.7998 6.40039s17 -30.7002 6.40039 -44.7998l-38.1006 -50.7998
c-4.7998 -6.40039 -4.09961 -15.3008 1.5 -20.9004l12.7998 -12.7998c6.60059 -6.60059 17.6006 -6.10059 23.6006 1.09961l89.7998 107.8v148.4c0 17.7002 14.2998 32 32 32zM438.7 342.4c12.3994 -12.4004 12.3994 -32.4004 0 -44.8008l-96.4004 -96.3994
c-12.2998 -12.2998 -32.3994 -12.2998 -44.7002 0l-96.3994 96.3994c-12.4004 12.3008 -12.4004 32.4004 0 44.7002l96.3994 96.4004c12.4004 12.3994 32.4004 12.3994 44.8008 0z" />
    <glyph glyph-name="blanket" unicode="&#xf498;" 
d="M512 352c0 0 -0.0996094 -245.5 -0.400391 -248.4c-4.19922 -41.5996 -42.5 -71.5996 -84.2998 -71.5996h-299.3c-17.7002 0 -32 14.2998 -32 32s14.2998 32 32 32h304c8.7998 0 16 7.2002 16 16s-7.2002 16 -16 16h-304c-35.2998 0 -64 -28.7002 -64 -64
s28.7002 -64 64 -64h368c8.7998 0 16 -7.2002 16 -16v-32c0 -8.7998 -7.2002 -16 -16 -16h-368c-70.7002 0 -128 57.2998 -128 128v288c0 52.9004 43.0996 96 96 96h320c52.9004 0 96 -43.0996 96 -96z" />
    <glyph glyph-name="box-alt" unicode="&#xf49a;" horiz-adv-x="448" 
d="M446.7 288h-158.7l-32 128h104.9c13.7998 0 26 -8.7998 30.3994 -21.9004l56.2998 -104.899c-0.399414 -0.5 -0.5 -0.700195 -0.899414 -1.2002zM160 288h-158.7c-0.399414 0.5 -0.5 0.700195 -0.899414 1.2002l56.2998 104.899
c4.39941 13.1006 16.5996 21.9004 30.3994 21.9004h104.9zM288 256h160v-256c0 -17.7002 -14.2998 -32 -32 -32h-384c-17.7002 0 -32 14.2998 -32 32v256h160v-80c0 -8.7998 7.2002 -16 16 -16h96c8.7998 0 16 7.2002 16 16v80z" />
    <glyph glyph-name="box-fragile" unicode="&#xf49b;" horiz-adv-x="448" 
d="M416 416c17.7002 0 32 -14.2998 32 -32v-384c0 -17.7002 -14.2998 -32 -32 -32h-384c-17.7002 0 -32 14.2998 -32 32v384c0 17.7002 14.2998 32 32 32h384zM320 256v80c0 8.7998 -7.2002 16 -16 16h-43.9004l22.8008 -36.4004l-64 -32l37 -59.5996l-91 68.4004l64 32
l-24.5 27.5996h-60.4004c-8.7998 0 -16 -7.2002 -16 -16v-80c0 -47.5996 34.5996 -86.7002 80 -94.4004v-97.5996h-40c-4.40039 0 -8 -3.59961 -8 -8v-16c0 -4.40039 3.59961 -8 8 -8h112c4.40039 0 8 3.59961 8 8v16c0 4.40039 -3.59961 8 -8 8h-40v97.5996
c45.4004 7.7002 80 46.9004 80 94.4004z" />
    <glyph glyph-name="box-heart" unicode="&#xf49d;" horiz-adv-x="448" 
d="M447.6 289.2c-0.399414 -0.5 -0.5 -0.700195 -0.899414 -1.2002h-206.7v128h120.9c13.7998 0 26 -8.7998 30.3994 -21.9004zM0 256h448v-256c0 -17.7002 -14.2998 -32 -32 -32h-384c-17.7002 0 -32 14.2998 -32 32v256zM305.1 106.8
c21 20.7998 19.8008 55.1006 -3.69922 74.2002c-20.6006 16.7002 -51.2002 13.7002 -70 -4.7998l-7.40039 -7.2998l-7.40039 7.2998c-18.8994 18.5 -49.5 21.5 -70 4.7998c-23.5 -19.0996 -24.7998 -53.5 -3.69922 -74.2002l72.5996 -71.3994
c4.7002 -4.60059 12.2998 -4.60059 17 0zM208 288h-206.7c-0.399414 0.5 -0.5 0.700195 -0.899414 1.2002l56.2998 104.899c4.39941 13.1006 16.5996 21.9004 30.3994 21.9004h120.9v-128z" />
    <glyph glyph-name="box-up" unicode="&#xf49f;" horiz-adv-x="448" 
d="M416 416c17.7002 0 32 -14.2998 32 -32v-384c0 -17.7002 -14.2998 -32 -32 -32h-384c-17.7002 0 -32 14.2998 -32 32v384c0 17.7002 14.2998 32 32 32h384zM57.7998 269c-4.2002 -5.2002 -0.5 -13 6.2002 -13h32.0996v-112c0 -8.7998 7.2002 -16 16 -16h32
c8.80078 0 16 7.2002 16 16v112h32c6.60059 0 10.4004 7.7998 6.2002 13l-64 80c-3 3.7998 -9.5 3.7998 -12.5 0zM384 40v16c0 4.40039 -3.59961 8 -8 8h-304c-4.40039 0 -8 -3.59961 -8 -8v-16c0 -4.40039 3.59961 -8 8 -8h304c4.40039 0 8 3.59961 8 8zM384 256
c6.7002 0 10.4004 7.7998 6.2998 13l-64 80c-3 3.7998 -9.5 3.7998 -12.5 0l-64 -80c-4.2002 -5.2002 -0.5 -13 6.2002 -13h32v-112c0 -8.7998 7.2002 -16 16 -16h32c8.7998 0 16 7.2002 16 16v112h32z" />
    <glyph glyph-name="box-usd" unicode="&#xf4a0;" horiz-adv-x="448" 
d="M447.6 289.2c-0.399414 -0.5 -0.5 -0.700195 -0.899414 -1.2002h-206.7v128h120.9c13.7998 0 26 -8.7998 30.3994 -21.9004zM208 288h-206.7c-0.399414 0.5 -0.5 0.700195 -0.899414 1.2002l56.2998 104.899c4.39941 13.1006 16.5996 21.9004 30.3994 21.9004h120.9v-128
zM0 256h448v-256c0 -17.7002 -14.2998 -32 -32 -32h-384c-17.7002 0 -32 14.2998 -32 32v256zM240 32.0996c23.5996 0.600586 42.7002 20.6006 42.7998 45.1006c0 20 -13 37.7998 -31.5996 43.3994l-45 13.5c-5.2002 1.5 -8.7998 6.7002 -8.7998 12.7002
c0 7.2998 5.2998 13.2002 11.7998 13.2002h28.0996c4.5 0 8.90039 -1.2998 12.7998 -3.7002c3.2002 -2.09961 7.30078 -1.89941 10.1006 0.700195l11.7002 11.2998c3.5 3.2998 3.2998 9.2002 -0.600586 12.1006c-9.09961 6.7998 -20.0996 10.6992 -31.3994 11.2998v16.2998
c0 4.40039 -3.60059 8 -8 8h-16c-4.40039 0 -8 -3.59961 -8 -8v-16.2002c-23.7002 -0.700195 -42.7002 -20.5996 -42.7002 -45.0996c0 -20 13 -37.7998 31.5996 -43.4004l45 -13.5c5.2002 -1.5 8.7998 -6.7002 8.7998 -12.7002
c0 -7.2998 -5.2998 -13.1992 -11.7998 -13.1992h-28.0996c-4.5 0 -8.90039 1.2998 -12.7998 3.69922c-3.2002 2.10059 -7.30078 1.90039 -10.1006 -0.699219l-11.7998 -11.2002c-3.5 -3.2998 -3.2998 -9.2002 0.599609 -12.1006
c9.10059 -6.7998 20.1006 -10.6992 31.4004 -11.2998v-16.2998c0 -4.40039 3.59961 -8 8 -8h16c4.40039 0 8 3.59961 8 8v16.0996z" />
    <glyph glyph-name="boxes-alt" unicode="&#xf4a1;" horiz-adv-x="576" 
d="M240 160c8.7998 0 16 -7.2002 16 -16v-192c0 -8.7998 -7.2002 -16 -16 -16h-224c-8.7998 0 -16 7.2002 -16 16v192c0 8.7998 7.2002 16 16 16h80v-88c0 -4.40039 3.59961 -8 8 -8h48c4.40039 0 8 3.59961 8 8v88h80zM176 224c-8.7998 0 -16 7.2002 -16 16v192
c0 8.7998 7.2002 16 16 16h80v-88c0 -4.40039 3.59961 -8 8 -8h48c4.40039 0 8 3.59961 8 8v88h80c8.7998 0 16 -7.2002 16 -16v-192c0 -8.7998 -7.2002 -16 -16 -16h-224zM560 160c8.7998 0 16 -7.2002 16 -16v-192c0 -8.7998 -7.2002 -16 -16 -16h-224
c-8.7998 0 -16 7.2002 -16 16v192c0 8.7998 7.2002 16 16 16h80v-88c0 -4.40039 3.59961 -8 8 -8h48c4.40039 0 8 3.59961 8 8v88h80z" />
    <glyph glyph-name="comment-alt-check" unicode="&#xf4a2;" 
d="M448 448c35.2998 0 64 -28.7002 64 -64v-288c0 -35.2998 -28.7002 -64 -64 -64h-144l-124.9 -93.7002c-7.89941 -5.7998 -19.0996 -0.0996094 -19.0996 9.7002v84h-96c-35.2998 0 -64 28.7002 -64 64v288c0 35.2998 28.7002 64 64 64h384zM370.1 284.2
c4.30078 4.2002 4.30078 11.2002 0.100586 15.5l-25.7998 26c-4.30078 4.2998 -11.3008 4.39941 -15.6006 0.0996094l-97.2002 -96.3994l-42.0996 42.5c-4.2998 4.2998 -11.2998 4.39941 -15.5996 0.0996094l-26 -25.7998
c-4.30078 -4.2998 -4.40039 -11.2998 -0.100586 -15.6006l75.7002 -76.2998c4.2998 -4.39941 11.2998 -4.39941 15.5996 -0.0996094z" />
    <glyph glyph-name="comment-alt-dots" unicode="&#xf4a3;" 
d="M448 448c35.2998 0 64 -28.7002 64 -64v-288c0 -35.2998 -28.7002 -64 -64 -64h-144l-124.9 -93.7002c-7.89941 -5.7998 -19.0996 -0.0996094 -19.0996 9.7002v84h-96c-35.2998 0 -64 28.7002 -64 64v288c0 35.2998 28.7002 64 64 64h384zM128 208
c17.7002 0 32 14.2998 32 32s-14.2998 32 -32 32s-32 -14.2998 -32 -32s14.2998 -32 32 -32zM256 208c17.7002 0 32 14.2998 32 32s-14.2998 32 -32 32s-32 -14.2998 -32 -32s14.2998 -32 32 -32zM384 208c17.7002 0 32 14.2998 32 32s-14.2998 32 -32 32
s-32 -14.2998 -32 -32s14.2998 -32 32 -32z" />
    <glyph glyph-name="comment-alt-edit" unicode="&#xf4a4;" 
d="M448 448c35.2998 0 64 -28.7002 64 -64v-288c0 -35.2998 -28.7002 -64 -64 -64h-144l-124.9 -93.7002c-7.89941 -5.7998 -19.0996 -0.0996094 -19.0996 9.7002v84h-96c-35.2998 0 -64 28.7002 -64 64v288c0 35.2998 28.7002 64 64 64h384zM215.4 137.4l96.2998 96.2998
l-54 54l-96.2998 -96.2998l-5.40039 -48.2002c-0.700195 -6.40039 4.7002 -11.9004 11.2002 -11.2002zM366.1 288.1c7.90039 7.90039 7.90039 20.7002 0 28.6006l-25.3994 25.3994c-7.90039 7.90039 -20.7002 7.90039 -28.6006 0l-31.7998 -31.7998l54 -54z" />
    <glyph glyph-name="comment-alt-exclamation" unicode="&#xf4a5;" 
d="M448 448c35.2998 0 64 -28.7002 64 -64v-288c0 -35.2998 -28.7002 -64 -64 -64h-144l-124.9 -93.7002c-7.89941 -5.7998 -19.0996 -0.0996094 -19.0996 9.7002v84h-96c-35.2998 0 -64 28.7002 -64 64v288c0 35.2998 28.7002 64 64 64h384zM256 112
c17.7002 0 32 14.2998 32 32s-14.2998 32 -32 32s-32 -14.2998 -32 -32s14.2998 -32 32 -32zM281.4 222.4l12.7998 128c1 9.39941 -6.40039 17.5996 -15.9004 17.5996h-44.5996c-9.40039 0 -16.7998 -8.2002 -15.9004 -17.5996l12.7998 -128
c0.800781 -8.2002 7.7002 -14.4004 15.9004 -14.4004h19c8.2002 0 15.0996 6.2002 15.9004 14.4004z" />
    <glyph glyph-name="comment-alt-lines" unicode="&#xf4a6;" 
d="M448 448c35.2998 0 64 -28.7002 64 -64v-288c0 -35.2998 -28.7002 -64 -64 -64h-144l-124.9 -93.7002c-7.89941 -5.7998 -19.0996 -0.0996094 -19.0996 9.7002v84h-96c-35.2998 0 -64 28.7002 -64 64v288c0 35.2998 28.7002 64 64 64h384zM288 184v16
c0 4.40039 -3.59961 8 -8 8h-144c-4.40039 0 -8 -3.59961 -8 -8v-16c0 -4.40039 3.59961 -8 8 -8h144c4.40039 0 8 3.59961 8 8zM384 280v16c0 4.40039 -3.59961 8 -8 8h-240c-4.40039 0 -8 -3.59961 -8 -8v-16c0 -4.40039 3.59961 -8 8 -8h240c4.40039 0 8 3.59961 8 8z
" />
    <glyph glyph-name="comment-alt-minus" unicode="&#xf4a7;" 
d="M448 448c35.2998 0 64 -28.7002 64 -64v-288c0 -35.2998 -28.7002 -64 -64 -64h-144l-124.9 -93.7002c-7.89941 -5.7998 -19.0996 -0.0996094 -19.0996 9.7002v84h-96c-35.2998 0 -64 28.7002 -64 64v288c0 35.2998 28.7002 64 64 64h384zM368 232v16
c0 8.7998 -7.2002 16 -16 16h-192c-8.7998 0 -16 -7.2002 -16 -16v-16c0 -8.7998 7.2002 -16 16 -16h192c8.7998 0 16 7.2002 16 16z" />
    <glyph glyph-name="comment-alt-plus" unicode="&#xf4a8;" 
d="M448 448c35.2998 0 64 -28.7002 64 -64v-288c0 -35.2998 -28.7002 -64 -64 -64h-144l-124.9 -93.7002c-7.89941 -5.7998 -19.0996 -0.0996094 -19.0996 9.7002v84h-96c-35.2998 0 -64 28.7002 -64 64v288c0 35.2998 28.7002 64 64 64h384zM368 232v16
c0 8.7998 -7.2002 16 -16 16h-72v72c0 8.7998 -7.2002 16 -16 16h-16c-8.7998 0 -16 -7.2002 -16 -16v-72h-72c-8.7998 0 -16 -7.2002 -16 -16v-16c0 -8.7998 7.2002 -16 16 -16h72v-72c0 -8.7998 7.2002 -16 16 -16h16c8.7998 0 16 7.2002 16 16v72h72
c8.7998 0 16 7.2002 16 16z" />
    <glyph glyph-name="comment-alt-slash" unicode="&#xf4a9;" horiz-adv-x="640" 
d="M64 96v172.5l306 -236.5h-2l-124.9 -93.7002c-7.89941 -5.7998 -19.0996 -0.0996094 -19.0996 9.7002v84h-96c-35.2998 0 -64 28.7002 -64 64zM633.8 -10.0996c7 -5.40039 8.2998 -15.5 2.90039 -22.3008l-19.6006 -25.2998c-5.5 -7 -15.5 -8.2002 -22.5 -2.7998
l-588.399 454.7c-7 5.39941 -8.2002 15.3994 -2.7998 22.3994l19.5996 25.2002c5.5 7 15.5 8.2002 22.5 2.7998l30.5 -23.5996c11.5996 16.2998 30.5 27 52 27h384c35.2998 0 64 -28.7002 64 -64v-288c0 -18.0996 -7.7002 -34.5 -19.7998 -46.0996z" />
    <glyph glyph-name="comment-alt-smile" unicode="&#xf4aa;" 
d="M448 448c35.2998 0 64 -28.7002 64 -64v-288c0 -35.2998 -28.7002 -64 -64 -64h-144l-124.9 -93.7002c-7.89941 -5.7998 -19.0996 -0.0996094 -19.0996 9.7002v84h-96c-35.2998 0 -64 28.7002 -64 64v288c0 35.2998 28.7002 64 64 64h384zM320 314.8
c-14.7998 0 -26.7998 -12 -26.7998 -26.7998s12 -26.7998 26.7998 -26.7998s26.7998 12 26.7998 26.7998s-12 26.7998 -26.7998 26.7998zM192 314.8c-14.7998 0 -26.7998 -12 -26.7998 -26.7998s12 -26.7998 26.7998 -26.7998s26.7998 12 26.7998 26.7998
s-12 26.7998 -26.7998 26.7998zM356.2 173.9c5.7002 6.69922 4.89941 16.7998 -1.90039 22.5996c-6.7002 5.7002 -16.7998 4.90039 -22.5996 -1.7998c-18.7998 -22.1006 -46.4004 -34.7002 -75.7998 -34.7002c-29.3008 0 -57 12.5996 -75.8008 34.5996
c-5.69922 6.80078 -15.7998 7.5 -22.5 1.80078c-6.7998 -5.7002 -7.59961 -15.8008 -1.7998 -22.5c24.9004 -29.2002 61.4004 -45.9004 100.2 -45.9004s75.2998 16.7002 100.2 45.9004z" />
    <glyph glyph-name="comment-alt-times" unicode="&#xf4ab;" 
d="M448 448c35.2998 0 64 -28.7002 64 -64v-288c0 -35.2998 -28.7002 -64 -64 -64h-144l-124.9 -93.7002c-7.89941 -5.7998 -19.0996 -0.0996094 -19.0996 9.7002v84h-96c-35.2998 0 -64 28.7002 -64 64v288c0 35.2998 28.7002 64 64 64h384zM340.9 189.1l-51 50.9004
l50.8994 50.9004c6.2002 6.19922 6.2002 16.3994 0 22.5996l-11.2998 11.2998c-6.2002 6.2002 -16.4004 6.2002 -22.5996 0l-50.9004 -50.8994l-50.9004 50.8994c-6.19922 6.2002 -16.3994 6.2002 -22.5996 0l-11.2998 -11.2998
c-6.2002 -6.2002 -6.2002 -16.4004 0 -22.5996l50.8994 -50.9004l-50.8994 -50.9004c-6.2002 -6.19922 -6.2002 -16.3994 0 -22.5996l11.2998 -11.2998c6.2002 -6.2002 16.4004 -6.2002 22.5996 0l50.9004 50.8994l51 -50.8994c6.2002 -6.2002 16.4004 -6.2002 22.5996 0
l11.3008 11.2998c6.19922 6.2002 6.19922 16.4004 0 22.5996z" />
    <glyph glyph-name="comment-check" unicode="&#xf4ac;" 
d="M256 416c141.4 0 256 -93.0996 256 -208s-114.6 -208 -256 -208c-38.4004 0 -74.7002 7.09961 -107.4 19.4004c-24.5996 -19.6006 -74.2998 -51.4004 -140.6 -51.4004c-3.2002 0 -6 1.7998 -7.2998 4.7998s-0.700195 6.40039 1.5 8.7002
c0.5 0.5 42.2998 45.4004 54.7998 95.7998c-35.5996 35.7002 -57 81.1006 -57 130.7c0 114.9 114.6 208 256 208zM370.1 252.2c4.30078 4.2002 4.30078 11.2002 0.100586 15.5l-25.7998 26c-4.30078 4.2998 -11.3008 4.39941 -15.6006 0.0996094l-97.2002 -96.3994
l-42.0996 42.5c-4.2998 4.2998 -11.2998 4.39941 -15.5996 0.0996094l-26 -25.7998c-4.30078 -4.2998 -4.40039 -11.2998 -0.100586 -15.6006l75.7002 -76.2998c4.2998 -4.39941 11.2998 -4.39941 15.5996 -0.0996094z" />
    <glyph glyph-name="comment-dots" unicode="&#xf4ad;" 
d="M256 416c141.4 0 256 -93.0996 256 -208s-114.6 -208 -256 -208c-38.4004 0 -74.7002 7.09961 -107.4 19.4004c-24.5996 -19.6006 -74.2998 -51.4004 -140.6 -51.4004c-3.2002 0 -6 1.7998 -7.2998 4.7998s-0.700195 6.40039 1.5 8.7002
c0.5 0.5 42.2998 45.4004 54.7998 95.7998c-35.5996 35.7002 -57 81.1006 -57 130.7c0 114.9 114.6 208 256 208zM128 176c17.7002 0 32 14.2998 32 32s-14.2998 32 -32 32s-32 -14.2998 -32 -32s14.2998 -32 32 -32zM256 176c17.7002 0 32 14.2998 32 32
s-14.2998 32 -32 32s-32 -14.2998 -32 -32s14.2998 -32 32 -32zM384 176c17.7002 0 32 14.2998 32 32s-14.2998 32 -32 32s-32 -14.2998 -32 -32s14.2998 -32 32 -32z" />
    <glyph glyph-name="comment-edit" unicode="&#xf4ae;" 
d="M256 416c141.4 0 256 -93.0996 256 -208s-114.6 -208 -256 -208c-38.4004 0 -74.7002 7.09961 -107.4 19.4004c-24.5996 -19.6006 -74.2998 -51.4004 -140.6 -51.4004c-3.2002 0 -6 1.7998 -7.2998 4.7998s-0.700195 6.40039 1.5 8.7002
c0.5 0.5 42.2998 45.4004 54.7998 95.7998c-35.5996 35.7002 -57 81.1006 -57 130.7c0 114.9 114.6 208 256 208zM215.4 105.4l96.2998 96.2998l-54 54l-96.2998 -96.2998l-5.40039 -48.2002c-0.700195 -6.40039 4.7002 -11.9004 11.2002 -11.2002zM366.1 256.1
c7.90039 7.90039 7.90039 20.7002 0 28.6006l-25.3994 25.3994c-7.90039 7.90039 -20.7002 7.90039 -28.6006 0l-31.7998 -31.7998l54 -54z" />
    <glyph glyph-name="comment-exclamation" unicode="&#xf4af;" 
d="M256 416c141.4 0 256 -93.0996 256 -208s-114.6 -208 -256 -208c-38.4004 0 -74.7002 7.09961 -107.4 19.4004c-24.5996 -19.6006 -74.2998 -51.4004 -140.6 -51.4004c-3.2002 0 -6 1.7998 -7.2998 4.7998s-0.700195 6.40039 1.5 8.7002
c0.5 0.5 42.2998 45.4004 54.7998 95.7998c-35.5996 35.7002 -57 81.1006 -57 130.7c0 114.9 114.6 208 256 208zM256 80c17.7002 0 32 14.2998 32 32s-14.2998 32 -32 32s-32 -14.2998 -32 -32s14.2998 -32 32 -32zM281.4 190.4l12.7998 128
c1 9.39941 -6.40039 17.5996 -15.9004 17.5996h-44.5996c-9.40039 0 -16.7998 -8.2002 -15.9004 -17.5996l12.7998 -128c0.800781 -8.2002 7.7002 -14.4004 15.9004 -14.4004h19c8.2002 0 15.0996 6.2002 15.9004 14.4004z" />
    <glyph glyph-name="comment-lines" unicode="&#xf4b0;" 
d="M256 416c141.4 0 256 -93.0996 256 -208s-114.6 -208 -256 -208c-38.4004 0 -74.7002 7.09961 -107.4 19.4004c-24.5996 -19.6006 -74.2998 -51.4004 -140.6 -51.4004c-3.2002 0 -6 1.7998 -7.2998 4.7998s-0.700195 6.40039 1.5 8.7002
c0.5 0.5 42.2998 45.4004 54.7998 95.7998c-35.5996 35.7002 -57 81.1006 -57 130.7c0 114.9 114.6 208 256 208zM288 152v16c0 4.40039 -3.59961 8 -8 8h-144c-4.40039 0 -8 -3.59961 -8 -8v-16c0 -4.40039 3.59961 -8 8 -8h144c4.40039 0 8 3.59961 8 8zM384 248v16
c0 4.40039 -3.59961 8 -8 8h-240c-4.40039 0 -8 -3.59961 -8 -8v-16c0 -4.40039 3.59961 -8 8 -8h240c4.40039 0 8 3.59961 8 8z" />
    <glyph glyph-name="comment-minus" unicode="&#xf4b1;" 
d="M256 416c141.4 0 256 -93.0996 256 -208s-114.6 -208 -256 -208c-38.4004 0 -74.7002 7.09961 -107.4 19.4004c-24.5996 -19.6006 -74.2998 -51.4004 -140.6 -51.4004c-3.2002 0 -6 1.7998 -7.2998 4.7998s-0.700195 6.40039 1.5 8.7002
c0.5 0.5 42.2998 45.4004 54.7998 95.7998c-35.5996 35.7002 -57 81.1006 -57 130.7c0 114.9 114.6 208 256 208zM368 200v16c0 8.7998 -7.2002 16 -16 16h-192c-8.7998 0 -16 -7.2002 -16 -16v-16c0 -8.7998 7.2002 -16 16 -16h192c8.7998 0 16 7.2002 16 16z" />
    <glyph glyph-name="comment-plus" unicode="&#xf4b2;" 
d="M256 416c141.4 0 256 -93.0996 256 -208s-114.6 -208 -256 -208c-38.4004 0 -74.7002 7.09961 -107.4 19.4004c-24.5996 -19.6006 -74.2998 -51.4004 -140.6 -51.4004c-3.2002 0 -6 1.7998 -7.2998 4.7998s-0.700195 6.40039 1.5 8.7002
c0.5 0.5 42.2998 45.4004 54.7998 95.7998c-35.5996 35.7002 -57 81.1006 -57 130.7c0 114.9 114.6 208 256 208zM368 200v16c0 8.7998 -7.2002 16 -16 16h-72v72c0 8.7998 -7.2002 16 -16 16h-16c-8.7998 0 -16 -7.2002 -16 -16v-72h-72c-8.7998 0 -16 -7.2002 -16 -16v-16
c0 -8.7998 7.2002 -16 16 -16h72v-72c0 -8.7998 7.2002 -16 16 -16h16c8.7998 0 16 7.2002 16 16v72h72c8.7998 0 16 7.2002 16 16z" />
    <glyph glyph-name="comment-slash" unicode="&#xf4b3;" horiz-adv-x="640" 
d="M64 208c0 18.5996 3.2998 36.5 8.90039 53.5996l325.5 -251.6c-24.7002 -6.40039 -51 -10 -78.4004 -10c-38.4004 0 -74.7002 7.09961 -107.4 19.4004c-24.5996 -19.6006 -74.2998 -51.4004 -140.6 -51.4004c-3.2002 0 -6 1.90039 -7.2998 4.7998
c-1.2998 3 -0.700195 6.40039 1.5 8.7002c0.5 0.599609 42.2002 45.5 54.7998 95.7998c-35.5996 35.7002 -57 81.1006 -57 130.7zM633.8 -10.0996c7 -5.40039 8.2998 -15.5 2.90039 -22.3008l-19.6006 -25.2998c-5.5 -7 -15.5 -8.2002 -22.5 -2.7998l-588.399 454.7
c-7 5.39941 -8.2002 15.3994 -2.7998 22.3994l19.5996 25.2002c5.5 7 15.5 8.2002 22.5 2.7998l105.1 -81.2998c45.2002 32.6006 104.301 52.7002 169.4 52.7002c141.4 0 256 -93.0996 256 -208c0 -49.2002 -21.4004 -94.0996 -56.5996 -129.7z" />
    <glyph glyph-name="comment-smile" unicode="&#xf4b4;" 
d="M256 416c141.4 0 256 -93.0996 256 -208s-114.6 -208 -256 -208c-38.4004 0 -74.7002 7.09961 -107.4 19.4004c-24.5996 -19.6006 -74.2998 -51.4004 -140.6 -51.4004c-3.2002 0 -6 1.7998 -7.2998 4.7998s-0.700195 6.40039 1.5 8.7002
c0.5 0.5 42.2998 45.4004 54.7998 95.7998c-35.5996 35.7002 -57 81.1006 -57 130.7c0 114.9 114.6 208 256 208zM320 282.8c-14.7998 0 -26.7998 -12 -26.7998 -26.7998s12 -26.7998 26.7998 -26.7998s26.7998 12 26.7998 26.7998s-12 26.7998 -26.7998 26.7998zM192 282.8
c-14.7998 0 -26.7998 -12 -26.7998 -26.7998s12 -26.7998 26.7998 -26.7998s26.7998 12 26.7998 26.7998s-12 26.7998 -26.7998 26.7998zM356.2 141.9c5.7002 6.69922 4.89941 16.7998 -1.90039 22.5996c-6.7002 5.7002 -16.7998 4.90039 -22.5996 -1.7998
c-18.7998 -22.1006 -46.4004 -34.7002 -75.7998 -34.7002c-29.3008 0 -57 12.5996 -75.8008 34.5996c-5.69922 6.80078 -15.7998 7.5 -22.5 1.80078c-6.7998 -5.7002 -7.59961 -15.8008 -1.7998 -22.5c24.9004 -29.2002 61.4004 -45.9004 100.2 -45.9004
s75.2998 16.7002 100.2 45.9004z" />
    <glyph glyph-name="comment-times" unicode="&#xf4b5;" 
d="M256 416c141.4 0 256 -93.0996 256 -208s-114.6 -208 -256 -208c-38.4004 0 -74.7002 7.09961 -107.4 19.4004c-24.5996 -19.6006 -74.2998 -51.4004 -140.6 -51.4004c-3.2002 0 -6 1.7998 -7.2998 4.7998s-0.700195 6.40039 1.5 8.7002
c0.5 0.5 42.2998 45.4004 54.7998 95.7998c-35.5996 35.7002 -57 81.1006 -57 130.7c0 114.9 114.6 208 256 208zM340.9 157.1l-51 50.9004l50.8994 50.9004c6.2002 6.19922 6.2002 16.3994 0 22.5996l-11.2998 11.2998c-6.2002 6.2002 -16.4004 6.2002 -22.5996 0
l-50.9004 -50.8994l-50.9004 50.8994c-6.19922 6.2002 -16.3994 6.2002 -22.5996 0l-11.2998 -11.2998c-6.2002 -6.2002 -6.2002 -16.4004 0 -22.5996l50.8994 -50.9004l-50.8994 -50.9004c-6.2002 -6.19922 -6.2002 -16.3994 0 -22.5996l11.2998 -11.2998
c6.2002 -6.2002 16.4004 -6.2002 22.5996 0l50.9004 50.8994l51 -50.8994c6.2002 -6.2002 16.4004 -6.2002 22.5996 0l11.3008 11.2998c6.19922 6.2002 6.19922 16.4004 0 22.5996z" />
    <glyph glyph-name="comments-alt" unicode="&#xf4b6;" horiz-adv-x="576" 
d="M416 224c0 -35.2998 -28.7002 -64 -64 -63.9004h-189.7l-82.7998 -62.0996c-6.40039 -4.7998 -15.5 -0.200195 -15.5 7.7998v54.2002c-35.2998 0 -64 28.7002 -64 64v160c0 35.2998 28.7002 64 64 64h288c35.2998 0 64 -28.7002 64 -64v-160zM512 288
c35.2998 0 64 -28.7002 64 -64v-160c0 -35.2998 -28.7002 -64 -64 -64h-32v-54.2998c0 -8 -9.09961 -12.6006 -15.5 -7.7998l-82.7998 62.0996h-125.7c-35.2998 0 -64 28.7002 -64 64v64h160c52.9004 0 96 43.0996 96 96v64h64z" />
    <glyph glyph-name="container-storage" unicode="&#xf4b7;" horiz-adv-x="640" 
d="M640 368c0 -8.7998 -7.2002 -16 -16 -16v-320c8.7998 0 16 -7.2002 16 -16v-32c0 -8.7998 -7.2002 -16 -16 -16h-608c-8.7998 0 -16 7.2002 -16 16v32c0 8.7998 7.2002 16 16 16v320c-8.7998 0 -16 7.2002 -16 16v32c0 8.7998 7.2002 16 16 16h608
c8.7998 0 16 -7.2002 16 -16v-32zM448 32v320h-32v-320h32zM192 352v-320h32v320h-32zM336 32v320h-32v-320h32zM80 352v-320h32v320h-32zM560 32v320h-32v-320h32z" />
    <glyph glyph-name="couch" unicode="&#xf4b8;" horiz-adv-x="640" 
d="M160 224c0 35.2998 -28.7002 64 -64 64h-32c0 53 43 96 96 96h320c53 0 96 -43 96 -96h-32c-35.2998 0 -64 -28.7002 -64 -64v-64h-320v64zM576 256c35.2998 0 64 -28.7002 64 -64c0 -23.5996 -13 -44 -32 -55.0996v-120.9c0 -8.7998 -7.2002 -16 -16 -16h-64
c-8.7998 0 -16 7.2002 -16 16v16h-384v-16c0 -8.7998 -7.2002 -16 -16 -16h-64c-8.7998 0 -16 7.2002 -16 16v120.9c-19 11.0996 -32 31.5 -32 55.0996c0 35.2998 28.7002 64 64 64h32c17.7002 0 32 -14.2998 32 -32v-96h384v96c0 17.7002 14.2998 32 32 32h32z" />
    <glyph glyph-name="donate" unicode="&#xf4b9;" 
d="M256 32c-114.9 0 -208 93.0996 -208 208s93.0996 208 208 208s208 -93.0996 208 -208s-93.0996 -208 -208 -208zM233.8 350.6c-32.7002 -0.899414 -59 -28.3994 -59.0996 -62.3994c0 -27.7002 18 -52.4004 43.7002 -60.1006l62.2998 -18.6992
c7.09961 -2.10059 12.0996 -9.40039 12.0996 -17.6006c0 -10.0996 -7.2998 -18.2998 -16.2998 -18.2998h-38.9004c-6.39941 0 -12.3994 1.7002 -17.7998 5.09961c-4.5 2.80078 -10.2002 2.7002 -14 -1l-16.2998 -15.5c-5 -4.7998 -4.40039 -13 1.2002 -17.0996
c12.5 -9.2998 27.5 -14.5996 43 -15.4004v-17c0 -9.19922 7.39941 -16.5996 16.5996 -16.5996h11.1006c9.19922 0 16.5996 7.40039 16.5996 16.5996v16.8008c32.7002 0.899414 59.0996 28.3994 59.0996 62.3994c0 27.7002 -18 52.4004 -43.6992 60.1006l-62.3008 18.6992
c-7.09961 2.10059 -12.0996 9.40039 -12.0996 17.6006c0 10.0996 7.2998 18.2998 16.2998 18.2998h38.9004c6.39941 0 12.3994 -1.7002 17.7998 -5.09961c4.5 -2.80078 10.2002 -2.7002 14 1l16.2998 15.5c5 4.7998 4.40039 13 -1.2002 17.0996
c-12.5 9.2998 -27.5 14.5996 -43 15.4004v17c0 9.19922 -7.39941 16.5996 -16.5996 16.5996h-11.0996c-9.2002 0 -16.6006 -7.40039 -16.6006 -16.5996v-16.8008zM480 96c17.7002 0 32 -14.2998 32 -32v-96c0 -17.7002 -14.2998 -32 -32 -32h-448
c-17.7002 0 -32 14.2998 -32 32v96c0 17.7002 14.2998 32 32 32h32.4004c19.6992 -26 44.5996 -47.7002 73 -64h-63.8008c-5.2998 0 -9.59961 -3.59961 -9.59961 -8v-16c0 -4.40039 4.2998 -8 9.59961 -8h364.7c5.2998 0 9.60059 3.59961 9.60059 8v16
c0 4.40039 -4.30078 8 -9.60059 8h-63.7998c28.4004 16.2998 53.4004 38 73 64h32.5z" />
    <glyph glyph-name="fragile" unicode="&#xf4bb;" horiz-adv-x="288" 
d="M287.4 255.3c7.19922 -80 -50.7002 -148.8 -127.4 -157.6v-129.7h53.9004c24.5 0 33.0996 -32 20 -32h-179.801c-13.1992 0 -4.5 32 20 32h53.9004v129.7c-76.7002 8.7002 -134.6 77.5996 -127.4 157.6l16 178.101c0.700195 8.2998 7.5 14.5996 15.7002 14.5996h85.6006
l32.7998 -48.2998l-85.5 -56l121.5 -119.7l-49.4004 104.3l85.5 56l-30.5996 63.7002h63.5c8.2002 0 15 -6.2998 15.7002 -14.5996z" />
    <glyph glyph-name="hand-heart" unicode="&#xf4bc;" horiz-adv-x="448" 
d="M416 336c17.5996 0 32 -14.4004 32 -32v-176.1c-0.200195 -14 -1.90039 -28.6006 -5.09961 -42.3008l-26.5 -112.699c-5.10059 -21.7002 -24.4004 -37 -46.7002 -37h-197.601c-15.2998 0 -29.7998 7.39941 -38.7998 19.7998l-125.6 172.7
c-13 17.8994 -9.10059 42.8994 8.7998 55.8994s42.9004 9.10059 55.9004 -8.7998l23.5996 -32.5v241c0 17.5996 14.4004 32 32 32s32 -14.4004 32 -32v-152c0 -4.40039 3.59961 -8 8 -8h16c4.40039 0 8 3.59961 8 8v184c0 17.5996 14.4004 32 32 32s32 -14.4004 32 -32v-184
c0 -4.40039 3.59961 -8 8 -8h16c4.40039 0 8 3.59961 8 8v152c0 17.5996 14.4004 32 32 32s32 -14.4004 32 -32v-152c0 -4.40039 3.59961 -8 8 -8h16c4.40039 0 8 3.59961 8 8v72c0 17.5996 14.4004 32 32 32zM353.1 74.7998c21 20.7998 19.8008 55.1006 -3.69922 74.2002
c-20.6006 16.7002 -51.2002 13.7002 -70 -4.7998l-7.40039 -7.2998l-7.40039 7.2998c-18.8994 18.5 -49.5 21.5 -70 4.7998c-23.5 -19.0996 -24.7998 -53.5 -3.69922 -74.2002l72.5996 -71.3994c4.7002 -4.60059 12.2998 -4.60059 17 0z" />
    <glyph glyph-name="hand-holding" unicode="&#xf4bd;" horiz-adv-x="576" 
d="M565.3 119.9c15.1006 -13.6006 13.9004 -36.8008 -1.2998 -48.9004l-151.2 -121c-11.3994 -9.09961 -25.5 -14 -40 -14h-356.8c-8.7998 0 -16 7.2002 -16 16v96c0 8.7998 7.2002 16 16 16h55.4004l46.5 37.7002c21 17 47.0996 26.2998 74.0996 26.2998h160
c19.5 0 34.9004 -17.4004 31.5996 -37.4004c-2.59961 -15.6992 -17.3994 -26.5996 -33.2998 -26.5996h-78.2998c-8.7998 0 -16 -7.2002 -16 -16s7.2002 -16 16 -16h118.3c14.6006 0 28.7002 4.90039 40 14l92.4004 73.9004c12.3994 10 30.7998 10.6992 42.5996 0z" />
    <glyph glyph-name="hand-holding-heart" unicode="&#xf4be;" horiz-adv-x="576" 
d="M275.3 197.5l-108.899 114.2c-31.6006 33.2002 -29.7002 88.2002 5.59961 118.8c30.7998 26.7002 76.7002 21.9004 104.9 -7.7998l11.0996 -11.6006l11.2002 11.7002c28.2002 29.6006 74.0996 34.4004 104.899 7.7002c35.4004 -30.5996 37.2002 -85.5996 5.60059 -118.8
l-108.9 -114.2c-7.09961 -7.40039 -18.5 -7.40039 -25.5 0zM565.3 119.9c15.1006 -13.6006 13.9004 -36.8008 -1.2998 -48.9004l-151.2 -121c-11.3994 -9.09961 -25.5 -14 -40 -14h-356.8c-8.7998 0 -16 7.2002 -16 16v96c0 8.7998 7.2002 16 16 16h55.4004l46.5 37.7002
c21 17 47.0996 26.2998 74.0996 26.2998h160c19.5 0 34.9004 -17.4004 31.5996 -37.4004c-2.59961 -15.6992 -17.3994 -26.5996 -33.2998 -26.5996h-78.2998c-8.7998 0 -16 -7.2002 -16 -16s7.2002 -16 16 -16h118.3c14.6006 0 28.7002 4.90039 40 14l92.4004 73.9004
c12.3994 10 30.7998 10.6992 42.5996 0z" />
    <glyph glyph-name="hand-holding-seedling" unicode="&#xf4bf;" horiz-adv-x="576" 
d="M480 448c0 -77.5 -55.0996 -142 -128.2 -156.8c-0.700195 43.7998 -16.2002 84 -41.5996 116c28.2998 25.0996 65.0996 40.7998 105.8 40.7998h64zM256 288c-88.4004 0 -160 71.5996 -160 160h64c88.4004 0 160 -71.5996 160 -160v-112c0 -8.7998 -7.2002 -16 -16 -16
h-32c-8.7998 0 -16 7.2002 -16 16v112zM565.3 119.9c15.1006 -13.6006 13.9004 -36.8008 -1.2998 -48.9004l-151.2 -121c-11.3994 -9.09961 -25.5 -14 -40 -14h-356.8c-8.7998 0 -16 7.2002 -16 16v96c0 8.7998 7.2002 16 16 16h55.4004l46.5 37.7002
c21 17 47.0996 26.2998 74.0996 26.2998h160c19.5 0 34.9004 -17.4004 31.5996 -37.4004c-2.59961 -15.6992 -17.3994 -26.5996 -33.2998 -26.5996h-78.2998c-8.7998 0 -16 -7.2002 -16 -16s7.2002 -16 16 -16h118.3c14.6006 0 28.7002 4.90039 40 14l92.4004 73.9004
c12.3994 10 30.7998 10.6992 42.5996 0z" />
    <glyph glyph-name="hands" unicode="&#xf4c2;" horiz-adv-x="640" 
d="M204.8 217.6l57.6006 -76.7998c16.5996 -22.2002 25.5996 -49.0996 25.5996 -76.7998v-112c0 -8.7998 -7.2002 -16 -16 -16h-131.7c-7.2002 0 -13.5 4.7002 -15.2998 11.5996c-2 7.80078 -5.40039 15.2002 -10.4004 21.7002l-104.1 134.3
c-6.7998 8.5 -10.5 19.1006 -10.5 30v218.4c0 17.7002 14.2998 32 32 32s32 -14.2998 32 -32v-148.4l89.7998 -107.8c6 -7.2998 16.9004 -7.7998 23.6006 -1.09961l12.7998 12.7998c5.59961 5.59961 6.2998 14.5 1.5 20.9004l-38.1006 50.7998
c-10.5996 14.0996 -7.69922 34.2002 6.40039 44.7998s34.2002 7.7002 44.7998 -6.40039zM608 384c17.7002 0 32 -14.2998 32 -32v-218.4c0 -10.8994 -3.7002 -21.5 -10.5 -30l-104.1 -134.3c-5 -6.5 -8.40039 -13.8994 -10.4004 -21.7002
c-1.7998 -6.89941 -8.2002 -11.5996 -15.2998 -11.5996h-131.7c-8.7998 0 -16 7.2002 -16 16v112c0 27.7002 9 54.5996 25.5996 76.7998l57.6006 76.7998c10.5996 14.1006 30.7002 17 44.7998 6.40039s17 -30.7002 6.40039 -44.7998l-38.1006 -50.7998
c-4.7998 -6.40039 -4.09961 -15.3008 1.5 -20.9004l12.7998 -12.7998c6.60059 -6.60059 17.6006 -6.10059 23.6006 1.09961l89.7998 107.8v148.4c0 17.7002 14.2998 32 32 32z" />
    <glyph glyph-name="hands-heart" unicode="&#xf4c3;" horiz-adv-x="640" 
d="M436 430.5c35.4004 -30.5996 37.2002 -85.5996 5.7002 -118.8l-108.9 -114.2c-7.09961 -7.40039 -18.5 -7.40039 -25.5 0l-108.899 114.2c-31.6006 33.2002 -29.7002 88.2002 5.59961 118.8c30.7998 26.7002 76.7002 21.9004 104.9 -7.7998l11.0996 -11.6006
l11.0996 11.7002c28.2002 29.6006 74.1006 34.4004 104.9 7.7002zM204.8 217.6l57.6006 -76.7998c16.5996 -22.2002 25.5996 -49.0996 25.5996 -76.7998v-112c0 -8.7998 -7.2002 -16 -16 -16h-131.7c-7.2002 0 -13.5 4.7002 -15.2998 11.5996
c-2 7.80078 -5.40039 15.2002 -10.4004 21.7002l-104.1 134.3c-6.7998 8.5 -10.5 19.1006 -10.5 30v218.4c0 17.7002 14.2998 32 32 32s32 -14.2998 32 -32v-148.4l89.7998 -107.8c6 -7.2998 16.9004 -7.7998 23.6006 -1.09961l12.7998 12.7998
c5.59961 5.59961 6.2998 14.5 1.5 20.9004l-38.1006 50.7998c-10.5996 14.0996 -7.69922 34.2002 6.40039 44.7998s34.2002 7.7002 44.7998 -6.40039zM608 384c17.7002 0 32 -14.2998 32 -32v-218.4c0 -10.8994 -3.7002 -21.5 -10.5 -30l-104.1 -134.3
c-5 -6.5 -8.40039 -13.8994 -10.4004 -21.7002c-1.7998 -6.89941 -8.2002 -11.5996 -15.2998 -11.5996h-131.7c-8.7998 0 -16 7.2002 -16 16v112c0 27.7002 9 54.5996 25.5996 76.7998l57.6006 76.7998c10.5996 14.1006 30.7002 17 44.7998 6.40039
s17 -30.7002 6.40039 -44.7998l-38.1006 -50.7998c-4.7998 -6.40039 -4.09961 -15.3008 1.5 -20.9004l12.7998 -12.7998c6.60059 -6.60059 17.6006 -6.10059 23.6006 1.09961l89.7998 107.8v148.4c0 17.7002 14.2998 32 32 32z" />
    <glyph glyph-name="hands-helping" unicode="&#xf4c4;" horiz-adv-x="640" 
d="M488 256c13.2998 0 24 -10.7002 24 -24v-48c0 -13.2998 -10.7002 -24 -24 -24h-8v-64c0 -17.7002 -14.2998 -32 -32 -32h-16c0 -35.2998 -28.7002 -64 -64 -64h-136.6l-103.4 -59.7002c-15.2998 -8.7998 -34.9004 -3.59961 -43.7002 11.7002l-80 138.6
c-8.89941 15.3008 -3.59961 34.9004 11.7002 43.7002l80 46.2002v47.2998c0 22.4004 11.7998 43.2998 31.0996 54.7998l64.9004 39v-121.6c0 -39.7002 32.2998 -72 72 -72s72 32.2998 72 72v56h152zM635.7 293.4c8.7998 -15.3008 3.59961 -34.8008 -11.7002 -43.7002
l-80 -46.2002v28.5c0 30.9004 -25.0996 56 -56 56h-184v-88c0 -22.0996 -17.9004 -40 -40 -40s-40 17.9004 -40 40v126.3c0 11 5.59961 21.2998 15 27.1006l33.5 20.8994c10.2002 6.2998 21.9004 9.7002 33.9004 9.7002h102.199l103.4 59.7002
c15.2998 8.7998 34.9004 3.59961 43.7002 -11.7002z" />
    <glyph glyph-name="hands-usd" unicode="&#xf4c5;" horiz-adv-x="640" 
d="M393.3 288.6c4.10059 -32.0996 -19 -59.3994 -49.2998 -63v-17.5996c0 -8.7998 -7.2002 -16 -16 -16h-16c-8.7998 0 -16 7.2002 -16 16v17.7002c-11.4004 1.39941 -22.2998 5.2002 -31.7998 11.5c-6.2002 4.09961 -6.7998 13.0996 -1.5 18.3994l17.5 17.5
c3.7002 3.7002 9.2998 4.2002 14.0996 2c3.2002 -1.39941 6.7002 -2.19922 10.2998 -2.19922h32.8008c4.59961 0 8.39941 3.7998 8.39941 8.39941c0 3.7002 -2.5 7.10059 -6.09961 8.10059l-50.1006 14.2998c-22.1992 6.39941 -40 24.7002 -42.8994 47.7002
c-4.10059 32 19 59.3994 49.2998 63v17.5996c0 8.7998 7.2002 16 16 16h16c8.7998 0 16 -7.2002 16 -16v-17.7002c11.4004 -1.39941 22.2998 -5.2002 31.7998 -11.5c6.2002 -4.09961 6.7998 -13.0996 1.5 -18.3994l-17.5 -17.5c-3.7002 -3.7002 -9.2998 -4.2002 -14.0996 -2
c-3.2002 1.39941 -6.7002 2.19922 -10.2998 2.19922h-32.8008c-4.59961 0 -8.39941 -3.7998 -8.39941 -8.39941c0 -3.7002 2.5 -7.10059 6.09961 -8.10059l50.1006 -14.2998c22.1992 -6.39941 40 -24.7002 42.8994 -47.7002zM204.8 217.6l57.6006 -76.7998
c16.5996 -22.2002 25.5996 -49.0996 25.5996 -76.7998v-112c0 -8.7998 -7.2002 -16 -16 -16h-131.7c-7.2002 0 -13.5 4.7002 -15.2998 11.5996c-2 7.80078 -5.40039 15.2002 -10.4004 21.7002l-104.1 134.3c-6.7998 8.5 -10.5 19.1006 -10.5 30v218.4
c0 17.7002 14.2998 32 32 32s32 -14.2998 32 -32v-148.4l89.7998 -107.8c6 -7.2998 16.9004 -7.7998 23.6006 -1.09961l12.7998 12.7998c5.59961 5.59961 6.2998 14.5 1.5 20.9004l-38.1006 50.7998c-10.5996 14.0996 -7.69922 34.2002 6.40039 44.7998
s34.2002 7.7002 44.7998 -6.40039zM608 384c17.7002 0 32 -14.2998 32 -32v-218.4c0 -10.8994 -3.7002 -21.5 -10.5 -30l-104.1 -134.3c-5 -6.5 -8.40039 -13.8994 -10.4004 -21.7002c-1.7998 -6.89941 -8.2002 -11.5996 -15.2998 -11.5996h-131.7
c-8.7998 0 -16 7.2002 -16 16v112c0 27.7002 9 54.5996 25.5996 76.7998l57.6006 76.7998c10.5996 14.1006 30.7002 17 44.7998 6.40039s17 -30.7002 6.40039 -44.7998l-38.1006 -50.7998c-4.7998 -6.40039 -4.09961 -15.3008 1.5 -20.9004l12.7998 -12.7998
c6.60059 -6.60059 17.6006 -6.10059 23.6006 1.09961l89.7998 107.8v148.4c0 17.7002 14.2998 32 32 32z" />
    <glyph glyph-name="handshake-alt" unicode="&#xf4c6;" horiz-adv-x="640" 
d="M483.9 109.3c13.6992 -11.2002 15.7998 -31.2998 4.59961 -45.0996l-9.5 -11.7002c-11.0996 -13.7998 -31.2998 -15.7998 -45 -4.7002l-5.40039 4.40039l-31.3994 -38.6006c-12.9004 -15.8994 -36.4004 -18.3994 -52.2998 -5.39941l-17.9004 15.5l-0.200195 -0.200195
c-22.2998 -27.4004 -62.5996 -31.5996 -90 -9.2998l-90.5 81.8994h-130.3c-8.7998 0 -16 7.2002 -16 16v191.9c0 8.7998 7.2002 16 16 16h112l54.7002 54.5996c6 6 14.0996 9.40039 22.5996 9.40039h83.7998l-81.7998 -74.9004
c-29.2002 -26.7998 -31.2998 -72.2998 -4.39941 -101.699c14.8994 -16.3008 61.0996 -41.5 101.699 -4.40039l30 27.5zM624 320c8.7998 0 16 -7.09961 16 -15.9004v-191.8c0 -8.7998 -7.2002 -16 -16 -16h-97.5996c-2.7002 14.4004 -10 28 -22.2002 37.9004l-145.601 118.2
l26.1006 23.8994c6.5 6 7 16.1006 1 22.6006s-16.1006 6.89941 -22.6006 1l-27 -24.7002l-53 -48.5c-0.0996094 -0.100586 -0.299805 -0.100586 -0.399414 -0.200195c-21.1006 -18.9004 -46.5 -7.7998 -56.1006 2.7002c-14.1992 15.3994 -14.5996 40.2998 2.10059 56
c0.0996094 0.0996094 0.200195 0.299805 0.299805 0.399414l98.2998 90c5.90039 5.40039 13.6006 8.40039 21.6006 8.40039h85.8994c8.5 0 16.6006 -3.40039 22.6006 -9.40039l54.5996 -54.5996h112z" />
    <glyph glyph-name="heart-square" unicode="&#xf4c8;" horiz-adv-x="448" 
d="M400 416c26.5 0 48 -21.5 48 -48v-352c0 -26.5 -21.5 -48 -48 -48h-352c-26.5 0 -48 21.5 -48 48v352c0 26.5 21.5 48 48 48h352zM347.5 167.7c32.2002 33.2002 30.2998 88.2002 -5.5 118.8c-31.2998 26.7002 -77.9004 21.9004 -106.6 -7.7002l-11.3008 -11.5996
l-11.2998 11.5996c-28.7002 29.6006 -75.2998 34.4004 -106.6 7.7002c-35.9004 -30.5996 -37.7998 -85.5996 -5.7002 -118.8l110.5 -114.2c7.2002 -7.40039 18.7998 -7.40039 25.9004 0z" />
    <glyph glyph-name="leaf-heart" unicode="&#xf4cb;" horiz-adv-x="576" 
d="M546.2 438.3c19 -42.3994 29.7998 -94.3994 29.7998 -144.6c0 -172.4 -110.5 -313.2 -267.5 -324.601c-80.9004 -8.59961 -142.5 33.3008 -174.9 77.2002c-51 -42.7002 -70.3994 -87 -71.8994 -90.5996c-6.7998 -16.2002 -25.4004 -24.1006 -41.7998 -17.2998
c-16.3008 6.69922 -24.1006 25.2998 -17.5 41.5996c1.89941 4.7998 29.1992 68.5 101.699 124.9c-5.19922 17.3994 -8.09961 35.8994 -8.09961 55.0996c0 106 86 192 192 192h80c63.4004 0 118.9 33.5996 149.9 87.5c6.69922 11.7998 22.6992 11.2998 28.2998 -1.2002z
M430.6 153.6c24.6006 24.9004 23.1006 66.2002 -4.5 89.1006c-23.8994 20 -59.5996 16.3994 -81.5996 -5.7998l-8.59961 -8.7002l-8.60059 8.7002c-22 22.1992 -57.5996 25.7998 -81.5996 5.7998c-27.5 -23 -28.9004 -64.2002 -4.2998 -89.1006l84.6992 -85.5996
c5.5 -5.5 14.3008 -5.5 19.8008 0z" />
    <glyph glyph-name="loveseat" unicode="&#xf4cc;" 
d="M160 224c0 35.2998 -28.7002 64 -64 64h-32c0 53 43 96 96 96h192c53 0 96 -43 96 -96h-32c-35.2998 0 -64 -28.7002 -64 -64v-64h-192v64zM448 256c35.2998 0 64 -28.7002 64 -64c0 -23.5996 -13 -44 -32 -55.0996v-120.9c0 -8.7998 -7.2002 -16 -16 -16h-64
c-8.7998 0 -16 7.2002 -16 16v16h-256v-16c0 -8.7998 -7.2002 -16 -16 -16h-64c-8.7998 0 -16 7.2002 -16 16v120.9c-19 11.0996 -32 31.5 -32 55.0996c0 35.2998 28.7002 64 64 64h32c17.7002 0 32 -14.2998 32 -32v-96h256v96c0 17.7002 14.2998 32 32 32h32z" />
    <glyph glyph-name="parachute-box" unicode="&#xf4cd;" 
d="M511.9 273c1.09961 -9.2002 -6.80078 -17 -16.1006 -17h-8.7002l-136.8 -151.9c0.700195 -2.69922 1.60059 -5.19922 1.60059 -8.09961v-128c0 -17.7002 -14.3008 -32 -32 -32h-128c-17.7002 0 -32 14.2998 -32 32v128c0 2.90039 0.899414 5.5 1.59961 8.09961
l-136.7 151.9h-8.7002c-9.19922 0 -17.0996 7.90039 -16 17c9.10059 75.5 78.4004 132.3 158.301 158.7c-36.4004 -39.4004 -62.4004 -100.601 -62.4004 -175.7h-28.0996l116.6 -129.5c2.5 0.599609 4.7998 1.5 7.5 1.5h48v128h-112c0 115.2 68.9004 192 128 192
s128 -76.7998 128 -192h-112v-128h48c2.7002 0 5 -0.900391 7.5 -1.5l116.6 129.5h-28.0996c0 75.0996 -26 136.3 -62.4004 175.7c79.9004 -26.2998 149.2 -83.1006 158.301 -158.7z" />
    <glyph glyph-name="people-carry" unicode="&#xf4ce;" horiz-adv-x="640" 
d="M128 352c-26.5 0 -48 21.5 -48 48s21.5 48 48 48s48 -21.5 48 -48s-21.5 -48 -48 -48zM512 352c-26.5 0 -48 21.5 -48 48s21.5 48 48 48s48 -21.5 48 -48s-21.5 -48 -48 -48zM637.7 -20.0996c6.59961 -16.4004 -1.40039 -35 -17.7998 -41.6006
c-3.90039 -1.59961 -7.90039 -2.2998 -11.9004 -2.2998c-12.7002 0 -24.7002 7.59961 -29.7002 20.0996l-27.7002 69.2002l2 18.2002l41.1006 46.4004zM603.5 189.7c4.59961 -20 -0.799805 -41.2002 -14.4004 -56.7002l-67.1992 -75.9004l-10.1006 -92.5996
c-1.7998 -16.4004 -15.7002 -28.5 -31.7998 -28.5c-1.2002 0 -2.2998 0.0996094 -3.5 0.200195c-17.5 1.89941 -30.2002 17.7002 -28.2998 35.2998l10.0996 92.7998c1.5 13 6.90039 25.1006 15.6006 35l43.2998 49l-17.6006 70.2998l-6.7998 -20.3994
c-4.09961 -12.6006 -11.8994 -23.4004 -24.5 -32.6006l-51.0996 -32.5c-4.60059 -2.89941 -12.1006 -4.59961 -17.2002 -5h-160c-5.09961 0.400391 -12.5996 2.10059 -17.2002 5l-51.0996 32.5c-12.6006 9.2002 -20.4004 20.1006 -24.5 32.6006l-6.7998 20.3994
l-17.6006 -70.2998l43.2998 -49c8.7002 -9.89941 14.1006 -22 15.6006 -35l10.0996 -92.7998c1.90039 -17.5996 -10.7002 -33.4004 -28.2998 -35.2998c-1.2002 -0.100586 -2.2998 -0.200195 -3.5 -0.200195c-16.2002 0 -30 12.2002 -31.7998 28.5l-10.1006 92.5996
l-67.1992 75.9004c-13.7002 15.5 -19 36.7002 -14.4004 56.7002l18.4004 80.2002c4.59961 20 18.5996 36.7998 37.5 44.8994c18.5 8 38.8994 6.7002 56.0996 -3.2998c22.7002 -13.4004 39.7998 -34.4004 48.0996 -59.4004l11.3008 -33.8994l16.0996 -10.2002v96
c0 8.7998 7.2002 16 16 16h160c8.7998 0 16 -7.2002 16 -16v-96l16 10.2002l11.2998 33.8994c8.40039 24.9004 25.4004 46 48.1006 59.4004c17.0996 10 37.5996 11.2998 56.0996 3.2998c18.9004 -8.09961 32.9004 -24.8994 37.5 -44.8994zM46.2998 89.9004l41.1006 -46.4004
l2 -18.2002l-27.7002 -69.2002c-6.5 -16.0996 -24.7998 -24.3994 -41.6006 -17.7998c-16.3994 6.60059 -24.3994 25.2002 -17.7998 41.6006z" />
    <glyph glyph-name="person-carry" unicode="&#xf4cf;" horiz-adv-x="384" 
d="M0 -31.9004v129.601c0.599609 -0.5 48 -41.4004 64 -55.1006v-74.5c0 -17.6992 -14.2998 -32 -32 -32s-32 14.3008 -32 32zM368 352c8.7998 0 16 -7.09961 16 -16v-160c0 -8.7998 -7.2002 -16 -16 -16h-240l-32 59.9004v-78.3008l44 -37.6992
c11.4004 -9.80078 19 -23.3008 21.5 -38.1006l14.0996 -92.5c2.90039 -17.3994 -8.89941 -33.8994 -26.2998 -36.7998c-26.7002 -4.40039 -35.7998 20.5996 -36.7998 26.2998l-14.0996 92.5l-76 65.1006c-14.2002 12.1992 -22.4004 29.8994 -22.4004 48.5996v103
c0 26.5 21.5 48 48 48h28.7002c23.7998 0 45.5 -13.0996 56.5996 -34.2002l33.2998 -61.7998h25.4004v112c0 8.7998 7.2002 16 16 16h160zM80 352c-26.5 0 -48 21.5 -48 48s21.5 48 48 48s48 -21.5 48 -48s-21.5 -48 -48 -48z" />
    <glyph glyph-name="person-dolly" unicode="&#xf4d0;" 
d="M331.1 87.5l-31.3994 116.9c-2.2998 8.5 2.7998 17.2998 11.2998 19.5996l117 31.2998c8.5 2.2998 17.2998 -2.7998 19.5996 -11.2998l31.4004 -116.9c2.2998 -8.5 -2.7998 -17.2998 -11.2998 -19.5996l-117 -31.2998c-8.5 -2.2998 -17.2998 2.7998 -19.6006 11.2998z
M0 -31.9004v129.601c0.5 -0.5 48 -41.4004 64 -55.1006v-74.5c0 -17.6992 -14.2998 -32 -32 -32s-32 14.3008 -32 32zM503.4 74.2002l8.19922 -30.9004c1.10059 -4.2998 -1.39941 -8.7002 -5.69922 -9.7998l-154.2 -41.2998
c-3.90039 -31.6006 -30.5 -56.1006 -63.2002 -56.1006c-35.2998 0 -64 28.7002 -64 64c0 21.6006 10.7998 40.6006 27.2002 52.2002l-28.9004 107.8h-94.7998l-32 59.9004v-78.2998l44 -37.7002c11.4004 -9.7998 19 -23.2998 21.5 -38.0996l14.0996 -92.5
c2.90039 -17.4004 -8.89941 -33.9004 -26.2998 -36.8008c-26.7002 -4.39941 -35.7998 20.6006 -36.7998 26.3008l-14.0996 92.5l-76 65.0996c-14.2002 12.2002 -22.4004 29.9004 -22.4004 48.5996v103c0 26.5 21.5 48 48 48h28.7002
c23.8994 0 45.5996 -13.0996 56.7002 -34.1992l33.2998 -61.8008h39l-12.9004 48.2002c-1.09961 4.2998 1.40039 8.7002 5.7002 9.7998l30.9004 8.30078c4.2998 1.09961 8.69922 -1.40039 9.7998 -5.7002l59.3994 -221.601c16.7002 -2.59961 31.1006 -11.5996 40.9004 -24.5
l154.1 41.3008c4.30078 1.09961 8.7002 -1.40039 9.80078 -5.7002zM288.6 -15.9004c8.90039 0 16 7.2002 16 16c0 8.80078 -7.19922 16 -16 16c-8.7998 0 -16 -7.19922 -16 -16c0 -8.7998 7.2002 -16 16 -16zM80 352c-26.5 0 -48 21.5 -48 48s21.4004 48 48 48
s48 -21.5 48 -48s-21.5 -48 -48 -48z" />
    <glyph glyph-name="person-dolly-empty" unicode="&#xf4d1;" 
d="M0 -31.9004v129.601c0.5 -0.5 48 -41.4004 64 -55.1006v-74.5c0 -17.6992 -14.2998 -32 -32 -32s-32 14.3008 -32 32zM503.4 74.2002l8.19922 -30.9004c1.10059 -4.2998 -1.39941 -8.7002 -5.69922 -9.7998l-154.2 -41.2998
c-3.90039 -31.6006 -30.5 -56.1006 -63.2002 -56.1006c-35.2998 0 -64 28.7002 -64 64c0 21.6006 10.7998 40.6006 27.2002 52.2002l-28.9004 107.8h-94.7998l-32 59.9004v-78.2998l44 -37.7002c11.4004 -9.7998 19 -23.2998 21.5 -38.0996l14.0996 -92.5
c2.90039 -17.4004 -8.89941 -33.9004 -26.2998 -36.8008c-26.7002 -4.39941 -35.7998 20.6006 -36.7998 26.3008l-14.0996 92.5l-76 65.0996c-14.2002 12.2002 -22.4004 29.9004 -22.4004 48.5996v103c0 26.5 21.5 48 48 48h28.7002
c23.8994 0 45.5996 -13.0996 56.7002 -34.1992l33.2998 -61.8008h39l-12.9004 48.2002c-1.09961 4.2998 1.40039 8.7002 5.7002 9.7998l30.9004 8.30078c4.2998 1.09961 8.69922 -1.40039 9.7998 -5.7002l59.3994 -221.601c16.7002 -2.59961 31.1006 -11.5996 40.9004 -24.5
l154.1 41.3008c4.30078 1.09961 8.7002 -1.40039 9.80078 -5.7002zM288.6 -15.9004c8.90039 0 16 7.2002 16 16c0 8.80078 -7.19922 16 -16 16c-8.7998 0 -16 -7.19922 -16 -16c0 -8.7998 7.2002 -16 16 -16zM80 352c-26.5 0 -48 21.5 -48 48s21.4004 48 48 48
s48 -21.5 48 -48s-21.5 -48 -48 -48z" />
    <glyph glyph-name="phone-plus" unicode="&#xf4d2;" 
d="M493.4 423.4c10.8994 -2.5 18.5996 -12.2002 18.5996 -23.4004c0 -256.5 -207.9 -464 -464 -464c-11.2998 0 -20.9004 7.7998 -23.4004 18.5996l-24 104c-2.59961 11.3008 3.30078 22.9004 14 27.6006l112 48c9.80078 4.2002 21.2002 1.39941 28 -6.90039
l49.6006 -60.5996c78.2998 36.7002 141.2 100.5 177.2 177.2l-60.6006 49.5996c-8.2998 6.7002 -11.0996 18.2002 -6.89941 28l48 112c4.59961 10.5996 16.1992 16.5 27.5 13.9004zM16 304c-8.7998 0 -16 7.2002 -16 16v32c0 8.7998 7.2002 16 16 16h64v64
c0 8.7998 7.2002 16 16 16h32c8.7998 0 16 -7.2002 16 -16v-64h64c8.7998 0 16 -7.2002 16 -16v-32c0 -8.7998 -7.2002 -16 -16 -16h-64v-64c0 -8.7998 -7.2002 -16 -16 -16h-32c-8.7998 0 -16 7.2002 -16 16v64h-64z" />
    <glyph glyph-name="ramp-loading" unicode="&#xf4d4;" horiz-adv-x="384" 
d="M292.4 119.2l80 -160c5.2998 -10.7002 -2.40039 -23.2002 -14.3008 -23.2002h-332.199c-11.9004 0 -19.6006 12.5 -14.3008 23.2002l80 160c2.7002 5.39941 8.2002 8.7998 14.3008 8.7998h172.199c6.10059 0 11.6006 -3.40039 14.3008 -8.7998zM352 448
c17.7002 0 32 -14.2998 32 -32v-320c0 -16.4004 -12.5996 -29.5 -28.5996 -31.2998l-34.4004 68.7998c-0.200195 0.5 -0.700195 1 -1 1.5v249h-256v-249c-0.299805 -0.5 -0.700195 -0.900391 -1 -1.5l-34.4004 -68.7998c-16 1.7998 -28.5996 14.7998 -28.5996 31.2998v320
c0 17.7002 14.2998 32 32 32h320z" />
    <glyph glyph-name="ribbon" unicode="&#xf4d6;" horiz-adv-x="448" 
d="M6.09961 3.7002l117.2 130l79.2002 -87.9004l-91.7998 -101.899c-8 -8.80078 -21.4004 -10.5 -31.2998 -3.80078l-68.8008 27.9004c-12 8.09961 -14.0996 24.9004 -4.5 35.7002zM441.9 3.7002c9.69922 -10.7998 7.59961 -27.6006 -4.30078 -35.6006l-68.7998 -27.8994
c-9.89941 -6.7002 -23.2998 -5.10059 -31.2998 3.7998l-248.1 275.3c-48.6006 53.7998 -13 113.5 -11.5 116l43.5996 73.2002c4.2998 7.2002 9.90039 13.2998 16.7998 18c44 29.7002 130.7 27.5996 171.4 0c6.89941 -4.7002 12.5 -10.7998 16.7998 -18l43.7002 -73.5
c21.8994 -36.9004 17.2998 -83.5996 -11.4004 -115.5l-34.2002 -38l-79.0996 87.7002s52.7002 59 56 64.5996c-15.4004 8.40039 -40.2002 17.9004 -77.5 17.9004s-62.0996 -9.5 -77.5 -17.9004c3.40039 -5.5 295.4 -330.1 295.4 -330.1z" />
    <glyph glyph-name="seedling" unicode="&#xf4d8;" 
d="M64 352c123.7 0 224 -100.3 224 -224v-144c0 -8.7998 -7.2002 -16 -16 -16h-32c-8.7998 0 -16 7.2002 -16 16v144c-123.7 0 -224 100.3 -224 224h64zM448 416h64c0 -115.9 -88 -211.1 -200.7 -222.8c-10.7998 40.7002 -31.2998 77.3994 -59 107.6
c38.2998 68.7002 111.5 115.2 195.7 115.2z" />
    <glyph glyph-name="sign" unicode="&#xf4d9;" 
d="M496 384c8.7998 0 16 -7.2002 16 -16v-32c0 -8.7998 -7.2002 -16 -16 -16h-368v-368c0 -8.7998 -7.2002 -16 -16 -16h-32c-8.7998 0 -16 7.2002 -16 16v368h-48c-8.7998 0 -16 7.2002 -16 16v32c0 8.7998 7.2002 16 16 16h48v48c0 8.7998 7.2002 16 16 16h32
c8.7998 0 16 -7.2002 16 -16v-48h368zM160 64v224h320v-224h-320z" />
    <glyph glyph-name="tape" unicode="&#xf4db;" horiz-adv-x="640" 
d="M224 256c35.2998 0 64 -28.7002 64 -64s-28.7002 -64 -64 -64s-64 28.7002 -64 64s28.7002 64 64 64zM624 32c8.7998 0 16 -7.2002 16 -16v-32c0 -8.7998 -7.2002 -16 -16 -16h-400c-123.7 0 -224 100.3 -224 224s100.3 224 224 224s224 -100.3 224 -224
c0 -62.7002 -25.9004 -119.3 -67.4004 -160h243.4zM224 96c53 0 96 43 96 96s-43 96 -96 96s-96 -43 -96 -96s43 -96 96 -96z" />
    <glyph glyph-name="truck-container" unicode="&#xf4dc;" horiz-adv-x="640" 
d="M621.3 210.7c12 -12 18.7002 -28.2002 18.7002 -45.2998v-85.5c0 -8.80078 -7.2002 -16 -16 -16h-17.5c1 -5.2002 1.59961 -10.5 1.59961 -16c0 -50.7002 -47.1992 -90.4004 -100 -77.6006c-25.6992 6.2002 -47.1992 26 -55.5996 51.1006
c-5 14.7998 -5.5 29.1992 -2.7998 42.3994h-163.2c2.59961 -13.2002 2.09961 -27.5996 -2.7998 -42.3994c-8.2998 -24.6006 -29.2002 -44.3008 -54.4004 -50.8008c-34.8994 -9 -66.8994 5 -85.2998 29.7002c-16.5996 -22.2002 -44.2002 -35.7998 -74.9004 -31.7002
c-40.3994 5.40039 -69.0996 42.7002 -69.0996 83.5v27.8008c0 17.6992 14.2998 32 32 32h400v144c0 17.6992 14.2998 32 32 32h53.5c17 0 33.2998 -6.7002 45.2998 -18.7002zM80 16c17.5996 0 32 14.4004 32 32s-14.4004 32 -32 32s-32 -14.4004 -32 -32s14.4004 -32 32 -32
zM208 16c17.5996 0 32 14.4004 32 32s-14.4004 32 -32 32s-32 -14.4004 -32 -32s14.4004 -32 32 -32zM528 16c17.5996 0 32 14.4004 32 32s-14.4004 32 -32 32s-32 -14.4004 -32 -32s14.4004 -32 32 -32zM480 192h92.0996l-43.2998 43.2998
c-3 3 -7.09961 4.7002 -11.2998 4.7002h-37.5v-48zM32 144c-17.7002 0 -32 14.2998 -32 32v208c0 17.7002 14.2998 32 32 32h336c17.7002 0 32 -14.2998 32 -32v-208c0 -17.7002 -14.2998 -32 -32 -32h-336zM304 368v-176h32v176h-32zM224 368v-176h32v176h-32zM144 368
v-176h32v176h-32zM64 368v-176h32v176h-32z" />
    <glyph glyph-name="truck-couch" unicode="&#xf4dd;" horiz-adv-x="640" 
d="M24.0996 48l-22.6992 85c-5.7002 21.2998 7 43.2998 28.2998 49s43.2998 -7 49 -28.2998l6.2002 -23.2002l185.399 49.7002l-6.2002 23.2002c-5.69922 21.2998 7 43.2998 28.3008 49c9.59961 2.5 19.2998 0.899414 27.5996 -3.10059v-122zM21.4004 212.9
c-2.60059 -0.700195 -5.10059 -1.80078 -7.60059 -2.80078c-9.7002 36.5 12.2998 70.3008 45.1006 79.1006l154.6 41.3994c32.7998 8.80078 68.7998 -9.39941 78.7002 -46.2998c-2.7002 -0.399414 -5.40039 -0.399414 -8 -1.09961
c-35.7002 -9.5 -57.6006 -44.5 -52.2002 -80.2002l-125.1 -33.5c-11.8008 30 -45.9004 54 -85.5 43.4004zM384 448h256v-400c0 -61.9004 -50.0996 -112 -112 -112c-60.4004 0 -109.2 47.9004 -111.6 107.7l-393.7 -107.4c-4.2002 -1.2002 -8.60059 1.2998 -9.7998 5.60059
l-12.6006 46.2998c-1.2002 4.2002 1.2998 8.59961 5.60059 9.7998l346.1 94.4004v323.6c0 17.7002 14.2998 32 32 32zM528 0c26.5 0 48 21.5 48 48s-21.5 48 -48 48s-48 -21.5 -48 -48s21.5 -48 48 -48z" />
    <glyph glyph-name="truck-loading" unicode="&#xf4de;" horiz-adv-x="640" 
d="M50.2002 72.4004l-49.6006 185.5c-2.2998 8.5 2.80078 17.2998 11.3008 19.5996l77.2998 20.7002l24.7998 -92.7002l61.7998 16.5l-24.7998 92.7002l77.2002 20.7998c8.5 2.2998 17.2998 -2.7998 19.5996 -11.2998l49.7002 -185.5
c2.2998 -8.5 -2.7998 -17.2998 -11.2998 -19.6006l-216.4 -58c-8.5 -2.2998 -17.2998 2.80078 -19.5996 11.3008zM384 448h256v-400c0 -61.9004 -50.0996 -112 -112 -112c-60.4004 0 -109.2 47.9004 -111.6 107.7l-393.7 -107.4
c-4.2002 -1.2002 -8.60059 1.2998 -9.7998 5.60059l-12.6006 46.2998c-1.2002 4.2002 1.2998 8.59961 5.60059 9.7998l346.1 94.4004v323.6c0 17.7002 14.2998 32 32 32zM528 0c26.5 0 48 21.5 48 48s-21.5 48 -48 48s-48 -21.5 -48 -48s21.5 -48 48 -48z" />
    <glyph glyph-name="truck-moving" unicode="&#xf4df;" horiz-adv-x="640" 
d="M621.3 210.7c12 -12 18.7002 -28.2002 18.7002 -45.2002v-85.5c0 -8.7998 -7.2002 -16 -16 -16h-17.5996c1 -5.2002 1.59961 -10.5 1.59961 -16c0 -44.2002 -35.7998 -80 -80 -80s-80 35.7998 -80 80c0 5.5 0.5 10.7998 1.59961 16h-163.199
c1 -5.2002 1.59961 -10.5 1.59961 -16c0 -44.2002 -35.7998 -80 -80 -80c-26.2998 0 -49.4004 12.7998 -64 32.4004c-14.5996 -19.5 -37.7002 -32.4004 -64 -32.4004c-44.2002 0 -80 35.7998 -80 80v336c0 17.7002 14.2998 32 32 32h416c17.7002 0 32 -14.2998 32 -32
v-96.0996h37.5c17 0 33.2998 -6.7002 45.2998 -18.7002zM80 16c17.5996 0 32 14.4004 32 32s-14.4004 32 -32 32s-32 -14.4004 -32 -32s14.4004 -32 32 -32zM208 16c17.5996 0 32 14.4004 32 32s-14.4004 32 -32 32s-32 -14.4004 -32 -32s14.4004 -32 32 -32zM480 240v-48
h92.0996l-43.2998 43.2998c-3 3 -7 4.7002 -11.2998 4.7002h-37.5zM528 16c17.5996 0 32 14.4004 32 32s-14.4004 32 -32 32s-32 -14.4004 -32 -32s14.4004 -32 32 -32z" />
    <glyph glyph-name="truck-ramp" unicode="&#xf4e0;" horiz-adv-x="640" 
d="M384 448h256v-400c0 -61.9004 -50.0996 -112 -112 -112c-60.4004 0 -109.2 47.9004 -111.6 107.7l-393.7 -107.4c-4.2002 -1.2002 -8.60059 1.2998 -9.7998 5.60059l-12.6006 46.2998c-1.2002 4.2002 1.2998 8.59961 5.60059 9.7998l346.1 94.4004v323.6
c0 17.7002 14.2998 32 32 32zM528 0c26.5 0 48 21.5 48 48s-21.5 48 -48 48s-48 -21.5 -48 -48s21.5 -48 48 -48z" />
    <glyph glyph-name="video-plus" unicode="&#xf4e1;" horiz-adv-x="576" 
d="M336.2 384c26.3994 0 47.7998 -21.4004 47.7998 -47.7998v-288.4c0 -26.3994 -21.4004 -47.7998 -47.7998 -47.7998h-288.4c-26.3994 0 -47.7998 21.4004 -47.7998 47.7998v288.4c0 26.3994 21.4004 47.7998 47.7998 47.7998h288.4zM304 184v16
c0 8.7998 -7.2002 16 -16 16h-72v72c0 8.7998 -7.2002 16 -16 16h-16c-8.7998 0 -16 -7.2002 -16 -16v-72h-72c-8.7998 0 -16 -7.2002 -16 -16v-16c0 -8.7998 7.2002 -16 16 -16h72v-72c0 -8.7998 7.2002 -16 16 -16h16c8.7998 0 16 7.2002 16 16v72h72
c8.7998 0 16 7.2002 16 16zM576 320.5v-256.9c0 -25.5 -29.0996 -40.3994 -50.4004 -25.7998l-109.6 75.5v157.4l109.6 75.5c21.3008 14.7002 50.4004 -0.299805 50.4004 -25.7002z" />
    <glyph glyph-name="video-slash" unicode="&#xf4e2;" horiz-adv-x="640" 
d="M633.8 -10.0996c7 -5.40039 8.2998 -15.5 2.7998 -22.4004l-19.5996 -25.2998c-5.5 -7 -15.5 -8.2002 -22.5 -2.7998l-178.5 138l-373.3 288.6l-36.5 28.2002c-7 5.39941 -8.2002 15.3994 -2.7998 22.3994l19.5996 25.2002c5.5 7 15.5 8.2002 22.5 2.7998
l78.4004 -60.5996h244.3c26.3994 0 47.7998 -21.4004 47.7998 -47.7998v-178l32 -24.7002v137.2l109.6 75.5996c21.3008 14.6006 50.4004 -0.299805 50.4004 -25.7998v-257c0 -17.4004 -13.7998 -29.7002 -29.2002 -31.0996zM32 47.7998v245.5l365.8 -282.8
c-8.2002 -6.5 -18.3994 -10.5 -29.5996 -10.5h-288.4c-26.3994 0 -47.7998 21.4004 -47.7998 47.7998z" />
  </font>
</defs>
</svg>
