<?xml version="1.0" standalone="no"?>
<!DOCTYPE svg PUBLIC "-//W3C//DTD SVG 1.1//EN" "http://www.w3.org/Graphics/SVG/1.1/DTD/svg11.dtd" >
<svg xmlns="http://www.w3.org/2000/svg" xmlns:xlink="http://www.w3.org/1999/xlink" version="1.1">
<metadata>
Created by FontForge 20201107 at Tue Mar 16 10:16:58 2021
 By Robert Madole
Copyright (c) Font Awesome
</metadata>
<!-- Font Awesome Pro 5.15.3 by @fontawesome - https://fontawesome.com License - https://fontawesome.com/license (Commercial License) --><defs>
<font id="FontAwesome5Pro-Solid" horiz-adv-x="512" >
  <font-face 
    font-family="Font Awesome 5 Pro Solid"
    font-weight="900"
    font-stretch="normal"
    units-per-em="512"
    panose-1="2 0 5 3 0 0 0 0 0 0"
    ascent="448"
    descent="-64"
    bbox="-0.542969 -64.126 640.054 448.315"
    underline-thickness="25"
    underline-position="-50"
    unicode-range="U+0020-F8FF"
  />
    <missing-glyph />
    <glyph glyph-name="caravan-alt" unicode="&#xe000;" horiz-adv-x="640" 
d="M624 128c8.83105 0 16 -7.16895 16 -16v-32c0 -8.83105 -7.16895 -16 -16 -16h-336c0 -52.9834 -43.0166 -96 -96 -96s-96 43.0166 -96 96h-32c-35.3223 0 -64 28.6777 -64 64v256c0 35.3223 28.6777 64 64 64h352c88.3066 0 160 -71.6934 160 -160v-160h48zM192 16
c26.4795 0.0273438 47.9727 21.5205 48 48c0 26.4922 -21.5078 48 -48 48s-48 -21.5078 -48 -48s21.5078 -48 48 -48zM256 256v64c0 17.6611 -14.3389 32 -32 32h-128c-17.6611 0 -32 -14.3389 -32 -32v-64c0 -17.6611 14.3389 -32 32 -32h128c17.6611 0 32 14.3389 32 32z
M448 256v64c0 17.6611 -14.3389 32 -32 32h-64c-17.6611 0 -32 -14.3389 -32 -32v-64c0 -17.6611 14.3389 -32 32 -32h64c17.6611 0 32 14.3389 32 32z" />
    <glyph glyph-name="cat-space" unicode="&#xe001;" horiz-adv-x="640" 
d="M544 415.275c38.6484 -29.207 64 -75.0996 64 -127.275c-0.0107422 -77.3047 -55.0693 -141.875 -128 -156.775v-179.225v-0.00878906c0 -8.82617 -7.16504 -15.9912 -15.9902 -15.9912h-0.00976562h-32h-0.00878906c-8.82617 0 -15.9912 7.16504 -15.9912 15.9902
v0.00976562v144l-128 -96h32c17.6611 -0.000976562 31.999 -14.3389 32 -32v-16v-0.00878906c0 -8.82617 -7.16504 -15.9912 -15.9902 -15.9912h-0.00976562h-176c-35.3066 0.0351562 -63.9648 28.6934 -64 64v256c-0.0234375 17.6504 -14.3496 31.9766 -32 32
c-17.6611 0 -32 14.3389 -32 32s14.3389 32 32 32c52.957 -0.0576172 95.9424 -43.043 96 -96v-85.9531c40.0996 60.3809 96.0527 78.2969 131.893 83.6387c-2.49023 11.0771 -3.83594 22.5029 -3.89258 34.3145c0 52.1758 25.3516 98.0684 64 127.275v0.724609
l0.396484 -0.396484c26.7344 20.0703 59.5996 32.3965 95.6035 32.3965s68.8691 -12.3262 95.6035 -32.3965l0.396484 0.396484v-0.724609zM448 416c-27.082 -0.0136719 -52.3154 -8.58789 -72.9375 -23.0625l40.9375 -40.9375h64l40.9375 40.9375
c-20.6221 14.4746 -45.8555 23.0488 -72.9375 23.0625zM504 288c0 8.82617 -7.16504 16 -15.9902 16h-0.00976562c-8.83105 0 -16 -7.16895 -16 -16s7.16895 -16 16 -16s16 7.16895 16 16zM424 288c0 8.82617 -7.16504 16 -15.9902 16h-0.00976562
c-8.83105 0 -16 -7.16895 -16 -16s7.16895 -16 16 -16s16 7.16895 16 16zM448 160c70.6084 0.0791016 127.921 57.3916 128 128c0 32.1699 -12.334 61.2539 -32 83.7637v-83.7637c0 -52.9834 -43.0166 -96 -96 -96s-96 43.0166 -96 96v83.7637
c-19.666 -22.5098 -32 -51.5938 -32 -83.7637c0.0791016 -70.6084 57.3916 -127.921 128 -128zM162.945 379.23c-1.74902 0.875977 -2.9502 2.67969 -2.9502 4.76758s1.20117 3.89746 2.9502 4.77344l39.7109 16.5586l16.5625 39.7129
c0.871094 1.75488 2.67578 2.96191 4.7666 2.96191s3.90137 -1.20703 4.77246 -2.96191l16.5586 -39.7129l39.7148 -16.5586c1.74902 -0.875977 2.9502 -2.67969 2.9502 -4.76758s-1.20117 -3.89746 -2.9502 -4.77344l-39.7148 -16.5605l-16.5586 -39.7109
c-0.870117 -1.75586 -2.67578 -2.96387 -4.7666 -2.96387s-3.90234 1.20801 -4.77246 2.96387l-16.5625 39.7109z" />
    <glyph glyph-name="coffee-pot" unicode="&#xe002;" 
d="M431.45 270.35c49.9199 -40.1797 80.5498 -100.72 80.5498 -167.029c-0.0195312 -51.4805 -18.71 -84.7705 -49.71 -117.721c-10.3936 -10.8525 -25.0225 -17.5996 -41.2207 -17.5996h-0.229492h-265.67c-0.0664062 0 -0.129883 -0.0146484 -0.196289 -0.0146484
c-16.2471 0 -30.9199 6.79004 -41.334 17.6846c-31.0195 32.9404 -49.6396 66.2402 -49.6396 117.71c0 66.9297 31.4102 126.72 80.7197 166.46l-27.3896 82.1602h-13.3301c-22.0762 0 -40 -17.9238 -40 -40v-72c0 -8.83105 -7.16895 -16 -16 -16h-32
c-8.83105 0 -16 7.16895 -16 16v88c0 48.5684 39.4316 88 88 88h392zM445.91 128c-6.41992 38.7803 -28.0205 72.7998 -59 96h-195.8c-31.5801 -23.1504 -53.79 -56.9404 -60.5 -96h315.3z" />
    <glyph glyph-name="comet" unicode="&#xe003;" 
d="M491.128 447.291c1.4834 0.448242 3.05273 0.694336 4.68262 0.694336c8.93164 0 16.1826 -7.25098 16.1826 -16.1836c0 -1.59863 -0.232422 -3.14453 -0.665039 -4.60449c-11.6074 -38.7021 -34.3076 -111.702 -61.3037 -187.701
c6.99902 -2.09277 13.4043 -3.99902 18.6074 -5.59277c6.58301 -2.00684 11.3691 -8.14453 11.3691 -15.3809c0 -2.71875 -0.676758 -5.28027 -1.87109 -7.52539c-22.1055 -42.2969 -82.6904 -152.795 -142.479 -214.403c-0.999023 -1.09375 -1.99902 -2.5 -2.99902 -3.5
c-35.2715 -35.3066 -84.0605 -57.1045 -137.86 -57.1045c-107.529 0 -194.83 87.2998 -194.83 194.83c0 53.7812 21.8379 102.502 57.123 137.771c1 1 2.40625 2 3.5 3c61.5996 59.9053 171.974 120.404 214.373 142.498c2.24512 1.19434 4.81934 1.88086 7.53809 1.88086
c7.23535 0 13.3604 -4.79688 15.3643 -11.3809c1.59375 -5.09375 3.5 -11.5938 5.59277 -18.5928c75.8955 26.999 148.978 49.7021 187.675 61.2959zM315.337 147.645c2.83594 2.78516 4.5791 6.66504 4.5791 10.9512c0 7.70996 -5.69824 14.0996 -13.1094 15.1846
l-69.8545 10.1973l-31.2666 63.4678c-2.49121 5.07129 -7.69043 8.56543 -13.7178 8.56543s-11.2441 -3.49414 -13.7354 -8.56543l-31.2666 -63.4678l-69.8545 -10.1973c-7.40039 -1.07715 -13.1113 -7.45801 -13.1113 -15.1553
c0 -4.30469 1.78027 -8.19727 4.64355 -10.9805l50.5957 -49.334l-11.998 -69.7275c-2.13379 -12.6055 11.123 -22.0742 22.1963 -16.1367l62.5215 32.9277l62.5215 -32.9277c2.12207 -1.11426 4.55371 -1.76855 7.11523 -1.76855
c8.44531 0 15.3018 6.85645 15.3018 15.3018c0 0.887695 -0.0761719 1.75781 -0.220703 2.60352l-11.9258 69.7275z" />
    <glyph glyph-name="fan-table" unicode="&#xe004;" horiz-adv-x="448" 
d="M320 0c28.4199 0 55 -18.5303 63.2998 -44.1602c3.21973 -9.83984 -5.17969 -19.8398 -15.5596 -19.8398h-287.48c-10.3799 0 -18.7793 10 -15.5596 19.8398c8.34961 25.6299 34.8799 44.1602 63.2998 44.1602h72v33.4902c-103.55 11.9199 -184 99.7598 -184 206.51
c0 114.87 93.1201 208 208 208s208 -93.1299 208 -208c0 -106.75 -80.4502 -194.59 -184 -206.51v-33.4902h72zM119.67 113.2c13.873 -8.00684 30.0068 -12.75 47.1621 -12.75c34.9678 0 65.5244 19.04 81.8584 47.3096c7.83789 13.667 12.3799 29.5244 12.3799 46.3955
c0 6.05664 -0.577148 11.9785 -1.68066 17.7148l104.7 -17.4502c1.00488 -0.166016 2.01855 -0.251953 3.07031 -0.251953c10.3955 0 18.835 8.4375 18.8398 18.832c0 0.0908203 -0.0527344 0.15332 -0.0527344 0.245117c0 52.0781 -42.2812 94.3594 -94.3594 94.3594
c-23.3193 0 -44.6738 -8.47656 -61.1475 -22.5146l-37.0801 99c-2.74023 7.37988 -14 17.1201 -27 9.73047v0c-21.4766 -12.3154 -37.5166 -32.8564 -44 -57.3398c-9.54004 -35.7002 2.46973 -92.7109 59.6396 -113l-67.4697 -82
c-9.43066 -11.4209 -1.9502 -24.2002 5.13965 -28.2803zM224 256c8.83105 0 16 -7.16895 16 -16s-7.16895 -16 -16 -16s-16 7.16895 -16 16s7.16895 16 16 16z" />
    <glyph glyph-name="faucet" unicode="&#xe005;" 
d="M352 192c88.3066 0 160 -71.6934 160 -160c0 -17.6611 -14.3389 -32 -32 -32h-64c-17.6611 0 -32 14.3389 -32 32s-14.3389 32 -32 32h-12.79c-20.5898 -37.7305 -64.21 -64 -115.21 -64s-94.6201 26.2695 -115.21 64h-92.79c-8.83105 0 -16 7.16895 -16 16v96
c0 8.83105 7.16895 16 16 16h118.61c15.71 13.4004 35.46 23 57.3896 28v47.5596l32 3.38086l32 -3.38086v-47.5596c21.9297 -4.92969 41.6797 -14.5596 57.3896 -28h38.6104zM81.5898 288.09c-9.41992 -1 -17.5898 6.81055 -17.5898 16.7998v30.2207
c0 9.98926 8.16992 17.7998 17.5898 16.8096l110.41 -11.6602v27.7402c0 8.83105 7.16895 16 16 16h32c8.83105 0 16 -7.16895 16 -16v-27.7402l110.41 11.6602c9.41992 0.990234 17.5898 -6.80957 17.5898 -16.8096v-30.2207
c0 -9.98926 -8.16992 -17.7998 -17.5898 -16.7998l-142.41 15z" />
    <glyph glyph-name="faucet-drip" unicode="&#xe006;" 
d="M416 -32c0 17.6699 32 64 32 64s32 -46.3301 32 -64c0 -17.6611 -14.3389 -32 -32 -32s-32 14.3389 -32 32zM352 256c88.3066 0 160 -71.6934 160 -160c0 -17.6611 -14.3389 -32 -32 -32h-64c-17.6611 0 -32 14.3389 -32 32s-14.3389 32 -32 32h-12.79
c-20.5898 -37.7305 -64.21 -64 -115.21 -64s-94.6201 26.2695 -115.21 64h-92.79c-8.83105 0 -16 7.16895 -16 16v96c0 8.83105 7.16895 16 16 16h118.61c15.71 13.4004 35.46 23 57.3896 28v47.5596l32 3.38086l32 -3.38086v-47.5596
c21.9297 -4.92969 41.6797 -14.5596 57.3896 -28h38.6104zM81.5898 352.09c-9.41992 -1 -17.5898 6.81055 -17.5898 16.7998v30.2207c0 9.98926 8.16992 17.7998 17.5898 16.7998l110.41 -11.6504v27.7402c0 8.83105 7.16895 16 16 16h32c8.83105 0 16 -7.16895 16 -16
v-27.7402l110.41 11.6504c9.41992 1 17.5898 -6.7998 17.5898 -16.7998v-30.2002c0 -9.99023 -8.16992 -17.7998 -17.5898 -16.7998l-142.41 15z" />
    <glyph glyph-name="galaxy" unicode="&#xe008;" 
d="M506.578 173.896c3.52832 -14.7266 5.41602 -29.7959 5.41602 -45.5977c0 -6.58203 -0.324219 -13.0889 -0.957031 -19.5059c-1.45117 -14.4102 -21.1738 -17.4082 -26.8691 -4.09375c-19.2637 44.9414 -60.8623 78.0146 -110.744 85.5137
c6.78027 -19.7676 10.5137 -40.8672 10.5137 -62.9219c0 -13.3135 -1.3418 -26.3164 -3.89648 -38.8809c-14.3066 -71.6484 -71.0391 -130.191 -142.145 -146.988c-14.7266 -3.52832 -29.7959 -5.41602 -45.5977 -5.41602c-6.58203 0 -13.0889 0.324219 -19.5059 0.957031
c-14.4102 1.45117 -17.4082 21.1738 -4.09375 26.8691c44.9414 19.2637 78.0146 60.8623 85.5137 110.744c-19.7676 -6.78027 -40.8672 -10.5137 -62.9219 -10.5137c-13.3135 0 -26.3164 1.3418 -38.8809 3.89648c-71.6484 14.3066 -130.191 71.0391 -146.988 142.145
c-3.52832 14.7266 -5.41602 29.7959 -5.41602 45.5977c0 6.58203 0.324219 13.0889 0.957031 19.5059c1.45117 14.4102 21.1738 17.4082 26.8691 4.09375c19.2637 -44.9414 60.8623 -78.0146 110.744 -85.5137c-6.78027 19.7676 -10.5137 40.8672 -10.5137 62.9219
c0 13.3135 1.3418 26.3164 3.89648 38.8809c14.3066 71.6484 71.0391 130.191 142.145 146.988c14.7266 3.52832 29.7959 5.41602 45.5977 5.41602c6.58203 0 13.0889 -0.324219 19.5059 -0.957031c14.4102 -1.45117 17.4082 -21.1738 4.09375 -26.8691
c-44.9414 -19.2637 -78.0146 -60.8623 -85.5137 -110.744c19.7676 6.78027 40.8672 10.5137 62.9219 10.5137c13.3135 0 26.3164 -1.3418 38.8809 -3.89648c71.6484 -14.3066 130.191 -71.0391 146.988 -142.145zM256 144c26.4922 0 48 21.5078 48 48s-21.5078 48 -48 48
s-48 -21.5078 -48 -48s21.5078 -48 48 -48z" />
    <glyph glyph-name="garage" unicode="&#xe009;" horiz-adv-x="640" 
d="M128 -64l0.110352 160h383.89v-160h-384zM272 32c-8.83105 0 -16 -7.16895 -16 -16s7.16895 -16 16 -16h96c8.83105 0 16 7.16895 16 16s-7.16895 16 -16 16h-96zM128 128v96h384l-0.530273 -96h-383.47zM610.5 331c17.3154 -7.26367 29.4648 -24.3477 29.5 -44.2803
v-334.72c0 -8.83105 -7.16895 -16 -16 -16h-64c-8.83105 0 -16 7.16895 -16 16v272c0 17.5898 -14.5898 32 -32.5898 32h-382.82c-18 0 -32.5898 -14.4102 -32.5898 -32v-272c0 -8.83105 -7.16895 -16 -16 -16h-64c-8.83105 0 -16 7.16895 -16 16v334.72
c0.0351562 19.9326 12.1846 37.0166 29.5 44.2803l272 113.33c5.76465 2.17578 12.0254 3.4707 18.5 3.66992c6.44141 -0.209961 12.6729 -1.50391 18.4102 -3.66992z" />
    <glyph glyph-name="garage-car" unicode="&#xe00a;" horiz-adv-x="640" 
d="M610.5 331c17.3154 -7.26367 29.4648 -24.3477 29.5 -44.2803v-334.72c0 -8.83105 -7.16895 -16 -16 -16h-64c-8.83105 0 -16 7.16895 -16 16v272c0 17.5898 -14.5898 32 -32.5898 32h-382.82c-18 0 -32.5898 -14.4102 -32.5898 -32v-272
c0 -8.83105 -7.16895 -16 -16 -16h-64c-8.83105 0 -16 7.16895 -16 16v334.72c0.0351562 19.9326 12.1846 37.0166 29.5 44.2803l272 113.33c5.76465 2.17578 12.0254 3.4707 18.5 3.66992c6.44141 -0.209961 12.6729 -1.50391 18.4102 -3.66992zM465.5 92.5801
c17.8623 -6.9502 30.4834 -24.2764 30.5 -44.5801v-32c0 -11.7197 -6.61035 -21.5195 -16 -27.0996v-28.9004c0 -13.2461 -10.7539 -24 -24 -24h-32c-13.2461 0 -24 10.7539 -24 24v24h-160v-24c0 -13.2461 -10.7539 -24 -24 -24h-32c-13.2461 0 -24 10.7539 -24 24v28.9004
c-9.38965 5.58008 -16 15.3799 -16 27.0996v32c0.0126953 20.3076 12.665 37.6582 30.5303 44.6104l15.75 63c7.4873 30.0586 34.6768 52.3896 67.04 52.3896h0.0693359h125.221c0.0302734 0 0.0546875 -0.03125 0.0849609 -0.03125
c32.374 0 59.5771 -22.3145 67.0547 -52.3887zM236.84 143.95l-11.9795 -47.9502h190.3l-12 47.9502c-2.28809 9.20801 -10.6143 16.0498 -20.5254 16.0498h-0.0244141h-125.221c-0.0078125 0 -0.0136719 -0.00976562 -0.0224609 -0.00976562
c-9.91113 0 -18.2393 -6.83203 -20.5273 -16.04zM208 16.1504c14.4004 0 36 -2.40039 36 11.96c0 14.3594 -21.5996 35.8896 -36 35.8896s-24 -9.57031 -24 -23.9297c0 -14.3604 9.59961 -23.9199 24 -23.9199zM432 16.1504c14.4004 0 24 9.56934 24 23.9199
c0 14.3496 -9.59961 23.9297 -24 23.9297s-36 -21.46 -36 -35.8496c0 -14.3906 21.5996 -12 36 -12z" />
    <glyph glyph-name="garage-open" unicode="&#xe00b;" horiz-adv-x="640" 
d="M128 224h384l-0.530273 -64h-383.47v64zM465.47 92.5996c17.8623 -6.9502 30.5137 -24.2959 30.5303 -44.5996v-32c0 -11.7197 -6.61035 -21.5195 -16 -27.0996v-28.9004c0 -13.2461 -10.7539 -24 -24 -24h-32c-13.2461 0 -24 10.7539 -24 24v24h-160v-24
c0 -13.2461 -10.7539 -24 -24 -24h-32c-13.2461 0 -24 10.7539 -24 24v28.9004c-9.38965 5.58008 -16 15.3799 -16 27.0996v32c0.0166016 20.3037 12.668 37.6494 30.5303 44.5996l8.84961 35.4004h49.4805l-8 -32h190.279l-8 32h49.4805zM208 16.1504
c14.4004 0 36 -2.40039 36 11.96c0 14.3594 -21.5996 35.8896 -36 35.8896s-24 -9.57031 -24 -23.9297c0 -14.3604 9.59961 -23.9199 24 -23.9199zM432 16.1504c14.4004 0 24 9.56934 24 23.9199c0 14.3496 -9.59961 23.9297 -24 23.9297s-36 -21.46 -36 -35.8496
c0 -14.3906 21.5996 -12 36 -12zM610.5 331c17.3154 -7.26367 29.4648 -24.3477 29.5 -44.2803v-334.72c0 -8.83105 -7.16895 -16 -16 -16h-64c-8.83105 0 -16 7.16895 -16 16v272c0 17.5898 -14.5898 32 -32.5898 32h-382.82c-18 0 -32.5898 -14.4102 -32.5898 -32v-272
c0 -8.83105 -7.16895 -16 -16 -16h-64c-8.83105 0 -16 7.16895 -16 16v334.72c0.0351562 19.9326 12.1846 37.0166 29.5 44.2803l272 113.33c5.76465 2.17578 12.0254 3.4707 18.5 3.66992c6.44141 -0.209961 12.6729 -1.50391 18.4102 -3.66992z" />
    <glyph glyph-name="heat" unicode="&#xe00c;" horiz-adv-x="448" 
d="M64 295.75c0 -0.0957031 0.0195312 -0.250977 0.0195312 -0.34668c0 -39.627 14.9707 -75.7861 39.5605 -103.123c35.042 -38.752 56.4199 -90.1992 56.4199 -146.508v-0.182617v-61.5898c0 -8.83105 -7.16895 -16 -16 -16h-32c-8.83105 0 -16 7.16895 -16 16v61.5898
c0 0.121094 -0.0195312 0.300781 -0.0195312 0.421875c0 39.5742 -14.9482 75.6846 -39.5 102.988c-35.0801 38.79 -56.4805 90.29 -56.4805 146.656v0.09375v40.25c0 8.83105 7.16895 16 16 16h32c8.83105 0 16 -7.16895 16 -16v-40.25zM391.58 192.28
c35.042 -38.752 56.4199 -90.1992 56.4199 -146.508v-0.182617v-61.5898c0 -8.83105 -7.16895 -16 -16 -16h-32c-8.83105 0 -16 7.16895 -16 16v61.5898c0 0.121094 -0.0195312 0.300781 -0.0195312 0.421875c0 39.5742 -14.9482 75.6846 -39.5 102.988
c-35.0801 38.79 -56.4805 90.29 -56.4805 146.656v0.09375v40.25c0 8.83105 7.16895 16 16 16h32c8.83105 0 16 -7.16895 16 -16v-40.25c0 -0.0957031 0.0195312 -0.250977 0.0195312 -0.34668c0 -39.627 14.9707 -75.7861 39.5605 -103.123zM208 295.75
c0 -0.0957031 0.0195312 -0.250977 0.0195312 -0.34668c0 -39.627 14.9707 -75.7861 39.5605 -103.123c35.042 -38.752 56.4199 -90.1992 56.4199 -146.508v-0.182617v-61.5898c0 -8.83105 -7.16895 -16 -16 -16h-32c-8.83105 0 -16 7.16895 -16 16v61.5898
c0 0.121094 -0.0195312 0.300781 -0.0195312 0.421875c0 39.5742 -14.9482 75.6846 -39.5 102.988c-35.0801 38.79 -56.4805 90.29 -56.4805 146.656v0.09375v104.25c0 8.83105 7.16895 16 16 16h32c8.83105 0 16 -7.16895 16 -16v-104.25z" />
    <glyph glyph-name="house" unicode="&#xe00d;" horiz-adv-x="576" 
d="M570.69 211.73c3.08105 -3.08105 5.0625 -7.27441 5.30957 -11.9102c-0.210938 -4.0293 -1.71289 -7.74805 -4.08984 -10.7002l-21.4102 -23.8105c-3.06543 -3.0791 -7.24707 -5.06152 -11.8701 -5.30957c-4.04004 0.21875 -7.7666 1.73535 -10.7197 4.12988l-15.9102 14
v-210.13c0 -17.6611 -14.3389 -32 -32 -32h-383.99c-17.6611 0 -32 14.3389 -32 32v210.11l-15.8994 -14c-2.94434 -2.38867 -6.66016 -3.89844 -10.6904 -4.11035c-4.64648 0.244141 -8.85352 2.22168 -11.9502 5.2998l-21.3994 23.7998
c-2.5498 2.83496 -4.11133 6.58887 -4.11133 10.6982c0 4.72363 2.05078 8.97266 5.31055 11.9023l256 226c6.28027 5.68945 18.2207 10.2998 26.7305 10.2998s20.4805 -4.61035 26.7598 -10.2998l101.24 -89.3701v51.6699c0 8.83105 7.16895 16 16 16h64
c8.83105 0 16 -7.16895 16 -16v-136.44zM352 149.34v85.3398c-0.0380859 11.7627 -9.59277 21.3037 -21.3604 21.3203h-85.2998c-11.7578 -0.0273438 -21.3018 -9.56445 -21.3398 -21.3203v-85.3398c0.0273438 -11.7646 9.5752 -21.3125 21.3398 -21.3398h85.2998
c11.7744 0.0166016 21.333 9.56836 21.3604 21.3398z" />
    <glyph glyph-name="house-day" unicode="&#xe00e;" horiz-adv-x="640" 
d="M136 272c0.0380859 22.0586 17.9414 39.9619 40 40c22.0762 0 40 -17.9238 40 -40s-17.9238 -40 -40 -40s-40 17.9238 -40 40zM635.23 155.58c2.91602 -2.61035 4.74414 -6.40723 4.74414 -10.626c0 -3.61133 -1.34668 -6.91113 -3.56445 -9.42383l-18.79 -21.2803
c-2.61523 -2.91895 -6.41895 -4.74707 -10.6426 -4.74707c-3.57812 0 -6.85059 1.31934 -9.35742 3.49707l-21.6201 19.1602v-164.16c0 -17.6611 -14.3389 -32 -32 -32h-288c-17.6611 0 -32 14.3389 -32 32v164.13l-21.6396 -19.0801
c-2.50195 -2.19434 -5.78418 -3.53418 -9.36914 -3.53418c-4.22852 0 -8.02734 1.84961 -10.6309 4.78418l-18.79 21.2803c-2.20703 2.5 -3.55566 5.78809 -3.55566 9.38184c0 4.22363 1.85059 8.01953 4.78516 10.6182l211.8 187.5
c6.23828 5.54297 14.4834 8.91113 23.4766 8.91113s17.2061 -3.36816 23.4434 -8.91113l88.4805 -78.3701v39.29c0 8.83105 7.16895 16 16 16h32c8.83105 0 16 -7.16895 16 -16v-96zM448 80v64c0 8.83105 -7.16895 16 -16 16h-64c-8.83105 0 -16 -7.16895 -16 -16v-64
c0 -8.83105 7.16895 -16 16 -16h64c8.83105 0 16 7.16895 16 16zM104 272c0 -36.8398 27.9199 -67 63.6602 -71.1904l-24.0703 -21.3096c-4.12793 -3.79199 -7.52734 -8.26855 -10.0801 -13.3203l-0.740234 1.49023l-69 -23
c-1.18945 -0.400391 -2.46289 -0.618164 -3.78711 -0.618164c-6.56152 0 -11.8896 5.32812 -11.8896 11.8906c0 1.32324 0.216797 2.59766 0.617188 3.78809l23 69.0996l-65.1104 32.5098c-3.91602 1.95215 -6.60938 5.9834 -6.60938 10.6533
s2.69336 8.71484 6.60938 10.667l65.0801 32.6396l-23 69c-0.389648 1.17578 -0.601562 2.43066 -0.601562 3.73535c0 6.55664 5.32324 11.8799 11.8809 11.8799c1.32129 0 2.59277 -0.21582 3.78125 -0.615234l69.0898 -23l32.5195 65.1006
c1.94922 3.91699 5.97949 6.6123 10.6484 6.6123s8.71387 -2.69531 10.6621 -6.6123l32.5703 -65.21l69 23c1.1875 0.398438 2.45801 0.616211 3.78027 0.616211c6.55664 0 11.8799 -5.32324 11.8799 -11.8799c0 -1.30566 -0.210938 -2.56152 -0.600586 -3.73633l-23 -69
l10.54 -5.26074l-42.8301 -37.9297v0c0 39.7383 -32.2617 72 -72 72s-72 -32.2617 -72 -72z" />
    <glyph glyph-name="house-leave" unicode="&#xe00f;" horiz-adv-x="640" 
d="M356.87 63.5l-31.4297 -31.5h-229.44c-17.6611 0 -32 14.3389 -32 32v164.13l-21.6396 -19.0801c-2.50098 -2.19629 -5.7832 -3.53906 -9.37012 -3.53906c-4.22852 0 -8.02832 1.85254 -10.6299 4.78906l-18.79 21.2803c-2.20703 2.5 -3.55566 5.78809 -3.55566 9.38184
c0 4.22363 1.85059 8.01953 4.78516 10.6182l211.8 187.5c6.23828 5.54297 14.4834 8.91113 23.4766 8.91113s17.2061 -3.36816 23.4434 -8.91113l125.9 -111.55l-7.51953 -3.07031c-29.041 -11.7471 -52.6221 -33.7344 -66.4004 -61.6699l-6.73047 -13.6504
c-15.5293 -31.4795 -2.73926 -69.8994 28.5205 -85.6396c8.58789 -4.33203 18.417 -6.77246 28.6846 -6.77246c10.5713 0 20.542 2.58789 29.3154 7.16211c0.19043 -3 0.519531 -6 1 -9l-11.7598 -29.25l-20.71 -51.5c-1.54688 -4.04102 -3.92578 -7.65234 -6.9502 -10.6396
zM224 176v64c0 8.83105 -7.16895 16 -16 16h-64c-8.83105 0 -16 -7.16895 -16 -16v-64c0 -8.83105 7.16895 -16 16 -16h64c8.83105 0 16 7.16895 16 16zM528 352c-26.4922 0 -48 21.5078 -48 48s21.5078 48 48 48s48 -21.5078 48 -48s-21.5078 -48 -48 -48zM393.55 62.2598
l20.7002 51.4902c8.7002 -11.9004 -7.88965 6.59961 47.4004 -53.6904l-13.5 -33.79c-3.27734 -8.12012 -8.11719 -15.3975 -14.2002 -21.5l-59.4004 -59.3994c-5.72754 -5.38477 -13.4453 -8.67773 -21.9199 -8.67773c-17.6611 0 -32 14.3389 -32 32
c0 8.50195 3.32324 16.2344 8.74023 21.9678l50 50.1094c6.1377 6.04395 10.9844 13.332 14.1797 21.4902zM622.42 202.94c10.4385 -5.375 17.5332 -16.2705 17.5332 -28.8096c0 -5.08105 -1.17285 -9.88965 -3.2627 -14.1709
c-5.14062 -10.4746 -15.9268 -17.6445 -28.373 -17.6445c-5.07715 0 -9.87598 1.20117 -14.127 3.33496l-23.29 11.8096c-14.9424 7.59277 -26.4199 20.8594 -31.7002 37l-5.5 16.5l-17.2002 -68.6904l45.5 -49.6992c7.07812 -7.71289 12.2861 -17.2217 14.9004 -27.7002
l22.1992 -89c0.621094 -2.48633 0.955078 -5.05859 0.955078 -7.73633c0 -17.6621 -14.3398 -32.002 -32.002 -32.002c-14.9854 0 -27.5791 10.3223 -31.0527 24.2383l-18.21 73.29c-2.63672 10.4629 -7.83594 19.9629 -14.8896 27.6895l-59.9004 65.4004
c-10.4277 11.4209 -16.791 26.6104 -16.791 43.2783c0 5.33691 0.652344 10.5225 1.88086 15.4814l15.2002 60.6904l-26.7998 -10.79c-7.21582 -2.95801 -13.0693 -8.44727 -16.4902 -15.4102l-6.75 -13.5898c-5.13379 -10.4756 -15.918 -17.6475 -28.3613 -17.6475
c-5.07812 0 -9.87695 1.20215 -14.1289 3.33691c-10.4297 5.30664 -17.5312 16.1562 -17.5312 28.6504c0 5.11719 1.19922 9.95508 3.33105 14.25l6.7002 13.6201c10.3232 20.9131 27.9678 37.3799 49.7002 46.2002c37.4004 15.1094 57.2803 25.29 93.2803 25.1992
c46.4902 -0.0898438 87.4902 -31.2891 102.189 -75.8994l9.7002 -29.3799z" />
    <glyph glyph-name="house-night" unicode="&#xe010;" horiz-adv-x="640" 
d="M112 224c-61.8145 0 -112 50.1855 -112 112s50.1855 112 112 112c6.98926 -0.109375 13.7627 -0.743164 20.46 -1.87012c2.4375 -0.458008 4.29492 -2.59668 4.29492 -5.16602c0 -1.95117 -1.06543 -3.65625 -2.64453 -4.56348
c-26.5566 -15.0908 -44.4639 -43.583 -44.4639 -76.2842c0 -48.4248 39.3154 -87.7402 87.7402 -87.7402c5.66113 0 11.1992 0.537109 16.5635 1.56445c0.317383 0.0595703 0.638672 0.0878906 0.974609 0.0878906c2.89746 0 5.25 -2.35254 5.25 -5.25
c0 -1.25391 -0.44043 -2.40527 -1.1748 -3.30859c-20.4971 -25.335 -51.7959 -41.4697 -86.8916 -41.4697h-0.108398zM635.23 155.58c2.91602 -2.61035 4.74414 -6.40723 4.74414 -10.626c0 -3.61133 -1.34668 -6.91113 -3.56445 -9.42383l-18.79 -21.2803
c-2.61523 -2.91895 -6.41895 -4.74707 -10.6426 -4.74707c-3.57812 0 -6.85059 1.31934 -9.35742 3.49707l-21.6201 19.1602v-164.16c0 -17.6611 -14.3389 -32 -32 -32h-288c-17.6611 0 -32 14.3389 -32 32v164.13l-21.6396 -19.0801
c-2.50098 -2.19629 -5.7832 -3.53906 -9.37012 -3.53906c-4.22852 0 -8.02832 1.85254 -10.6299 4.78906l-18.79 21.2803c-2.20508 2.50098 -3.55176 5.78809 -3.55176 9.38086c0 4.22363 1.84863 8.01855 4.78125 10.6191l211.8 187.5
c6.23828 5.54297 14.4834 8.91113 23.4766 8.91113s17.2061 -3.36816 23.4434 -8.91113l88.4805 -78.3701v39.29c0 8.83105 7.16895 16 16 16h32c8.83105 0 16 -7.16895 16 -16v-96zM448 80v64c0 8.83105 -7.16895 16 -16 16h-64c-8.83105 0 -16 -7.16895 -16 -16v-64
c0 -8.83105 7.16895 -16 16 -16h64c8.83105 0 16 7.16895 16 16zM195 379.22c-1.75195 0.874023 -2.95703 2.67773 -2.95703 4.76758c0 2.08887 1.20508 3.89941 2.95703 4.77246l39.6699 16.5605l16.5605 39.6797c0.868164 1.75879 2.67383 2.96973 4.7666 2.96973
s3.9043 -1.21094 4.77246 -2.96973l16.5605 -39.6797l39.7695 -16.5605c1.75293 -0.873047 2.95703 -2.67773 2.95703 -4.7666c0 -2.08984 -1.2041 -3.89941 -2.95703 -4.77344l-39.7197 -16.5596l-16.5596 -39.7197c-0.869141 -1.75879 -2.6748 -2.96973 -4.76758 -2.96973
c-2.0918 0 -3.9043 1.21094 -4.77246 2.96973l-16.5605 39.7197zM157.1 68.7598c1.75293 -0.873047 2.95703 -2.67773 2.95703 -4.7666c0 -2.08984 -1.2041 -3.89941 -2.95703 -4.77344l-39.7197 -16.5596l-16.5596 -39.7197
c-0.869141 -1.75879 -2.6748 -2.96973 -4.76758 -2.96973c-2.0918 0 -3.9043 1.21094 -4.77246 2.96973l-16.5605 39.7197l-39.7197 16.5596c-1.75195 0.874023 -2.95703 2.67773 -2.95703 4.76758c0 2.08887 1.20508 3.89941 2.95703 4.77246l39.6699 16.5605
l16.5605 39.6797c0.868164 1.75879 2.67383 2.96973 4.7666 2.96973s3.9043 -1.21094 4.77246 -2.96973l16.6104 -39.6797z" />
    <glyph glyph-name="house-return" unicode="&#xe011;" horiz-adv-x="640" 
d="M374.8 114.64l-0.469727 -0.519531c-10.5996 -11.5605 -18.4023 -25.8047 -22.3301 -41.5l-10.1396 -40.6201h-245.86c-17.6611 0 -32 14.3389 -32 32v164.13l-21.6396 -19.0703c-2.50195 -2.19629 -5.78613 -3.53906 -9.375 -3.53906
c-4.22461 0 -8.02148 1.84863 -10.625 4.7793l-18.79 21.29c-2.20508 2.50098 -3.55176 5.78809 -3.55176 9.38086c0 4.22363 1.84863 8.01855 4.78125 10.6191l211.8 187.49c6.23828 5.54297 14.4834 8.91113 23.4766 8.91113s17.2061 -3.36816 23.4434 -8.91113
l128.561 -113.86c-24.124 -17.4922 -42.4248 -42.2246 -51.9502 -71.0996l-5.55957 -16.8301l-11.5107 -5.83008c-31.1895 -15.7002 -44.0293 -54.1396 -28.5596 -85.6504c10.3203 -21.1025 32.0039 -35.5654 57.0605 -35.5654c8.20117 0 16.041 1.55859 23.2393 4.39551z
M224 176v64c0 8.83105 -7.16895 16 -16 16h-64c-8.83105 0 -16 -7.16895 -16 -16v-64c0 -8.83105 7.16895 -16 16 -16h64c8.83105 0 16 7.16895 16 16zM531 185.51c1.23438 -4.9668 1.88867 -10.1475 1.88867 -15.4951c0 -16.6748 -6.37109 -31.874 -16.8086 -43.2949
l-59.9004 -65.3896c-7.05176 -7.73242 -12.251 -17.2354 -14.8896 -27.7002l-18.29 -73.2803c-3.47363 -13.916 -16.0615 -24.2666 -31.0479 -24.2666c-17.6621 0 -32.002 14.3398 -32.002 32.0029c0 2.67676 0.329102 5.27832 0.950195 7.76367l22.1992 89
c2.61719 10.4746 7.82422 19.9795 14.9004 27.6904l45.4297 49.6797l-17.1992 68.6904l-5.5 -16.4902c-5.2832 -16.1396 -16.7598 -29.4053 -31.7002 -37l-23.29 -11.8096c-4.25098 -2.13184 -9.06055 -3.37988 -14.1357 -3.37988
c-12.4463 0 -23.2207 7.2168 -28.3643 17.6895c-2.09082 4.28223 -3.31543 9.10352 -3.31543 14.1855c0 12.5527 7.16016 23.4453 17.6152 28.8145l23.29 11.7998l9.7002 29.3799c14.7002 44.6006 55.7002 75.8008 102.189 75.8906
c35.9902 0.0996094 55.8799 -10.0898 93.2803 -25.2002c21.7334 -8.81836 39.3789 -25.2852 49.7002 -46.2002l6.7002 -13.5898c2.13184 -4.29492 3.38184 -9.14551 3.38184 -14.2617c0 -12.4951 -7.15234 -23.332 -17.582 -28.6387
c-4.25098 -2.13281 -9.06152 -3.38184 -14.1367 -3.38184c-12.4443 0 -23.2158 7.21777 -28.3535 17.6924l-6.70996 13.5898c-3.40137 6.9502 -9.22461 12.4375 -16.4102 15.4102l-26.79 10.79zM432 352c-26.4922 0 -48 21.5078 -48 48s21.5078 48 48 48s48 -21.5078 48 -48
s-21.5078 -48 -48 -48zM630.63 -9.33984c5.41699 -5.7334 8.73047 -13.4736 8.73047 -21.9756c0 -17.6621 -14.3389 -32 -32 -32c-8.47363 0 -16.1826 3.30078 -21.9102 8.68555l-59.4004 59.3994c-6.08301 6.09863 -10.9229 13.373 -14.2002 21.4902l-13.5 33.79
c55.29 60.2803 38.7002 41.79 47.4004 53.6904l20.7002 -51.4902c3.19531 -8.1582 8.04199 -15.4473 14.1797 -21.4902z" />
    <glyph glyph-name="house-signal" unicode="&#xe012;" horiz-adv-x="640" 
d="M635.23 251.58c2.91602 -2.61035 4.74414 -6.40723 4.74414 -10.626c0 -3.61133 -1.34668 -6.91113 -3.56445 -9.42383l-18.79 -21.2803c-2.61523 -2.91895 -6.41895 -4.74707 -10.6426 -4.74707c-3.57812 0 -6.85059 1.31934 -9.35742 3.49707l-21.6201 19.1602v-164.16
c0 -17.6611 -14.3389 -32 -32 -32h-238.76c-16.0391 50.6279 -44.1924 95.8398 -81.2402 132.13v64l-21.6396 -19.0801c-2.50098 -2.19629 -5.7832 -3.53906 -9.37012 -3.53906c-4.22852 0 -8.02832 1.85254 -10.6299 4.78906l-18.79 21.2803
c-2.20508 2.50098 -3.55176 5.78809 -3.55176 9.38086c0 4.22363 1.84863 8.01855 4.78125 10.6191l211.8 187.5c6.23828 5.54297 14.4834 8.91113 23.4766 8.91113s17.2061 -3.36816 23.4434 -8.91113l88.4805 -78.3701v39.29c0 8.83105 7.16895 16 16 16h32
c8.83105 0 16 -7.16895 16 -16v-96zM448 176v64c0 8.83105 -7.16895 16 -16 16h-64c-8.83105 0 -16 -7.16895 -16 -16v-64c0 -8.83105 7.16895 -16 16 -16h64c8.83105 0 16 7.16895 16 16zM0 32c52.9834 0 96 -43.0166 96 -96h-96v96zM0 128c106 0 192 -86 192 -192
h-63.9297c-0.0283203 70.6709 -57.3994 128.042 -128.07 128.07v63.9297zM0 224c159.06 0 288 -128.94 288 -288h-63.9297c0 123.71 -100.36 224.07 -224.07 224.07v63.9297v0z" />
    <glyph glyph-name="lamp-desk" unicode="&#xe014;" 
d="M494.42 384c15.6299 0 23.46 -18.9004 12.4004 -30l-220.82 -220.82c-11.0996 -11.0596 -30 -3.22949 -30 12.4004v147.92l-0.280273 0.280273l-108.72 -108.78l52.8203 -185h120.18c28.4199 0 55 -18.5303 63.3096 -44.1602
c3.20996 -9.83984 -5.17969 -19.8398 -15.5693 -19.8398h-351.48c-10.3799 0 -18.7793 10 -15.5596 19.8398c8.34961 25.6299 34.8799 44.1602 63.2998 44.1602h85.9004l-53.0107 185.44c-0.597656 2.09473 -0.924805 4.30469 -0.924805 6.58984
c0 6.62402 2.68945 12.625 7.03516 16.9697l118.74 118.76l-11 11c-11.1953 11.5283 -18.0752 27.2705 -18.0752 44.5928c0 35.3223 28.6777 64 64 64c17.3232 0 33.0469 -6.89746 44.5752 -18.0928l45.2598 -45.2598h147.92zM379.71 181.67l78.6201 78.6201
c8.49805 -9.7832 13.627 -22.5713 13.627 -36.5342c0 -30.7588 -24.9717 -55.7305 -55.7295 -55.7305c-13.9639 0 -26.7344 5.14648 -36.5176 13.6445z" />
    <glyph glyph-name="lamp-floor" unicode="&#xe015;" horiz-adv-x="384" 
d="M256 0c28.4199 0 55 -18.5303 63.2998 -44.1602c3.21973 -9.83984 -5.17969 -19.8398 -15.5596 -19.8398h-223.48c-10.3799 0 -18.7793 10 -15.5596 19.8398c8.34961 25.6299 34.8799 44.1602 63.2998 44.1602h32v192.31h64v-192.31h32zM381.38 268.6
c1.6543 -3.86133 2.58496 -8.13574 2.58496 -12.5996c0 -17.6494 -14.3203 -31.9805 -31.9648 -32h-320c-17.6445 0.0195312 -31.9502 14.374 -31.9502 32.0234c0 4.46387 0.916016 8.71484 2.57031 12.5762l68.5703 160c4.88965 11.417 16.2217 19.4004 29.4199 19.4004
h182.779c13.1982 0 24.5303 -7.9834 29.4199 -19.4004z" />
    <glyph glyph-name="light-ceiling" unicode="&#xe016;" 
d="M288 285.61c115.49 -14.2002 207.44 -103.61 223.69 -217.46c2.71973 -19.1504 -12.7607 -36.1504 -32.2305 -36.1504h-446.92c-19.4697 0 -34.9502 17 -32.2305 36.1504c16.25 113.85 108.2 203.26 223.69 217.46v162.39h64v-162.39zM256 -64
c-35.3223 0 -64 28.6777 -64 64h128c0 -35.3223 -28.6777 -64 -64 -64z" />
    <glyph glyph-name="light-switch" unicode="&#xe017;" horiz-adv-x="384" 
d="M320 448c35.3223 0 64 -28.6777 64 -64v-384c0 -35.3223 -28.6777 -64 -64 -64h-256c-35.3223 0 -64 28.6777 -64 64v384c0 35.3223 28.6777 64 64 64h256zM192 416c-8.83105 0 -16 -7.16895 -16 -16s7.16895 -16 16 -16s16 7.16895 16 16s-7.16895 16 -16 16zM192 -32
c8.83105 0 16 7.16895 16 16s-7.16895 16 -16 16s-16 -7.16895 -16 -16s7.16895 -16 16 -16zM288 80v96h-192v-96c0 -26.4922 21.5078 -48 48 -48h96c26.4922 0 48 21.5078 48 48zM288 208v96c0 26.4922 -21.5078 48 -48 48h-96c-26.4922 0 -48 -21.5078 -48 -48v-96h192z
" />
    <glyph glyph-name="light-switch-off" unicode="&#xe018;" horiz-adv-x="384" 
d="M320 448c35.3223 0 64 -28.6777 64 -64v-384c0 -35.3223 -28.6777 -64 -64 -64h-256c-35.3223 0 -64 28.6777 -64 64v384c0 35.3223 28.6777 64 64 64h256zM192 416c-8.83105 0 -16 -7.16895 -16 -16s7.16895 -16 16 -16s16 7.16895 16 16s-7.16895 16 -16 16zM192 -32
c8.83105 0 16 7.16895 16 16s-7.16895 16 -16 16s-16 -7.16895 -16 -16s7.16895 -16 16 -16zM288 160v64v0v80c0 26.4922 -21.5078 48 -48 48h-96c-26.4922 0 -48 -21.5078 -48 -48v-96v0v-32v0v-96c0 -26.4922 21.5078 -48 48 -48h96c26.4922 0 48 21.5078 48 48v80v0z
M128 96v96h128v-96c0 -17.6611 -14.3389 -32 -32 -32h-64c-17.6611 0 -32 14.3389 -32 32z" />
    <glyph glyph-name="light-switch-on" unicode="&#xe019;" horiz-adv-x="384" 
d="M320 448c35.3223 0 64 -28.6777 64 -64v-384c0 -35.3223 -28.6777 -64 -64 -64h-256c-35.3223 0 -64 28.6777 -64 64v384c0 35.3223 28.6777 64 64 64h256zM192 416c-8.83105 0 -16 -7.16895 -16 -16s7.16895 -16 16 -16s16 7.16895 16 16s-7.16895 16 -16 16zM192 -32
c8.83105 0 16 7.16895 16 16s-7.16895 16 -16 16s-16 -7.16895 -16 -16s7.16895 -16 16 -16zM288 208v96c0 26.4922 -21.5078 48 -48 48h-96c-26.4922 0 -48 -21.5078 -48 -48v-80v0v-64v0v-80c0 -26.4922 21.5078 -48 48 -48h96c26.4922 0 48 21.5078 48 48v96v0v32v0z
M224 320c17.6611 0 32 -14.3389 32 -32v-96h-128v96c0 17.6611 14.3389 32 32 32h64z" />
    <glyph glyph-name="microwave" unicode="&#xe01b;" 
d="M464 384c26.4922 0 48 -21.5078 48 -48v-256c0 -26.4922 -21.5078 -48 -48 -48v0l-24 -32h-48l-24 32h-224l-24 -32h-48l-24 32v0c-26.4922 0 -48 21.5078 -48 48v256c0 26.4922 21.5078 48 48 48h416zM384 96v224h-320v-224h320zM448 168c13.2461 0 24 10.7539 24 24
s-10.7539 24 -24 24s-24 -10.7539 -24 -24s10.7539 -24 24 -24zM448 264c13.2461 0 24 10.7539 24 24s-10.7539 24 -24 24s-24 -10.7539 -24 -24s10.7539 -24 24 -24z" />
    <glyph glyph-name="outlet" unicode="&#xe01c;" 
d="M448 448c35.3223 0 64 -28.6777 64 -64v-384c0 -35.3223 -28.6777 -64 -64 -64h-384c-35.3223 0 -64 28.6777 -64 64v384c0 35.3223 28.6777 64 64 64h384zM386.26 38.71c38.0303 39.0098 61.7402 93.1904 61.7402 153.29s-23.7402 114.3 -61.7402 153.3
c-4.1377 4.1416 -9.85449 6.70117 -16.165 6.70117c-0.0820312 0 -0.163086 0 -0.245117 -0.000976562h-227.699c-0.0820312 0.000976562 -0.162109 0.00488281 -0.243164 0.00488281c-6.31152 0 -12.0293 -2.56348 -16.167 -6.70508
c-38.0303 -39.0195 -61.7402 -93.2002 -61.7402 -153.3s23.71 -114.28 61.7402 -153.29c4.14062 -4.14746 9.8623 -6.71094 16.1797 -6.71094c0.0771484 0 0.15332 0 0.230469 0.000976562h227.699c0.0771484 -0.000976562 0.152344 -0.00390625 0.229492 -0.00390625
c6.31738 0 12.04 2.56641 16.1807 6.71387zM256 144c17.6611 0 32 -14.3389 32 -32v-16h-64v16c0 17.6611 14.3389 32 32 32zM192 272c8.83105 0 16 -7.16895 16 -16v-80c0 -8.83105 -7.16895 -16 -16 -16h-16c-8.83105 0 -16 7.16895 -16 16v80c0 8.83105 7.16895 16 16 16
h16zM336 272c8.83105 0 16 -7.16895 16 -16v-80c0 -8.83105 -7.16895 -16 -16 -16h-16c-8.83105 0 -16 7.16895 -16 16v80c0 8.83105 7.16895 16 16 16h16z" />
    <glyph glyph-name="oven" unicode="&#xe01d;" horiz-adv-x="448" 
d="M96 128v32h256v-32h-256zM384 448c35.3223 0 64 -28.6777 64 -64v-96h-448v96c0 35.3223 28.6777 64 64 64h320zM80 344c13.2461 0 24 10.7539 24 24s-10.7539 24 -24 24s-24 -10.7539 -24 -24s10.7539 -24 24 -24zM176 344c13.2461 0 24 10.7539 24 24
s-10.7539 24 -24 24s-24 -10.7539 -24 -24s10.7539 -24 24 -24zM272 344c13.2461 0 24 10.7539 24 24s-10.7539 24 -24 24s-24 -10.7539 -24 -24s10.7539 -24 24 -24zM368 344c13.2461 0 24 10.7539 24 24s-10.7539 24 -24 24s-24 -10.7539 -24 -24s10.7539 -24 24 -24z
M0 -32v288h448v-288c0 -17.6611 -14.3389 -32 -32 -32h-384c-17.6611 0 -32 14.3389 -32 32zM64 192v-192h320v192h-320z" />
    <glyph glyph-name="planet-moon" unicode="&#xe01f;" horiz-adv-x="576" 
d="M512 448c35.3223 0 64 -28.6777 64 -64s-28.6777 -64 -64 -64s-64 28.6777 -64 64s28.6777 64 64 64zM224 384c123.713 0 224 -100.285 224 -224c0 -123.713 -100.287 -224 -224 -224s-224 100.287 -224 224c0 123.715 100.287 224 224 224zM320 111.109v16.8906
c0 17.6611 -14.3389 32 -32 32h-64.5469c-10.2949 0.000976562 -19.627 4.1748 -26.3809 10.9277c-5.79199 5.79199 -9.36523 13.8135 -9.36523 22.6445c0 8.00684 2.94727 15.3311 7.81445 20.9453l49.7285 57.3574c6.7666 10.1494 10.75 22.4023 10.75 35.5039
c0 0.0302734 -0.015625 0.0585938 -0.015625 0.0888672c0 15.3877 -12.2266 27.9414 -27.4863 28.4697c-1.49512 0.0419922 -2.99414 0.0625 -4.49805 0.0625c-71.2207 0 -132.607 -42.5547 -160.248 -103.559c-8.5625 -18.8945 5.22461 -40.4395 25.9688 -40.4395
l25.0254 -0.00195312c8.83008 0 16.834 -3.58008 22.627 -9.37109l54.627 -54.6289v-32c0 -17.6611 14.3389 -32 32 -32c-0.00585938 0 -0.00390625 -39.5898 -0.00195312 -63.0684c0 -0.00976562 -0.0166016 -0.0185547 -0.0166016 -0.0283203
c0 -8.84961 7.18555 -16.0342 16.0342 -16.0342c0.537109 0 1.06738 0.0263672 1.58984 0.078125c3.50488 0.37793 6.97852 0.855469 10.4199 1.43359c9.16406 1.54199 16.8682 7.40918 20.8926 15.4531l40.3242 80.6484c4.2998 8.60059 6.75781 18.3643 6.75781 28.627z
" />
    <glyph glyph-name="planet-ringed" unicode="&#xe020;" 
d="M502.917 438.932c37.1924 -37.1924 -43.208 -177.896 -179.581 -314.267c-136.372 -136.372 -277.075 -216.775 -314.268 -179.582c-23.4912 23.4902 0.0136719 88.3086 54.8174 167.213c-31.2559 75.418 -16.293 165.474 45.0254 226.793
c61.3193 61.3203 151.375 76.2812 226.793 45.0254c78.9043 54.8037 143.723 78.3086 167.213 54.8174zM346.505 101.495c35.5732 35.5732 77.3457 82.2539 113.534 130.854c2.5918 -13.1055 4.11621 -26.4893 4.11621 -40.3516
c0 -114.795 -93.1992 -207.994 -207.994 -207.994c-13.8037 0 -27.2949 1.34668 -40.3486 3.91797c46.6221 34.708 92.5371 75.4199 130.692 113.573z" />
    <glyph glyph-name="police-box" unicode="&#xe021;" horiz-adv-x="384" 
d="M368 -16c8.83105 0 16 -7.16895 16 -16v-16c0 -8.83105 -7.16895 -16 -16 -16h-352c-8.83105 0 -16 7.16895 -16 16v16c0 8.83105 7.16895 16 16 16h16v376c0 13.2461 10.7539 24 24 24h8v16c0 8.83105 7.16895 16 16 16h96v16c0 8.83105 7.16895 16 16 16
s16 -7.16895 16 -16v-16h95.9785c8.83105 0 16 -7.16895 16 -16v-16h8.02148c13.2461 0 24 -10.7539 24 -24v-376h16zM168 320h-24v-32h32v24c0 4.41504 -3.58496 8 -8 8zM104 320c-4.41504 0 -8 -3.58496 -8 -8v-24h32v32h-24zM104 240h24v32h-32v-24
c0 -4.41504 3.58496 -8 8 -8zM176 136v64c0 4.41504 -3.58496 8 -8 8h-64c-4.41504 0 -8 -3.58496 -8 -8v-64c0 -4.41504 3.58496 -8 8 -8h64c4.41504 0 8 3.58496 8 8zM168 240c4.41504 0 8 3.58496 8 8v24h-32v-32h24zM280 320h-24v-32h32v24c0 4.41504 -3.58496 8 -8 8z
M216 320c-4.41504 0 -8 -3.58496 -8 -8v-24h32v32h-24zM208 248c0 -4.41504 3.58496 -8 8 -8h24v32h-32v-24zM280 240c4.41504 0 8 3.58496 8 8v24h-32v-32h24z" />
    <glyph glyph-name="portal-enter" unicode="&#xe022;" 
d="M432 448c44.1836 0 80 -114.615 80 -256s-35.8164 -256 -80 -256c-40.791 0 -74.3828 97.7617 -79.3105 224.016h-22.6738c-18.9121 0.0673828 -35.251 10.9854 -43.1094 26.8906l-20.2812 41.4375l-31.3125 -78.2812l61.25 -36.1406
c14.0645 -8.4248 23.4287 -23.7734 23.4287 -41.3467c0 -4.51953 -0.623047 -8.89453 -1.78809 -13.0439l-31.6406 -101.062c-4.06543 -13.0049 -16.1992 -22.4521 -30.5371 -22.4521c-17.6621 0 -32.001 14.3389 -32.001 32.001
c0 3.33496 0.511719 6.55176 1.45996 9.57617l27.4688 87.7188l-84.9688 50.1719c-18.8467 11.1836 -31.3926 31.7441 -31.3926 55.2295c0 8.89844 1.81543 17.376 5.0957 25.083l37.4531 87.3906l-14.7031 4.375c-7.82812 1.85938 -17.5938 -0.25 -25.2656 -6.14062
l-39.6875 -30.4062c-5.39258 -4.13867 -12.1895 -6.62695 -19.5049 -6.62695c-17.6592 0 -31.9961 14.3359 -31.9961 31.9951c0 10.3525 4.92773 19.5635 12.5635 25.4131l39.6562 30.4062c16.1318 12.4102 36.3555 19.8271 58.2617 19.8271
c7.77832 0 15.3408 -0.930664 22.582 -2.68652l71.0781 -21.1406c26.3281 -6.71875 49.2812 -25.3906 61.7812 -50.9375l26.0625 -53.25h12.7227c4.93555 126.24 38.5215 223.984 79.3086 223.984zM272 352c-26.4873 0 -48 21.5127 -48 48c0 26.4922 21.5078 48 48 48
s48 -21.5078 48 -48s-21.5078 -48 -48 -48zM113.688 130.531c8.05762 -17.8496 21.3047 -32.6406 38 -42.6094l10.6562 -6.29688l-8.78125 -20.5312c-7.31152 -17.1094 -24.2773 -29.0781 -44.0479 -29.0781h-0.0615234h-77.4531c-17.6611 0 -32 14.3389 -32 32
s14.3389 32 32 32h66.8906z" />
    <glyph glyph-name="portal-exit" unicode="&#xe023;" 
d="M480 224.016c17.6611 0 32 -14.3389 32 -32s-14.3389 -32 -32 -32h-53.9844c-18.9121 0.0673828 -35.251 10.9854 -43.1094 26.8906l-20.2812 41.4375l-31.3125 -78.2812l61.25 -36.1406c14.0645 -8.4248 23.4287 -23.7734 23.4287 -41.3467
c0 -4.51953 -0.623047 -8.89453 -1.78809 -13.0439l-31.6406 -101.062c-4.06934 -12.9971 -16.2002 -22.4375 -30.5322 -22.4375c-17.6621 0 -32.001 14.3389 -32.001 32.001c0 3.33008 0.509766 6.54199 1.45508 9.56152l27.4688 87.7188l-84.9688 50.1719
c-18.8467 11.1836 -31.3926 31.7441 -31.3926 55.2295c0 8.89844 1.81543 17.376 5.0957 25.083l37.4531 87.3906l-14.7031 4.375c-7.82812 1.85938 -17.5938 -0.25 -25.2656 -6.14062l-39.6875 -30.4062c-11.4004 -8.73438 -26.5352 -8.21484 -37.6777 -0.341797
c1.38477 -18.8711 2.19336 -38.4512 2.19336 -58.6738c0.000976562 -0.402344 0.0302734 0.0146484 0.0302734 -0.387695c0 -32.3691 -2.00488 -64.2744 -5.89746 -95.5967h40.7578l14.7969 34.5156c8.05762 -17.8496 21.3047 -32.6406 38 -42.6094l10.6562 -6.29688
l-8.78125 -20.5312c-7.31152 -17.1094 -24.2773 -29.0781 -44.0479 -29.0781h-0.0615234h-63.0527c-14.6621 -58.4824 -37.1465 -96.0156 -62.4004 -96.0156c-44.1836 0 -80 114.615 -80 256s35.8164 256 80 256c32.4102 0 60.2559 -61.7891 72.8262 -150.463
c1.27734 1.40625 2.16016 3.06445 3.7207 4.25977l39.6562 30.4062c16.1318 12.4102 36.3555 19.8271 58.2617 19.8271c7.77832 0 15.3408 -0.930664 22.582 -2.68652l71.0781 -21.1406c26.3281 -6.71875 49.2812 -25.3906 61.7812 -50.9375l26.0625 -53.25h44.0312z
M368 352c-26.4873 0 -48 21.5127 -48 48c0 26.4922 21.5078 48 48 48s48 -21.5078 48 -48s-21.5078 -48 -48 -48z" />
    <glyph glyph-name="radar" unicode="&#xe024;" 
d="M504 192c0 -136.967 -111.033 -248 -248 -248s-248 111.033 -248 248s111.033 248 248 248h0.210938c51.4199 0 99.4189 -15.9287 138.936 -42.916l30.2305 30.2305c2.89648 2.89648 6.89648 4.68848 11.3115 4.68848s8.41895 -1.79199 11.3154 -4.68848
l11.3105 -11.3105c2.89648 -2.89648 4.68848 -6.89648 4.68848 -11.3115s-1.79199 -8.41895 -4.68848 -11.3154l-201.373 -201.373l-0.00585938 -0.00390625h62.0645v-0.186523c0 -35.3223 -28.6777 -64 -64 -64s-64 28.6777 -64 64
c0 34.5898 27.5342 62.8115 61.8438 63.9678l28.1348 28.1348c-8.22266 2.53613 -16.9551 3.96973 -25.9785 4.08398c-52.9834 0 -96 -43.0166 -96 -96s43.0166 -96 96 -96s96 43.0166 96 96h64c0 -79.5391 -58.498 -145.176 -134.633 -157.436
c-5.82227 7.94141 -14.7656 13.4355 -25.3672 13.4355s-19.5449 -5.49414 -25.3672 -13.4355c-67.5693 10.9277 -121.141 64.499 -132.068 132.068c7.94141 5.82227 13.4355 14.7656 13.4355 25.3672s-5.49414 19.5449 -13.4355 25.3672
c12.2598 76.1348 77.8965 134.633 157.436 134.633c27.1133 0 52.2148 -7.48438 74.5312 -19.5312l23.9883 23.9883c-28.6943 17.3906 -62.5488 27.5303 -98.5195 27.543c-96.2598 0 -175.738 -70.9121 -189.625 -163.301
c-10.8574 -5.00293 -18.4023 -15.9844 -18.4023 -28.7148s7.54492 -23.6787 18.4023 -28.6816c12.5264 -82.7393 78.1885 -148.401 160.928 -160.928c5.00195 -10.8574 15.9844 -18.4023 28.7139 -18.4023s23.6787 7.54492 28.6807 18.4023
c92.3887 13.8848 163.303 93.3652 163.303 189.625h56z" />
    <glyph glyph-name="raygun" unicode="&#xe025;" horiz-adv-x="576" 
d="M554.938 328.989c1.58984 0.530273 3.29297 0.821289 5.06055 0.821289c8.83105 0 16 -7.16797 16.002 -15.999v-83.5801c-0.00195312 -8.83105 -7.1748 -15.9961 -16.0059 -15.9961c-1.76855 0 -3.4707 0.288086 -5.0625 0.818359l-74.8125 24.9707h-64.0762v-63.9922
c0 -8.8291 -7.1709 -15.9971 -16 -15.9971h-16.002c-8.83008 0 -16.001 7.16797 -16.002 15.9971v191.977c0 8.83008 7.16895 15.998 15.998 15.998h0.00390625h16.002l0.00390625 -0.000976562c8.82812 0 15.9961 -7.16797 15.9961 -15.9971v-63.9922h63.959z
M320.033 416.003c8.71191 -0.0078125 15.7988 -7.0166 15.9414 -15.6973v-256.569c-0.142578 -8.68066 -7.22949 -15.6885 -15.9414 -15.6973h-16.002c-8.83008 0 -15.999 7.16797 -16 15.998v27.2197c-2.30273 -1.09961 -4.54297 -2.24219 -6.92578 -3.1875
l-120.088 -208.011c-8.28125 -14.3955 -23.8389 -24.0146 -41.624 -24.0146c-8.73242 0 -16.9219 2.33789 -23.9775 6.42285l-55.4121 31.9961c-14.3975 8.27441 -24.0195 23.8301 -24.0195 41.6133c0 8.73047 2.33887 16.9189 6.42383 23.9727l70.4199 121.919
c-52.6797 9.13086 -92.8281 54.7734 -92.8281 110.053c0 44.5957 26.2676 82.7832 64.0059 100.797v59.1641c0.00195312 8.83008 7.1875 15.9893 16.0176 15.9893c2.56641 0 4.99219 -0.605469 7.14258 -1.68066l104.834 -62.2832h47.9648
c17.1846 -0.0869141 33.5664 -4.15234 48.0664 -11.2227v27.2207c0 8.83008 7.1709 15.998 16 15.998h16.002zM111.951 248.022c13.2451 0 24 10.7529 24.002 23.998c0 13.2451 -10.7529 23.998 -23.998 23.998s-23.998 -10.7529 -23.998 -23.998
c0 -13.2432 10.751 -23.9951 23.9941 -23.998zM207.961 248.022c13.2451 0 24 10.7529 24.002 23.998c0 13.2451 -10.7529 23.998 -23.998 23.998s-23.998 -10.7529 -23.998 -23.998c0 -13.2432 10.751 -23.9951 23.9941 -23.998z" />
    <glyph glyph-name="refrigerator" unicode="&#xe026;" horiz-adv-x="384" 
d="M0 288v112c0 26.4922 21.5078 48 48 48h288c26.4922 0 48 -21.5078 48 -48v-112h-64v88c0 4.41504 -3.58496 8 -8 8h-16c-4.41504 0 -8 -3.58496 -8 -8v-88h-288zM320 256h64v-272c0 -26.4922 -21.5078 -48 -48 -48h-288c-26.4922 0 -48 21.5078 -48 48v272h288v-184
c0 -4.41504 3.58496 -8 8 -8h16c4.41504 0 8 3.58496 8 8v184z" />
    <glyph glyph-name="rocket-launch" unicode="&#xe027;" 
d="M505.164 428.703c6.91113 -32.1055 6.91113 -57.2559 6.81738 -82.4062c0 -102.688 -55.4297 -164.781 -128.019 -211.094v-104.438c0 -16.2793 -11.9141 -35.5586 -26.4746 -42.8438l-98.7471 -49.4062c-3.27344 -1.48047 -6.91504 -2.375 -10.7051 -2.51562
c-13.2451 0.00292969 -23.999 10.7549 -24.0029 24v104c-0.00390625 52.9844 -43.0293 96 -96.0146 96h-103.953c-13.2451 0.00292969 -23.999 10.7549 -24.0029 24c0.136719 3.79004 1.03223 7.43164 2.51562 10.7031l49.4219 98.7988
c7.29004 14.5742 26.5918 26.498 42.8887 26.498h104.203c46.21 72.7969 108.109 128 211.328 128c25.0439 0 50.1963 0 82.293 -6.86328c5.46387 -1.16797 11.2754 -6.9707 12.4512 -12.4336zM384.057 280c22.0742 0.0078125 39.9941 17.9268 40.0059 40
c0 22.0762 -17.9238 40 -40 40c-22.0771 0 -40 -17.9238 -40 -40c0 -22.0742 17.9199 -39.9971 39.9941 -40zM35.6846 95.9336c40.2852 40.2812 94.002 42.8691 130.568 6.31055c36.5654 -36.5625 33.9775 -90.2695 -6.31152 -130.549
c-25.7539 -25.7539 -90.25 -38.6641 -159.365 -35.1055c-3.52637 68.8164 9.25098 133.49 35.1084 159.344zM117.317 11.9023c13.4287 13.4258 14.29 31.3262 2.10254 43.5137c-12.1875 12.1855 -30.0908 11.3223 -43.5186 -2.10352
c-8.61816 -8.61719 -12.877 -30.1738 -11.7031 -53.1094c23.0371 -1.1875 44.5342 3.11523 53.1191 11.6992z" />
    <glyph glyph-name="sensor" unicode="&#xe028;" horiz-adv-x="448" 
d="M384 416c35.3223 0 64 -28.6777 64 -64v-320c0 -35.3223 -28.6777 -64 -64 -64h-320c-35.3223 0 -64 28.6777 -64 64v320c0 35.3223 28.6777 64 64 64h320zM96 176v160c0 8.83105 -7.16895 16 -16 16s-16 -7.16895 -16 -16v-160c0 -8.83105 7.16895 -16 16 -16
s16 7.16895 16 16zM160 176v160c0 8.83105 -7.16895 16 -16 16s-16 -7.16895 -16 -16v-160c0 -8.83105 7.16895 -16 16 -16s16 7.16895 16 16zM224 176v160c0 8.83105 -7.16895 16 -16 16s-16 -7.16895 -16 -16v-160c0 -8.83105 7.16895 -16 16 -16s16 7.16895 16 16z" />
    <glyph glyph-name="sensor-alert" unicode="&#xe029;" horiz-adv-x="640" 
d="M235.19 60.6201c-7.11816 -12.168 -11.1982 -26.501 -11.1982 -41.6025c0 -15.123 4.0918 -29.2988 11.2275 -41.4775c2.0498 -3.54004 4.82031 -6.38965 7.29004 -9.54004h-178.51c-35.3223 0 -64 28.6777 -64 64v320c0 35.3223 28.6777 64 64 64h320
c35.3223 0 64 -28.6777 64 -64v-5.65039c-0.173828 0.00195312 -0.287109 0.0898438 -0.460938 0.0898438c-30.6406 0 -57.3906 -16.793 -71.5391 -41.6699zM96 176v160c0 8.83105 -7.16895 16 -16 16s-16 -7.16895 -16 -16v-160c0 -8.83105 7.16895 -16 16 -16
s16 7.16895 16 16zM160 176v160c0 8.83105 -7.16895 16 -16 16s-16 -7.16895 -16 -16v-160c0 -8.83105 7.16895 -16 16 -16s16 7.16895 16 16zM208 160c8.83105 0 16 7.16895 16 16v160c0 8.83105 -7.16895 16 -16 16s-16 -7.16895 -16 -16v-160
c0 -8.83105 7.16895 -16 16 -16zM633.09 44.6299c19.6504 -34.0596 -4.93945 -76.6299 -44.2695 -76.6299h-281.641c-39.3301 0 -63.9199 42.5703 -44.2695 76.6396l140.83 244.141c19.6602 34.0898 68.8701 34.0898 88.5293 0zM448 16c13.2461 0 24 10.7539 24 24
s-10.7539 24 -24 24s-24 -10.7539 -24 -24s10.7539 -24 24 -24zM467.08 98.7998l9.59961 96c0.0400391 0.398438 0.0605469 0.791016 0.0605469 1.2002c0 6.62305 -5.37695 12 -12 12h-33.4707c-6.62207 0 -12 -5.36523 -12 -11.9883
c0 -0.408203 0.0205078 -0.813477 0.0605469 -1.21191l9.58984 -96c0.608398 -6.05469 5.72559 -10.7998 11.9395 -10.7998h0.0107422h14.2695c6.21387 0 11.332 4.74512 11.9404 10.7998z" />
    <glyph glyph-name="sensor-fire" unicode="&#xe02a;" horiz-adv-x="640" 
d="M288.89 132.57c0 -0.170898 -0.199219 -0.214844 -0.199219 -0.384766c0 -68.4102 34.8604 -128.741 87.7695 -164.186h-312.28c-0.0332031 0 -0.0654297 0.00195312 -0.0996094 0.00195312c-35.3398 0 -64.0361 28.6689 -64.0801 63.998v320
c0.0439453 35.3291 28.7383 64 64.0781 64h0.101562h320.9c0.0195312 0 0.0380859 -0.0498047 0.0576172 -0.0498047c31.0576 0 56.9863 -22.1309 62.8623 -51.4697c-2.23047 0.479492 -4.41016 1.22949 -6.67969 1.22949
c-0.015625 0 -0.0419922 -0.00195312 -0.0576172 -0.00195312c-8.40039 0 -16.0518 -3.23535 -21.7725 -8.52832c-76.8906 -71.1396 -130.601 -163.5 -130.601 -224.609zM96.2695 176v160c0 8.85547 -7.18945 16.0449 -16.0449 16.0449s-16.0449 -7.18945 -16.0449 -16.0449
v-160c0 -8.85547 7.18945 -16.0449 16.0449 -16.0449s16.0449 7.18945 16.0449 16.0449zM160.45 176v160c0 8.85547 -7.18945 16.0449 -16.0449 16.0449s-16.0449 -7.18945 -16.0449 -16.0449v-160c0 -8.85547 7.18945 -16.0449 16.0449 -16.0449
s16.0449 7.18945 16.0449 16.0449zM224.63 176v160c0 8.85547 -7.18945 16.0449 -16.0449 16.0449s-16.0449 -7.18945 -16.0449 -16.0449v-160c0 -8.85547 7.18945 -16.0449 16.0449 -16.0449s16.0449 7.18945 16.0449 16.0449zM551.12 297.14
c51.75 -48.0293 88.8799 -126.52 88.8799 -164.569c0 -90.9004 -71.6299 -164.57 -160 -164.57s-160 73.6699 -160 164.57c0 51.1396 49.8096 136.029 120 201.14c26.3086 -24.2559 49.7861 -50.5039 71 -79.4102c12.4648 15.2979 25.6836 29.4111 40.1201 42.8398z
M540.06 50.1396c36.9404 25.8506 45.5908 75.8604 25.0908 115c-2.51074 4.85059 -5.33008 9.87988 -8.44043 15l-44 -50.1396s-68.9199 88 -74.1104 94c-36.3691 -43.5898 -54.5996 -69.0703 -54.5996 -98.0703c0 -58.1201 44 -93.9297 98.1396 -93.9297
c0.0683594 0 0.228516 0.0566406 0.296875 0.0566406c21.416 0 41.2822 6.68652 57.623 18.083z" />
    <glyph glyph-name="sensor-on" unicode="&#xe02b;" horiz-adv-x="640" 
d="M384 416c35.3223 0 64 -28.6777 64 -64v-320c0 -35.3223 -28.6777 -64 -64 -64h-320c-35.3223 0 -64 28.6777 -64 64v320c0 35.3223 28.6777 64 64 64h320zM96 176v160c0 8.83105 -7.16895 16 -16 16s-16 -7.16895 -16 -16v-160c0 -8.83105 7.16895 -16 16 -16
s16 7.16895 16 16zM160 176v160c0 8.83105 -7.16895 16 -16 16s-16 -7.16895 -16 -16v-160c0 -8.83105 7.16895 -16 16 -16s16 7.16895 16 16zM224 176v160c0 8.83105 -7.16895 16 -16 16s-16 -7.16895 -16 -16v-160c0 -8.83105 7.16895 -16 16 -16s16 7.16895 16 16z
M616 216c13.2461 0 24 -10.7539 24 -24s-10.7539 -24 -24 -24h-64c-13.2461 0 -24 10.7539 -24 24s10.7539 24 24 24h64zM536 304c-13.2197 0.03125 -23.9678 10.7588 -23.9678 23.9854c0 8.30176 4.22363 15.624 10.6377 19.9346l48 32
c3.91211 2.76855 8.73633 4.42383 13.8887 4.42383c13.2461 0 24 -10.7539 24 -24c0 -8.57031 -4.50195 -16.0977 -11.2686 -20.3438l-48 -32c-3.78223 -2.51758 -8.3457 -4 -13.2266 -4h-0.0634766zM549.29 76l48.0195 -32
c6.47168 -4.30664 10.6904 -11.6367 10.6904 -19.9854c0 -13.2598 -10.7646 -24.0244 -24.0244 -24.0244c-4.91113 0 -9.47949 1.47656 -13.2852 4.00977l-48 32c-6.47363 4.30469 -10.6943 11.6357 -10.6943 19.9854c0 13.2568 10.7617 24.0186 24.0186 24.0186
c4.90625 0 9.47168 -1.47461 13.2754 -4.00391z" />
    <glyph glyph-name="sensor-smoke" unicode="&#xe02c;" horiz-adv-x="640" 
d="M572.67 126.72c38.1182 -6.02637 67.3838 -39.0684 67.3838 -78.8701c0 -44.0703 -35.7793 -79.8496 -79.8496 -79.8496h-0.204102h-224c-44.1533 0 -80 35.8467 -80 80s35.8467 80 80 80c0.55957 0 1.08008 -0.169922 1.63965 -0.169922
c-1.07227 5.2168 -1.66797 10.6045 -1.66797 16.1377c0 44.1201 35.8193 79.9395 79.9395 79.9395c33.748 0 62.6396 -20.958 74.3584 -50.5576c8.74414 11.374 22.4453 18.6465 37.8867 18.6465c26.3867 0 47.8096 -21.4229 47.8096 -47.8105
c0 -6.16211 -1.16895 -12.0537 -3.2959 -17.4658zM304.59 155.52c-46.5283 -13.5303 -80.6133 -56.5 -80.6133 -107.369c0 -31.4199 12.9883 -59.8301 33.8838 -80.1504h-193.86c-35.3223 0 -64 28.6777 -64 64v320c0 35.3223 28.6777 64 64 64h320
c35.3223 0 64 -28.6777 64 -64v-101.22c-10.2598 3.06934 -20.8604 5.21973 -32 5.21973c-57.8574 -0.0673828 -105.518 -44.1562 -111.41 -100.48zM96 176v160c0 8.83105 -7.16895 16 -16 16s-16 -7.16895 -16 -16v-160c0 -8.83105 7.16895 -16 16 -16s16 7.16895 16 16z
M160 176v160c0 8.83105 -7.16895 16 -16 16s-16 -7.16895 -16 -16v-160c0 -8.83105 7.16895 -16 16 -16s16 7.16895 16 16zM208 160c8.83105 0 16 7.16895 16 16v160c0 8.83105 -7.16895 16 -16 16s-16 -7.16895 -16 -16v-160c0 -8.83105 7.16895 -16 16 -16z" />
    <glyph glyph-name="siren" unicode="&#xe02d;" horiz-adv-x="448" 
d="M128.21 313.06l-24.6699 -185.06h-55.54l25 199.94c3.94434 31.5479 30.8916 56.0566 63.5 56.0596h175c32.6084 -0.00292969 59.5557 -24.5117 63.5 -56.0596l25 -199.94h-264.18l24.1201 180.8c0.046875 0.352539 0.0634766 0.705078 0.0634766 1.07031
c0 4.05469 -3.02148 7.4082 -6.93359 7.92969l-15.8604 2.12988c-0.352539 0.0478516 -0.705078 0.0644531 -1.07031 0.0644531c-4.05371 0 -7.40723 -3.02246 -7.92969 -6.93457zM432 96c8.83105 0 16 -7.16895 16 -16v-64c0 -8.83105 -7.16895 -16 -16 -16h-416
c-8.83105 0 -16 7.16895 -16 16v64c0 8.83105 7.16895 16 16 16h416z" />
    <glyph glyph-name="siren-on" unicode="&#xe02e;" horiz-adv-x="640" 
d="M224.21 313.06l-24.6699 -185.06h-55.54l25 199.94c3.94434 31.5479 30.8916 56.0566 63.5 56.0596h175c32.6084 -0.00292969 59.5557 -24.5117 63.5 -56.0596l25 -199.94h-264.18l24.1201 180.8c0.046875 0.352539 0.0634766 0.705078 0.0634766 1.07031
c0 4.05469 -3.02148 7.4082 -6.93359 7.92969l-15.8604 2.12988c-0.352539 0.0478516 -0.705078 0.0644531 -1.07031 0.0644531c-4.05371 0 -7.40723 -3.02246 -7.92969 -6.93457zM528 96c8.83105 0 16 -7.16895 16 -16v-64c0 -8.83105 -7.16895 -16 -16 -16h-416
c-8.83105 0 -16 7.16895 -16 16v64c0 8.83105 7.16895 16 16 16h416zM112 256c0 -13.2461 -10.7539 -24 -24 -24h-64c-13.2461 0 -24 10.7539 -24 24s10.7539 24 24 24h64c13.2461 0 24 -10.7539 24 -24zM616 280c13.2461 0 24 -10.7539 24 -24s-10.7539 -24 -24 -24h-64
c-13.2461 0 -24 10.7539 -24 24s10.7539 24 24 24h64zM90.6904 372l-48 32c-6.7666 4.24609 -11.2217 11.7451 -11.2217 20.3154c0 13.2461 10.7549 24 24 24c5.15332 0 9.92871 -1.62695 13.8408 -4.39551l48 -32c6.7666 -4.24609 11.2217 -11.7451 11.2217 -20.3154
c0 -13.2461 -10.7549 -24 -24 -24c-5.15332 0 -9.92871 1.62695 -13.8408 4.39551zM536 368c-13.2246 0.0253906 -23.9775 10.7559 -23.9775 23.9854c0 8.31445 4.2373 15.6475 10.668 19.9551l48 32c3.89258 2.72461 8.67871 4.35254 13.7871 4.35254
c13.2461 0 24 -10.7539 24 -24c0 -8.53613 -4.46582 -16.0381 -11.1875 -20.293l-48 -32c-3.78223 -2.51758 -8.3457 -4 -13.2266 -4h-0.0634766z" />
    <glyph glyph-name="solar-system" unicode="&#xe02f;" 
d="M391.778 327.766c16.6445 -16.6426 17.6426 -42.0566 4.7334 -60.7578c32.2959 -60.5156 23.6602 -137.127 -27.3623 -188.145c-28.9619 -28.9619 -68.9844 -46.8633 -113.138 -46.8633c-88.3066 0 -160 71.6934 -160 160c0 88.3027 71.6875 159.993 159.988 160
c25.9209 0 51.5566 -6.98633 75.0156 -19.5039c18.7012 12.9082 44.1182 11.9121 60.7627 -4.73047zM335.204 112.805c36.2773 36.2715 41.9551 91.2559 17.9648 133.928c-10.6553 1.05469 -21.1162 4.98828 -29.2783 13.1504
c-8.17285 8.17188 -12.1133 18.6445 -13.1602 29.3125c-16.4141 9.37793 -35.5244 14.7881 -55.7666 14.7881c-62.0586 0 -112.442 -50.3828 -112.442 -112.441c0 -62.0576 50.3838 -112.441 112.442 -112.441c31.4102 0 59.8301 12.9082 80.2402 33.7041zM256 256
c35.3232 0 64.0059 -28.6768 64.0068 -64c0 -35.3223 -28.6768 -64 -64 -64c-35.3223 0 -64 28.6777 -64 64c0 35.3203 28.6738 63.9961 63.9932 64zM336.905 0.322266c4.20801 -13.168 11.4443 -24.9854 20.9297 -34.5957
c2.0498 -2.04883 4.39551 -3.57422 6.58691 -5.37695c-32.9482 -15.5283 -70.0068 -24.3867 -108.817 -24.3867c-70.541 0 -134.436 28.6855 -180.644 75.0176c-87.2285 87.2188 -98.3115 221.693 -33.3418 320.977c-3.51367 7.32617 -5.48242 15.5859 -5.48242 24.248
c0 30.9375 25.1172 56.0557 56.0557 56.0557s56.0557 -25.1182 56.0557 -56.0557c0 -30.9385 -25.1172 -56.0566 -56.0557 -56.0566c-4.39355 0 -8.66992 0.506836 -12.7744 1.46484c-49.7939 -80.2109 -40.0898 -187.121 29.4883 -256.691
c37.6885 -37.6523 89.8936 -60.8271 147.323 -60.8271c28.5986 0 55.8594 5.77734 80.6758 16.2275zM437.039 373.02c87.2285 -87.2188 98.3115 -221.693 33.3418 -320.977c3.51367 -7.32617 5.48242 -15.5859 5.48242 -24.2471
c0 -30.9395 -25.1191 -56.0586 -56.0586 -56.0586c-30.9385 0 -56.0576 25.1191 -56.0576 56.0586s25.1191 56.0576 56.0576 56.0576c4.39551 0 8.67285 -0.506836 12.7773 -1.46484c49.792 80.2109 40.0879 187.121 -29.4883 256.689
c-37.6885 37.6523 -89.8936 60.8271 -147.323 60.8271c-28.5986 0 -55.8594 -5.77734 -80.6758 -16.2275c-4.20703 13.1699 -11.4434 24.9873 -20.9297 34.5977c-2.04785 2.04688 -4.39355 3.57227 -6.58496 5.375c32.9473 15.5283 70.0068 24.3867 108.817 24.3867
c70.54 0 134.434 -28.6855 180.642 -75.0176z" />
    <glyph glyph-name="sort-circle" unicode="&#xe030;" 
d="M256 440c137 0 248 -111 248 -248s-111 -248 -248 -248s-248 111 -248 248s111 248 248 248zM360.57 128.59c11.5996 11.5605 3.42969 31.4102 -13.0703 31.4102h-183c-16.5 0 -24.6699 -19.8496 -13.0703 -31.4102l91.5703 -91.1797
c3.33398 -3.34277 7.94824 -5.41211 13.0371 -5.41211c5.08984 0 9.69922 2.06934 13.0332 5.41211zM347.5 224c16.5 0 24.6699 19.8496 13.0703 31.4199l-91.5 91.1699c-3.33398 3.34277 -7.94824 5.41211 -13.0381 5.41211
c-5.08887 0 -9.69824 -2.06934 -13.0322 -5.41211l-91.5703 -91.1699c-11.5996 -11.5703 -3.38965 -31.4199 13.0703 -31.4199h183z" />
    <glyph glyph-name="sort-circle-down" unicode="&#xe031;" 
d="M197.7 256l58.2998 58.3301l58.4102 -58.3301h-116.71zM256 440c137 0 248 -111 248 -248s-111 -248 -248 -248s-248 111 -248 248s111 248 248 248zM360.57 128.58c11.5996 11.5703 3.42969 31.4199 -13.0703 31.4199h-183c-16.5 0 -24.6699 -19.8496 -13.0703 -31.4199
l91.5 -91.1699c3.33398 -3.34277 7.94824 -5.41211 13.0381 -5.41211c5.08887 0 9.69824 2.06934 13.0322 5.41211zM347.5 224c16.5 0 24.6699 19.8496 13.0703 31.4199l-91.5703 91.1699c-3.33398 3.34277 -7.94824 5.41211 -13.0371 5.41211
c-5.08984 0 -9.69922 -2.06934 -13.0332 -5.41211l-91.5 -91.1699c-11.5996 -11.5703 -3.38965 -31.4199 13.0703 -31.4199h183z" />
    <glyph glyph-name="sort-circle-up" unicode="&#xe032;" 
d="M256 69.6699l-58.4102 58.3301h116.71zM256 440c137 0 248 -111 248 -248s-111 -248 -248 -248s-248 111 -248 248s111 248 248 248zM151.43 255.42c-11.5996 -11.5703 -3.42969 -31.4199 13.0703 -31.4199h183c16.5 0 24.6699 19.8496 13.0703 31.4199l-91.5 91.1699
c-3.33398 3.34277 -7.94824 5.41211 -13.0381 5.41211c-5.08887 0 -9.69824 -2.06934 -13.0322 -5.41211zM360.57 128.58c11.5996 11.5703 3.42969 31.4199 -13.0703 31.4199h-183c-16.5 0 -24.6699 -19.8496 -13.0703 -31.4199l91.5703 -91.1699
c3.33398 -3.34277 7.94824 -5.41211 13.0371 -5.41211c5.08984 0 9.69922 2.06934 13.0332 5.41211z" />
    <glyph glyph-name="space-station-moon" unicode="&#xe033;" 
d="M256 440c136.967 0 248 -111.033 248 -248c-0.0410156 -9.63965 -0.619141 -18.9121 -1.72461 -28.2656c-71.4727 -22.5039 -155.754 -35.7344 -246.275 -35.7344s-174.803 13.2305 -246.275 35.7344c-1.10547 9.35352 -1.68359 18.626 -1.72461 28.2656
c0 136.967 111.033 248 248 248zM192 208c44.1533 0 80 35.8467 80 80s-35.8467 80 -80 80s-80 -35.8467 -80 -80s35.8467 -80 80 -80zM16.7109 127.736c70.5762 -20.2754 151.947 -31.7363 239.289 -31.7363s168.713 11.4609 239.289 31.7363
c-28.3477 -105.756 -124.588 -183.736 -239.289 -183.736s-210.941 77.9805 -239.289 183.736zM192 312c13.2461 0 24 -10.7539 24 -24s-10.7539 -24 -24 -24s-24 10.7539 -24 24s10.7539 24 24 24z" />
    <glyph glyph-name="space-station-moon-alt" unicode="&#xe034;" 
d="M192 312c13.2461 0 24 -10.7539 24 -24s-10.7539 -24 -24 -24s-24 10.7539 -24 24s10.7539 24 24 24zM384 104.861v-40.8613h64v-28.9082c-45.3926 -55.6758 -114.426 -91.0918 -191.792 -91.0918h-0.208008c-114.701 0 -210.941 77.9805 -239.289 183.736
c70.5762 -20.2754 151.947 -31.7363 239.289 -31.7363c43.7412 0.0371094 85.8428 3.03223 128 8.86133zM501.705 224c1.44336 -10.5459 2.2168 -21.0791 2.29492 -32c-0.0410156 -9.63965 -0.619141 -18.9121 -1.72461 -28.2656
c-71.4727 -22.5039 -155.754 -35.7344 -246.275 -35.7344s-174.803 13.2305 -246.275 35.7344c-1.10547 9.35352 -1.68359 18.626 -1.72461 28.2656c0 136.967 111.033 248 248 248c0.0771484 0 0.291016 -0.0634766 0.368164 -0.0634766
c60.8457 0 116.578 -22.0596 159.632 -58.6104v-29.3262h-48v-64h80v-64h53.7051zM192 208c44.1533 0 80 35.8467 80 80s-35.8467 80 -80 80s-80 -35.8467 -80 -80s35.8467 -80 80 -80z" />
    <glyph glyph-name="sprinkler" unicode="&#xe035;" 
d="M398.19 192c0.00292969 0 -0.00195312 -0.0146484 0.000976562 -0.0146484c9.80762 0 17.7705 -7.96289 17.7705 -17.7705c0 -3.99609 -1.32227 -7.68555 -3.55176 -10.6553l-67.5205 -78.2295l-24.8896 -24.8896v-124.44h-128v124.44l-24.8896 24.8896l-67.5205 78.2295
c-2.22949 2.96973 -3.55957 6.6748 -3.55957 10.6709c0 9.80664 7.96191 17.7695 17.7695 17.7695h0.00976562h110.19v176c0 8.83105 7.16895 16 16 16h32c8.83105 0 16 -7.16895 16 -16v-176h110.19zM152 296c-13.2461 0 -24 10.7539 -24 24s10.7539 24 24 24
s24 -10.7539 24 -24s-10.7539 -24 -24 -24zM88 352c-13.2461 0 -24 10.7539 -24 24s10.7539 24 24 24s24 -10.7539 24 -24s-10.7539 -24 -24 -24zM112 280c0 -13.2461 -10.7539 -24 -24 -24s-24 10.7539 -24 24s10.7539 24 24 24s24 -10.7539 24 -24zM24 344
c13.2461 0 24 -10.7539 24 -24s-10.7539 -24 -24 -24s-24 10.7539 -24 24s10.7539 24 24 24zM24 448c13.2461 0 24 -10.7539 24 -24s-10.7539 -24 -24 -24s-24 10.7539 -24 24s10.7539 24 24 24zM24 240c13.2461 0 24 -10.7539 24 -24s-10.7539 -24 -24 -24
s-24 10.7539 -24 24s10.7539 24 24 24zM360 296c-13.2461 0 -24 10.7539 -24 24s10.7539 24 24 24s24 -10.7539 24 -24s-10.7539 -24 -24 -24zM424 288c13.2461 0 24 -10.7539 24 -24s-10.7539 -24 -24 -24s-24 10.7539 -24 24s10.7539 24 24 24zM424 384
c13.2461 0 24 -10.7539 24 -24s-10.7539 -24 -24 -24s-24 10.7539 -24 24s10.7539 24 24 24zM488 344c13.2461 0 24 -10.7539 24 -24s-10.7539 -24 -24 -24s-24 10.7539 -24 24s10.7539 24 24 24zM488 240c13.2461 0 24 -10.7539 24 -24s-10.7539 -24 -24 -24
s-24 10.7539 -24 24s10.7539 24 24 24zM488 400c-13.2461 0 -24 10.7539 -24 24s10.7539 24 24 24s24 -10.7539 24 -24s-10.7539 -24 -24 -24z" />
    <glyph glyph-name="star-shooting" unicode="&#xe036;" 
d="M308.682 256.004c-2.89648 2.89648 -4.68848 6.90039 -4.68848 11.3164c0 4.41504 1.79199 8.41504 4.68848 11.3115l164.694 164.683c2.89648 2.89551 6.90039 4.6875 11.3154 4.6875s8.41504 -1.79199 11.3115 -4.6875l11.3105 -11.3105
c2.89648 -2.89551 4.68848 -6.90039 4.68848 -11.3154s-1.79199 -8.41406 -4.68848 -11.3105l-164.694 -164.683c-2.89551 -2.89648 -6.90039 -4.68945 -11.3154 -4.68945c-4.41602 0 -8.41602 1.79297 -11.3115 4.68945zM239.99 356.69l-11.3105 11.3086
c-2.89551 2.89648 -4.68848 6.90039 -4.68848 11.3164c0 4.41504 1.79297 8.41504 4.68848 11.3115l52.6924 52.6875c2.89648 2.89551 6.90039 4.6875 11.3164 4.6875c4.41504 0 8.41504 -1.79199 11.3115 -4.6875l11.3105 -11.3105
c2.89551 -2.89551 4.68848 -6.90039 4.68848 -11.3154s-1.79297 -8.41406 -4.68848 -11.3105l-52.6924 -52.6875c-2.89648 -2.89648 -6.90039 -4.68945 -11.3164 -4.68945c-4.41504 0 -8.41504 1.79297 -11.3115 4.68945zM496.003 251.322l11.3105 -11.3105
c2.89648 -2.89551 4.68848 -6.89941 4.68848 -11.3145s-1.79199 -8.41504 -4.68848 -11.3115l-52.6924 -52.6865c-2.89551 -2.89746 -6.90039 -4.69043 -11.3154 -4.69043c-4.41602 0 -8.41602 1.79297 -11.3115 4.69043l-11.3105 11.3076
c-2.89648 2.89648 -4.68848 6.90137 -4.68848 11.3164s1.79199 8.41504 4.68848 11.3115l52.6924 52.6875c2.89648 2.89551 6.90039 4.6875 11.3154 4.6875s8.41504 -1.79199 11.3115 -4.6875zM364.294 180.714c18.7969 -2.70312 26.4062 -25.9053 12.7969 -39.2012
l-75.8926 -73.9971l17.8916 -104.59c0.217773 -1.26855 0.306641 -2.53711 0.306641 -3.86719c0 -12.6689 -10.2852 -22.9541 -22.9531 -22.9541c-3.84375 0 -7.4668 0.947266 -10.6514 2.61914l-93.7988 49.3887l-93.7979 -49.3887
c-16.6104 -8.90527 -36.501 5.29688 -33.2979 24.2021l18 104.59l-75.9072 73.9971c-13.7031 13.2959 -6.09375 36.498 12.7031 39.2012l104.799 15.2959l46.9072 95.1992c8.5 17.2021 32.7979 16.999 41.1885 0l46.9072 -95.1992z" />
    <glyph glyph-name="starfighter" unicode="&#xe037;" horiz-adv-x="640" 
d="M208 160c8.83008 0 16 -7.16992 16 -16v-192c0 -8.83105 -7.16895 -16 -16 -16h-16c-8.83105 0 -16 7.16895 -16 16v16l-128 51.2012v-3.20117c-0.00292969 -8.83398 -7.16113 -16.0068 -15.9971 -16.0068c-0.916992 0 -1.81543 0.078125 -2.69141 0.226562
c-7.86621 1.2793 -13.3115 8.66797 -13.3115 16.6377v271.143h-8c-4.41504 0 -8 3.58496 -8 8v16c0 4.41504 3.58496 8 8 8h8v16c0.00195312 8.83496 7.16016 16.0068 15.9951 16.0068c0.917969 0 1.81836 -0.0771484 2.69434 -0.226562
c7.86523 -1.2793 13.3105 -8.66602 13.3105 -16.6357v-15.1445h8c4.41504 0 8 -3.58496 8 -8v-16c0 -4.41504 -3.58496 -8 -8 -8h-8v-192h80v48c0 8.83008 7.16992 16 16 16h64zM632 320c4.41504 0 8 -3.58496 8 -8v-16c0 -4.41504 -3.58496 -8 -8 -8h-8v-272
c-0.00292969 -8.83398 -7.16113 -16.0068 -15.9971 -16.0068c-0.916992 0 -1.81543 0.078125 -2.69141 0.226562c-7.86621 1.2793 -13.3115 8.66797 -13.3115 16.6377v2.34375l-128 -51.2012v-16c0 -8.83105 -7.16895 -16 -16 -16h-16c-8.83105 0 -16 7.16895 -16 16v192
c0 8.83008 7.16992 16 16 16h64c8.83008 0 16 -7.16992 16 -16v-48h80v192h-8c-4.41504 0 -8 3.58496 -8 8v16c0 4.41504 3.58496 8 8 8h8v16c0.00195312 8.83496 7.16016 16.0068 15.9951 16.0068c0.917969 0 1.81836 -0.0771484 2.69434 -0.226562
c7.86523 -1.2793 13.3105 -8.66602 13.3105 -16.6357v-15.1445h8zM337.875 448c8.15234 0 14.8916 -6.12793 15.877 -14.0156l30.248 -241.984v-208c0 -8.83008 -7.16992 -16 -16 -16h-96c-8.83008 0 -16 7.16992 -16 16v208l30.248 241.984
c0.985352 7.8877 7.72461 14.0156 15.877 14.0156h35.75zM352 144v48c0 17.6611 -14.3389 32 -32 32s-32 -14.3389 -32 -32v-48c0 -8.83008 7.16992 -16 16 -16h32c8.83008 0 16 7.16992 16 16z" />
    <glyph glyph-name="starfighter-alt" unicode="&#xe038;" horiz-adv-x="576" 
d="M560 416c8.83008 0 16 -7.16992 16 -16v-416c0 -8.83008 -7.16992 -16 -16 -16h-32c-8.83008 0 -16 7.16992 -16 16v168l-75.5195 -18.8789c-23.4863 -59.1582 -80.957 -101.121 -148.48 -101.121s-124.994 41.9629 -148.48 101.121l-75.5195 18.8789v-168
c0 -8.83008 -7.16992 -16 -16 -16h-32c-8.83008 0 -16 7.16992 -16 16v416c0 8.83008 7.16992 16 16 16h32c8.83008 0 16 -7.16992 16 -16v-168l75.5195 18.8789c23.4863 59.1582 80.957 101.121 148.48 101.121s124.994 -41.9629 148.48 -101.121l75.5195 -18.8789v168
c0 8.83008 7.16992 16 16 16h32zM300 286.789v-32c8.69922 -1.63184 16.8926 -5.07422 23.957 -9.86328l22.627 22.627c-13.1533 10.2158 -29.2324 17.0938 -46.584 19.2363zM276 286.789c-17.3516 -2.14258 -33.4307 -9.02051 -46.584 -19.2363l22.627 -22.627
c7.06445 4.78906 15.2578 8.23145 23.957 9.86328v32zM212.447 250.584c-10.2158 -13.1533 -17.0938 -29.2324 -19.2363 -46.584h32c1.63184 8.69922 5.07422 16.8926 9.86328 23.957zM193.211 180c2.14258 -17.3516 9.02051 -33.4307 19.2363 -46.584l22.627 22.627
c-4.78906 7.06445 -8.23145 15.2578 -9.86328 23.957h-32zM276 97.2109v32c-8.69922 1.63184 -16.8926 5.07422 -23.957 9.86328l-22.627 -22.627c13.1533 -10.2158 29.2324 -17.0938 46.584 -19.2363zM256 192c0 -17.6611 14.3389 -32 32 -32s32 14.3389 32 32
s-14.3389 32 -32 32s-32 -14.3389 -32 -32zM300 97.2109c17.3516 2.14258 33.4307 9.02051 46.584 19.2363l-22.627 22.627c-7.06445 -4.78906 -15.2578 -8.23145 -23.957 -9.86328v-32zM363.553 133.416c10.2158 13.1533 17.0938 29.2324 19.2363 46.584h-32
c-1.63184 -8.69922 -5.07422 -16.8926 -9.86328 -23.957zM350.789 204h32c-2.14258 17.3516 -9.02051 33.4307 -19.2363 46.584l-22.627 -22.627c4.78906 -7.06445 8.23145 -15.2578 9.86328 -23.957z" />
    <glyph glyph-name="starship" unicode="&#xe039;" horiz-adv-x="640" 
d="M448 224c17.6523 -0.0205078 31.9795 -14.3477 32 -32c0 -17.6611 -14.3389 -32 -32 -32s-32 14.3389 -32 32s14.3389 32 32 32zM240 320c0 -17.6611 -14.3389 -32 -32 -32h-48l48.248 -50.8867l20.7812 1.88867c-3.29004 -15.1982 -5.02344 -30.6758 -5.02344 -46.8525
c0 -16.1777 1.7334 -31.9531 5.02344 -47.1514l-20.7793 1.88867l-70.4883 -50.8867h70.2383c17.6611 0 32 -14.3389 32 -32s-14.3389 -32 -32 -32h-184c-13.2461 0.000976562 -23.999 10.7539 -24 24v16c0 13.2461 10.7539 24 24 24h40l77.5625 56.9492l-10.7969 0.982422
c-19.4609 1.76953 -34.7275 18.1523 -34.7275 38.0703c0 19.9189 15.2666 36.2988 34.7275 38.0684l10.7949 0.980469l-55.3223 56.9492h-62.2383c-13.2461 0.000976562 -23.999 10.7539 -24 24v16c0 13.2461 10.7539 24 24 24h184c17.6611 0 32 -14.3389 32 -32zM448 384
c106.039 0 192 -85.9609 192 -192s-85.9609 -192 -192 -192s-192 85.9609 -192 192s85.9609 192 192 192zM448 128c35.3037 0.0400391 63.96 28.6963 64 64c0 35.3223 -28.6777 64 -64 64s-64 -28.6777 -64 -64s28.6777 -64 64 -64z" />
    <glyph glyph-name="starship-freighter" unicode="&#xe03a;" horiz-adv-x="576" 
d="M224.009 240c26.4912 0 47.999 -21.5088 47.999 -48c0 -26.4922 -21.5068 -48 -47.999 -48s-48 21.5078 -48 48s21.5078 48 48 48zM560 224.346h-143.996v-64.6914h143.996c8.83105 -0.000976562 16 -7.16992 16 -16v-52.4551
c0 -6.90918 -4.38379 -12.7959 -10.5234 -15.0332l-93.3057 -33.9961c4.93262 -7.53223 7.83301 -16.585 7.83301 -26.2529c0 -26.4463 -21.4707 -47.917 -47.917 -47.917h-0.0830078h-63.999c-14.9766 0.00585938 -28.3457 6.84863 -37.1553 17.6094l-3.19531 3.9043
l-16.3271 -5.94922c-55.751 -20.0586 -117.714 -21.9727 -172.107 1.58594c-143.561 62.1836 -139.205 206.85 -139.205 206.85s-4.10938 144.777 139.205 206.85c54.3936 23.5605 116.356 21.6445 172.107 1.58789l254.149 -92.6035
c6.13965 -2.2373 10.5234 -8.12402 10.5234 -15.0332v-52.4551c0 -8.83008 -7.16895 -16 -16 -16zM80.0127 176c8.83008 0 15.999 7.16992 15.999 16s-7.16895 16 -15.999 16c-8.83105 0 -16 -7.16992 -16 -16c0 -8.83105 7.16895 -16 16 -16zM112.012 80
c8.83008 0 15.999 7.16992 15.999 16s-7.16895 16 -15.999 16c-8.83105 0 -16 -7.16992 -16 -16c0 -8.83105 7.16895 -16 16 -16zM112.012 272c8.83008 0 15.999 7.16992 15.999 16s-7.16895 16 -15.999 16c-8.83105 0 -16 -7.16992 -16 -16c0 -8.83105 7.16895 -16 16 -16z
M224.009 112c44.1289 0.0507812 79.9482 35.8701 79.998 80c0 44.1533 -35.8447 80 -79.998 80s-80 -35.8467 -80 -80s35.8467 -80 80 -80z" />
    <glyph glyph-name="sword-laser" unicode="&#xe03b;" 
d="M105.499 120.713l22.6279 22.627l79.1982 -79.1943l-22.6279 -22.627zM9.37109 35.8652l79.1689 79.1787l90.5137 -90.5088l-79.2061 -79.2021c-5.80176 -5.76953 -13.8047 -9.33691 -22.625 -9.33691c-8.83105 0 -16.834 3.57617 -22.6367 9.3584l-45.2334 45.2764
c-5.78027 5.79102 -9.35742 13.791 -9.35742 22.6123c0 8.83008 3.58496 16.8291 9.37598 22.6221zM196.011 211.221l79.1982 -79.1943c1.44824 -1.44824 2.34375 -3.4502 2.34375 -5.6582c0 -2.20703 -0.895508 -4.20703 -2.34375 -5.65527l-11.3145 -11.3135
c-1.44824 -1.44824 -3.4502 -2.34375 -5.6582 -2.34375c-2.20703 0 -4.20703 0.895508 -5.65527 2.34375l-79.1982 79.1943c-1.44824 1.44824 -2.34375 3.4502 -2.34375 5.65723c0 2.20801 0.895508 4.20801 2.34375 5.65625l11.3145 11.3135
c1.44824 1.44727 3.4502 2.34375 5.65723 2.34375c2.20801 0 4.20801 -0.896484 5.65625 -2.34375zM139.44 154.653l22.6289 22.627l79.1973 -79.1943l-22.6279 -22.627zM504.972 440.972c4.34375 -4.34473 7.02734 -10.3574 7.02734 -16.9805
c0 -6.28809 -2.42383 -12.0156 -6.38672 -16.2969l-226.038 -246.093l-53.9873 53.9844l246.105 226.026c4.28223 3.96289 10.0205 6.39062 16.3096 6.39062c6.62305 0 12.624 -2.6875 16.9697 -7.03125z" />
    <glyph glyph-name="sword-laser-alt" unicode="&#xe03c;" 
d="M54.6094 -54.6514l107.508 107.506l22.6387 -22.6387l-84.8828 -84.8809c-5.80273 -5.77051 -13.8076 -9.33887 -22.6299 -9.33887c-8.82812 0 -16.8281 3.57324 -22.6318 9.35059zM94.2236 120.746l22.626 -22.625l-107.483 -107.484l-0.00585938 0.00390625
c-5.78516 5.79004 -9.36523 13.7939 -9.36523 22.6172c0 8.82812 3.58398 16.8271 9.375 22.6182zM128.167 86.8037l22.6328 -22.6318l-107.502 -107.5l-22.6221 22.6436zM309.033 191.938c14.2949 0 21.418 -17.3145 11.2607 -27.374l-124.223 -123.031l-90.5303 90.5293
l55.1777 55.1875c2.89648 2.89746 6.90039 4.68848 11.3174 4.68848h136.997zM504.97 440.971c4.34473 -4.34668 7.0293 -10.3604 7.0293 -16.9854c0 -6.29004 -2.4248 -12.0195 -6.38867 -16.3018l-176.107 -191.739h-103.523l245.704 225.667
c4.2832 3.96387 10.0234 6.3916 16.3135 6.3916c6.625 0 12.626 -2.68848 16.9727 -7.03223z" />
    <glyph glyph-name="swords-laser" unicode="&#xe03d;" horiz-adv-x="640" 
d="M135.031 440.97c4.34668 4.34473 10.3604 7.0293 16.9854 7.0293c6.29004 0 12.0186 -2.4248 16.3018 -6.38867l191.738 -176.106v-103.523l-225.668 245.702c-3.96289 4.2832 -6.3916 10.0234 -6.3916 16.3135c0 6.625 2.68945 12.627 7.03418 16.9736zM411.436 256.295
l123.031 -124.223l-90.5293 -90.5312l-55.1875 55.1777c-2.89648 2.89648 -4.6875 6.90137 -4.6875 11.3184v136.996c0 14.2949 17.3145 21.418 27.373 11.2617zM489.195 64.168l22.6328 22.6328l107.5 -107.502l-22.6445 -22.623zM630.666 35.873
c5.77051 -5.80273 9.33789 -13.8076 9.33789 -22.6299c0 -8.82812 -3.57227 -16.8281 -9.34961 -22.6318l-0.00195312 -0.00195312l-107.506 107.508l22.6367 22.6387zM455.254 30.2246l22.625 22.625l107.484 -107.482l-0.00390625 -0.00585938
c-5.79004 -5.78516 -13.793 -9.36523 -22.6172 -9.36523c-8.82812 0 -16.8262 3.58398 -22.6172 9.375zM256 134.801v93.168l42.6973 -46.4883zM400.717 293.015c-0.181641 0.00195312 -0.353516 0.0527344 -0.535156 0.0527344
c-0.0175781 0 -0.0664062 -0.0214844 -0.0839844 -0.0214844c-6.60645 0 -12.9014 -1.33887 -18.6309 -3.75977l-37.8105 34.7285l128.037 117.598c4.28125 3.96387 10.0156 6.38086 16.3047 6.38086c13.2471 0 24.002 -10.7549 24.002 -24.002
c0 -6.28906 -2.42383 -12.0166 -6.38867 -16.2988zM196.6 223.371c10.0566 10.1777 27.4004 3.0625 27.4004 -11.2422v-137.029c0 -4.43848 -1.80859 -8.45898 -4.73242 -11.3574l-119.361 -118.375c-5.79492 -5.78906 -13.8037 -9.37109 -22.6338 -9.37109
c-8.82617 0 -16.8223 3.57812 -22.6162 9.36133l-45.3086 45.2383c-5.77832 5.80078 -9.35156 13.8096 -9.35156 22.6357c0 8.82031 3.56836 16.8145 9.33984 22.6143l113.223 113.16c-5.79004 5.79297 -9.36328 13.8008 -9.36328 22.6299
c0 17.665 14.3418 32.0068 32.0068 32.0068c8.83594 0 16.8398 -3.58789 22.6338 -9.38477zM168.541 87.5527c8.83203 0 16.0049 7.16895 16.0078 16c0 8.83008 -7.16895 16 -16 16c-8.83008 0 -16 -7.16992 -16 -16c0 -8.82812 7.16504 -15.9961 15.9922 -16z" />
    <glyph glyph-name="telescope" unicode="&#xe03e;" horiz-adv-x="640" 
d="M380.42 355.866l78.125 -188.62l-66.5664 -22.8652c0 -0.130859 0.0390625 -0.25 0.0390625 -0.380859c-0.0712891 -16.8379 -6.0166 -32.3594 -15.8574 -44.5273l47.4668 -142.412c0.530273 -1.58984 0.821289 -3.29297 0.821289 -5.05957
c0 -8.83105 -7.16992 -16.001 -16.001 -16.001h-16.8594c-7.06348 0.000976562 -13.0596 4.58594 -15.1777 10.9414l-42.1641 126.496c-4.6123 -0.942383 -9.28125 -1.43652 -14.1709 -1.43652c-4.88867 0 -9.66406 0.494141 -14.2764 1.43652l-42.1621 -126.496
c-2.11816 -6.35547 -8.11426 -10.9404 -15.1777 -10.9414h-16.8613c-8.83008 0.000976562 -15.9951 7.17285 -15.9951 16.0029c0 1.76758 0.287109 3.46777 0.817383 5.05762l47.4668 142.412c-0.191406 0.240234 -0.396484 0.466797 -0.583984 0.708984l-127.002 -43.623
c-8.75391 -3.00781 -18.0527 0.693359 -21.2715 8.4668l-8.74219 21.1074l-64.1055 -26.5547c-1.88281 -0.780273 -3.9502 -1.22852 -6.11426 -1.22852c-6.66699 0 -12.3867 4.08594 -14.79 9.88867l-20.0566 48.4219c-0.779297 1.88281 -1.22754 3.9502 -1.22754 6.11328
c0 6.66699 4.08594 12.3867 9.8877 14.791l64.1055 26.5547l-8.74414 21.1094c-3.2207 7.77344 0.738281 16.9639 9.05664 21.0283zM320 120c13.2393 0.0136719 23.9854 10.7607 24 24c0 13.2461 -10.7539 24 -24 24s-24 -10.7539 -24 -24s10.7539 -24 24 -24z
M638.777 231.169c0.780273 -1.88379 1.22852 -3.95215 1.22852 -6.11621c0 -6.66602 -4.08496 -12.3848 -9.88672 -14.7881l-117.314 -48.5967c-1.88379 -0.780273 -3.95117 -1.22852 -6.11426 -1.22852c-6.66699 0 -12.3867 4.08594 -14.79 9.88867l-85.7129 206.948
c-0.780273 1.88379 -1.22852 3.95215 -1.22852 6.11621c0 6.66602 4.08398 12.3848 9.88477 14.7881l117.316 48.5977c1.88281 0.780273 3.9502 1.22852 6.11426 1.22852c6.66602 0 12.3857 -4.08691 14.7881 -9.88867z" />
    <glyph glyph-name="temperature-down" unicode="&#xe03f;" 
d="M160 125.09c18.6426 -6.59082 31.9854 -24.3809 31.9854 -45.2695c0 -26.4922 -21.5078 -48 -48 -48s-48 21.5078 -48 48c0 20.8887 13.3721 38.6787 32.0146 45.2695v18.9102c0 8.83105 7.16895 16 16 16s16 -7.16895 16 -16v-18.9102zM256 336v-166.5
c19.7002 -24.5898 32 -55.5 32 -89.5c0 -79.4756 -64.5244 -144 -144 -144s-144 64.5244 -144 144c0 34 12.2998 64.8096 32 89.5v166.5c0 61.8145 50.1855 112 112 112s112 -50.1855 112 -112zM144 0c0.046875 0 0.158203 -0.0380859 0.204102 -0.0380859
c44.082 0 79.8701 35.7881 79.8701 79.8701c0 26.1641 -12.6074 49.4062 -32.0742 63.9775v192.19c0 26.4922 -21.5078 48 -48 48s-48 -21.5078 -48 -48v-192.19c-19.4668 -14.5713 -32.0098 -37.7754 -32.0098 -63.9395c0 -44.082 35.7891 -79.8701 79.8701 -79.8701
h0.139648zM496 96c14.2197 0 21.3398 -17.25 11.3096 -27.3096l-80 -96c-2.89551 -2.89453 -6.89844 -4.68555 -11.3115 -4.68555c-4.41406 0 -8.41211 1.79102 -11.3076 4.68555l-80 96c-10.0801 10.0596 -2.90039 27.3096 11.3096 27.3096h48v304
c0 8.83105 7.16895 16 16 16h32c8.83105 0 16 -7.16895 16 -16v-304h48z" />
    <glyph glyph-name="temperature-up" unicode="&#xe040;" 
d="M160 125.09c18.6426 -6.59082 31.9854 -24.3809 31.9854 -45.2695c0 -26.4922 -21.5078 -48 -48 -48s-48 21.5078 -48 48c0 20.8887 13.3721 38.6787 32.0146 45.2695v210.91c0 8.83105 7.16895 16 16 16s16 -7.16895 16 -16v-210.91zM256 336v-166.5
c19.7002 -24.5898 32 -55.5 32 -89.5c0 -79.4756 -64.5244 -144 -144 -144s-144 64.5244 -144 144c0 34 12.2998 64.8096 32 89.5v166.5c0 61.8145 50.1855 112 112 112s112 -50.1855 112 -112zM144 0c0.046875 0 0.158203 -0.0380859 0.204102 -0.0380859
c44.082 0 79.8701 35.7881 79.8701 79.8701c0 26.1641 -12.6074 49.4062 -32.0742 63.9775v192.19c0 26.4922 -21.5078 48 -48 48s-48 -21.5078 -48 -48v-192.19c-19.4668 -14.5713 -32.0098 -37.7754 -32.0098 -63.9395c0 -44.082 35.7891 -79.8701 79.8701 -79.8701
h0.139648zM507.3 315.31c10.0605 -10.0596 2.89062 -27.3096 -11.2998 -27.3096h-48v-304c0 -8.83105 -7.16895 -16 -16 -16h-32c-8.83105 0 -16 7.16895 -16 16v304h-48c-14.2197 0 -21.3398 17.25 -11.3301 27.3096l80 96
c2.89648 2.89746 6.90137 4.69043 11.3174 4.69043s8.41602 -1.79297 11.3125 -4.69043z" />
    <glyph glyph-name="trailer" unicode="&#xe041;" horiz-adv-x="640" 
d="M624 128c8.83105 0 16 -7.16895 16 -16v-32c0 -8.83105 -7.16895 -16 -16 -16h-337.61c-7.83008 54.21 -54 96 -110.39 96s-102.56 -41.79 -110.39 -96h-49.6104c-8.83105 0 -16 7.16895 -16 16v288c0 8.83105 7.16895 16 16 16h512c8.83105 0 16 -7.16895 16 -16v-240
h80zM96 204.32v107.68c0 4.41504 -3.58496 8 -8 8h-16c-4.41504 0 -8 -3.58496 -8 -8v-128.39c9.85938 8.0166 20.5459 14.9482 32 20.71zM192 222.86v89.1396c0 4.41504 -3.58496 8 -8 8h-16c-4.41504 0 -8 -3.58496 -8 -8v-89.1396
c5.30957 0.489258 10.5703 1.13965 16 1.13965s10.6904 -0.650391 16 -1.13965zM288 183.61v128.39c0 4.41504 -3.58496 8 -8 8h-16c-4.41504 0 -8 -3.58496 -8 -8v-107.68c11.4541 -5.76172 22.1406 -12.6934 32 -20.71zM384 128v184c0 4.41504 -3.58496 8 -8 8h-16
c-4.41504 0 -8 -3.58496 -8 -8v-184h32zM480 128v184c0 4.41504 -3.58496 8 -8 8h-16c-4.41504 0 -8 -3.58496 -8 -8v-184h32zM176 128c44.1533 0 80 -35.8467 80 -80s-35.8467 -80 -80 -80s-80 35.8467 -80 80s35.8467 80 80 80zM176 16c17.6611 0 32 14.3389 32 32
s-14.3389 32 -32 32s-32 -14.3389 -32 -32s14.3389 -32 32 -32z" />
    <glyph glyph-name="transporter" unicode="&#xe042;" 
d="M384.001 0c17.6602 0 32 -14.3389 32 -32v-32h-320.008v32c0 17.6611 14.3398 32 32 32h56.002v209.221l-31.4229 -37.7051c-5.87109 -7.04492 -14.6904 -11.4922 -24.5693 -11.4922c-17.6592 0 -31.9951 14.3369 -31.9951 31.9961
c0 7.78027 2.7832 14.916 7.40723 20.4648l70.4082 84.4844c11.7041 14.0918 29.335 23.0312 49.0674 23.0312h0.0898438h66.0332c0.0263672 0 0.0322266 0.0400391 0.0585938 0.0400391c19.7402 0 37.3994 -8.97852 49.1143 -23.0713l70.3926 -84.4844
c4.62402 -5.54883 7.42676 -12.7236 7.42676 -20.5039c0 -17.6592 -14.3369 -31.9961 -31.9961 -31.9961c-9.87793 0 -18.7168 4.48633 -24.5879 11.5312l-31.4229 37.7051v-209.221h56.002zM263.997 0v128h-16v-128h16zM255.958 352c-26.4922 0 -48 21.5078 -48 48
s21.5078 48 48 48l0.0195312 -0.00195312l0.0195312 0.00195312c26.4922 0 48 -21.5078 48 -48s-21.5078 -48 -48 -48l-0.0195312 0.00195312zM509.789 403.568c1.3125 -0.65625 2.21484 -2.00879 2.21484 -3.5752c0 -1.56543 -0.902344 -2.92285 -2.21484 -3.5791
l-29.7842 -12.4199l-12.4199 -29.7852c-0.654297 -1.31543 -2.00781 -2.2207 -3.57617 -2.2207s-2.92578 0.905273 -3.58008 2.2207l-12.4209 29.7852l-29.7842 12.4199c-1.3125 0.65625 -2.21484 2.00879 -2.21484 3.5752c0 1.56543 0.902344 2.92285 2.21484 3.5791
l29.7842 12.4199l12.4209 29.7852c0.65332 1.31641 2.00684 2.22266 3.5752 2.22266s2.92773 -0.90625 3.58105 -2.22266l12.4199 -29.7852zM63.9922 352l29.7861 -12.4199c1.31152 -0.657227 2.21289 -2.00879 2.21289 -3.5752
c0 -1.56543 -0.901367 -2.92188 -2.21289 -3.5791l-29.7861 -12.4199l-12.4209 -29.7852c-0.65332 -1.31543 -2.00684 -2.2207 -3.57422 -2.2207c-1.56836 0 -2.92578 0.905273 -3.58008 2.2207l-12.4199 29.7852l-29.7861 12.4199
c-1.3125 0.65625 -2.21484 2.00879 -2.21484 3.5752c0 1.56543 0.902344 2.92285 2.21484 3.5791l29.7861 12.4199l12.4199 29.7852c0.65332 1.31641 2.00684 2.22266 3.5752 2.22266s2.92676 -0.90625 3.5791 -2.22266z" />
    <glyph glyph-name="transporter-1" unicode="&#xe043;" 
d="M263.997 32v32h64.002v-32h-64.002zM152.572 171.516c-5.87109 -7.04492 -14.6904 -11.4922 -24.5693 -11.4922c-17.6592 0 -31.9951 14.3369 -31.9951 31.9961c0 7.78027 2.7832 14.916 7.40723 20.4648l70.4082 84.4844
c11.7041 14.0918 29.335 23.0312 49.0674 23.0312h0.0898438h66.0332c0.0263672 0 0.0322266 0.0400391 0.0585938 0.0400391c19.7402 0 37.3994 -8.97852 49.1143 -23.0713l70.3926 -84.4844c4.62402 -5.54883 7.42676 -12.7236 7.42676 -20.5039
c0 -17.6592 -14.3369 -31.9961 -31.9961 -31.9961c-9.87793 0 -18.7168 4.48633 -24.5879 11.5312l-31.4229 37.7051v-113.221h-64.002v32h-16v-32h-64.002v113.221zM255.958 352c-26.4922 0 -48 21.5078 -48 48s21.5078 48 48 48l0.0195312 -0.00195312
l0.0195312 0.00195312c26.4922 0 48 -21.5078 48 -48s-21.5078 -48 -48 -48l-0.0195312 0.00195312zM183.995 32v32h64.002v-32h-64.002zM509.789 83.5801c1.3125 -0.65625 2.21484 -2.00879 2.21484 -3.5752c0 -1.56543 -0.902344 -2.92285 -2.21484 -3.5791
l-29.7842 -12.4199l-12.4199 -29.7852c-0.654297 -1.31543 -2.00781 -2.2207 -3.57617 -2.2207s-2.92578 0.905273 -3.58008 2.2207l-12.4209 29.7852l-29.7842 12.4199c-1.3125 0.65625 -2.21484 2.00879 -2.21484 3.5752c0 1.56543 0.902344 2.92285 2.21484 3.5791
l29.7842 12.4199l12.4209 29.7852c0.65332 1.31641 2.00684 2.22266 3.5752 2.22266s2.92773 -0.90625 3.58105 -2.22266l12.4199 -29.7852zM63.9922 319.998l29.7861 -12.4199c1.31152 -0.657227 2.21289 -2.00977 2.21289 -3.57617
c0 -1.56543 -0.901367 -2.92285 -2.21289 -3.58008l-29.7861 -12.4199l-12.4209 -29.7832c-0.652344 -1.31641 -2.00586 -2.22266 -3.57422 -2.22266s-2.92676 0.90625 -3.58008 2.22266l-12.4199 29.7832l-29.7861 12.4199
c-1.3125 0.65625 -2.21484 2.00977 -2.21484 3.57617s0.902344 2.92383 2.21484 3.58008l29.7861 12.4199l12.4199 29.7832c0.65332 1.31641 2.00684 2.22266 3.5752 2.22266s2.92676 -0.90625 3.5791 -2.22266zM384.001 0c17.6602 0 32 -14.3389 32 -32v-32h-320.008v32
c0 17.6611 14.3398 32 32 32h256.008z" />
    <glyph glyph-name="transporter-2" unicode="&#xe044;" 
d="M328 128v-32h-64.002v32h64.002zM263.998 32v32h64.002v-32h-64.002zM255.959 352c-26.4922 0 -48 21.5078 -48 48s21.5078 48 48 48l0.0195312 -0.00195312l0.0195312 0.00195312c26.4922 0 48 -21.5078 48 -48s-21.5078 -48 -48 -48l-0.0195312 0.00195312zM328 192
v-32h-144.004v32h144.004zM359.423 171.516l-17.0703 20.4844h73.2207c0.00390625 -0.204102 0.0234375 -0.390625 0.0234375 -0.595703c0 -9.60547 -4.31445 -18.2109 -11.1094 -23.9824c-5.54883 -4.62695 -12.6953 -7.44141 -20.4775 -7.44141
c-9.87891 0 -18.7178 4.48828 -24.5869 11.5352zM338.188 296.969l60.7979 -72.9688h-285.973l60.8096 72.9688c11.7051 14.0918 29.3359 23.0312 49.0684 23.0312h0.0898438h66.0332c0.0263672 0 0.0322266 0.0400391 0.0585938 0.0400391
c19.7402 0 37.4004 -8.97852 49.1152 -23.0713zM384.002 0c17.6611 0 32.001 -14.3389 32.001 -32v-32h-320.01v32c0 17.6611 14.3398 32 32.001 32h256.008zM247.998 128v-32h-64.002v32h64.002zM152.573 171.516c-5.87305 -7.04199 -14.7227 -11.4971 -24.5996 -11.4971
c-7.78027 0 -14.915 2.78125 -20.4648 7.40332c-6.79492 5.77148 -11.0918 14.3584 -11.0918 23.9639c0 0.205078 0.00195312 0.410156 0.00585938 0.614258h73.2207zM183.996 32v32h64.002v-32h-64.002zM509.791 307.584
c1.31152 -0.657227 2.21289 -2.00977 2.21289 -3.57617c0 -1.56543 -0.901367 -2.92285 -2.21289 -3.58008l-29.7861 -12.4199l-12.4199 -29.7832c-0.65332 -1.31641 -2.00684 -2.22266 -3.5752 -2.22266s-2.92676 0.90625 -3.58008 2.22266l-12.4199 29.7832
l-29.7861 12.4199c-1.3125 0.65625 -2.21484 2.00977 -2.21484 3.57617s0.902344 2.92383 2.21484 3.58008l29.7861 12.4199l12.4199 29.7832c0.65332 1.31641 2.00684 2.22266 3.5752 2.22266s2.92676 -0.90625 3.58008 -2.22266l12.4199 -29.7832zM63.9902 415.998
l29.7861 -12.4199c1.3125 -0.65625 2.21484 -2.00879 2.21484 -3.5752c0 -1.56543 -0.902344 -2.92285 -2.21484 -3.5791l-29.7861 -12.4199l-12.4199 -29.7852c-0.65332 -1.31641 -2.00684 -2.22266 -3.5752 -2.22266s-2.92676 0.90625 -3.58008 2.22266l-12.4199 29.7852
l-29.7861 12.4199c-1.31152 0.657227 -2.21289 2.00879 -2.21289 3.5752c0 1.56543 0.901367 2.92188 2.21289 3.5791l29.7861 12.4199l12.4199 29.7832c0.65332 1.31641 2.00684 2.22266 3.5752 2.22266s2.92676 -0.90625 3.58008 -2.22266z" />
    <glyph glyph-name="transporter-3" unicode="&#xe045;" 
d="M372.324 256l26.6621 -32h-285.974l26.667 32h232.645zM263.998 32v32h64.002v-32h-64.002zM328 128v-32h-64.002v32h64.002zM359.423 171.516l-17.0703 20.4844h73.2207c0.00390625 -0.204102 0.0234375 -0.390625 0.0234375 -0.595703
c0 -9.60547 -4.31445 -18.2109 -11.1094 -23.9824c-5.54785 -4.62695 -12.6953 -7.44141 -20.4775 -7.44141c-9.87891 0 -18.7178 4.48828 -24.5869 11.5352zM255.998 448c20.8037 -0.0742188 38.4932 -13.4111 45.0498 -32h-90.1387
c6.55664 18.5889 24.2461 31.9258 45.0498 32l0.0195312 -0.00195312zM255.959 352c-20.8174 0.046875 -38.5205 13.3955 -45.0596 32h90.1582c-6.53906 -18.6045 -24.2422 -31.9531 -45.0596 -32l-0.0195312 0.00195312zM338.188 296.969l7.47266 -8.96875h-179.312
l7.47461 8.96875c11.7051 14.0918 29.3359 23.0312 49.0684 23.0312h0.0898438h66.0332c0.0263672 0 0.0322266 0.0400391 0.0585938 0.0400391c19.7402 0 37.4004 -8.97852 49.1152 -23.0713zM247.998 128v-32h-64.002v32h64.002zM152.573 171.516
c-5.87305 -7.04199 -14.7227 -11.4971 -24.5996 -11.4971c-7.78027 0 -14.915 2.78125 -20.4648 7.40332c-6.79492 5.77148 -11.0918 14.3584 -11.0918 23.9639c0 0.205078 0.00195312 0.410156 0.00585938 0.614258h73.2207zM384.002 0
c17.6611 0 32.001 -14.3389 32.001 -32v-32h-320.01v32c0 17.6611 14.3398 32 32.001 32h256.008zM328 192v-32h-144.004v32h144.004zM183.996 32v32h64.002v-32h-64.002zM509.791 403.568c1.31152 -0.657227 2.21289 -2.00879 2.21289 -3.5752
c0 -1.56543 -0.901367 -2.92188 -2.21289 -3.5791l-29.7861 -12.4199l-12.4199 -29.7852c-0.654297 -1.31543 -2.00781 -2.2207 -3.5752 -2.2207s-2.92578 0.905273 -3.58008 2.2207l-12.4199 29.7852l-29.7861 12.4199c-1.3125 0.65625 -2.21484 2.00879 -2.21484 3.5752
c0 1.56543 0.902344 2.92285 2.21484 3.5791l29.7861 12.4199l12.4199 29.7852c0.65332 1.31641 2.00684 2.22266 3.5752 2.22266s2.92676 -0.90625 3.58008 -2.22266l12.4199 -29.7852zM63.9902 95.9961l29.7861 -12.4199
c1.3125 -0.65625 2.21484 -2.00977 2.21484 -3.57617s-0.902344 -2.92383 -2.21484 -3.58008l-29.7861 -12.4199l-12.4199 -29.7832c-0.65332 -1.31641 -2.00684 -2.22266 -3.5752 -2.22266s-2.92676 0.90625 -3.58008 2.22266l-12.4199 29.7832l-29.7861 12.4199
c-1.31152 0.657227 -2.21289 2.00977 -2.21289 3.57617c0 1.56543 0.901367 2.92285 2.21289 3.58008l29.7861 12.4199l12.4199 29.7832c0.65332 1.31641 2.00684 2.22266 3.5752 2.22266s2.92676 -0.90625 3.58008 -2.22266z" />
    <glyph glyph-name="transporter-empty" unicode="&#xe046;" 
d="M384.002 0c17.6611 0 32.001 -14.3389 32.001 -32v-32h-320.01v32c0 17.6611 14.3398 32 32.001 32h256.008zM509.791 179.581c1.31152 -0.657227 2.21289 -2.00879 2.21289 -3.5752c0 -1.56543 -0.901367 -2.92188 -2.21289 -3.5791l-29.7861 -12.4199
l-12.4199 -29.7852c-0.654297 -1.31543 -2.00781 -2.2207 -3.5752 -2.2207s-2.92578 0.905273 -3.58008 2.2207l-12.4199 29.7852l-29.7861 12.4199c-1.3125 0.65625 -2.21484 2.00879 -2.21484 3.5752c0 1.56543 0.902344 2.92285 2.21484 3.5791l29.7861 12.4199
l12.4199 29.7852c0.65332 1.31641 2.00684 2.22266 3.5752 2.22266s2.92676 -0.90625 3.58008 -2.22266l12.4199 -29.7852zM63.9902 415.998l29.7861 -12.4199c1.3125 -0.657227 2.21484 -2.00977 2.21484 -3.57617s-0.902344 -2.92383 -2.21484 -3.58008l-29.7861 -12.4199
l-12.4199 -29.7832c-0.65332 -1.31738 -2.00684 -2.22266 -3.5752 -2.22266s-2.92676 0.905273 -3.58008 2.22266l-12.4199 29.7832l-29.7861 12.4199c-1.31152 0.657227 -2.21289 2.00977 -2.21289 3.5752c0 1.56641 0.901367 2.92383 2.21289 3.58105l29.7861 12.4199
l12.4199 29.7832c0.65332 1.31641 2.00684 2.22266 3.5752 2.22266s2.92676 -0.90625 3.58008 -2.22266z" />
    <glyph glyph-name="ufo" unicode="&#xe047;" horiz-adv-x="640" 
d="M494.736 235.156c87.4004 -22.8496 145.264 -62.2734 145.264 -107.156c0 -70.6914 -143.27 -128 -320 -128s-320 57.3086 -320 128c0 44.8828 57.8633 84.3066 145.264 107.156c13.2031 84.166 86.416 148.844 174.736 148.844s161.533 -64.6777 174.736 -148.844z
M128 88c13.2461 0.000976562 23.999 10.7539 24 24c0 13.2461 -10.7539 24 -24 24s-24 -10.7539 -24 -24s10.7539 -24 24 -24zM320 56c13.2461 0.000976562 23.999 10.7539 24 24c0 13.2461 -10.7539 24 -24 24s-24 -10.7539 -24 -24s10.7539 -24 24 -24zM447.361 191.219
c0.740234 5.54688 1.70508 11.0332 1.70508 16.7812c0 70.6934 -57.7832 128 -129.066 128s-129.066 -57.3066 -129.066 -128c0 -5.74805 0.964844 -11.2344 1.70508 -16.7812c38.0293 -19.835 81.8154 -31.0518 127.642 -31.0518
c45.8252 0 89.0518 11.2168 127.081 31.0518zM512 88c13.2461 0.000976562 23.999 10.7539 24 24c0 13.2461 -10.7539 24 -24 24s-24 -10.7539 -24 -24s10.7539 -24 24 -24z" />
    <glyph glyph-name="ufo-beam" unicode="&#xe048;" horiz-adv-x="640" 
d="M33.6934 -33.6846l80.5889 161.182c14.7441 -5.20996 30.208 -9.79102 45.6045 -13.4766c-0.15332 -2.05469 -0.708008 -4.03125 -1.57031 -5.79492l-81.6865 -163.379c-2.62598 -5.25 -8.06152 -8.83398 -14.3262 -8.83398
c-2.56543 0 -4.99023 0.605469 -7.13965 1.67969l-14.3164 7.1582c-5.25098 2.625 -8.83496 8.05957 -8.83496 14.3242c0 2.56543 0.605469 4.99121 1.68066 7.14062zM525.721 127.493l80.5859 -161.178c1.0752 -2.14941 1.70508 -4.58105 1.70508 -7.14648
c0 -6.26465 -3.6084 -11.6934 -8.85938 -14.3184l-14.3154 -7.1582c-2.15039 -1.0752 -4.58105 -1.7041 -7.14648 -1.7041c-6.26465 0 -11.6943 3.6084 -14.3203 8.8584l-81.6855 163.379c-0.862305 1.76367 -1.41699 3.73926 -1.57031 5.79297
c15.3965 3.68652 30.8613 8.26562 45.6064 13.4746zM608 240c0 -61.8564 -128.938 -112.001 -287.994 -112.001s-287.994 50.1445 -287.994 112.001c0 40.8926 56.5342 76.5605 140.683 96.1113c18.0977 64.3125 76.9365 111.889 147.312 111.889
c70.376 0 129.214 -47.5762 147.312 -111.889c84.1484 -19.5508 140.683 -55.2188 140.683 -96.1113zM128.01 216c13.2461 0 23.999 10.7539 24 24c0 13.2451 -10.7539 24 -24 24s-24 -10.7539 -24 -24s10.7539 -24 24 -24zM320.006 167.999
c13.2461 0.000976562 23.999 10.7549 24 24c0 13.2461 -10.7539 24 -24 24s-24 -10.7539 -24 -24c0 -13.2451 10.7539 -24 24 -24zM424.209 281.543c0.764648 4.49707 1.23535 9.05469 1.39453 13.7305c0 57.8398 -47.2764 104.727 -105.598 104.727
s-105.598 -46.8867 -105.598 -104.727c0.15918 -4.67578 0.629883 -9.2334 1.39453 -13.7305c31.0635 -16.2285 66.6094 -25.543 104.056 -25.543h0.147461c0.0498047 0 0.324219 0.135742 0.374023 0.135742c37.4463 0 72.7656 9.17871 103.829 25.4072zM512.002 216
c13.2451 0 23.999 10.7539 24 24c0 13.2451 -10.7539 24 -24 24s-24 -10.7549 -24 -24c0 -13.2461 10.7539 -24 24 -24z" />
    <glyph glyph-name="user-alien" unicode="&#xe04a;" horiz-adv-x="448" 
d="M352 64c52.9834 0 96 -43.0166 96 -96c0 -17.6611 -14.3389 -32 -32 -32h-384c-17.6611 0 -32 14.3389 -32 32c0 52.9834 43.0166 96 96 96h34.3848c19.6504 -17.9883 39.0195 -33.543 55.4902 -45.8496c10.6211 -7.94238 23.9082 -12.6475 38.1777 -12.6475
c14.2705 0 27.4512 4.70605 38.0723 12.6494c16.4707 12.3066 35.8398 27.8594 55.4902 45.8477h34.3848zM205.029 43.7852c-45.4883 33.9922 -157.029 126.703 -157.029 218.531c0 115.365 78.791 185.684 176 185.684c97.1816 0 176 -70.3184 176 -185.684
c0 -91.8281 -111.541 -184.539 -157.029 -218.531c-5.28418 -3.9541 -11.8965 -6.29688 -18.9971 -6.29688c-7.10156 0 -13.6602 2.34277 -18.9443 6.29688zM240 196v-8c0 -6.62305 5.37695 -12 12 -12h24c33.1152 0 60 26.8848 60 60v8c0 6.62305 -5.37695 12 -12 12h-24
c-33.1152 0 -60 -26.8848 -60 -60zM112 236c0 -33.1152 26.8848 -60 60 -60h24c6.62305 0 12 5.37695 12 12v8c0 33.1152 -26.8848 60 -60 60h-24c-6.62305 0 -12 -5.37695 -12 -12v-8z" />
    <glyph glyph-name="user-robot" unicode="&#xe04b;" horiz-adv-x="448" 
d="M18 192c-9.92285 0 -18 8.05566 -18 17.9795v0.0205078v92v0.0214844c0 9.92285 8.05566 17.9785 17.9775 17.9785h0.0224609h30v-128h-30zM430 320h0.0224609c9.92188 0 17.9775 -8.05469 17.9775 -17.9766v-0.0234375v-92v-0.0214844
c0 -9.92285 -8.05566 -17.9785 -17.9785 -17.9785h-0.0214844h-30v128h30zM116 128c-19.8594 0.0205078 -35.9795 16.1406 -36 36v175v0.0146484c0 24.8281 20.1572 44.9854 44.9854 44.9854h0.0146484h81v46c0 9.93457 8.06543 18 18 18s18 -8.06543 18 -18v-46h81
h0.015625c24.8281 0 44.9844 -20.1562 44.9844 -44.9834v-0.0166016v-175c-0.0195312 -19.8594 -16.1406 -35.9805 -36 -36h-216zM304 176v32h-32v-32h32zM288 320c-17.6592 0 -32 -14.3408 -32 -32c0 -17.6611 14.3389 -32 32 -32s32 14.3389 32 32s-14.3389 32 -32 32z
M208 208v-32h32v32h-32zM176 176v32h-32v-32h32zM160 320c-17.6592 0 -32 -14.3408 -32 -32c0 -17.6611 14.3389 -32 32 -32s32 14.3389 32 32s-14.3389 32 -32 32zM352 96c52.9834 0 96 -43.0166 96 -96v-32c0 -17.6611 -14.3389 -32 -32 -32h-96v64
c0 17.6611 -14.3389 32 -32 32h-128c-17.6611 0 -32 -14.3389 -32 -32v-64h-96c-17.6611 0 -32 14.3389 -32 32v32c0 52.9834 43.0166 96 96 96h256zM176 0c8.83008 0 16 -7.16992 16 -16v-48h-32v48c0 8.83008 7.16992 16 16 16zM272 0c8.83008 0 16 -7.16992 16 -16
c0 -8.83105 -7.16895 -16 -16 -16s-16 7.16895 -16 16s7.16895 16 16 16z" />
    <glyph glyph-name="user-visor" unicode="&#xe04c;" horiz-adv-x="448" 
d="M105.059 273.347c-14.2266 3.25195 -25.0586 15.3887 -25.0586 30.5996v64c0 17.6611 14.3389 32 32 32h12.8184c23.4648 29.0469 58.9316 48 99.1816 48s75.7168 -18.9531 99.1816 -48h12.8184c17.6611 0 32 -14.3389 32 -32v-64
c0 -15.2109 -10.832 -27.3477 -25.0586 -30.5996c-18.6641 -47.584 -64.7363 -81.4004 -118.941 -81.4004s-100.277 33.8164 -118.941 81.4004zM128 351.946v-32h192v32h-192zM313.594 159.946c74.1719 -0.0185547 134.387 -60.2344 134.406 -134.406v-41.5938
c-0.00683594 -26.4883 -21.5117 -47.9932 -48 -48h-352c-26.4883 0.00683594 -47.9932 21.5117 -48 48v41.5938c0.0195312 74.1719 60.2344 134.388 134.406 134.406h16.6875c22.1436 -10.2109 47.0889 -15.9082 73.0557 -15.9082s50.6133 5.69727 72.7568 15.9082h16.6875z
M353.281 0.149414c1.58105 0.53125 2.7207 2.02344 2.7207 3.78223c0 0.046875 0 0.09375 -0.00195312 0.139648c-1.15625 35.3438 -11.2656 65.7188 -30.0781 90.3125c-0.708008 0.927734 -1.81445 1.53125 -3.0625 1.5625
c-1.24121 -0.0078125 -2.35938 -0.541016 -3.14062 -1.39062c-19.8281 -23 -31.8281 -53.1094 -35.7031 -89.5c-0.0136719 -0.132812 -0.0244141 -0.260742 -0.0244141 -0.396484c0 -1.51465 0.835938 -2.83496 2.07129 -3.52539
c0.573242 -0.302734 1.23438 -0.475586 1.92773 -0.475586c0.922852 0 1.77637 0.304688 2.46289 0.819336c24.8594 19.3281 33.75 23.8125 37.0469 24.8125c0.431641 0.177734 0.898438 0.307617 1.375 0.375c2.23438 -1.98438 7.67188 -7.84375 19.8594 -25.0312
c0.726562 -1.02148 1.91797 -1.68555 3.26562 -1.6875c0.00390625 0 0.00878906 0.000976562 0.0126953 0.000976562c0.443359 0 0.869141 0.0712891 1.26855 0.202148z" />
    <glyph glyph-name="vacuum" unicode="&#xe04d;" horiz-adv-x="640" 
d="M143.27 192h65.4609l-41.1406 -192h8.41016c8.83105 0 16 -7.16895 16 -16v-32c0 -8.83105 -7.16895 -16 -16 -16h-160c-8.83105 0 -16 7.16895 -16 16c0 26.4922 21.5078 48 48 48h54.1201zM640 320c0 -53.1299 -32.8301 -98.1104 -79.0596 -117.35
c9.64062 -22.8369 15.0596 -48.0586 15.0596 -74.3887v-0.261719v-128c0 -35.3223 -28.6777 -64 -64 -64h-65.8604c20.8984 20.3232 33.8682 48.7451 33.8682 80.1699c0 61.7207 -50.1094 111.83 -111.83 111.83h-0.177734
c-5.45801 -0.150391 -10.7686 -0.699219 -16 -1.62012v161.62c0 17.6611 14.3389 32 32 32c56.0283 0 106.475 -24.0684 141.47 -62.5098c28.7148 6.30566 50.2686 31.9141 50.2686 62.5107c0 35.2344 -28.5361 63.8574 -63.7383 63.999h-210.39
c-30.6689 -0.112305 -56.3105 -21.7734 -62.6104 -50.5898l-23.4102 -109.41h-65.4697l26.3203 122.81c12.5596 58.6309 65.1992 101.19 125.17 101.19h210.39c70.6094 -0.0771484 127.923 -57.3906 128 -128zM368 96c44.1533 0 80 -35.8467 80 -80s-35.8467 -80 -80 -80
s-80 35.8467 -80 80s35.8467 80 80 80zM368 0c8.83105 0 16 7.16895 16 16s-7.16895 16 -16 16s-16 -7.16895 -16 -16s7.16895 -16 16 -16z" />
    <glyph glyph-name="vacuum-robot" unicode="&#xe04e;" 
d="M431.36 367.36c96.8496 -96.8506 96.8496 -253.87 0 -350.721c-96.8506 -96.8496 -253.87 -96.8496 -350.721 0c-96.8496 96.8506 -96.8496 253.87 0 350.721c96.8506 96.8496 253.87 96.8496 350.721 0zM199.43 44.9199
c2.89746 2.89648 4.69043 6.90137 4.69043 11.3174s-1.79297 8.41602 -4.69043 11.3125l-67.8799 67.8799c-2.89648 2.89648 -6.90137 4.68457 -11.3174 4.68457c-8.83105 0 -16.002 -7.16992 -16.002 -16.002c0 -4.41504 1.79297 -8.41602 4.68945 -11.3125
l67.8799 -67.8799c2.89648 -2.89648 6.90137 -4.68945 11.3174 -4.68945s8.41699 1.79297 11.3125 4.68945zM267.31 67.5498c2.89746 2.89648 4.69043 6.90137 4.69043 11.3174s-1.79297 8.41699 -4.69043 11.3125l-113.13 113.13
c-2.88184 2.80078 -6.81836 4.52148 -11.1504 4.52148c-8.83105 0 -16 -7.16895 -16 -16c0 -4.3291 1.72363 -8.25977 4.52051 -11.1406l113.141 -113.141c2.89551 -2.89355 6.89844 -4.68457 11.3115 -4.68457c4.41406 0 8.41211 1.79102 11.3076 4.68457zM289.94 135.43
c2.89648 2.89648 4.68945 6.90137 4.68945 11.3174s-1.79297 8.41699 -4.68945 11.3125l-67.8809 67.8809c-2.89648 2.89648 -6.90137 4.68457 -11.3164 4.68457c-8.83203 0 -16.002 -7.1709 -16.002 -16.002c0 -4.41602 1.79199 -8.41699 4.68848 -11.3135
l67.8799 -67.8799c2.89648 -2.89648 6.90137 -4.68945 11.3174 -4.68945s8.41699 1.79297 11.3135 4.68945zM380.45 67.5498c68.6299 68.6201 68.6201 180.271 0 248.9s-180.28 68.6299 -248.9 0c-2.72656 -2.87012 -4.39551 -6.75391 -4.39551 -11.0205
c0 -8.83105 7.16895 -16 16 -16c4.2666 0 8.14551 1.67383 11.0156 4.40039c56.1602 56.1504 147.521 56.1602 203.66 0s56.1396 -147.5 0 -203.66c-2.72656 -2.87012 -4.39648 -6.75293 -4.39648 -11.0205c0 -8.83008 7.16992 -16 16 -16
c4.26758 0 8.14648 1.67383 11.0166 4.40039z" />
    <glyph glyph-name="window-frame" unicode="&#xe04f;" 
d="M496 0c8.83105 0 16 -7.16895 16 -16v-32c0 -8.83105 -7.16895 -16 -16 -16h-480c-8.83105 0 -16 7.16895 -16 16v32c0 8.83105 7.16895 16 16 16h16v416c0 17.6611 14.3389 32 32 32h384c17.6611 0 32 -14.3389 32 -32v-416h16zM416 224v160h-144v-160h144zM96 384v-160
h144v160h-144zM96 160v-160h144v160h-144zM272 0h144v160h-144v-160z" />
    <glyph glyph-name="window-frame-open" unicode="&#xe050;" 
d="M480 416v-256h-448v256c0 17.6611 14.3389 32 32 32h384c17.6611 0 32 -14.3389 32 -32zM240 224v160h-144v-160h144zM416 224v160h-144v-160h144zM496 0c8.83105 0 16 -7.16895 16 -16v-32c0 -8.83105 -7.16895 -16 -16 -16h-480c-8.83105 0 -16 7.16895 -16 16v32
c0 8.83105 7.16895 16 16 16h16v128h64v-128h320v128h64v-128h16z" />
    <glyph glyph-name="coffin-cross" unicode="&#xe051;" horiz-adv-x="384" 
d="M374.45 332.81c8.09961 -7.94922 11.3496 -19.4795 8.58984 -30.3896l-87.1104 -342.18c-3.62988 -14.25 -16.6602 -24.2402 -31.6094 -24.2402h-144.62c-14.9502 0 -27.9902 9.99023 -31.6104 24.2402l-87.1094 342.18
c-2.78027 10.9102 0.479492 22.4404 8.56934 30.3896l107.74 105.82c6.11035 6 14.4004 9.37012 23.04 9.37012h103.34c8.63965 0 16.9297 -3.37012 23.04 -9.37012zM288 256v16c0 8.83984 -7.16016 16 -16 16h-56v48c0 8.83984 -7.16016 16 -16 16h-16
c-8.83984 0 -16 -7.16016 -16 -16v-48h-56c-8.83984 0 -16 -7.16016 -16 -16v-16c0 -8.83984 7.16016 -16 16 -16h56v-128c0 -8.83984 7.16016 -16 16 -16h16c8.83984 0 16 7.16016 16 16v128h56c8.83984 0 16 7.16016 16 16z" />
    <glyph glyph-name="folder-download" unicode="&#xe053;" 
d="M464 320c26.4922 0 48 -21.5078 48 -48v-224c0 -26.4922 -21.5078 -48 -48 -48h-416c-26.4922 0 -48 21.5078 -48 48v288c0 26.4922 21.5078 48 48 48h160l64 -64h192zM364.44 164.64c2.92285 2.90039 4.73242 6.9209 4.73242 11.3604
c0 8.82812 -7.16602 15.9961 -15.9932 16h-65.1797v48c0 8.83105 -7.16895 16 -16 16h-32c-8.83105 0 -16 -7.16895 -16 -16v-48h-65.1904c-8.8125 -0.0205078 -15.9648 -7.18359 -15.9648 -16.002c0 -4.43945 1.81152 -8.45801 4.73535 -11.3584l96.4199 -95.6992
c3.08203 -3.05371 7.32617 -4.94043 12.0029 -4.94043c4.67578 0 8.91504 1.88672 11.9971 4.94043z" />
    <glyph glyph-name="folder-upload" unicode="&#xe054;" 
d="M464 320c26.4922 0 48 -21.5078 48 -48v-224c0 -26.4922 -21.5078 -48 -48 -48h-416c-26.4922 0 -48 21.5078 -48 48v288c0 26.4922 21.5078 48 48 48h160l64 -64h192zM353.19 128c8.78516 0.0537109 15.9043 7.2041 15.9043 16.002
c0 4.4082 -1.78613 8.40332 -4.6748 11.2979l-96.4199 95.7002c-3.08203 3.05273 -7.32617 4.93945 -12.0029 4.93945c-4.67578 0 -8.91504 -1.88672 -11.9971 -4.93945l-96.4404 -95.6602c-2.91113 -2.89844 -4.71191 -6.91113 -4.71191 -11.3398
c0 -8.8252 7.16016 -15.9902 15.9824 -16h65.1699v-48c0 -8.83105 7.16895 -16 16 -16h32c8.83105 0 16 7.16895 16 16v48h65.1904z" />
    <glyph glyph-name="user-unlock" unicode="&#xe058;" horiz-adv-x="640" 
d="M224 192c-70.6455 0 -128 57.3545 -128 128s57.3545 128 128 128s128 -57.3545 128 -128s-57.3545 -128 -128 -128zM320 128v-160c0.0820312 -11.6494 3.34375 -22.6357 8.90039 -32h-280.9c-26.4922 0 -48 21.5078 -48 48v41.5996
c0.0166016 74.1699 60.2305 134.384 134.4 134.4h16.6992c22.1426 -10.21 47.085 -15.9053 73.0498 -15.9053c25.9639 0 50.6084 5.69531 72.751 15.9053h16.6992c5 0 9.7002 -1 14.5 -1.5c-5.06641 -9.00684 -8.02539 -19.4561 -8.09961 -30.5zM608 160
c17.6611 0 32 -14.3389 32 -32v-160c0 -17.6611 -14.3389 -32 -32 -32h-224c-17.6611 0 -32 14.3389 -32 32v160c0 17.6611 14.3389 32 32 32h32v80c0.00195312 44.1514 35.8037 79.998 79.9561 79.998c0.931641 0 1.85938 -0.0166016 2.78418 -0.0478516
c43.2598 -1.44043 77.2598 -37.6699 77.2598 -80.9502v0c0 -8.27832 -6.72168 -15 -15 -15h-17c-8.83105 0 -16 7.16895 -16 16c0 17.6611 -14.3232 32.0029 -31.9854 32.0029c-0.305664 0 -0.610352 -0.00390625 -0.915039 -0.0126953
c-17.4297 -0.480469 -31.0996 -15.2207 -31.0996 -32.6602v-79.3301h144zM496 16c17.6611 0 32 14.3389 32 32s-14.3389 32 -32 32s-32 -14.3389 -32 -32s14.3389 -32 32 -32z" />
    </font>
</defs>
</svg>
