<?xml version="1.0" standalone="no"?>
<!DOCTYPE svg PUBLIC "-//W3C//DTD SVG 1.1//EN" "http://www.w3.org/Graphics/SVG/1.1/DTD/svg11.dtd" >
<svg xmlns="http://www.w3.org/2000/svg" xmlns:xlink="http://www.w3.org/1999/xlink" version="1.1">
<metadata>
Created by FontForge 20201107 at Tue Mar 16 10:16:46 2021
 By Robert Madole
Copyright (c) Font Awesome
</metadata>
<!-- Font Awesome Pro 5.15.3 by @fontawesome - https://fontawesome.com License - https://fontawesome.com/license (Commercial License) --><defs>
<font id="FontAwesome5Pro-Solid" horiz-adv-x="512" >
  <font-face 
    font-family="Font Awesome 5 Pro Solid"
    font-weight="900"
    font-stretch="normal"
    units-per-em="512"
    panose-1="2 0 5 3 0 0 0 0 0 0"
    ascent="448"
    descent="-64"
    bbox="-0.100098 -64.0996 640.032 448.05"
    underline-thickness="25"
    underline-position="-50"
    unicode-range="U+0020-F8FF"
  />
    <missing-glyph />
    <glyph glyph-name="bolt" unicode="&#xf0e7;" horiz-adv-x="320" 
d="M296 288c18.5 0 30 -20.0996 20.7002 -36l-176 -304c-4.40039 -7.59961 -12.4004 -12 -20.7998 -12c-15.3008 0 -26.9004 14.2998 -23.3008 29.5l46.1006 194.5h-118.7c-14.5 0 -25.7002 12.7998 -23.7998 27.2002l32 240
c1.59961 11.8994 11.7998 20.7998 23.7998 20.7998h144c15.7002 0 27.2002 -15 23.2002 -30.2002l-42.6006 -129.8h115.4z" />
    <glyph glyph-name="sun" unicode="&#xf185;" 
d="M256 288c52.9004 0 96 -43.0996 96 -96s-43.0996 -96 -96 -96s-96 43.0996 -96 96s43.0996 96 96 96zM502.4 207.5c12.7998 -6.40039 12.7998 -24.5996 -0.200195 -31.0996l-94.7002 -47.3008l33.5 -100.399c4.59961 -13.5 -8.2998 -26.4004 -21.9004 -21.9004
l-100.399 33.5l-47.2998 -94.7002c-6.40039 -12.7998 -24.6006 -12.7998 -31 0l-47.3008 94.7002l-100.399 -33.5c-13.5 -4.59961 -26.4004 8.2998 -21.9004 21.9004l33.5 100.5l-94.7002 47.2998c-12.7998 6.40039 -12.7998 24.5996 0 31l94.7002 47.4004l-33.5 100.399
c-4.59961 13.5 8.2998 26.4004 21.9004 21.9004l100.5 -33.5l47.2998 94.7002c6.40039 12.7998 24.5996 12.7998 31 0l47.4004 -94.8008l100.399 33.5c13.5 4.60059 26.4004 -8.2998 21.9004 -21.8994l-33.5 -100.4zM346.5 101.5c49.9004 49.9004 49.9004 131.1 0 181
s-131.1 49.9004 -181 0s-49.9004 -131.1 0 -181s131.1 -49.9004 181 0z" />
    <glyph glyph-name="snowflake" unicode="&#xf2dc;" horiz-adv-x="448" 
d="M440.3 102.8c7.40039 -4.2002 9.90039 -13.7002 5.60059 -21l-15.5 -26.7998c-4.30078 -7.40039 -13.7002 -10 -21.1006 -5.7002l-33.7998 19.5l7 -26c2.2002 -8.2002 -2.7002 -16.7002 -10.9004 -18.8994l-14.8994 -4
c-8.2002 -2.2002 -16.7002 2.69922 -18.9004 10.8994l-19 70.7998l-62.7998 36.2002v-77.5l53.4004 -53.7002c6.19922 -6.19922 6.19922 -16.3994 0 -22.5996l-11.3008 -11.2998c-6.19922 -6.2002 -16.3994 -6.2002 -22.5996 0l-19.7002 19.7002v-40.4004
c0 -8.7998 -7.2002 -16 -16 -16h-32c-8.7998 0 -16 7.2002 -16 16v40.2998l-19.7002 -19.7002c-6.19922 -6.19922 -16.3994 -6.19922 -22.5996 0l-11.2998 11.3008c-6.2998 6.19922 -6.2998 16.3994 0 22.5996l53.7002 53.7002v77.5l-62.8008 -36.2002l-19 -70.7998
c-2.19922 -8.2002 -10.6992 -13.1006 -18.8994 -10.9004l-14.9004 4c-8.2002 2.2002 -13.0996 10.7002 -10.8994 18.9004l7 26l-33.8008 -19.5c-7.39941 -4.2002 -16.7998 -1.7002 -21.0996 5.7002l-15.5 26.7998c-4.2002 7.39941 -1.7002 16.7998 5.7002 21.0996
l33.7998 19.6006l-26 7c-8.2002 2.19922 -13.0996 10.6992 -10.9004 18.8994l4 14.9004c2.2002 8.2002 10.7002 13.0996 18.9004 10.8994l70.7998 -19l63.7998 36.9004l-63.7998 36.9004l-70.7998 -19c-8.2002 -2.2002 -16.7002 2.69922 -18.9004 10.8994l-4 14.9004
c-2.19922 8.2998 2.7002 16.7998 11 19l26 7l-33.7998 19.5c-7.39941 4.2998 -10 13.7002 -5.7002 21.0996l15.5 26.7002c4.30078 7.40039 13.7002 10 21.1006 5.7002l33.7998 -19.5l-7 26c-2.2002 8.2002 2.7002 16.7002 10.9004 18.8994l14.8994 4
c8.2002 2.2002 16.7002 -2.69922 18.9004 -10.8994l19 -70.7998l62.7998 -36.2002v77.5l-53.7002 53.7002c-6.2998 6.19922 -6.2998 16.3994 0 22.5996l11.4004 11.2998c6.2002 6.2002 16.3994 6.2002 22.5996 0l19.7002 -19.7002v40.4004c0 8.7998 7.2002 16 16 16h32
c8.7998 0 16 -7.2002 16 -16v-40.4004l19.7998 19.7002c6.2002 6.2002 16.4004 6.2002 22.6006 0l11.2998 -11.2998c6.2002 -6.2002 6.2002 -16.4004 0 -22.5996l-53.7002 -53.7002v-77.5l62.7998 36.2002l19 70.7998c2.2002 8.2002 10.7002 13.0996 18.9004 10.8994
l14.8994 -4c8.2002 -2.19922 13.1006 -10.6992 10.9004 -18.8994l-7 -26l33.7998 19.5c7.40039 4.2002 16.7998 1.7002 21.1006 -5.7002l15.5 -26.7998c4.19922 -7.40039 1.69922 -16.7998 -5.7002 -21.1006l-33.7998 -19.5l26 -7
c8.19922 -2.19922 13.0996 -10.6992 10.8994 -18.8994l-4 -14.9004c-2.2002 -8.2002 -10.7002 -13.0996 -18.8994 -10.8994l-70.8008 19l-63.7998 -36.9004l63.9004 -37l70.7998 19c8.2002 2.2002 16.7002 -2.7002 18.9004 -10.9004l4 -14.8994
c2.19922 -8.2002 -2.7002 -16.7002 -10.9004 -18.9004l-26 -7z" />
    <glyph glyph-name="cloud-moon" unicode="&#xf6c3;" horiz-adv-x="576" 
d="M342.8 95.2998c40.9004 -3.5 73.2002 -37.3994 73.2002 -79.2998c0 -44.2002 -35.7998 -80 -80 -80h-240c-53 0 -96 43 -96 96c0 41.9004 27.0996 77.2002 64.5996 90.2998c-0.0996094 1.90039 -0.599609 3.7002 -0.599609 5.7002c0 53 43 96 96 96
c36.2002 0 67.4004 -20.2998 83.7002 -49.9004c11.5 11 27.0996 17.9004 44.2998 17.9004c35.2998 0 64 -28.7002 64 -64c0 -12 -3.5 -23.0996 -9.2002 -32.7002zM565.3 149.6c8.2002 1.60059 14 -8 8.7002 -14.5c-33.4004 -41.0996 -82.7002 -67 -137.1 -70.3994
c-11.1006 23.0996 -29.9004 41.7998 -53.5 52.5996c0.399414 3.5 0.599609 7.10059 0.599609 10.7002c0 52.9004 -43.0996 96 -96 96c-12.7002 0 -25 -2.5 -36.4004 -7.2002c-5.09961 5.2998 -10.7998 9.90039 -16.6992 14.2002c-1.10059 8.2002 -1.80078 16.5 -1.80078 25
c0 106.1 86 192 191.9 192c11.7002 0 23.4004 -1.09961 35.0996 -3.2002c8.2002 -1.59961 10.1006 -12.5996 2.80078 -16.7002c-47.1006 -26.7998 -76.1006 -76.5996 -76.1006 -130.8c0 -94 85.4004 -165.399 178.5 -147.7z" />
    <glyph glyph-name="cloud-sun" unicode="&#xf6c4;" horiz-adv-x="640" 
d="M575.2 122.3c37.5996 -13 64.7998 -48.2998 64.7998 -90.3994c0 -53 -43 -96 -96 -96h-272c-53 0 -96 43 -96 96c0 50.5996 39.2998 91.5996 88.9004 95.2998c-0.200195 2.89941 -0.900391 5.7002 -0.900391 8.7002c0 61.8994 50.2002 112 112 112
c45.4004 0 84.2998 -27.2002 101.9 -66c9.89941 6.19922 21.5 10 34.0996 10c35.2998 0 64 -28.7002 64 -64c0 -1.90039 -0.599609 -3.7002 -0.799805 -5.60059zM144.8 144.9c10.6006 -10.6006 22.9004 -18.6006 36 -24c-9.59961 -9.80078 -17.5 -21.1006 -23.5996 -33.5
l-76.1006 -25.3008c-11.8994 -3.89941 -23.1992 7.30078 -19.1992 19.2002l29.2998 87.7998l-82.7998 41.4004c-11.2002 5.59961 -11.2002 21.5 0 27.0996l82.7998 41.5l-29.2998 87.8008c-3.90039 11.7998 7.39941 23.0996 19.1992 19.1992l87.9004 -29.2998
l41.4004 82.7998c5.59961 11.2002 21.5996 11.2002 27.0996 0l41.5 -82.7998l87.7998 29.2998c11.9004 3.90039 23.2002 -7.2998 19.2002 -19.1992l-29.7998 -88.9004c-10.6006 -1.5 -20.9004 -3.7998 -30.7002 -7.5c-5.40039 11.7998 -12.5996 23 -22.2998 32.7002
c-43.7002 43.7002 -114.7 43.7002 -158.4 0c-43.7002 -43.6006 -43.7002 -114.601 0 -158.3zM140 224.1c0 46.3008 37.7002 83.9004 84 83.9004c34 0 63.2998 -20.4004 76.5 -49.5c-36.4004 -22.5 -62 -60.7002 -67.4004 -105
c-8.89941 -2.90039 -17.1992 -7 -25.1992 -11.7002c-38.6006 7.5 -67.9004 41.5 -67.9004 82.2998z" />
    <glyph glyph-name="wind" unicode="&#xf72e;" 
d="M156.7 192c48.7002 0 92.2998 -35 98.3994 -83.4004c7.5 -58.5 -38.0996 -108.6 -95.1992 -108.6c-46.6006 0 -85.6006 33.5 -94.2002 77.5996c-1.7998 9.60059 6.09961 18.4004 15.8994 18.4004h32.8008c6.59961 0 13.0996 -3.7998 15.1992 -10.0996
c4.30078 -12.7002 16.3008 -21.9004 30.4004 -21.9004c19.5 0 34.9004 17.4004 31.5996 37.4004c-2.59961 15.6992 -17.5 26.5996 -33.3994 26.5996h-142.2c-8.7998 0 -16 7.2002 -16 16v32c0 8.7998 7.2002 16 16 16h140.7zM16 224c-8.7998 0 -16 7.2002 -16 16v32
c0 8.7998 7.2002 16 16 16h334.2c16 0 30.7998 10.9004 33.3994 26.5996c3.30078 20 -12.1992 37.4004 -31.5996 37.4004c-14.0996 0 -26.0996 -9.2002 -30.4004 -21.9004c-2.09961 -6.2998 -8.5 -10.0996 -15.1992 -10.0996h-32.8008
c-9.69922 0 -17.6992 8.7002 -15.7998 18.2998c9.7998 50.6006 59.5 87.1006 114.9 75.5c36.2002 -7.59961 65.5 -36.8994 73.0996 -73.0996c13 -61.9004 -34.0996 -116.7 -93.7998 -116.7h-336zM400 192c70.5 0 126 -65.5 108.9 -138.7
c-9.60059 -41.0996 -43.5 -74 -84.7002 -82.7002c-58.9004 -12.5 -111.601 21.7002 -129.4 72.3008c-3.7002 10.2998 4.40039 21.0996 15.2998 21.0996h33.8008c5.7998 0 11.5996 -2.59961 14.5 -7.59961c8.2998 -14.5 23.6992 -24.4004 41.5996 -24.4004
c26.5 0 48 21.5 48 48s-21.5 48 -48 48h-116.5c-6.59961 25.2002 -20.5 47.4004 -39.7998 64h156.3z" />
    <glyph glyph-name="ballot" unicode="&#xf732;" horiz-adv-x="384" 
d="M360 448c13.2998 0 24 -10.7002 24 -24v-464c0 -13.2998 -10.7002 -24 -24 -24h-336c-13.2998 0 -24 10.7002 -24 24v464c0 13.2998 10.7002 24 24 24h336zM128 48v32c0 8.7998 -7.2002 16 -16 16h-32c-8.7998 0 -16 -7.2002 -16 -16v-32c0 -8.7998 7.2002 -16 16 -16h32
c8.7998 0 16 7.2002 16 16zM128 176v32c0 8.7998 -7.2002 16 -16 16h-32c-8.7998 0 -16 -7.2002 -16 -16v-32c0 -8.7998 7.2002 -16 16 -16h32c8.7998 0 16 7.2002 16 16zM128 304v32c0 8.7998 -7.2002 16 -16 16h-32c-8.7998 0 -16 -7.2002 -16 -16v-32
c0 -8.7998 7.2002 -16 16 -16h32c8.7998 0 16 7.2002 16 16zM320 56v16c0 4.40039 -3.59961 8 -8 8h-144c-4.40039 0 -8 -3.59961 -8 -8v-16c0 -4.40039 3.59961 -8 8 -8h144c4.40039 0 8 3.59961 8 8zM320 184v16c0 4.40039 -3.59961 8 -8 8h-144
c-4.40039 0 -8 -3.59961 -8 -8v-16c0 -4.40039 3.59961 -8 8 -8h144c4.40039 0 8 3.59961 8 8zM320 312v16c0 4.40039 -3.59961 8 -8 8h-144c-4.40039 0 -8 -3.59961 -8 -8v-16c0 -4.40039 3.59961 -8 8 -8h144c4.40039 0 8 3.59961 8 8z" />
    <glyph glyph-name="ballot-check" unicode="&#xf733;" horiz-adv-x="384" 
d="M360 448c13.2998 0 24 -10.7002 24 -24v-464c0 -13.2998 -10.7002 -24 -24 -24h-336c-13.2998 0 -24 10.7002 -24 24v464c0 13.2998 10.7002 24 24 24h336zM64 336v-32c0 -8.7998 7.2002 -16 16 -16h32c8.7998 0 16 7.2002 16 16v32c0 8.7998 -7.2002 16 -16 16h-32
c-8.7998 0 -16 -7.2002 -16 -16zM65.5996 206.6c-2.09961 -2.09961 -2.09961 -5.5 0 -7.59961l36.9004 -37.2998c2.09961 -2.10059 5.5 -2.10059 7.59961 0l64.2002 63.5996c2.10059 2.10059 2.10059 5.5 0 7.60059l-12.5996 12.6992
c-2.10059 2.10059 -5.5 2.10059 -7.60059 0l-47.5996 -47.1992l-20.5996 20.7998c-2.10059 2.09961 -5.5 2.09961 -7.60059 0zM128 48v32c0 8.7998 -7.2002 16 -16 16h-32c-8.7998 0 -16 -7.2002 -16 -16v-32c0 -8.7998 7.2002 -16 16 -16h32c8.7998 0 16 7.2002 16 16z
M320 56v16c0 4.40039 -3.59961 8 -8 8h-144c-4.40039 0 -8 -3.59961 -8 -8v-16c0 -4.40039 3.59961 -8 8 -8h144c4.40039 0 8 3.59961 8 8zM320 184h-0.0996094v16c0 4.40039 -4.30078 8 -9.60059 8h-109.7c-1.19922 -1.7998 -30.3994 -32 -30.3994 -32h140.2
c5.2998 0 9.59961 3.59961 9.59961 8zM320 312v16c0 4.40039 -3.59961 8 -8 8h-144c-4.40039 0 -8 -3.59961 -8 -8v-16c0 -4.40039 3.59961 -8 8 -8h144c4.40039 0 8 3.59961 8 8z" />
    <glyph glyph-name="booth-curtain" unicode="&#xf734;" 
d="M480 448c17.7002 0 32 -14.2998 32 -32v-464c0 -8.7998 -7.2002 -16 -16 -16h-32c-8.7998 0 -16 7.2002 -16 16v496h32zM0 416c0 17.7002 14.2998 32 32 32h64v-64h-32v-432c0 -8.7998 -7.2002 -16 -16 -16h-32c-8.7998 0 -16 7.2002 -16 16v464zM416 448v-400
c0 -26.5 -21.5 -48 -48 -48c-14.7002 0 -27.9004 6.59961 -36.7002 17c-5.7002 6.7998 -16.8994 6.7998 -22.5996 0c-8.7998 -10.4004 -22 -17 -36.7002 -17s-27.9004 6.59961 -36.7002 17c-5.7002 6.7998 -16.8994 6.7998 -22.5996 0
c-8.7998 -10.4004 -22 -17 -36.7002 -17c-26.5 0 -48 21.5 -48 48v400h288z" />
    <glyph glyph-name="box-ballot" unicode="&#xf735;" horiz-adv-x="576" 
d="M432 256h-288l-0.5 175.8c0 9 7.2998 16.2002 16.2002 16.2002l255.8 -0.599609c8.7998 0 16 -7.2002 16 -16zM0 128h576v-160c0 -17.7002 -14.2998 -32 -32 -32h-512c-17.7002 0 -32 14.2998 -32 32v160zM574.7 160h-573.5
c-0.299805 0.5 -0.5 0.700195 -0.799805 1.2002l55.5996 138.6c4.90039 12.1006 16.5996 20.1006 29.7002 20.1006h26.0996l0.200195 -64h-0.5l-16 -32h384.4l-16 32l-0.200195 64h26.5996c13.1006 0 24.7998 -8 29.7002 -20.1006l55.5 -138.6
c-0.299805 -0.5 -0.400391 -0.700195 -0.799805 -1.2002z" />
    <glyph glyph-name="clipboard-list-check" unicode="&#xf737;" horiz-adv-x="384" 
d="M336 384c26.5 0 48 -21.5 48 -48v-352c0 -26.5 -21.5 -48 -48 -48h-288c-26.5 0 -48 21.5 -48 48v352c0 26.5 21.5 48 48 48h80c0 35.2998 28.7002 64 64 64s64 -28.7002 64 -64h80zM192 408c-13.2998 0 -24 -10.7002 -24 -24s10.7002 -24 24 -24s24 10.7002 24 24
s-10.7002 24 -24 24zM65.5996 238.6c-2.09961 -2.09961 -2.09961 -5.5 0 -7.59961l36.9004 -37.2998c2.09961 -2.10059 5.5 -2.10059 7.59961 0l64.2002 63.5996c2.10059 2.10059 2.10059 5.5 0 7.60059l-12.5996 12.6992c-2.10059 2.10059 -5.5 2.10059 -7.60059 0
l-47.5996 -47.1992l-20.5996 20.7998c-2.10059 2.09961 -5.5 2.09961 -7.60059 0zM96 56c13.2998 0 24 10.7002 24 24s-10.7002 24 -24 24s-24 -10.7002 -24 -24s10.7002 -24 24 -24zM320 72v16c0 4.40039 -3.59961 8 -8 8h-144c-4.40039 0 -8 -3.59961 -8 -8v-16
c0 -4.40039 3.59961 -8 8 -8h144c4.40039 0 8 3.59961 8 8zM320 200v16c0 4.40039 -4.2998 8 -9.59961 8h-124l-32.3008 -32h156.301c5.2998 0 9.59961 3.59961 9.59961 8z" />
    <glyph glyph-name="cloud-drizzle" unicode="&#xf738;" 
d="M416 320c53 0 96 -43 96 -96s-43 -96 -96 -96h-320c-53 0 -96 43 -96 96c0 42.5 27.7998 78.2002 66.0996 90.7998c-1.2998 6.90039 -2.09961 13.9004 -2.09961 21.2002c0 61.9004 50.0996 112 112 112c43.2998 0 80.4004 -24.7998 99 -60.7998
c14.7002 17.5 36.4004 28.7998 61 28.7998c44.2002 0 80 -35.7998 80 -80c0 -5.59961 -0.5 -11 -1.59961 -16.2002c0.5 0 1 0.200195 1.59961 0.200195zM48 88c8.7998 0 16 -7.2002 16 -16v-40c0 -8.7998 -7.2002 -16 -16 -16s-16 7.2002 -16 16v40
c0 8.7998 7.2002 16 16 16zM144 8c8.7998 0 16 -7.2002 16 -16v-40c0 -8.7998 -7.2002 -16 -16 -16s-16 7.2002 -16 16v40c0 8.7998 7.2002 16 16 16zM240 88c8.7998 0 16 -7.2002 16 -16v-40c0 -8.7998 -7.2002 -16 -16 -16s-16 7.2002 -16 16v40c0 8.7998 7.2002 16 16 16
zM336 8c8.7998 0 16 -7.2002 16 -16v-40c0 -8.7998 -7.2002 -16 -16 -16s-16 7.2002 -16 16v40c0 8.7998 7.2002 16 16 16zM432 88c8.7998 0 16 -7.2002 16 -16v-40c0 -8.7998 -7.2002 -16 -16 -16s-16 7.2002 -16 16v40c0 8.7998 7.2002 16 16 16z" />
    <glyph glyph-name="cloud-hail" unicode="&#xf739;" 
d="M416 320c53 0 96 -43 96 -96s-43 -96 -96 -96h-320c-53 0 -96 43 -96 96c0 42.5 27.7998 78.2002 66.0996 90.7998c-1.2998 6.90039 -2.09961 13.9004 -2.09961 21.2002c0 61.9004 50.0996 112 112 112c43.2998 0 80.4004 -24.7998 99 -60.7998
c14.7002 17.5 36.4004 28.7998 61 28.7998c44.2002 0 80 -35.7998 80 -80c0 -5.59961 -0.5 -11 -1.59961 -16.2002c0.5 0 1 0.200195 1.59961 0.200195zM384 96c17.7002 0 32 -14.2998 32 -32s-14.2998 -32 -32 -32s-32 14.2998 -32 32s14.2998 32 32 32zM192 0
c17.7002 0 32 -14.2998 32 -32s-14.2998 -32 -32 -32s-32 14.2998 -32 32s14.2998 32 32 32zM320 0c17.7002 0 32 -14.2998 32 -32s-14.2998 -32 -32 -32s-32 14.2998 -32 32s14.2998 32 32 32zM256 96c17.7002 0 32 -14.2998 32 -32s-14.2998 -32 -32 -32
s-32 14.2998 -32 32s14.2998 32 32 32zM64 0c17.7002 0 32 -14.2998 32 -32s-14.2998 -32 -32 -32s-32 14.2998 -32 32s14.2998 32 32 32zM128 96c17.7002 0 32 -14.2998 32 -32s-14.2998 -32 -32 -32s-32 14.2998 -32 32s14.2998 32 32 32z" />
    <glyph glyph-name="cloud-hail-mixed" unicode="&#xf73a;" 
d="M183.9 77.9004c7.69922 -4.40039 10.3994 -14.2002 6 -21.8008l-64 -112c-3 -5.19922 -8.40039 -8.09961 -13.9004 -8.09961c-2.7002 0 -5.40039 0.700195 -7.90039 2.09961c-7.69922 4.30078 -10.3994 14.1006 -6 21.8008l64 112
c4.40039 7.7998 14.2002 10.3994 21.8008 6zM279.2 78.2998c7.89941 -3.89941 11 -13.5 7.2002 -21.5996l-16 -32c-2.80078 -5.60059 -8.5 -8.7998 -14.3008 -8.7998c-2.39941 0 -4.89941 0.599609 -7.19922 1.69922c-8 4 -11.1006 13.6006 -7.2002 21.5l16 32
c4 8 13.5996 11.1006 21.5 7.2002zM87.2002 78.2998c7.89941 -3.89941 11 -13.5 7.2002 -21.5996l-16 -32c-2.80078 -5.60059 -8.5 -8.7998 -14.3008 -8.7998c-2.39941 0 -4.89941 0.599609 -7.19922 1.69922c-8 4 -11.1006 13.6006 -7.2002 21.5l16 32
c4 8 13.5996 11.1006 21.5 7.2002zM471.2 78.2998c7.89941 -3.89941 11 -13.5 7.2002 -21.5996l-16 -32c-2.80078 -5.60059 -8.5 -8.7998 -14.3008 -8.7998c-2.39941 0 -4.89941 0.599609 -7.19922 1.69922c-8 4 -11.1006 13.6006 -7.2002 21.5l16 32
c4 8 13.5996 11.1006 21.5 7.2002zM375.9 77.9004c7.69922 -4.40039 10.3994 -14.2002 6 -21.8008l-64 -112c-3 -5.19922 -8.40039 -8.09961 -13.9004 -8.09961c-2.7002 0 -5.40039 0.700195 -7.90039 2.09961c-7.69922 4.30078 -10.3994 14.1006 -6 21.8008l64 112
c4.40039 7.7998 14.2002 10.3994 21.8008 6zM416 320c53 0 96 -43 96 -96s-43 -96 -96 -96h-320c-53 0 -96 43 -96 96c0 42.5 27.7998 78.2002 66.0996 90.7998c-1.2998 6.90039 -2.09961 13.9004 -2.09961 21.2002c0 61.9004 50.0996 112 112 112
c43.2998 0 80.4004 -24.7998 99 -60.7998c14.7002 17.5 36.4004 28.7998 61 28.7998c44.2002 0 80 -35.7998 80 -80c0 -5.59961 -0.5 -11 -1.59961 -16.2002c0.5 0 1 0.200195 1.59961 0.200195zM32 0c17.7002 0 32 -14.2998 32 -32s-14.2998 -32 -32 -32
s-32 14.2998 -32 32s14.2998 32 32 32zM224 0c17.7002 0 32 -14.2998 32 -32s-14.2998 -32 -32 -32s-32 14.2998 -32 32s14.2998 32 32 32zM416 0c17.7002 0 32 -14.2998 32 -32s-14.2998 -32 -32 -32s-32 14.2998 -32 32s14.2998 32 32 32z" />
    <glyph glyph-name="cloud-meatball" unicode="&#xf73b;" 
d="M48 96c26.5 0 48 -21.5 48 -48s-21.5 -48 -48 -48s-48 21.5 -48 48s21.5 48 48 48zM464 96c26.5 0 48 -21.5 48 -48s-21.5 -48 -48 -48s-48 21.5 -48 48s21.5 48 48 48zM345 84.9004c13.5 -7 23 -20.7002 23 -36.9004s-9.5 -29.9004 -23 -36.9004
c4.59961 -14.5 1.7002 -30.7998 -9.7998 -42.2998c-8.2002 -8.2002 -18.9004 -12.2998 -29.7002 -12.2998c-4.2998 0 -8.5 1.2002 -12.5996 2.5c-7 -13.5 -20.7002 -23 -36.9004 -23s-29.9004 9.5 -36.9004 23c-4.09961 -1.40039 -8.2998 -2.5 -12.5996 -2.5
c-10.7998 0 -21.5 4.09961 -29.7002 12.2998c-11.5 11.5 -14.5 27.7998 -9.89941 42.2998c-13.5 7 -23 20.7002 -23 36.9004s9.5 29.9004 23 36.9004c-4.5 14.5 -1.60059 30.7998 9.89941 42.2998s27.7998 14.5 42.2998 9.89941c7 13.5 20.7002 23 36.9004 23
s29.9004 -9.5 36.9004 -23c14.5 4.5 30.7998 1.60059 42.2998 -9.89941c11.3994 -11.5 14.3994 -27.7998 9.7998 -42.2998zM512 224c0 -53 -43 -96 -96 -96h-43.4004c-3.5 8 -8.39941 15.4004 -14.7998 21.7998c-13.5 13.5 -31.5 21.1006 -50.7998 21.2998
c-13.5 13.2002 -31.7002 20.9004 -51 20.9004s-37.5 -7.7002 -51 -20.9004c-19.2998 -0.199219 -37.2998 -7.7998 -50.7998 -21.2998c-6.40039 -6.39941 -11.2002 -13.7998 -14.7998 -21.7998h-43.4004c-53 0 -96 43 -96 96c0 42.5 27.7998 78.2002 66.0996 90.7998
c-1.2998 6.90039 -2.09961 13.9004 -2.09961 21.2002c0 61.9004 50.0996 112 112 112c43.2998 0 80.4004 -24.7998 99 -60.7998c14.7002 17.5 36.4004 28.7998 61 28.7998c44.2002 0 80 -35.7998 80 -80c0 -5.59961 -0.5 -11 -1.59961 -16.2002
c0.5 0 1 0.200195 1.59961 0.200195c53 0 96 -43 96 -96z" />
    <glyph glyph-name="cloud-moon-rain" unicode="&#xf73c;" horiz-adv-x="576" 
d="M350.5 222.5c37.2998 -6.7998 65.5 -39.2998 65.5 -78.5c0 -44.2002 -35.7998 -80 -80 -80h-256c-44.2002 0 -80 35.7998 -80 80c0 38.7998 27.5996 71.0996 64.2002 78.4004c0 0.5 -0.200195 1.09961 -0.200195 1.59961c0 53 43 96 96 96
c32.0996 0 60.2998 -15.9004 77.7002 -40c10.3994 5 22 8 34.2998 8c39.2002 0 71.5996 -28.2998 78.5 -65.5zM567.9 224.2c6.19922 1.2002 10.5996 -6 6.39941 -10.7998c-27 -33.1006 -67.8994 -53.3008 -112.6 -53.3008c-5.2002 0 -10.1006 1 -15.2002 1.5
c-6.2002 39.4004 -33.0996 72.5 -70.2002 86.8008c-10.7002 27.8994 -32.2002 49.7998 -58.8994 61.6992c3.2998 76.7002 66.5 137.9 144.399 137.9c8.90039 0 17.7998 -0.799805 26.5 -2.40039c6.2002 -1.09961 7.60059 -9.39941 2.10059 -12.5
c-35.6006 -20.0996 -57.5 -57.5 -57.5 -98.0996c0 -70.5 64.5996 -124.1 135 -110.8zM364.5 29.9004c7.7002 -4.40039 10.2998 -14.1006 6 -21.8008l-36.5996 -64c-3 -5.19922 -8.40039 -8.09961 -13.9004 -8.09961c-2.7002 0 -5.40039 0.700195 -7.90039 2.09961
c-7.69922 4.40039 -10.3994 14.1006 -6 21.8008l36.6006 64c4.39941 7.7998 14.2002 10.2998 21.7998 6zM268.5 29.9004c7.7002 -4.40039 10.2998 -14.1006 6 -21.8008l-36.5996 -64c-3 -5.19922 -8.40039 -8.09961 -13.9004 -8.09961
c-2.7002 0 -5.40039 0.700195 -7.90039 2.09961c-7.69922 4.40039 -10.3994 14.1006 -6 21.8008l36.6006 64c4.39941 7.7998 14.2002 10.2998 21.7998 6zM172.5 29.9004c7.7002 -4.40039 10.2998 -14.1006 6 -21.8008l-36.5996 -64
c-3 -5.19922 -8.40039 -8.09961 -13.9004 -8.09961c-2.7002 0 -5.40039 0.700195 -7.90039 2.09961c-7.69922 4.40039 -10.3994 14.1006 -6 21.8008l36.6006 64c4.39941 7.7998 14.2002 10.2998 21.7998 6zM76.5 29.9004c7.7002 -4.40039 10.2998 -14.1006 6 -21.8008
l-36.5996 -64c-3 -5.19922 -8.40039 -8.09961 -13.9004 -8.09961c-2.7002 0 -5.40039 0.700195 -7.90039 2.09961c-7.69922 4.40039 -10.3994 14.1006 -6 21.8008l36.6006 64c4.39941 7.7998 14.2002 10.2998 21.7998 6z" />
    <glyph glyph-name="cloud-rain" unicode="&#xf73d;" 
d="M416 320c53 0 96 -43 96 -96s-43 -96 -96 -96h-320c-53 0 -96 43 -96 96c0 42.5 27.7998 78.2002 66.0996 90.7998c-1.2998 6.90039 -2.09961 13.9004 -2.09961 21.2002c0 61.9004 50.0996 112 112 112c43.2998 0 80.4004 -24.7998 99 -60.7998
c14.7002 17.5 36.4004 28.7998 61 28.7998c44.2002 0 80 -35.7998 80 -80c0 -5.59961 -0.5 -11 -1.59961 -16.2002c0.5 0 1 0.200195 1.59961 0.200195zM88 73.7998c2.5 8.5 13.7998 8.10059 16 0c12.7998 -44.5996 40 -56.2998 40 -87.7002
c0 -27.6992 -21.5 -50.0996 -48 -50.0996s-48 22.4004 -48 50.0996c0 31.3008 27.2002 43.3008 40 87.7002zM248 73.7998c2.5 8.5 13.7998 8.10059 16 0c12.7998 -44.5996 40 -56.2998 40 -87.7002c0 -27.6992 -21.5 -50.0996 -48 -50.0996s-48 22.4004 -48 50.0996
c0 31.3008 27.2002 43.3008 40 87.7002zM408 73.7998c2.5 8.5 13.7998 8.10059 16 0c12.7998 -44.5996 40 -56.2998 40 -87.7002c0 -27.6992 -21.5 -50.0996 -48 -50.0996s-48 22.4004 -48 50.0996c0 31.3008 27.2002 43.3008 40 87.7002z" />
    <glyph glyph-name="cloud-rainbow" unicode="&#xf73e;" horiz-adv-x="576" 
d="M430.8 143.1c-1.7998 11.7002 -5.89941 22.7002 -11.5996 32.6006c40.5 39.7002 95.7998 64.2998 156.8 64.2998v-64c-47 0 -88.9004 -20.7998 -118.3 -53.2002c-7.90039 7.90039 -17 14.7002 -26.9004 20.2998zM399.2 122.4
c37.5996 -13 64.7998 -48.4004 64.7998 -90.4004c0 -53 -43 -96 -96 -96h-272c-53 0 -96 43 -96 96c0 50.5996 39.2002 91.5996 88.9004 95.2998c-0.200195 2.90039 -0.900391 5.7002 -0.900391 8.7002c0 61.9004 50.0996 112 112 112c45.4004 0 84.2998 -27.0996 101.9 -66
c9.89941 6.2002 21.5 10 34.0996 10c35.2998 0 64 -28.7002 64 -64c0 -1.90039 -0.599609 -3.7002 -0.799805 -5.59961zM238.6 274.4c75.6006 104.899 198.5 173.6 337.4 173.6v-64c-114.7 0 -216.4 -55.4004 -280.8 -140.6c-16.2002 14.5 -35.6006 25.0996 -56.6006 31z
M325.8 222.9c58.6006 73.6992 148.9 121.1 250.2 121.1v-64c-71.0996 0 -135.4 -29.2002 -181.8 -76c-31.7002 24.2998 -61 19.7002 -68.4004 18.9004z" />
    <glyph glyph-name="cloud-showers" unicode="&#xf73f;" 
d="M416 320c53 0 96 -43 96 -96s-43 -96 -96 -96h-320c-53 0 -96 43 -96 96c0 42.5 27.7998 78.2002 66.0996 90.7998c-1.2998 6.90039 -2.09961 13.9004 -2.09961 21.2002c0 61.9004 50.0996 112 112 112c43.2998 0 80.4004 -24.7998 99 -60.7998
c14.7002 17.5 36.4004 28.7998 61 28.7998c44.2002 0 80 -35.7998 80 -80c0 -5.59961 -0.5 -11 -1.59961 -16.2002c0.5 0 1 0.200195 1.59961 0.200195zM48 80c8.7998 0 16 -7.2002 16 -16v-80c0 -8.7998 -7.2002 -16 -16 -16s-16 7.2002 -16 16v80
c0 8.7998 7.2002 16 16 16zM144 48c8.7998 0 16 -7.2002 16 -16v-80c0 -8.7998 -7.2002 -16 -16 -16s-16 7.2002 -16 16v80c0 8.7998 7.2002 16 16 16zM240 80c8.7998 0 16 -7.2002 16 -16v-80c0 -8.7998 -7.2002 -16 -16 -16s-16 7.2002 -16 16v80
c0 8.7998 7.2002 16 16 16zM336 48c8.7998 0 16 -7.2002 16 -16v-80c0 -8.7998 -7.2002 -16 -16 -16s-16 7.2002 -16 16v80c0 8.7998 7.2002 16 16 16zM432 80c8.7998 0 16 -7.2002 16 -16v-80c0 -8.7998 -7.2002 -16 -16 -16s-16 7.2002 -16 16v80
c0 8.7998 7.2002 16 16 16z" />
    <glyph glyph-name="cloud-showers-heavy" unicode="&#xf740;" 
d="M183.9 77.9004c7.69922 -4.40039 10.3994 -14.2002 6 -21.8008l-64 -112c-3 -5.19922 -8.40039 -8.09961 -13.9004 -8.09961c-2.7002 0 -5.40039 0.700195 -7.90039 2.09961c-7.69922 4.30078 -10.3994 14.1006 -6 21.8008l64 112
c4.40039 7.7998 14.2002 10.3994 21.8008 6zM279.9 77.9004c7.69922 -4.40039 10.3994 -14.2002 6 -21.8008l-64 -112c-3 -5.19922 -8.40039 -8.09961 -13.9004 -8.09961c-2.7002 0 -5.40039 0.700195 -7.90039 2.09961c-7.69922 4.30078 -10.3994 14.1006 -6 21.8008
l64 112c4.40039 7.7998 14.2002 10.3994 21.8008 6zM87.9004 77.9004c7.69922 -4.40039 10.3994 -14.2002 6 -21.8008l-64 -112c-3 -5.19922 -8.40039 -8.09961 -13.9004 -8.09961c-2.7002 0 -5.40039 0.700195 -7.90039 2.09961
c-7.69922 4.30078 -10.3994 14.1006 -6 21.8008l64 112c4.40039 7.7998 14.2002 10.3994 21.8008 6zM471.9 77.9004c7.69922 -4.40039 10.3994 -14.2002 6 -21.8008l-64 -112c-3 -5.19922 -8.40039 -8.09961 -13.9004 -8.09961
c-2.7002 0 -5.40039 0.700195 -7.90039 2.09961c-7.69922 4.30078 -10.3994 14.1006 -6 21.8008l64 112c4.40039 7.7998 14.2002 10.3994 21.8008 6zM375.9 77.9004c7.69922 -4.40039 10.3994 -14.2002 6 -21.8008l-64 -112
c-3 -5.19922 -8.40039 -8.09961 -13.9004 -8.09961c-2.7002 0 -5.40039 0.700195 -7.90039 2.09961c-7.69922 4.30078 -10.3994 14.1006 -6 21.8008l64 112c4.40039 7.7998 14.2002 10.3994 21.8008 6zM416 320c53 0 96 -43 96 -96s-43 -96 -96 -96h-320
c-53 0 -96 43 -96 96c0 42.5 27.7998 78.2002 66.0996 90.7998c-1.2998 6.90039 -2.09961 13.9004 -2.09961 21.2002c0 61.9004 50.2002 112 112 112c43.2998 0 80.4004 -24.7998 99 -60.7998c14.7002 17.5 36.4004 28.7998 61 28.7998c44.2002 0 80 -35.7998 80 -80
c0 -5.59961 -0.5 -11 -1.59961 -16.2002c0.5 0 1 0.200195 1.59961 0.200195z" />
    <glyph glyph-name="cloud-sleet" unicode="&#xf741;" 
d="M512 224c0 -53 -43 -96 -96 -96h-320c-53 0 -96 43 -96 96c0 42.5 27.7998 78.2002 66.0996 90.7998c-1.2998 6.90039 -2.09961 13.9004 -2.09961 21.2002c0 61.9004 50.0996 112 112 112c43.2998 0 80.4004 -24.7998 99 -60.7998
c14.7002 17.5 36.4004 28.7998 61 28.7998c44.2002 0 80 -35.7998 80 -80c0 -5.59961 -0.5 -11 -1.59961 -16.2002c0.5 0 1 0.200195 1.59961 0.200195c53 0 96 -43 96 -96zM87.2002 94.2998c7.89941 -3.89941 11 -13.5 7.2002 -21.5996l-64 -128
c-2.80078 -5.60059 -8.5 -8.7998 -14.3008 -8.7998c-2.39941 0 -4.89941 0.599609 -7.19922 1.69922c-8 4 -11.1006 13.6006 -7.2002 21.5l64 128c4 7.90039 13.5996 11.1006 21.5 7.2002zM343.2 94.2998c7.89941 -3.89941 11 -13.5 7.2002 -21.5996l-64 -128
c-2.80078 -5.60059 -8.5 -8.7998 -14.3008 -8.7998c-2.39941 0 -4.89941 0.599609 -7.19922 1.69922c-8 4 -11.1006 13.6006 -7.2002 21.5l64 128c4 7.90039 13.5996 11.1006 21.5 7.2002zM494.9 58.9004c2.19922 -3.80078 0.899414 -8.7002 -2.90039 -10.9004l-27.9004 -16
l27.9004 -16c3.7998 -2.2002 5.09961 -7.09961 2.90039 -10.9004l-8 -13.8994c-2.2002 -3.7998 -7.10059 -5.10059 -10.9004 -2.90039l-28 16.1006v-28.4004c0 -4.40039 -3.59961 -8 -8 -8h-16c-4.40039 0 -8 3.59961 -8 8v28.4004l-28 -16.1006
c-3.7998 -2.2002 -8.7002 -0.899414 -10.9004 2.90039l-8 13.8994c-2.19922 3.80078 -0.899414 8.7002 2.90039 10.9004l27.9004 16l-27.9004 16c-3.7998 2.2002 -5.09961 7.09961 -2.90039 10.9004l8 13.8994c2.2002 3.7998 7.10059 5.10059 10.9004 2.90039l28 -16.1006
v28.4004c0 4.40039 3.59961 8 8 8h16c4.40039 0 8 -3.59961 8 -8v-28.4004l28 16.1006c3.7998 2.2002 8.7002 0.899414 10.9004 -2.90039zM238.9 58.9004c2.19922 -3.80078 0.899414 -8.7002 -2.90039 -10.9004l-27.9004 -16l27.9004 -16
c3.7998 -2.2002 5.09961 -7.09961 2.90039 -10.9004l-8 -13.8994c-2.2002 -3.7998 -7.10059 -5.10059 -10.9004 -2.90039l-28 16.1006v-28.4004c0 -4.40039 -3.59961 -8 -8 -8h-16c-4.40039 0 -8 3.59961 -8 8v28.4004l-28 -16.1006
c-3.7998 -2.2002 -8.7002 -0.899414 -10.9004 2.90039l-8 13.8994c-2.19922 3.80078 -0.899414 8.7002 2.90039 10.9004l27.9004 16l-27.9004 16c-3.7998 2.2002 -5.09961 7.09961 -2.90039 10.9004l8 13.8994c2.2002 3.7998 7.10059 5.10059 10.9004 2.90039l28 -16.1006
v28.4004c0 4.40039 3.59961 8 8 8h16c4.40039 0 8 -3.59961 8 -8v-28.4004l28 16.1006c3.7998 2.2002 8.7002 0.899414 10.9004 -2.90039z" />
    <glyph glyph-name="cloud-snow" unicode="&#xf742;" 
d="M96 128c-53 0 -96 43 -96 96c0 42.5 27.7998 78.2002 66.0996 90.7998c-1.2998 6.90039 -2.09961 13.9004 -2.09961 21.2002c0 61.9004 50.0996 112 112 112c43.2998 0 80.4004 -24.7998 99 -60.7998c14.7002 17.5 36.4004 28.7998 61 28.7998
c44.2002 0 80 -35.7998 80 -80c0 -5.59961 -0.5 -11 -1.59961 -16.2002c0.5 0 1 0.200195 1.59961 0.200195c53 0 96 -43 96 -96s-43 -96 -96 -96h-320zM126.9 58.9004c2.19922 -3.80078 0.899414 -8.7002 -2.90039 -10.9004l-27.9004 -16l27.9004 -16
c3.7998 -2.2002 5.09961 -7.09961 2.90039 -10.9004l-8 -13.8994c-2.2002 -3.7998 -7.10059 -5.10059 -10.9004 -2.90039l-28 16.1006v-28.4004c0 -4.40039 -3.59961 -8 -8 -8h-16c-4.40039 0 -8 3.59961 -8 8v28.4004l-28 -16.1006
c-3.7998 -2.2002 -8.7002 -0.899414 -10.9004 2.90039l-8 13.8994c-2.19922 3.80078 -0.899414 8.7002 2.90039 10.9004l27.9004 16l-27.9004 16c-3.7998 2.2002 -5.09961 7.09961 -2.90039 10.9004l8 13.8994c2.2002 3.7998 7.10059 5.10059 10.9004 2.90039l28 -16.1006
v28.4004c0 4.40039 3.59961 8 8 8h16c4.40039 0 8 -3.59961 8 -8v-28.4004l28 16.1006c3.7998 2.2002 8.7002 0.899414 10.9004 -2.90039zM318.9 26.9004c2.19922 -3.80078 0.899414 -8.7002 -2.90039 -10.9004l-27.9004 -16l27.9004 -16
c3.7998 -2.2002 5.09961 -7.09961 2.90039 -10.9004l-8 -13.8994c-2.2002 -3.7998 -7.10059 -5.10059 -10.9004 -2.90039l-28 16.1006v-28.4004c0 -4.40039 -3.59961 -8 -8 -8h-16c-4.40039 0 -8 3.59961 -8 8v28.4004l-28 -16.1006
c-3.7998 -2.2002 -8.7002 -0.899414 -10.9004 2.90039l-8 13.8994c-2.19922 3.80078 -0.899414 8.7002 2.90039 10.9004l27.9004 16l-27.9004 16c-3.7998 2.2002 -5.09961 7.09961 -2.90039 10.9004l8 13.8994c2.2002 3.7998 7.10059 5.10059 10.9004 2.90039l28 -16.1006
v28.4004c0 4.40039 3.59961 8 8 8h16c4.40039 0 8 -3.59961 8 -8v-28.4004l28 16.1006c3.7998 2.2002 8.7002 0.899414 10.9004 -2.90039zM510.9 58.9004c2.19922 -3.80078 0.899414 -8.7002 -2.90039 -10.9004l-27.9004 -16l27.9004 -16
c3.7998 -2.2002 5.09961 -7.09961 2.90039 -10.9004l-8 -13.8994c-2.2002 -3.7998 -7.10059 -5.10059 -10.9004 -2.90039l-28 16.1006v-28.4004c0 -4.40039 -3.59961 -8 -8 -8h-16c-4.40039 0 -8 3.59961 -8 8v28.4004l-28 -16.1006
c-3.7998 -2.2002 -8.7002 -0.899414 -10.9004 2.90039l-8 13.8994c-2.19922 3.80078 -0.899414 8.7002 2.90039 10.9004l27.9004 16l-27.9004 16c-3.7998 2.2002 -5.09961 7.09961 -2.90039 10.9004l8 13.8994c2.2002 3.7998 7.10059 5.10059 10.9004 2.90039l28 -16.1006
v28.4004c0 4.40039 3.59961 8 8 8h16c4.40039 0 8 -3.59961 8 -8v-28.4004l28 16.1006c3.7998 2.2002 8.7002 0.899414 10.9004 -2.90039z" />
    <glyph glyph-name="cloud-sun-rain" unicode="&#xf743;" horiz-adv-x="576" 
d="M510.5 222.5c37.2998 -6.7998 65.5 -39.2998 65.5 -78.5c0 -44.2002 -35.7998 -80 -80 -80h-256c-44.2002 0 -80 35.7998 -80 80c0 38.7998 27.5996 71 64.2002 78.4004c0 0.5 -0.200195 1.09961 -0.200195 1.59961c0 53 43 96 96 96
c32.0996 0 60.2998 -15.9004 77.7002 -40c10.3994 5 22 8 34.2998 8c39.2002 0 71.5996 -28.2998 78.5 -65.5zM124.1 188.1c3.10059 -3.09961 6.60059 -5.59961 10.2002 -8.2998c-3.89941 -11.3994 -6.2002 -23.3994 -6.2002 -35.8994c0 -2.5 0.5 -4.80078 0.700195 -7.2002
l-59.2002 -19.7002c-10.1992 -3.2998 -19.8994 6.2998 -16.5 16.5l25.1006 75.2998l-71 35.5c-9.60059 4.7998 -9.60059 18.5 0 23.2998l71 35.5l-25.1006 75.3008c-3.39941 10.1992 6.2002 19.8994 16.4004 16.5l75.2998 -25.1006l35.5 71
c4.7998 9.60059 18.5 9.60059 23.2998 0l35.5 -71l75.3008 25.1006c10.1992 3.39941 19.8994 -6.2002 16.5 -16.4004l-8.90039 -26.7002c-0.700195 0 -1.2998 0.200195 -2 0.200195c-25.5996 0 -49.2002 -7.7998 -69.2002 -20.7002
c-37.5996 29.4004 -92.0996 27.2002 -126.7 -7.39941c-37.3994 -37.5 -37.3994 -98.4004 0 -135.801zM193.9 246.1c-18.2002 -8.2998 -33.5 -21.2998 -44.8008 -37.1992c-12.8994 11.6992 -21.0996 28.3994 -21.0996 47.0996c0 35.2998 28.7002 64 64 64
c12.4004 0 24 -3.7002 33.7998 -9.90039c-16.0996 -17.5996 -27.5996 -39.5 -31.8994 -64zM524.5 29.9004c7.7002 -4.40039 10.2998 -14.1006 6 -21.8008l-36.5996 -64c-3 -5.19922 -8.40039 -8.09961 -13.9004 -8.09961c-2.7002 0 -5.40039 0.700195 -7.90039 2.09961
c-7.69922 4.40039 -10.3994 14.1006 -6 21.8008l36.6006 64c4.39941 7.7998 14.2002 10.2998 21.7998 6zM428.5 29.9004c7.7002 -4.40039 10.2998 -14.1006 6 -21.8008l-36.5996 -64c-3 -5.19922 -8.40039 -8.09961 -13.9004 -8.09961
c-2.7002 0 -5.40039 0.700195 -7.90039 2.09961c-7.69922 4.40039 -10.3994 14.1006 -6 21.8008l36.6006 64c4.39941 7.7998 14.2002 10.2998 21.7998 6zM332.5 29.9004c7.7002 -4.40039 10.2998 -14.1006 6 -21.8008l-36.5996 -64
c-3 -5.19922 -8.40039 -8.09961 -13.9004 -8.09961c-2.7002 0 -5.40039 0.700195 -7.90039 2.09961c-7.69922 4.40039 -10.3994 14.1006 -6 21.8008l36.6006 64c4.39941 7.7998 14.2002 10.2998 21.7998 6zM236.5 29.9004c7.7002 -4.40039 10.2998 -14.1006 6 -21.8008
l-36.5996 -64c-3 -5.19922 -8.40039 -8.09961 -13.9004 -8.09961c-2.7002 0 -5.40039 0.700195 -7.90039 2.09961c-7.69922 4.40039 -10.3994 14.1006 -6 21.8008l36.6006 64c4.39941 7.7998 14.2002 10.2998 21.7998 6z" />
    <glyph glyph-name="clouds" unicode="&#xf744;" horiz-adv-x="640" 
d="M544 128c53 0 96 -43 96 -96s-43 -96 -96 -96h-320c-53 0 -96 43 -96 96c0 42.5 27.7998 78.2002 66.0996 90.7998c-1.2998 6.90039 -2.09961 13.9004 -2.09961 21.2002c0 61.9004 50.0996 112 112 112c43.2002 0 80.4004 -24.9004 99 -60.7998
c14.7002 17.5 36.4004 28.7998 61 28.7998c44.2002 0 80 -35.7998 80 -80c0 -5.59961 -0.5 -11 -1.59961 -16.2002c0.5 0 1 0.200195 1.59961 0.200195zM304 288c-73.9004 0 -134.3 -56.2002 -142.4 -128h-65.5996c-53 0 -96 43 -96 96s43 96 96 96
c0.599609 0 1.09961 -0.200195 1.59961 -0.200195c7.7002 54.2998 54 96.2002 110.4 96.2002c48 0 88.5996 -30.2998 104.5 -72.7002c12.0996 5.5 25.4004 8.7002 39.5 8.7002c53 0 96 -43 96 -96c0 -12.4004 -2.7002 -23.9004 -7 -34.7002
c-11.0996 -2.39941 -21.7998 -6.2002 -31.5996 -11.7998c-26.8008 29.2998 -64.7002 46.5 -105.4 46.5z" />
    <glyph glyph-name="clouds-moon" unicode="&#xf745;" horiz-adv-x="640" 
d="M448 128c53 0 96 -43 96 -96s-43 -96 -96 -96h-320c-53 0 -96 43 -96 96c0 42.0996 27.2998 77.5 65.0996 90.4004c5.30078 56.8994 52.6006 101.6 110.9 101.6c43.2002 0 80.4004 -24.9004 99 -60.7998c14.7002 17.5 36.4004 28.7998 61 28.7998
c38.7002 0 71 -27.5 78.4004 -64h1.59961zM631 199.3c6.90039 1.2998 11.7002 -6.59961 7.2998 -12.0996c-26.3994 -32.2002 -64.5996 -53.5 -107.1 -58.2002c-17.1006 14.7002 -38 25.0996 -61.1006 29.0996c-15.8994 34.9004 -49.0996 59.7002 -87.5996 64.8008
c-3.2998 24.2998 -14 46.2998 -30.2998 63.0996c0 0.700195 -0.200195 1.2998 -0.200195 2c0 88.4004 72.2002 160 161.1 160c9.90039 0 19.8008 -0.900391 29.4004 -2.7002c7 -1.2998 8.5 -10.5 2.40039 -13.8994c-39.6006 -22.4004 -63.9004 -63.9004 -63.9004 -109
c0 -78.4004 71.7998 -137.9 150 -123.101zM68.2998 144.8c-6.09961 -3.2002 -11.7998 -7.09961 -17.2998 -11.2002c-29.7998 11.6006 -51 40.5 -51 74.4004c0 44.2002 35.7998 80 80 80h17.5996c7.40039 36.5 39.7002 64 78.4004 64s71 -27.5 78.4004 -64h17.5996
c39.2002 0 71.7002 -28.2998 78.5 -65.5996c-13 -2.10059 -25.5996 -6.40039 -37.0996 -12.9004c-26.8008 29.2998 -64.7002 46.5 -105.4 46.5c-67.7998 0 -124.8 -46.5996 -139.7 -111.2z" />
    <glyph glyph-name="clouds-sun" unicode="&#xf746;" horiz-adv-x="640" 
d="M512 128c53 0 96 -43 96 -96s-43 -96 -96 -96h-320c-53 0 -96 43 -96 96c0 42.0996 27.2998 77.5 65.0996 90.4004c5.30078 56.8994 52.6006 101.6 110.9 101.6c43.2002 0 80.4004 -24.9004 99 -60.7998c14.7002 17.5 36.4004 28.7998 61 28.7998
c38.7002 0 71 -27.5 78.4004 -64h1.59961zM560 288c44.2002 0 80 -35.7998 80 -79.9004c0 -33.7998 -21.0996 -62.5996 -50.9004 -74.2998c-15.8994 12.1006 -34.5 20.7998 -55 24.4004c-17.7998 39.2998 -57.5 65.8994 -102.1 65.8994
c-19.2998 0 -38.0996 -5.09961 -54.5996 -14.5c-20.1006 22 -46.5 37.1006 -75.6006 43.3008c14.4004 21.1992 38.6006 35.0996 66.2002 35.0996h17.5996c7.40039 36.5 39.7002 64 78.4004 64s71 -27.5 78.4004 -64h17.5996zM132.3 144.8
c-7.2002 -3.7998 -13.7998 -8.5 -20.0996 -13.5996l-42.7002 -14.2002c-10.2002 -3.2998 -19.9004 6.2998 -16.5 16.5l25.0996 75.2998l-71 35.5c-9.59961 4.7998 -9.59961 18.5 0 23.2998l71 35.5l-25.0996 75.3008c-3.2998 10.1992 6.2998 19.8994 16.5 16.5
l75.2998 -25.1006l35.5 71c4.7998 9.60059 18.5 9.60059 23.2998 0l35.5 -71l75.3008 25.1006c10.1992 3.39941 19.8994 -6.2002 16.5 -16.4004l-26.3008 -78.4004c-7.69922 -5.2998 -14.5 -11.5996 -20.5996 -18.5996c-4.2002 15.5 -11.9004 30.2002 -24.0996 42.4004
c-37.5 37.3994 -98.4004 37.3994 -135.801 0c-37.3994 -37.5 -37.3994 -98.4004 0 -135.801c5.7002 -5.69922 12.1006 -10.1992 18.7002 -14.1992c-4.39941 -9.2002 -8.09961 -18.8008 -10.5 -29.1006zM128 256c0 35.2998 28.7002 64 64 64s64 -28.7002 64 -64
c0 -0.5 -0.0996094 -0.900391 -0.0996094 -1.40039c-39 -4.2998 -73.1006 -24 -96.2002 -53.5c-18.9004 11.1006 -31.7002 31.5 -31.7002 54.9004z" />
    <glyph glyph-name="democrat" unicode="&#xf747;" horiz-adv-x="640" 
d="M637.3 191.1c4.90039 -7.39941 2.90039 -17.2998 -4.39941 -22.2998l-26.6006 -17.7002c-7.39941 -4.89941 -17.2998 -3 -22.2002 4.40039c-21.7998 32.7002 -23.8994 38.0996 -40.0996 50.2998v-77.7998h-352l-54 108l-38.0996 -34.5996
c-6 -6 -14.1006 -9.40039 -22.6006 -9.40039h-31c-12.0996 0 -23.2002 6.90039 -28.5996 17.7002l-14.2998 28.5996c-5.40039 10.7998 -4.30078 23.7998 3 33.5l74.5996 99.2998c1.7002 2.30078 4.2002 3.7002 6.40039 5.40039c-4 2.2002 -8 4.2002 -11.3008 7.5
c-16.3994 16.4004 -18.3994 41.7998 -6.09961 60.4004c2.7998 4.19922 8.7998 4.7998 12.4004 1.19922l42.8994 -42.7998l41.7998 41.7998c4.40039 4.40039 11.8008 3.7002 15.2002 -1.5c15.1006 -22.7998 12.6006 -53.7998 -7.5 -73.8994l81.2002 -81.2002h235.6
c50.8008 0 97.9004 -25.2002 126.101 -67.5zM296.2 204.7c3 2.89941 1.39941 7.89941 -2.60059 8.5l-22.7998 3.2998l-10.2002 20.7002c-1.89941 3.7002 -7.19922 3.7002 -9 0l-10.1992 -20.7002l-22.8008 -3.2998c-4.09961 -0.600586 -5.7998 -5.60059 -2.7998 -8.5
l16.5 -16.1006l-3.89941 -22.6992c-0.700195 -4.10059 3.59961 -7.2002 7.19922 -5.30078l20.4004 10.7002l20.4004 -10.7002c3.59961 -1.89941 7.89941 1.2002 7.19922 5.30078l-3.89941 22.6992zM408.2 204.7c3 2.89941 1.39941 7.89941 -2.60059 8.5l-22.7998 3.2998
l-10.2002 20.7002c-1.89941 3.7002 -7.19922 3.7002 -9 0l-10.1992 -20.7002l-22.8008 -3.2998c-4.09961 -0.600586 -5.7998 -5.60059 -2.7998 -8.5l16.5 -16.1006l-3.89941 -22.6992c-0.700195 -4.10059 3.59961 -7.2002 7.19922 -5.30078l20.4004 10.7002
l20.4004 -10.7002c3.59961 -1.89941 7.89941 1.2002 7.19922 5.30078l-3.89941 22.6992zM520.2 204.7c3 2.89941 1.39941 7.89941 -2.60059 8.5l-22.7998 3.2998l-10.2002 20.7002c-1.89941 3.7002 -7.19922 3.7002 -9 0l-10.1992 -20.7002l-22.8008 -3.2998
c-4.09961 -0.600586 -5.7998 -5.60059 -2.7998 -8.5l16.5 -16.1006l-3.89941 -22.6992c-0.700195 -4.10059 3.59961 -7.2002 7.19922 -5.30078l20.4004 10.7002l20.4004 -10.7002c3.59961 -1.89941 7.89941 1.2002 7.19922 5.30078l-3.89941 22.6992zM192 -48v144h352v-144
c0 -8.7998 -7.2002 -16 -16 -16h-64c-8.7998 0 -16 7.2002 -16 16v80h-160v-80c0 -8.7998 -7.2002 -16 -16 -16h-64c-8.7998 0 -16 7.2002 -16 16z" />
    <glyph glyph-name="dewpoint" unicode="&#xf748;" 
d="M160.1 425.9c9.80078 30.0996 55.1006 28.7998 63.8008 0c51.1992 -158.5 160.1 -200 160.1 -311.801c0 -98.3994 -85.9004 -178.1 -192 -178.1s-192 79.7002 -192 178.1c0 111.2 109.1 154.101 160.1 311.801zM416 448c52.9004 0 96 -43.0996 96 -96
s-43.0996 -96 -96 -96s-96 43.0996 -96 96s43.0996 96 96 96zM416 320c17.7002 0 32 14.2998 32 32s-14.2998 32 -32 32s-32 -14.2998 -32 -32s14.2998 -32 32 -32z" />
    <glyph glyph-name="eclipse" unicode="&#xf749;" horiz-adv-x="640" 
d="M464 368c97.2002 0 176 -78.7998 176 -176s-78.7998 -176 -176 -176s-176 78.7998 -176 176s78.7998 176 176 176zM165.5 101.5c35.0996 -35.0996 85.5 -45 129.7 -30.7002c8.5 -11.7998 18.0996 -22.5996 28.7998 -32.2998l-5.2998 1.7998l-47.2998 -94.7002
c-6.40039 -12.7998 -24.6006 -12.7998 -31 0l-47.3008 94.7002l-100.399 -33.5c-13.5 -4.59961 -26.4004 8.2998 -21.9004 21.9004l33.5 100.5l-94.7002 47.2998c-12.7998 6.40039 -12.7998 24.5996 0 31l94.7002 47.4004l-33.5 100.399
c-4.59961 13.5 8.2998 26.4004 21.9004 21.9004l100.5 -33.5l47.2998 94.7002c6.40039 12.7998 24.5996 12.7998 31 0l48.9004 -96.3008c-9.30078 -8.7998 -17.6006 -18.5 -25.1006 -28.8994c-44.2998 14.2998 -94.7002 4.39941 -129.8 -30.7002
c-49.9004 -49.9004 -49.9004 -131.1 0 -181zM256 288c7.7002 0 15.0996 -1.2002 22.2998 -2.90039c-14.2002 -28 -22.2998 -59.5996 -22.2998 -93.0996s8.09961 -65.0996 22.2998 -93.0996c-7.2002 -1.7002 -14.5996 -2.90039 -22.2998 -2.90039
c-52.9004 0 -96 43.0996 -96 96s43.0996 96 96 96z" />
    <glyph glyph-name="eclipse-alt" unicode="&#xf74a;" 
d="M502.4 207.5c12.7998 -6.40039 12.7998 -24.5996 -0.200195 -31.0996l-94.7002 -47.3008l33.5 -100.399c4.59961 -13.5 -8.2998 -26.4004 -21.9004 -21.9004l-100.399 33.5l-47.2998 -94.7002c-6.40039 -12.7998 -24.6006 -12.7998 -31 0l-47.3008 94.7002
l-100.399 -33.5c-13.5 -4.59961 -26.4004 8.2998 -21.9004 21.9004l33.5 100.5l-94.7002 47.2998c-12.7998 6.40039 -12.7998 24.5996 0 31l94.7002 47.4004l-33.5 100.399c-4.59961 13.5 8.2998 26.4004 21.9004 21.9004l100.5 -33.5l47.2998 94.7002
c6.40039 12.7998 24.5996 12.7998 31 0l47.4004 -94.8008l100.399 33.5c13.5 4.60059 26.4004 -8.2998 21.9004 -21.8994l-33.5 -100.4zM346.5 101.5c49.9004 49.9004 49.9004 131.1 0 181s-131.1 49.9004 -181 0s-49.9004 -131.1 0 -181s131.1 -49.9004 181 0zM326.1 138.8
c4.10059 0.799805 7 -4 4.30078 -7.2998c-17.9004 -22 -44.9004 -35.5 -74.5 -35.5c-53 0 -95.9004 43 -95.9004 96c0 53.0996 43 96 95.9004 96c5.89941 0 11.6992 -0.5 17.5 -1.59961c4.09961 -0.700195 5 -6.2002 1.39941 -8.30078
c-23.5 -13.3994 -38 -38.2998 -38 -65.3994c0 -47.1006 42.7998 -82.7998 89.2998 -73.9004z" />
    <glyph glyph-name="fire-smoke" unicode="&#xf74b;" horiz-adv-x="640" 
d="M528 160c61.9004 0 112 -50.0996 112 -112s-50.0996 -112 -112 -112h-416c-61.9004 0 -112 50.0996 -112 112s50.0996 112 112 112c37.0996 0 69.7002 -18.2998 90.0996 -46.0996c19.5 45.8994 64.9004 78.0996 117.9 78.0996s98.4004 -32.2002 117.9 -78.0996
c20.3994 27.7998 53 46.0996 90.0996 46.0996zM195.7 164.8c-13.5 9.7002 -28.6006 16.7002 -44.5 21.2998c-4.60059 15.5 -7.2002 31.9004 -7.2002 48.9004c0 54.2002 54.7998 144.1 132 213c30.0996 -26.9004 56.5996 -55.7002 77.9004 -84
c13.0996 15.5 27.8994 30.7998 44.1992 45.4004c57 -50.8008 97.8008 -133.9 97.8008 -174.2c0 -17 -2.60059 -33.4004 -7.2002 -48.9004c-15.9004 -4.59961 -31 -11.5996 -44.5 -21.2998c-10.4004 12.7998 -22.7998 23.7998 -36.5 32.7998
c8.7998 24.7002 7.2998 53.2998 -5.10059 77.7998c-2.5 4.90039 -5.2998 10.1006 -8.39941 15.4004l-43.7998 -51.7002s-68.6006 90.7002 -73.8008 96.9004c-36.1992 -45 -54.3994 -71.2998 -54.3994 -101.101c0 -14.5996 2.7002 -27.6992 7.39941 -39.2998
c-12.5996 -8.7002 -24.1992 -19 -33.8994 -31z" />
    <glyph glyph-name="flag-alt" unicode="&#xf74c;" 
d="M32 448c17.7002 0 32 -14.2998 32 -32v-464c0 -8.7998 -7.2002 -16 -16 -16h-32c-8.7998 0 -16 7.2002 -16 16v464c0 17.7002 14.2998 32 32 32zM462.6 443.8c22.6006 11.5 49.4004 -1.5 49.4004 -26.5996v-301.3c0 -12.3008 -7.09961 -23.8008 -18.5 -28.8008
c-175.8 -76.3994 -211.8 69.1006 -397.5 -23.0996v351.6c209.4 94.6006 195.3 -59.0996 366.6 28.2002z" />
    <glyph glyph-name="flag-usa" unicode="&#xf74d;" 
d="M32 448c17.7002 0 32 -14.2998 32 -32v-464c0 -8.7998 -7.2002 -16 -16 -16h-32c-8.7998 0 -16 7.2002 -16 16v464c0 17.7002 14.2998 32 32 32zM299.9 144.4c31.0996 -8.2002 62.5996 -16.5 100 -16.6006c31.8994 0 68.5 6.7998 112.1 24.1006v-36
c0 -12.3008 -7.09961 -23.8008 -18.5 -28.8008c-175.8 -76.3994 -211.8 69.1006 -397.5 -23.0996v69.2998c92.2002 39.9004 146.7 26.2002 203.9 11.1006zM299.9 240.4c31.0996 -8.2002 62.5996 -16.5 100 -16.5c31.8994 0 68.5 6.7998 112.1 24.0996v-61.5
c-92.2002 -39.9004 -146.7 -26.2002 -203.9 -11.0996c-57.5 15.0996 -117.3 30 -212.1 -7.60059v61.5c92.2002 39.9004 146.7 26.2002 203.9 11.1006zM309.4 366.3c-7 2.10059 -14.1006 4.2002 -21.3008 6.2002v-33.2002c4 -1.09961 8.10059 -2.2998 12.1006 -3.5
c26.7002 -8.09961 52.8994 -15.8994 85.7002 -15.8994c32.7998 0 72.5 7.89941 126.1 31.3994v-68.8994c-92.2002 -39.8008 -146.7 -26.1006 -203.9 -11.1006c-57.5 15.1006 -117.3 29.9004 -212.1 -7.59961v151.899c209.4 94.6006 195.3 -59.0996 366.6 28.2002
c22.6006 11.5 49.4004 -1.5 49.4004 -26.5996v-30.7998c-105.2 -49.1006 -150.8 -35.7002 -202.6 -20.1006zM160 319.9c8.7998 0 16 7.09961 16 16c0 8.89941 -7.2002 16 -16 16s-16 -7.2002 -16 -16c0 -8.90039 7.2002 -16 16 -16zM160 375.7c8.7998 0 16 7.2002 16 16
c0 8.89941 -7.2002 16 -16 16s-16 -7.2002 -16 -16c0 -8.90039 7.2002 -16 16 -16zM224 327.8c8.7998 0 16 7.2002 16 16c0 8.90039 -7.2002 16 -16 16s-16 -7.2002 -16 -16c0 -8.89941 7.2002 -16 16 -16zM224 383.7c8.7998 0 16 7.2002 16 16c0 8.89941 -7.2002 16 -16 16
s-16 -7.2002 -16 -16c0 -8.90039 7.2002 -16 16 -16z" />
    <glyph glyph-name="fog" unicode="&#xf74e;" horiz-adv-x="640" 
d="M160 128c-53 0 -96 43 -96 96c0 42.5 27.7998 78.2002 66.0996 90.7998c-1.2998 6.90039 -2.09961 13.9004 -2.09961 21.2002c0 61.9004 50.0996 112 112 112c43.2998 0 80.4004 -24.7998 99 -60.7998c14.7002 17.5 36.4004 28.7998 61 28.7998
c44.2002 0 80 -35.7998 80 -80c0 -5.59961 -0.5 -11 -1.59961 -16.2002c0.5 0 1 0.200195 1.59961 0.200195c53 0 96 -43 96 -96s-43 -96 -96 -96h-320zM208 -16c8.7998 0 16 -7.2002 16 -16v-16c0 -8.7998 -7.2002 -16 -16 -16h-128c-8.7998 0 -16 7.2002 -16 16v16
c0 8.7998 7.2002 16 16 16h128zM624 -16c8.7998 0 16 -7.2002 16 -16v-16c0 -8.7998 -7.2002 -16 -16 -16h-336c-8.7998 0 -16 7.2002 -16 16v16c0 8.7998 7.2002 16 16 16h336zM576 40c0 -8.7998 -7.2002 -16 -16 -16h-544c-8.7998 0 -16 7.2002 -16 16v16
c0 8.7998 7.2002 16 16 16h544c8.7998 0 16 -7.2002 16 -16v-16z" />
    <glyph glyph-name="house-flood" unicode="&#xf74f;" horiz-adv-x="576" 
d="M21.4004 204c-5.90039 6.59961 -5.2002 16.7002 1.39941 22.5996l238.8 211.4c15.1006 13.4004 37.8008 13.4004 52.9004 0l101.5 -89.9004v51.9004c0 8.7998 7.2002 16 16 16h32c8.7998 0 16 -7.2002 16 -16v-108.6l73.2002 -64.8008
c6.59961 -5.89941 7.2002 -16 1.39941 -22.5996l-21.1992 -24c-5.90039 -6.59961 -16 -7.2002 -22.6006 -1.40039l-222.8 197.301l-222.8 -197.301c-6.60059 -5.89941 -16.7002 -5.19922 -22.6006 1.40039zM562.1 0.0996094
c8.10059 -0.899414 13.9004 -8.2998 13.8008 -16.2998v-31.5996c0 -9.10059 -7.60059 -16.7998 -16.7002 -16c-28.2002 2.5 -55.7998 11.5996 -79.1006 25.7998c-55 -34.0996 -135.5 -34.5996 -192 0c-55 -34.0996 -135.5 -34.5996 -192 0
c-23.2998 -14.5 -50.5996 -23.4004 -79.3994 -25.9004c-9.10059 -0.799805 -16.7002 6.90039 -16.7002 16v32.2002c0 7.90039 5.7002 14.9004 13.5996 15.7002c21.7002 2.2998 42.2002 10.2002 57.7002 22.4004c13.7998 10.8994 33.6006 13.1992 47.1006 2
c38.2998 -31.7002 107.199 -31.8008 145.199 -1.7002c13.7002 10.8994 33.2002 13 46.7002 1.7998c38.5 -31.9004 107.8 -31.9004 145.7 -1.5c14 11.2998 34.0996 11.0996 48.2002 0c15.7998 -12.4004 36.3994 -20.5 57.8994 -22.9004zM288 333.2l192 -170v-99.7998
h-0.0996094c-16 0 -31.6006 -5.5 -43.9004 -15.4004c-12.2002 -9.7998 -31.5 -15.5996 -51.7002 -15.5996c-21.2002 0 -40.7002 6.09961 -53.5 16.6992c-11.7002 9.7002 -26.0996 14.8008 -41.5996 14.8008c-16.2002 0 -32.2998 -5.7002 -45.5 -16.1006
c-12.4004 -9.7998 -31.1006 -15.3994 -51.5 -15.3994c-21.2002 0 -40.7002 6.09961 -53.5 16.6992c-11.6006 9.60059 -26 14.7002 -41.4004 14.7002c-0.5 0 -0.899414 -0.0996094 -1.39941 -0.0996094v99.3994zM320 224h-64c-8.7998 0 -16 -7.2002 -16 -16v-64
c0 -8.7998 7.2002 -16 16 -16h64c8.7998 0 16 7.2002 16 16v64c0 8.7998 -7.2002 16 -16 16z" />
    <glyph glyph-name="humidity" unicode="&#xf750;" horiz-adv-x="384" 
d="M223.9 425.9c51.1992 -158.5 160.1 -200.101 160.1 -311.801c0 -98.3994 -85.9004 -178.1 -192 -178.1s-192 79.7002 -192 178.1c0 111.2 109.1 154.101 160.1 311.801c9.90039 30.0996 55.1006 28.7998 63.8008 0zM96 160c0 -17.7002 14.2998 -32 32 -32
s32 14.2998 32 32s-14.2998 32 -32 32s-32 -14.2998 -32 -32zM145.5 28.2002l118 147.5c2.7998 3.39941 2.2998 8.39941 -1.2002 11.2002l-12.5 10c-3.39941 2.7998 -8.39941 2.19922 -11.2002 -1.2002l-118 -147.5c-2.7998 -3.40039 -2.19922 -8.40039 1.2002 -11.2002
l12.5 -10c3.40039 -2.7998 8.40039 -2.2998 11.2002 1.2002zM256 32c17.7002 0 32 14.2998 32 32s-14.2998 32 -32 32s-32 -14.2998 -32 -32s14.2998 -32 32 -32z" />
    <glyph glyph-name="landmark-alt" unicode="&#xf752;" 
d="M48 192c-8.7998 0 -16 7.2002 -16 16v32c0 8.7998 7.2002 16 16 16h18.9004c13.5 80.2998 76.7998 143.6 157.1 157.1v18.9004c0 8.7998 7.2002 16 16 16h32c8.7998 0 16 -7.2002 16 -16v-18.9004c80.2998 -13.5 143.6 -76.7998 157.1 -157.1h18.9004
c8.7998 0 16 -7.2002 16 -16v-32c0 -8.7998 -7.2002 -16 -16 -16h-416zM496 0c8.7998 0 16 -7.2002 16 -16v-32c0 -8.7998 -7.2002 -16 -16 -16h-480c-8.7998 0 -16 7.2002 -16 16v32c0 8.7998 7.2002 16 16 16h16v16c0 8.7998 7.2002 16 16 16h16v128h64v-128h96v128h64
v-128h96v128h64v-128h16c8.7998 0 16 -7.2002 16 -16v-16h16z" />
    <glyph glyph-name="moon-cloud" unicode="&#xf754;" horiz-adv-x="576" 
d="M256 192c35.2998 0 64 -28.7002 64 -64s-28.7002 -64 -64 -64h-192c-35.2998 0 -64 28.7002 -64 64s28.7002 64 64 64c0.599609 0 1.09961 -0.200195 1.59961 -0.200195c7.30078 36.6006 39.6006 64.2002 78.4004 64.2002c41.9004 0 75.7998 -32.2002 79.2998 -73.2002
c9.60059 5.7002 20.7002 9.2002 32.7002 9.2002zM565.3 85.5996c8.2002 1.60059 14 -8 8.7998 -14.5996c-35.7998 -44.2002 -89.7998 -71.0996 -149 -71.0996c-46.6992 0 -89.5 16.6992 -122.699 44.3994c29.5 16.4004 49.6992 47.5 49.6992 83.6006
c0 52.8994 -43.0996 96 -96 96c-3.59961 0 -7.09961 -0.200195 -10.6992 -0.600586c-2 4.40039 -4.40039 8.60059 -6.90039 12.6006c19.9004 84.8994 95.7998 148.1 186.6 148.1c11.7002 0 23.4004 -1.09961 35 -3.2002c8.2002 -1.59961 10.1006 -12.5996 2.80078 -16.7002
c-47.1006 -26.7998 -76.1006 -76.5996 -76.1006 -130.8c0 -94 85.4004 -165.399 178.5 -147.7z" />
    <glyph glyph-name="moon-stars" unicode="&#xf755;" 
d="M332.2 21.5996c8.09961 1.60059 13.8994 -8 8.59961 -14.5c-35.7998 -44.1992 -89.7998 -71.0996 -149 -71.0996c-106 0 -191.8 86 -191.8 192c0 120 108.7 210.6 227 188.8c8.2002 -1.59961 10.0996 -12.5996 2.7998 -16.7002
c-47.0996 -26.7998 -76.0996 -76.5996 -76.0996 -130.8c0 -94 85.3994 -165.399 178.5 -147.7zM304 352l-16 32l-32 16l32 16l16 32l16 -32l32 -16l-32 -16zM458.7 266.7l53.2998 -26.7002l-53.2998 -26.7002l-26.7002 -53.2998l-26.7002 53.2998l-53.2998 26.7002
l53.2998 26.7002l26.7002 53.2998z" />
    <glyph glyph-name="person-booth" unicode="&#xf756;" horiz-adv-x="576" 
d="M192 -48v176h64v-176c0 -8.7998 -7.2002 -16 -16 -16h-32c-8.7998 0 -16 7.2002 -16 16zM224 224c17.7002 0 32 -14.2998 32 -32s-14.2998 -32 -32 -32h-57.5c-12.7998 0 -24.7998 5 -33.9004 14.0996l-20.8994 20.9004v-80.5996l41.2002 -61.3008
c4.39941 -8.7998 6.69922 -18.6992 6.69922 -28.5996v-56.5c0 -17.7002 -14.2998 -32 -32 -32c-17.6992 0 -32 14.2998 -32 32v56l-29.0996 43c-0.900391 0.400391 -1.59961 1.2002 -2.5 1.7002l-0.0996094 -100.7c0 -17.7002 -14.4004 -32 -32 -32
c-17.6006 0 -31.9004 14.2998 -31.9004 32l0.200195 160l-0.200195 95.9004c0 17.0996 6.7002 33.1992 18.7002 45.2998c12.0996 12.0996 28.2002 18.7998 45.2998 18.7998h18.7002c17 0 33.0996 -6.59961 45.2002 -18.7002l45.1992 -45.2998h50.9004zM64 320
c-26.5 0 -48 21.5 -48 48s21.5 48 48 48s48 -21.5 48 -48s-21.5 -48 -48 -48zM288 416v32h192v-416c0 -17.7002 -14.2998 -32 -32 -32s-32 14.2998 -32 32c0 -17.7002 -14.2998 -32 -32 -32c-17.0996 0 -30.7998 13.5 -31.7002 30.4004
c-4.2998 -21.3008 -17.0996 -30.4004 -32.2998 -30.4004c-18.4004 0 -35.7002 16.7002 -31.4004 38.2998l30.9004 154.601zM192 416c0 17.7002 14.2998 32 32 32h32v-192h-64v160zM544 448c17.7002 0 32 -14.2998 32 -32v-464c0 -8.7998 -7.2002 -16 -16 -16h-32
c-8.7998 0 -16 7.2002 -16 16v496h32z" />
    <glyph glyph-name="person-sign" unicode="&#xf757;" 
d="M144 352c-26.5 0 -48 21.5 -48 48s21.5996 48 48 48s48 -21.5 48 -48s-21.5 -48 -48 -48zM501.5 381.4c8.2998 -3.10059 12.5996 -12.2002 9.5 -20.5l-43.5996 -120.301c-3 -8.2998 -12.2002 -12.5996 -20.5 -9.59961l-67.6006 24.5996l-46.2002 -126.899
c-3 -8.2998 -12.1992 -12.6006 -20.5 -9.60059l-15 5.5c-8.2998 3 -12.5996 12.2002 -9.59961 20.5l11.2002 30.8008l-46.1006 15.3994c-9.39941 3.2002 -18 8.5 -25 15.5l-20 20v-91.2002l41.2002 -82.5c4.40039 -8.7998 6.7002 -18.6992 6.7002 -28.5996v-56.5
c0 -17.7002 -14.2998 -32 -32 -32s-32 14.2998 -32 32v56.5l-35.7998 71.5h-15.2998l-13.2002 -131.2c-1.7002 -16.5 -15.6006 -28.7998 -31.7998 -28.7998c-1 0 -2.10059 0.0996094 -3.2002 0.200195c-17.5 1.7002 -30.2998 17.3994 -28.6006 35l15.9004 158.399v54.8008
l-19.4004 -38.7002c-5.59961 -11.2002 -16.8994 -17.7002 -28.5996 -17.7002c-4.7998 0 -9.7002 1.09961 -14.2998 3.40039c-15.7998 7.89941 -22.2002 27.0996 -14.2998 42.8994l55.1992 110.4c10.9004 21.7998 32.8008 35.3994 57.2002 35.3994h62.9004
c17.0996 0 33.0996 -6.69922 45.2002 -18.7998l49.2998 -49.2998l47.7998 -16l13 36l-67.5996 24.5996c-8.30078 3 -12.6006 12.2002 -9.60059 20.5l43.7998 120.301c3 8.2998 12.2002 12.5996 20.5 9.59961l67.6006 -24.5996l5.5 15c3 8.2998 12.2002 12.5996 20.5 9.59961
l15 -5.5c8.2998 -3 12.5996 -12.2002 9.59961 -20.5l-5.5 -15z" />
    <glyph glyph-name="podium-star" unicode="&#xf758;" horiz-adv-x="448" 
d="M432 304c8.7998 0 16 -7.2002 16 -16v-16c0 -8.7998 -7.2002 -16 -16 -16h-416c-8.7998 0 -16 7.2002 -16 16v16c0 8.7998 7.2002 16 16 16h47.2998c6.7998 53.7998 46.5 97.2002 98.6006 108.8c5.69922 20.2002 24 35.2002 46.0996 35.2002h64c26.5 0 48 -21.5 48 -48
s-21.5 -48 -48 -48h-64c-13.2002 0 -25.2002 5.2998 -33.9004 14c-32 -6.7002 -56.3994 -31.0996 -62.6992 -62h320.6zM400 -16c8.7998 0 16 -7.2002 16 -16v-16c0 -8.7998 -7.2002 -16 -16 -16h-352c-8.7998 0 -16 7.2002 -16 16v16c0 8.7998 7.2002 16 16 16h38.2002
l-22.2002 240h320l-22.2002 -240h38.2002zM304.5 121.3c5.90039 5.7998 2.59961 15.9004 -5.59961 17.1006l-45.6006 6.69922l-20.3994 41.4004c-3.60059 7.40039 -14.2002 7.5 -17.9004 0l-20.4004 -41.4004l-45.5996 -6.69922
c-8.2002 -1.2002 -11.4004 -11.3008 -5.5 -17.1006l33 -32.2002l-7.7998 -45.5c-1.40039 -8.19922 7.2998 -14.2998 14.5 -10.5l40.7998 21.5l40.7998 -21.5c7.2998 -3.7998 15.9004 2.30078 14.5 10.5l-7.7998 45.5z" />
    <glyph glyph-name="poo-storm" unicode="&#xf75a;" horiz-adv-x="448" 
d="M308 112c9.2002 0 15 -10 10.4004 -18l-88 -152c-2.2002 -3.7998 -6.2002 -6 -10.4004 -6c-7.7002 0 -13.5 7.2002 -11.7002 14.7998l23 97.2002h-59.2998c-7.2998 0 -12.9004 6.40039 -11.9004 13.5996l16 120c0.800781 5.90039 5.90039 10.4004 11.9004 10.4004h68
c7.90039 0 13.5996 -7.5 11.5996 -15.0996l-17.2998 -64.9004h57.7002zM374.4 223.3c41 -3.2998 73.5996 -37.5 73.5 -79.2998c0 -44 -36 -80 -80 -80h-30l8.09961 14c7.7998 13.5 7.7998 30.4004 0 44s-22.4004 22 -38.0996 22h-16l6.59961 24.7002
c3.59961 13.2998 0.799805 27.2002 -7.59961 38.0996c-8.40039 10.9004 -21.1006 17.2002 -34.9004 17.2002h-68c-22 0 -40.7002 -16.4004 -43.7002 -38.2002l-16 -120c0 -0.599609 0.100586 -1.2002 0 -1.7998h-48.2998c-44 0 -80 36 -80 80
c0 41.7998 32.5996 76 73.5996 79.2998c-5.89941 9.60059 -9.59961 20.6006 -9.59961 32.7002c0 35.2998 28.7002 64 64 64h16c44.2002 0 80 35.7998 80 80c0 17.4004 -5.7002 33.4004 -15.0996 46.5c4.89941 0.799805 9.89941 1.5 15.0996 1.5c53 0 96 -43 96 -96
c0 -11.2998 -2.2998 -21.9004 -5.90039 -32h5.90039c35.2998 0 64 -28.7002 64 -64c0 -12.0996 -3.7002 -23.0996 -9.59961 -32.7002z" />
    <glyph glyph-name="raindrops" unicode="&#xf75c;" horiz-adv-x="448" 
d="M216 311.7c0 -30.7998 -25 -55.7002 -56 -55.7002s-56 24.9004 -56 55.7002c0 34.7002 31.7998 48.0996 46.7002 97.3994c2.89941 9.40039 16.0996 9 18.5996 0c14.9004 -49.5 46.7002 -62.5 46.7002 -97.3994zM46.7002 217.1c2.89941 9.40039 16.0996 9 18.5996 0
c14.9004 -49.5 46.7002 -62.5 46.7002 -97.3994c0 -30.7998 -25 -55.7002 -56 -55.7002s-56 24.9004 -56 55.7002c0 34.7002 31.7998 48.0996 46.7002 97.3994zM341.2 304.8c34.2002 -108.899 106.8 -137.5 106.8 -214.399c0 -67.6006 -57.2002 -122.4 -128 -122.4
s-128 54.7002 -128 122.4c0 76.5 72.7002 106 106.7 214.399c6.5 20.7002 36.7002 19.7998 42.5 0z" />
    <glyph glyph-name="republican" unicode="&#xf75e;" horiz-adv-x="640" 
d="M544 256v-64h-544v64c0 88.4004 71.5996 160 160 160h224c88.4004 0 160 -71.5996 160 -160zM176.3 277.6c3.5 3.5 1.60059 9.5 -3.39941 10.2002l-27.4004 4l-12.2002 24.7998c-2.09961 4.40039 -8.5 4.5 -10.7002 0l-12.1992 -24.7998l-27.4004 -4
c-4.90039 -0.700195 -6.90039 -6.7002 -3.2998 -10.2002l19.7998 -19.2998l-4.7002 -27.2998c-0.799805 -4.90039 4.40039 -8.59961 8.7002 -6.2998l24.5 12.8994l24.5 -12.8994c4.40039 -2.2998 9.5 1.39941 8.7002 6.2998l-4.7002 27.2998zM320.3 277.6
c3.5 3.5 1.60059 9.5 -3.39941 10.2002l-27.4004 4l-12.2002 24.7998c-2.09961 4.40039 -8.5 4.5 -10.7002 0l-12.1992 -24.7998l-27.4004 -4c-4.90039 -0.700195 -6.90039 -6.7002 -3.2998 -10.2002l19.7998 -19.2998l-4.7002 -27.2998
c-0.799805 -4.90039 4.40039 -8.59961 8.7002 -6.2998l24.5 12.8994l24.5 -12.8994c4.40039 -2.2998 9.5 1.39941 8.7002 6.2998l-4.7002 27.2998zM464.3 277.6c3.5 3.5 1.60059 9.5 -3.39941 10.2002l-27.4004 4l-12.2002 24.7998c-2.09961 4.40039 -8.5 4.5 -10.7002 0
l-12.1992 -24.7998l-27.4004 -4c-4.90039 -0.700195 -6.90039 -6.7002 -3.2998 -10.2002l19.7998 -19.2998l-4.7002 -27.2998c-0.799805 -4.90039 4.40039 -8.59961 8.7002 -6.2998l24.5 12.8994l24.5 -12.8994c4.40039 -2.2998 9.5 1.39941 8.7002 6.2998l-4.7002 27.2998z
M624 128c8.7998 0 16 -7.2002 16 -16v-64c0 -46.9004 -40.5996 -84.5 -88.4004 -79.5996c-41.5996 4.19922 -71.5996 42.5 -71.5996 84.2998v43.2998h-32v-112c0 -8.7998 -7.2002 -16 -16 -16h-96c-8.7998 0 -16 7.2002 -16 16v80h-192v-80c0 -8.7998 -7.2002 -16 -16 -16
h-96c-8.7998 0 -16 7.2002 -16 16v176h544v-112c0 -8.7998 7.2002 -16 16 -16s16 7.2002 16 16v64c0 8.7998 7.2002 16 16 16h32z" />
    <glyph glyph-name="smog" unicode="&#xf75f;" horiz-adv-x="640" 
d="M624 80c8.7998 0 16 -7.2002 16 -16v-16c0 -8.7998 -7.2002 -16 -16 -16h-544c-8.7998 0 -16 7.2002 -16 16v16c0 8.7998 7.2002 16 16 16h544zM144 -16c8.7998 0 16 -7.2002 16 -16v-16c0 -8.7998 -7.2002 -16 -16 -16h-128c-8.7998 0 -16 7.2002 -16 16v16
c0 8.7998 7.2002 16 16 16h128zM560 -16c8.7998 0 16 -7.2002 16 -16v-16c0 -8.7998 -7.2002 -16 -16 -16h-336c-8.7998 0 -16 7.2002 -16 16v16c0 8.7998 7.2002 16 16 16h336zM144 160c-79.5 0 -144 64.5 -144 144s64.5 144 144 144c41 0 77.7998 -17.2998 104 -44.7998
c26.2002 27.5 63 44.7998 104 44.7998c54.7998 0 102 -31 126.3 -76.0996c15 7.5 31.7002 12.0996 49.7002 12.0996c61.9004 0 112 -50.0996 112 -112s-50.0996 -112 -112 -112h-60.0996c-22.6006 -19.7002 -51.6006 -32 -83.9004 -32s-61.4004 12.2998 -83.9004 32h-156.1z
" />
    <glyph glyph-name="smoke" unicode="&#xf760;" horiz-adv-x="640" 
d="M528 160c61.9004 0 112 -50.0996 112 -112s-50.0996 -112 -112 -112h-384c-79.5 0 -144 64.5 -144 144s64.5 144 144 144c41 0 77.7998 -17.2998 104 -44.7998c26.2002 27.5 63 44.7998 104 44.7998c54.7998 0 102 -31 126.3 -76.0996
c15 7.5 31.7002 12.0996 49.7002 12.0996zM402.4 289.2c22.2998 37.5 62.7998 62.7998 109.6 62.7998c70.7002 0 128 -57.2998 128 -128c0 -24.5996 -7.2998 -47.2998 -19.2998 -66.7998c-25.1006 21.3994 -57.2002 34.7998 -92.7002 34.7998
c-12.5 0 -24.9004 -1.7002 -37 -5.09961c-33 43.1992 -84.0996 69.0996 -139 69.0996c-38 0 -74 -12 -104 -34.2002c-13.5 10 -28.5 17.7002 -44.0996 23.4004c20.1992 44 64.3994 74.7998 116.1 74.7998c31.5996 0 60.0996 -11.9004 82.4004 -30.7998zM144 256
c-37.2998 0 -71.7998 -11.7002 -100.3 -31.5996c-26.6006 23.5 -43.7002 57.3994 -43.7002 95.5996c0 70.7002 57.2998 128 128 128c46.7998 0 87.2998 -25.2998 109.6 -62.7998c22.3008 18.8994 50.8008 30.7998 82.4004 30.7998
c44.5996 0 83.7998 -22.9004 106.7 -57.4004c-11.4004 -7.39941 -22.2998 -15.5996 -31.6006 -25.7998c-23.0996 12.5 -48.8994 19.2002 -75.0996 19.2002c-66.2998 0 -122.8 -40.7998 -146.9 -98.5c-9.59961 1.59961 -19.1992 2.5 -29.0996 2.5z" />
    <glyph glyph-name="snow-blowing" unicode="&#xf761;" horiz-adv-x="640" 
d="M540.2 128c46.3994 0 89.0996 -31.2998 97.7998 -76.9004c11.9004 -61.2998 -34.9004 -115.1 -94.0996 -115.1c-46.4004 0 -85.2002 33.0996 -94.1006 76.9004c-2 9.7998 5.7002 19.0996 15.7002 19.0996h32.7998c6.60059 0 13.1006 -3.7998 15.2002 -10.0996
c4.2998 -12.7002 16.2998 -21.9004 30.4004 -21.9004c19.5 0 34.8994 17.4004 31.5996 37.4004c-2.59961 15.6992 -17.5 26.5996 -33.4004 26.5996h-233.3c-15.8994 0 -22.0996 20.5 -8.89941 29.2998l44 29.2998c5.2998 3.5 11.5 5.40039 17.7998 5.40039h178.5zM400 160
c-8.7998 0 -16 7.2002 -16 16v32c0 8.7998 7.2002 16 16 16h142.2c16 0 30.7998 10.9004 33.3994 26.5996c3.30078 20 -12.1992 37.4004 -31.5996 37.4004c-14.0996 0 -26.2002 -9.2002 -30.4004 -21.9004c-2.09961 -6.2998 -8.5 -10.0996 -15.1992 -10.0996h-32.8008
c-9.69922 0 -17.6992 8.7002 -15.7998 18.2998c9.7998 50.6006 59.5 87.1006 114.9 75.5c36.2002 -7.59961 65.5 -36.8994 73.0996 -73.0996c13 -61.9004 -34.0996 -116.7 -93.7998 -116.7h-144zM300.5 138.8c1.7998 -6.5 -2.09961 -13.2002 -8.59961 -14.8994
l-11.7002 -3.10059c-6.5 -1.7002 -13.2002 2.10059 -14.9004 8.60059l-14.8994 55.5996l-50.4004 29.0996v-56.8994l40.4004 -40.2002c4.69922 -4.7002 4.69922 -12.2998 0 -17l-8.5 -8.5c-4.7002 -4.7002 -12.3008 -4.7002 -17 0l-14.8008 14.7998v-30.2998
c0 -6.59961 -5.39941 -12 -12 -12h-24c-6.59961 0 -12 5.40039 -12 12v30.2998l-14.7998 -14.7998c-4.7002 -4.7002 -12.2998 -4.7002 -17 0l-8.5 8.5c-4.7002 4.7002 -4.7002 12.2998 0 17l40.2002 40.2002v56.8994l-50.4004 -29.0996l-14.8994 -55.5996
c-1.7998 -6.5 -8.40039 -10.3008 -14.9004 -8.60059l-11.7002 3.10059c-6.5 1.7998 -10.2998 8.39941 -8.59961 14.8994l5.5 20.4004l-26.5996 -15.2998c-5.80078 -3.40039 -13.2002 -1.40039 -16.6006 4.39941l-12.0996 21
c-3.40039 5.7998 -1.40039 13.2002 4.39941 16.6006l26.5 15.3994l-20.3994 5.5c-6.5 1.7998 -10.2998 8.40039 -8.60059 14.9004l3.10059 11.7002c1.7998 6.5 8.39941 10.2998 14.8994 8.59961l55.7002 -15l50.2002 29l-50.2002 29l-55.5996 -14.9004
c-6.5 -1.69922 -13.2002 2.10059 -14.9004 8.60059l-3.09961 11.7002c-1.7002 6.5 2.09961 13.1992 8.59961 14.8994l20.4004 5.5l-26.6006 15.2998c-5.7998 3.40039 -7.7998 10.8008 -4.39941 16.6006l12.0996 21c3.40039 5.7998 10.7998 7.7998 16.6006 4.39941
l26.5 -15.2998l-5.5 20.4004c-1.7002 6.5 2.09961 13.2002 8.59961 14.8994l11.7002 3.2002c6.5 1.7002 13.2002 -2.09961 14.8994 -8.59961l15 -55.7002l50.4004 -29.0996v56.8994l-40.2998 40.2002c-4.7002 4.7002 -4.7002 12.2998 0 17l8.5 8.5
c4.7002 4.7002 12.2998 4.7002 17 0l14.7998 -14.7998v30.2998c0 6.59961 5.40039 12 12 12h24c6.59961 0 12 -5.40039 12 -12v-30.2998l14.7002 14.7998c4.7002 4.7002 12.2998 4.7002 17 0l8.5 -8.5c4.7002 -4.7002 4.7002 -12.2998 0 -17l-40.2002 -40.2002v-56.8994
l50.4004 29.0996l14.8994 55.5996c1.7998 6.5 8.40039 10.3008 14.9004 8.60059l11.7002 -3.10059c6.5 -1.7998 10.2998 -8.39941 8.59961 -14.8994l-5.5 -20.4004l26.5996 15.2998c5.80078 3.40039 13.2002 1.40039 16.6006 -4.39941l12.0996 -21
c3.40039 -5.7998 1.40039 -13.2002 -4.39941 -16.6006l-26.6006 -15.2998l20.4004 -5.5c6.5 -1.7998 10.2998 -8.39941 8.59961 -14.8994l-3.09961 -11.7002c-1.7998 -6.5 -8.40039 -10.2998 -14.9004 -8.60059l-55.5996 14.9004l-50.2002 -29l50.2002 -29l55.5996 14.9004
c6.5 1.69922 13.2002 -2.10059 14.9004 -8.60059l3.09961 -11.7002c1.7002 -6.5 -2.09961 -13.1992 -8.59961 -14.8994l-20.4004 -5.5l26.6006 -15.2998c5.7998 -3.40039 7.7998 -10.8008 4.39941 -16.6006l-12.0996 -21
c-3.40039 -5.7998 -10.7998 -7.7998 -16.6006 -4.39941l-26.5996 15.2998z" />
    <glyph glyph-name="sun-cloud" unicode="&#xf763;" horiz-adv-x="640" 
d="M576 224c35.2998 0 64 -28.7002 64 -64s-28.7002 -64 -64 -64h-192c-35.2998 0 -64 28.7002 -64 64s28.7002 64 64 64c0.599609 0 1.09961 -0.200195 1.59961 -0.200195c7.30078 36.6006 39.6006 64.2002 78.4004 64.2002c41.9004 0 75.7998 -32.2002 79.2998 -73.2002
c9.60059 5.7002 20.7002 9.2002 32.7002 9.2002zM429.4 64l11.5996 -35.2998c4.59961 -13.5 -8.2998 -26.4004 -21.9004 -21.9004l-100.399 33.5l-47.2998 -94.7002c-6.40039 -12.7998 -24.6006 -12.7998 -31 0l-47.3008 94.7002l-100.399 -33.5
c-13.5 -4.59961 -26.4004 8.2998 -21.9004 21.9004l33.5 100.5l-94.7002 47.2998c-12.7998 6.40039 -12.7998 24.5996 0 31l94.7002 47.4004l-33.5 100.399c-4.59961 13.5 8.2998 26.4004 21.9004 21.9004l100.5 -33.5l47.2998 94.7002
c6.40039 12.7998 24.5996 12.7998 31 0l47.2998 -94.8008l100.4 33.5c13.5 4.60059 26.3994 -8.2998 21.8994 -21.8994l-13.8994 -41.7002c-27 -9.5 -49.4004 -29 -62.6006 -54.5c-5.09961 8.2998 -10.8994 16.2002 -18.0996 23.4004
c-49.9004 49.8994 -131.1 49.8994 -181 0c-49.9004 -49.9004 -49.9004 -131.101 0 -181c43.4004 -43.3008 110.3 -48.9004 159.9 -16.9004c16.1992 -12.5996 36.3994 -20.5 58.5996 -20.5h45.4004zM336.9 243.3c-29.1006 -16.5 -48.9004 -47.5 -48.9004 -83.2998
c0 -18.9004 5.7002 -36.4004 15.0996 -51.2002c-14 -7.89941 -29.8994 -12.7998 -47.0996 -12.7998c-52.9004 0 -96 43.0996 -96 96s43.0996 96 96 96c34 0 63.7998 -17.9004 80.9004 -44.7002z" />
    <glyph glyph-name="sun-dust" unicode="&#xf764;" 
d="M256 288c26.5 0 50.5 -10.7998 67.7998 -28.0996l-135.7 -135.7c-17.2998 17.2998 -28.0996 41.2998 -28.0996 67.7998c0 52.9004 43.0996 96 96 96zM419.3 377.2c6.7998 2.2998 13.4004 0.200195 17.7002 -4.2002l-90.5 -90.5c-49.9004 49.9004 -131.1 49.9004 -181 0
s-49.9004 -131.1 0 -181l-90.5 -90.5c-4.40039 4.2998 -6.5 10.9004 -4.2002 17.7002l33.5 100.5l-94.7002 47.2998c-12.7998 6.40039 -12.7998 24.5996 0 31l94.7002 47.4004l-33.5 100.399c-4.59961 13.5 8.2998 26.4004 21.9004 21.9004l100.5 -33.5l47.2998 94.7002
c6.40039 12.7998 24.5996 12.7998 31 0l47.4004 -94.7002zM160 0c17.7002 0 32 -14.2998 32 -32s-14.2998 -32 -32 -32s-32 14.2998 -32 32s14.2998 32 32 32zM480 256c-17.7002 0 -32 14.2998 -32 32s14.2998 32 32 32s32 -14.2998 32 -32s-14.2998 -32 -32 -32zM384 160
c0 -17.7002 -14.2998 -32 -32 -32s-32 14.2998 -32 32s14.2998 32 32 32s32 -14.2998 32 -32zM240 96c17.7002 0 32 -14.2998 32 -32s-14.2998 -32 -32 -32s-32 14.2998 -32 32s14.2998 32 32 32zM400 96c17.7002 0 32 -14.2998 32 -32s-14.2998 -32 -32 -32
s-32 14.2998 -32 32s14.2998 32 32 32zM480 0c17.7002 0 32 -14.2998 32 -32s-14.2998 -32 -32 -32s-32 14.2998 -32 32s14.2998 32 32 32zM480 192c17.7002 0 32 -14.2998 32 -32s-14.2998 -32 -32 -32s-32 14.2998 -32 32s14.2998 32 32 32zM320 0
c17.7002 0 32 -14.2998 32 -32s-14.2998 -32 -32 -32s-32 14.2998 -32 32s14.2998 32 32 32z" />
    <glyph glyph-name="sun-haze" unicode="&#xf765;" horiz-adv-x="640" 
d="M193.6 208h-119l93.7002 46.9004l-33.5 100.399c-4.59961 13.5 8.2998 26.4004 21.9004 21.9004l100.5 -33.5l47.2998 94.7002c6.40039 12.7998 24.5996 12.7998 31 0l47.4004 -94.7002l100.399 33.5c13.5 4.59961 26.4004 -8.2998 21.9004 -21.9004l-33.5 -100.399
l93.7002 -46.9004h-119c-3.40039 27.2002 -15 53.5996 -35.9004 74.5c-49.9004 49.9004 -131.1 49.9004 -181 0c-20.9004 -20.9004 -32.5 -47.2998 -35.9004 -74.5zM320 288c47.5 0 86.7002 -34.7002 94.4004 -80h-188.801c7.7002 45.2998 46.9004 80 94.4004 80zM80 112
c-8.7998 0 -16 7.2002 -16 16v16c0 8.7998 7.2002 16 16 16h336c8.7998 0 16 -7.2002 16 -16v-16c0 -8.7998 -7.2002 -16 -16 -16h-336zM624 160c8.7998 0 16 -7.2002 16 -16v-16c0 -8.7998 -7.2002 -16 -16 -16h-128c-8.7998 0 -16 7.2002 -16 16v16
c0 8.7998 7.2002 16 16 16h128zM208 -16c8.7998 0 16 -7.2002 16 -16v-16c0 -8.7998 -7.2002 -16 -16 -16h-128c-8.7998 0 -16 7.2002 -16 16v16c0 8.7998 7.2002 16 16 16h128zM624 -16c8.7998 0 16 -7.2002 16 -16v-16c0 -8.7998 -7.2002 -16 -16 -16h-336
c-8.7998 0 -16 7.2002 -16 16v16c0 8.7998 7.2002 16 16 16h336zM576 40c0 -8.7998 -7.2002 -16 -16 -16h-544c-8.7998 0 -16 7.2002 -16 16v16c0 8.7998 7.2002 16 16 16h544c8.7998 0 16 -7.2002 16 -16v-16z" />
    <glyph glyph-name="sunrise" unicode="&#xf766;" horiz-adv-x="576" 
d="M250.9 73.5c45.5 18.7998 96.7998 0.0996094 120.6 -41.5h-167.2c10.2998 18 26 33 46.6006 41.5zM80.7002 32l-28.4004 32.7002c-9.39941 10.8994 -2.39941 27.8994 12 28.8994l106.5 7.60059l7.60059 106.5c1 14.3994 18 21.3994 28.8994 12l80.7002 -70l80.7002 70
c10.8994 9.39941 27.8994 2.39941 28.8994 -12l7.60059 -106.5l106.5 -7.60059c14.3994 -1 21.3994 -18 12 -28.8994l-28.4004 -32.7002h-87.5996c-12.5 31.0996 -36.9004 57.5 -70.2998 71.2998c-65.8008 27.2998 -141.4 -4.09961 -168.7 -69.8994
c-0.200195 -0.400391 -0.200195 -0.900391 -0.400391 -1.40039h-87.5996zM560 -16c8.7998 0 16 -7.2002 16 -16v-16c0 -8.7998 -7.2002 -16 -16 -16h-544c-8.7998 0 -16 7.2002 -16 16v16c0 8.7998 7.2002 16 16 16h544zM190.8 320
c-14.2002 0 -21.3994 17.2998 -11.2002 27.2998l96.4004 95.7002c6.59961 6.59961 17.4004 6.59961 24 0l96.4004 -95.5996c10.1992 -10.1006 3.09961 -27.4004 -11.2002 -27.4004h-65.2002v-80c0 -8.7998 -7.2002 -16 -16 -16h-32c-8.7998 0 -16 7.2002 -16 16v80h-65.2002
z" />
    <glyph glyph-name="sunset" unicode="&#xf767;" horiz-adv-x="576" 
d="M250.9 73.5c45.5 18.7998 96.7998 0.0996094 120.6 -41.5h-167.2c10.2998 18 26 33 46.6006 41.5zM80.7002 32l-28.4004 32.7002c-9.39941 10.8994 -2.39941 27.8994 12 28.8994l106.5 7.60059l7.60059 106.5c1 14.3994 18 21.3994 28.8994 12l80.7002 -70l80.7002 70
c10.8994 9.39941 27.8994 2.39941 28.8994 -12l7.60059 -106.5l106.5 -7.60059c14.3994 -1 21.3994 -18 12 -28.8994l-28.4004 -32.7002h-87.5996c-12.5 31.0996 -36.9004 57.5 -70.2998 71.2998c-65.8008 27.2998 -141.4 -4.09961 -168.7 -69.8994
c-0.200195 -0.400391 -0.200195 -0.900391 -0.400391 -1.40039h-87.5996zM560 -16c8.7998 0 16 -7.2002 16 -16v-16c0 -8.7998 -7.2002 -16 -16 -16h-544c-8.7998 0 -16 7.2002 -16 16v16c0 8.7998 7.2002 16 16 16h544zM276 229l-96.4004 95.5996
c-10.1992 10.1006 -3.09961 27.4004 11.2002 27.4004h65.2002v80c0 8.7998 7.2002 16 16 16h32c8.7998 0 16 -7.2002 16 -16v-79.9004h65.0996c14.3008 0 21.4004 -17.2998 11.3008 -27.3994l-96.4004 -95.7002c-6.59961 -6.59961 -17.4004 -6.59961 -24 0z" />
    <glyph glyph-name="temperature-frigid" unicode="&#xf768;" horiz-adv-x="576" 
d="M544 169.5c19.7002 -24.5996 32 -55.5 32 -89.5c0 -79.5 -64.5 -144 -144 -144s-144 64.5 -144 144c0 34 12.2998 64.9004 32 89.5v166.5c0 61.9004 50.0996 112 112 112s112 -50.0996 112 -112v-166.5zM432 0c44.0996 0 80 35.9004 80 80
c0 25.5 -12.2002 49 -32 63.7998v192.2c0 26.5 -21.5 48 -48 48s-48 -21.5 -48 -48v-192.2c-19.7998 -14.8994 -32 -38.2998 -32 -63.7998c0 -44.0996 35.9004 -80 80 -80zM268.3 142.6l-68.2998 39.5v-56.8994l40.4004 -40.2002c4.69922 -4.7002 4.69922 -12.2998 0 -17
l-8.5 -8.5c-4.7002 -4.7002 -12.3008 -4.7002 -17 0l-14.8008 14.7998v-30.2998c0 -6.59961 -5.39941 -12 -12 -12h-24c-6.59961 0 -12 5.40039 -12 12v30.2998l-14.7998 -14.7998c-4.7002 -4.7002 -12.2998 -4.7002 -17 0l-8.5 8.5c-4.7002 4.7002 -4.7002 12.2998 0 17
l40.2002 40.2002v56.8994l-50.4004 -29.0996l-14.8994 -55.5996c-1.7998 -6.5 -8.40039 -10.3008 -14.9004 -8.60059l-11.7002 3.10059c-6.5 1.7998 -10.2998 8.39941 -8.59961 14.8994l5.5 20.4004l-26.5996 -15.2998
c-5.80078 -3.40039 -13.2002 -1.40039 -16.6006 4.39941l-12.0996 21c-3.40039 5.7998 -1.40039 13.2002 4.39941 16.6006l26.5 15.3994l-20.3994 5.5c-6.5 1.7998 -10.2998 8.40039 -8.60059 14.9004l3.10059 11.7002c1.7998 6.5 8.39941 10.2998 14.8994 8.59961
l55.7002 -15l50.2002 29l-50.2002 29l-55.7002 -14.9004c-6.5 -1.69922 -13.1992 2.10059 -14.8994 8.60059l-3.10059 11.7002c-1.69922 6.5 2.10059 13.1992 8.60059 14.8994l20.3994 5.5l-26.5996 15.2998c-5.7998 3.40039 -7.7998 10.8008 -4.40039 16.6006l12.1006 21
c3.39941 5.7998 10.7998 7.7998 16.5996 4.39941l26.6006 -15.2998l-5.5 20.4004c-1.7002 6.5 2.09961 13.2002 8.59961 14.8994l11.7002 3.2002c6.5 1.7002 13.2002 -2.09961 14.8994 -8.59961l15 -55.7002l50.3008 -29.0996v56.8994l-40.2002 40.2002
c-4.7002 4.7002 -4.7002 12.2998 0 17l8.5 8.5c4.7002 4.7002 12.2998 4.7002 17 0l14.7998 -14.7998v30.2998c0 6.59961 5.40039 12 12 12h24c6.59961 0 12 -5.40039 12 -12v-30.2998l14.7002 14.7998c4.7002 4.7002 12.2998 4.7002 17 0l8.5 -8.5
c4.7002 -4.7002 4.7002 -12.2998 0 -17l-40.2002 -40.2002v-56.8994l88 50.7998v-56.1006l-63.4004 -36.5996l63.4004 -36.7002v-7.2002c-8.2998 -11.7998 -14.5996 -24.5 -19.7002 -37.5zM448 125.1c18.5996 -6.59961 32 -24.1992 32 -45.0996c0 -26.5 -21.5 -48 -48 -48
s-48 21.5 -48 48c0 20.9004 13.4004 38.5 32 45.0996v18.9004c0 8.7998 7.2002 16 16 16s16 -7.2002 16 -16v-18.9004z" />
    <glyph glyph-name="temperature-high" unicode="&#xf769;" 
d="M416 448c52.9004 0 96 -43.0996 96 -96s-43.0996 -96 -96 -96s-96 43.0996 -96 96s43.0996 96 96 96zM416 320c17.7002 0 32 14.2998 32 32s-14.2998 32 -32 32s-32 -14.2998 -32 -32s14.2998 -32 32 -32zM256 336v-166.5c19.7002 -24.5996 32 -55.5 32 -89.5
c0 -79.5 -64.5 -144 -144 -144s-144 64.5 -144 144c0 34 12.2998 64.7998 32 89.5v166.5c0 61.9004 50.0996 112 112 112s112 -50.0996 112 -112zM144 0c44.0996 0 80 35.9004 80 80c0 25.5 -12.2002 49 -32 63.7998v192.2c0 26.5 -21.5 48 -48 48s-48 -21.5 -48 -48v-192.2
c-19.7998 -14.8994 -32 -38.2998 -32 -63.7998c0 -44.0996 35.9004 -80 80 -80zM160 125.1c18.5996 -6.59961 32 -24.1992 32 -45.0996c0 -26.5 -21.5 -48 -48 -48s-48 21.5 -48 48c0 20.9004 13.4004 38.5 32 45.0996v210.9c0 8.7998 7.2002 16 16 16s16 -7.2002 16 -16
v-210.9z" />
    <glyph glyph-name="temperature-hot" unicode="&#xf76a;" horiz-adv-x="640" 
d="M352 180.1c-21 -29.7998 -32 -64.1992 -32.0996 -100c0 -0.899414 0.0996094 -1.69922 0.0996094 -2.5l-41.0996 13.7002l-41.4004 -82.8994c-5.5 -11.2002 -21.5 -11.2002 -27.0996 0l-41.4004 82.7998l-87.9004 -29.2998
c-11.8994 -3.90039 -23.1992 7.2998 -19.1992 19.1992l29.2998 87.9004l-82.7998 41.5c-11.2002 5.59961 -11.2002 21.5 0 27.0996l82.7998 41.4004l-29.2998 87.9004c-3.90039 11.7998 7.39941 23.0996 19.1992 19.1992l87.9004 -29.2998l41.4004 82.7998
c5.59961 11.2002 21.5996 11.2002 27.1992 0l41.4004 -82.7998l81.9004 27.2998c-5.40039 -15.0996 -8.90039 -31.1992 -8.90039 -48.0996v-155.9zM291.9 156.1c37.3994 37.4004 37.3994 98.4004 0 135.801c-37.5 37.3994 -98.4004 37.3994 -135.801 0
c-37.3994 -37.4004 -37.5 -98.4004 0 -135.801c37.5 -37.3994 98.4004 -37.3994 135.801 0zM224 288c35.2998 0 64 -28.7002 64 -64s-28.7002 -64 -64 -64s-64 28.7002 -64 64s28.7002 64 64 64zM608 169.5c19.7002 -24.5996 32 -55.5 32 -89.5
c0 -79.5 -64.5 -144 -144 -144s-144 64.5 -144 144c0 34 12.2998 64.9004 32 89.5v166.5c0 61.9004 50.0996 112 112 112s112 -50.0996 112 -112v-166.5zM496 0c44.0996 0 80 35.9004 80 80c0 25.5 -12.2002 49 -32 63.7998v192.2c0 26.5 -21.5 48 -48 48s-48 -21.5 -48 -48
v-192.2c-19.7998 -14.8994 -32 -38.2998 -32 -63.7998c0 -44.0996 35.9004 -80 80 -80zM512 125.1c18.5996 -6.59961 32 -24.1992 32 -45.0996c0 -26.5 -21.5 -48 -48 -48s-48 21.5 -48 48c0 20.9004 13.4004 38.5 32 45.0996v210.9c0 8.7998 7.2002 16 16 16
s16 -7.2002 16 -16v-210.9z" />
    <glyph glyph-name="temperature-low" unicode="&#xf76b;" 
d="M416 448c52.9004 0 96 -43.0996 96 -96s-43.0996 -96 -96 -96s-96 43.0996 -96 96s43.0996 96 96 96zM416 320c17.7002 0 32 14.2998 32 32s-14.2998 32 -32 32s-32 -14.2998 -32 -32s14.2998 -32 32 -32zM256 336v-166.5c19.7002 -24.5996 32 -55.5 32 -89.5
c0 -79.5 -64.5 -144 -144 -144s-144 64.5 -144 144c0 34 12.2998 64.7998 32 89.5v166.5c0 61.9004 50.0996 112 112 112s112 -50.0996 112 -112zM144 0c44.0996 0 80 35.9004 80 80c0 25.5 -12.2002 49 -32 63.7998v192.2c0 26.5 -21.5 48 -48 48s-48 -21.5 -48 -48v-192.2
c-19.7998 -14.8994 -32 -38.2998 -32 -63.7998c0 -44.0996 35.9004 -80 80 -80zM160 125.1c18.5996 -6.59961 32 -24.1992 32 -45.0996c0 -26.5 -21.5 -48 -48 -48s-48 21.5 -48 48c0 20.9004 13.4004 38.5 32 45.0996v18.9004c0 8.7998 7.2002 16 16 16s16 -7.2002 16 -16
v-18.9004z" />
    <glyph glyph-name="thunderstorm" unicode="&#xf76c;" 
d="M337 160c11.5 0 18.7002 -12.5 13 -22.5l-98 -194c-2.7998 -4.7998 -7.7998 -7.5 -13 -7.5c-9.59961 0 -16.7998 9 -14.5996 18.5l31.5996 141.5h-81c-9.09961 0 -16.0996 8 -14.9004 17l16 130c1 7.40039 7.40039 13 14.9004 13h82c9.90039 0 17 -9.40039 14.5 -18.9004
l-22.5996 -77.0996h72.0996zM416 320c53 0 96 -43 96 -96s-43 -96 -96 -96h-30c3.5 12.0996 2.09961 25.2998 -4.2998 36.5c-8.40039 14.5 -24 23.5 -40.7002 23.5h-30.5l10.9004 40.9004c3.7998 14.1992 0.899414 29 -8.10059 40.6992
c-9 11.7002 -22.5996 18.4004 -37.2998 18.4004h-85c-23.5 0 -43.5 -17.5 -46.5996 -40.7998l-15.9004 -119.2h-32.5c-53 0 -96 43 -96 96c0 42.5 27.7998 78.2002 66.0996 90.7998c-1.2998 6.90039 -2.09961 13.9004 -2.09961 21.2002c0 61.9004 50.0996 112 112 112
c43.2998 0 80.4004 -24.7998 99 -60.7998c14.7002 17.5 36.4004 28.7998 61 28.7998c44.2002 0 80 -35.7998 80 -80c0 -5.59961 -0.5 -11 -1.59961 -16.2002c0.5 0 1 0.200195 1.59961 0.200195z" />
    <glyph glyph-name="thunderstorm-moon" unicode="&#xf76d;" horiz-adv-x="576" 
d="M567.9 224.2c6.19922 1.2002 10.5996 -6 6.39941 -10.7998c-27 -33.1006 -67.8994 -53.3008 -112.6 -53.3008c-5.2002 0 -10.1006 1 -15.2002 1.5c-6.2002 39.4004 -33.0996 72.5 -70.2002 86.8008c-10.7002 27.8994 -32.2002 49.7998 -58.8994 61.6992
c3.2998 76.7002 66.5 137.9 144.399 137.9c8.90039 0 17.7998 -0.799805 26.5 -2.40039c6.2002 -1.09961 7.60059 -9.39941 2.10059 -12.5c-35.6006 -20.0996 -57.5 -57.5 -57.5 -98.0996c0 -70.5 64.5996 -124.1 135 -110.8zM276 112c9.2002 0 15 -10 10.4004 -18l-88 -152
c-2.2002 -3.7998 -6.2002 -6 -10.4004 -6c-7.7002 0 -13.5 7.2002 -11.7002 14.7998l23 97.2002h-59.2998c-7.2998 0 -12.9004 6.40039 -11.9004 13.5996l16 120c0.800781 5.90039 5.90039 10.4004 11.9004 10.4004h68c7.90039 0 13.5996 -7.5 11.5996 -15.0996
l-17.2998 -64.9004h57.7002zM350.5 222.5c37.2998 -6.7998 65.5 -39.2998 65.4004 -78.5c0 -44.2002 -35.8008 -80 -80 -80h-30l8.09961 14c7.7998 13.5 7.7998 30.4004 0 44s-22.4004 22 -38.0996 22h-16l6.59961 24.7002
c3.59961 13.2998 0.799805 27.2002 -7.59961 38.0996c-8.40039 10.9004 -21.1006 17.2002 -34.9004 17.2002h-68c-22 0 -40.7002 -16.4004 -43.7002 -38.2002l-16 -120c0 -0.599609 0.100586 -1.2002 0 -1.7998h-16.2998c-44.2002 0 -80 35.7998 -80 80
c0 38.7998 27.5996 71.0996 64.2002 78.4004c0 0.5 -0.200195 1.09961 -0.200195 1.59961c0 53 43 96 96 96c32.0996 0 60.2998 -15.9004 77.7002 -40c10.3994 5 22 8 34.2998 8c39.2002 0 71.5996 -28.2998 78.5 -65.5z" />
    <glyph glyph-name="thunderstorm-sun" unicode="&#xf76e;" horiz-adv-x="576" 
d="M124.1 188.1c3.10059 -3.09961 6.60059 -5.59961 10.2002 -8.2998c-3.89941 -11.3994 -6.2002 -23.3994 -6.2002 -35.8994c0 -2.5 0.5 -4.80078 0.700195 -7.2002l-59.2002 -19.7002c-10.1992 -3.2998 -19.8994 6.2998 -16.5 16.5l25.1006 75.2998l-71 35.5
c-9.60059 4.7998 -9.60059 18.5 0 23.2998l71 35.5l-25.1006 75.3008c-3.39941 10.1992 6.2002 19.8994 16.4004 16.5l75.2998 -25.1006l35.5 71c4.7998 9.60059 18.5 9.60059 23.2998 0l35.5 -71l75.3008 25.1006c10.1992 3.39941 19.8994 -6.2002 16.5 -16.4004
l-8.90039 -26.7002c-0.700195 0 -1.2998 0.200195 -2 0.200195c-25.5996 0 -49.2002 -7.7998 -69.2002 -20.7002c-37.5996 29.4004 -92.0996 27.2002 -126.7 -7.39941c-37.3994 -37.5 -37.3994 -98.4004 0 -135.801zM193.9 246.1
c-18.2002 -8.2998 -33.5 -21.2998 -44.8008 -37.1992c-12.8994 11.6992 -21.0996 28.3994 -21.0996 47.0996c0 35.2998 28.7002 64 64 64c12.4004 0 24 -3.7002 33.7998 -9.90039c-16.0996 -17.5996 -27.5996 -39.5 -31.8994 -64zM436 112c9.2002 0 15 -10 10.4004 -18
l-88 -152c-2.2002 -3.7998 -6.2002 -6 -10.4004 -6c-7.7002 0 -13.5 7.2002 -11.7002 14.7998l23 97.2002h-59.2998c-7.2998 0 -12.9004 6.40039 -11.9004 13.5996l16 120c0.800781 5.90039 5.90039 10.4004 11.9004 10.4004h68c7.90039 0 13.5996 -7.5 11.5996 -15.0996
l-17.2998 -64.9004h57.7002zM510.5 222.5c37.2998 -6.7998 65.5 -39.2998 65.4004 -78.5c0 -44.2002 -35.8008 -80 -80 -80h-30l8.09961 14c7.7998 13.5 7.7998 30.4004 0 44s-22.4004 22 -38.0996 22h-16l6.59961 24.7002
c3.59961 13.2998 0.799805 27.2002 -7.59961 38.0996c-8.40039 10.9004 -21.1006 17.2002 -34.9004 17.2002h-68c-22 0 -40.7002 -16.4004 -43.7002 -38.2002l-16 -120c0 -0.599609 0.100586 -1.2002 0 -1.7998h-16.2998c-44.2002 0 -80 35.7998 -80 80
c0 38.7998 27.5996 71 64.2002 78.4004c0 0.5 -0.200195 1.09961 -0.200195 1.59961c0 53 43 96 96 96c32.0996 0 60.2998 -15.9004 77.7002 -40c10.3994 5 22 8 34.2998 8c39.2002 0 71.5996 -28.2998 78.5 -65.5z" />
    <glyph glyph-name="vote-nay" unicode="&#xf771;" horiz-adv-x="640" 
d="M608 128c17.7002 0 32 -14.2998 32 -32v-96c0 -17.7002 -14.2998 -32 -32 -32h-576c-17.7002 0 -32 14.2998 -32 32v96c0 17.7002 14.2998 32 32 32h64v-64h-22.4004c-5.2998 0 -9.59961 -3.59961 -9.59961 -8v-16c0 -4.40039 4.2998 -8 9.59961 -8h492.801
c5.2998 0 9.59961 3.59961 9.59961 8v16c0 4.40039 -4.2998 8 -9.59961 8h-22.4004v64h64zM512 64h-384v319.7c0 17.7998 14.5 32.2998 32.4004 32.2998h319.3c17.7998 0 32.2998 -14.4004 32.2998 -32.2998v-319.7zM235.1 290.9l51 -50.9004l-50.8994 -50.9004
c-6.2002 -6.19922 -6.2002 -16.3994 0 -22.5996l11.2998 -11.2998c6.2002 -6.2002 16.4004 -6.2002 22.5996 0l50.9004 50.8994l50.9004 -50.8994c6.19922 -6.2002 16.3994 -6.2002 22.5996 0l11.2998 11.2998c6.2002 6.2002 6.2002 16.4004 0 22.5996l-50.8994 50.9004
l50.7998 50.9004c6.2002 6.19922 6.2002 16.3994 0 22.5996l-11.2998 11.2998c-6.2002 6.2002 -16.4004 6.2002 -22.6006 0l-50.8994 -50.8994l-50.9004 50.8994c-6.2002 6.2002 -16.4004 6.2002 -22.5996 0l-11.3008 -11.2998
c-6.19922 -6.2002 -6.19922 -16.4004 0 -22.5996z" />
    <glyph glyph-name="vote-yea" unicode="&#xf772;" horiz-adv-x="640" 
d="M608 128c17.7002 0 32 -14.2998 32 -32v-96c0 -17.7002 -14.2998 -32 -32 -32h-576c-17.7002 0 -32 14.2998 -32 32v96c0 17.7002 14.2998 32 32 32h64v-64h-22.4004c-5.2998 0 -9.59961 -3.59961 -9.59961 -8v-16c0 -4.40039 4.2998 -8 9.59961 -8h492.801
c5.2998 0 9.59961 3.59961 9.59961 8v16c0 4.40039 -4.2998 8 -9.59961 8h-22.4004v64h64zM512 64h-384v319.7c0 17.7998 14.5 32.2998 32.4004 32.2998h319.3c17.7998 0 32.2998 -14.4004 32.2998 -32.2998v-319.7zM211.2 246c-4.2002 -4.2002 -4.2998 -11 0 -15.2002
l74.0996 -74.7002c4.2002 -4.2998 11 -4.2998 15.2002 -0.0996094l128.3 127.2c4.2998 4.2002 4.2998 11 0.100586 15.2002l-25.3008 25.5c-4.19922 4.2998 -11 4.2998 -15.1992 0.0996094l-95.2002 -94.4004l-41.2998 41.6006
c-4.2002 4.2998 -11 4.2998 -15.2002 0.0996094z" />
    <glyph glyph-name="water" unicode="&#xf773;" horiz-adv-x="576" 
d="M562.1 64.0996c8.10059 -0.899414 13.9004 -8.2998 13.8008 -16.2998v-31.5996c0 -9.10059 -7.60059 -16.7998 -16.7002 -16c-28.2002 2.5 -55.7998 11.5996 -79.1006 25.7998c-55 -34.0996 -135.5 -34.5996 -192 0c-55 -34.0996 -135.5 -34.5996 -192 0
c-23.2998 -14.5 -50.5996 -23.4004 -79.3994 -25.9004c-9.10059 -0.799805 -16.7002 6.90039 -16.7002 16v32.2002c0 7.90039 5.7002 14.9004 13.5996 15.7002c21.7002 2.2998 42.2002 10.2002 57.7002 22.4004c13.7998 10.8994 33.6006 13.1992 47.1006 2
c38.2998 -31.7002 107.199 -31.8008 145.199 -1.7002c13.7002 10.8994 33.2002 13 46.7002 1.7998c38.5 -31.9004 107.8 -31.9004 145.7 -1.5c14 11.2998 34.0996 11.0996 48.2002 0c15.7998 -12.4004 36.3994 -20.5 57.8994 -22.9004zM562.1 208.1
c8.10059 -0.899414 13.9004 -8.2998 13.8008 -16.2998v-31.5996c0 -9.10059 -7.60059 -16.7998 -16.7002 -16c-28.2002 2.5 -55.7998 11.5996 -79.1006 25.7998c-55 -34.0996 -135.5 -34.5996 -192 0c-55 -34.0996 -135.5 -34.5996 -192 0
c-23.2998 -14.5 -50.5996 -23.4004 -79.3994 -25.9004c-9.10059 -0.799805 -16.7002 6.90039 -16.7002 16v32.2002c0 7.90039 5.7002 14.9004 13.5996 15.7002c21.7002 2.2998 42.2002 10.2002 57.7002 22.4004c13.7998 10.8994 33.6006 13.1992 47.1006 2
c38.2998 -31.7002 107.199 -31.8008 145.199 -1.7002c13.7002 10.8994 33.2002 13 46.7002 1.7998c38.5 -31.9004 107.8 -31.9004 145.7 -1.5c14 11.2998 34.0996 11.0996 48.2002 0c15.7998 -12.4004 36.3994 -20.5 57.8994 -22.9004zM562.1 352.1
c8.10059 -0.899414 13.9004 -8.2998 13.8008 -16.2998v-31.5996c0 -9.10059 -7.60059 -16.7998 -16.7002 -16c-28.2002 2.5 -55.7998 11.5996 -79.1006 25.7998c-55 -34.0996 -135.5 -34.5996 -192 0c-55 -34.0996 -135.5 -34.5996 -192 0
c-23.2998 -14.5 -50.5996 -23.4004 -79.3994 -25.9004c-9.10059 -0.799805 -16.7002 6.90039 -16.7002 16v32.2002c0 7.90039 5.7002 14.9004 13.5996 15.7002c21.7002 2.2998 42.2002 10.2002 57.7002 22.4004c13.7998 10.8994 33.6006 13.1992 47.1006 2
c38.2998 -31.7002 107.199 -31.8008 145.199 -1.7002c13.7002 10.8994 33.2002 13 46.7002 1.7998c38.5 -31.9004 107.8 -31.9004 145.7 -1.5c14 11.2998 34.0996 11.0996 48.2002 0c15.7998 -12.4004 36.3994 -20.4004 57.8994 -22.9004z" />
    <glyph glyph-name="water-lower" unicode="&#xf774;" horiz-adv-x="576" 
d="M562.1 0.0996094c8.10059 -0.899414 13.9004 -8.2998 13.8008 -16.2998v-31.5996c0 -9.10059 -7.60059 -16.7998 -16.7002 -16c-28.2002 2.5 -55.7998 11.5996 -79.1006 25.7998c-55 -34.0996 -135.5 -34.5996 -192 0c-55 -34.0996 -135.5 -34.5996 -192 0
c-23.2998 -14.5 -50.5996 -23.4004 -79.3994 -25.9004c-9.10059 -0.799805 -16.7002 6.90039 -16.7002 16v32.2002c0 7.90039 5.7002 14.9004 13.5996 15.7002c21.7002 2.2998 42.2002 10.2002 57.7002 22.4004c13.7998 10.8994 33.6006 13.1992 47.1006 2
c38.2998 -31.7002 107.199 -31.8008 145.199 -1.7002c13.7002 10.8994 33.2002 13 46.7002 1.7998c38.5 -31.9004 107.8 -31.9004 145.7 -1.5c14 11.2998 34.0996 11.0996 48.2002 0c15.7998 -12.4004 36.3994 -20.5 57.8994 -22.9004zM562.1 144.1
c8.10059 -0.899414 13.9004 -8.2998 13.8008 -16.2998v-31.5996c0 -9.10059 -7.60059 -16.7998 -16.7002 -16c-28.2002 2.5 -55.7998 11.5996 -79.1006 25.7998c-55 -34.0996 -135.5 -34.5996 -192 0c-55 -34.0996 -135.5 -34.5996 -192 0
c-23.2998 -14.5 -50.5996 -23.4004 -79.3994 -25.9004c-9.10059 -0.799805 -16.7002 6.90039 -16.7002 16v32.2002c0 7.90039 5.7002 14.9004 13.5996 15.7002c21.7002 2.2998 42.2002 10.2002 57.7002 22.4004c13.7998 10.8994 33.6006 13.1992 47.1006 2
c38.2998 -31.7002 107.199 -31.8008 145.199 -1.7002c13.7002 10.8994 33.2002 13 46.7002 1.7998c38.5 -31.9004 107.8 -31.9004 145.7 -1.5c14 11.2998 34.0996 11.0996 48.2002 0c15.7998 -12.4004 36.3994 -20.5 57.8994 -22.9004zM276 229l-96.4004 95.5996
c-10.1992 10.1006 -3.09961 27.4004 11.2002 27.4004h65.2002v80c0 8.7998 7.2002 16 16 16h32c8.7998 0 16 -7.2002 16 -16v-79.9004h65.0996c14.3008 0 21.4004 -17.2998 11.3008 -27.3994l-96.4004 -95.7002c-6.59961 -6.59961 -17.4004 -6.59961 -24 0z" />
    <glyph glyph-name="water-rise" unicode="&#xf775;" horiz-adv-x="576" 
d="M562.1 0.0996094c8.10059 -0.899414 13.9004 -8.2998 13.8008 -16.2998v-31.5996c0 -9.10059 -7.60059 -16.7998 -16.7002 -16c-28.2002 2.5 -55.7998 11.5996 -79.1006 25.7998c-55 -34.0996 -135.5 -34.5996 -192 0c-55 -34.0996 -135.5 -34.5996 -192 0
c-23.2998 -14.5 -50.5996 -23.4004 -79.3994 -25.9004c-9.10059 -0.799805 -16.7002 6.90039 -16.7002 16v32.2002c0 7.90039 5.7002 14.9004 13.5996 15.7002c21.7002 2.2998 42.2002 10.2002 57.7002 22.4004c13.7998 10.8994 33.6006 13.1992 47.1006 2
c38.2998 -31.7002 107.199 -31.8008 145.199 -1.7002c13.7002 10.8994 33.2002 13 46.7002 1.7998c38.5 -31.9004 107.8 -31.9004 145.7 -1.5c14 11.2998 34.0996 11.0996 48.2002 0c15.7998 -12.4004 36.3994 -20.5 57.8994 -22.9004zM562.1 144.1
c8.10059 -0.899414 13.9004 -8.2998 13.8008 -16.2998v-31.5996c0 -9.10059 -7.60059 -16.7998 -16.7002 -16c-28.2002 2.5 -55.7998 11.5996 -79.1006 25.7998c-55 -34.0996 -135.5 -34.5996 -192 0c-55 -34.0996 -135.5 -34.5996 -192 0
c-23.2998 -14.5 -50.5996 -23.4004 -79.3994 -25.9004c-9.10059 -0.799805 -16.7002 6.90039 -16.7002 16v32.2002c0 7.90039 5.7002 14.9004 13.5996 15.7002c21.7002 2.2998 42.2002 10.2002 57.7002 22.4004c13.7998 10.8994 33.6006 13.1992 47.1006 2
c38.2998 -31.7002 107.199 -31.8008 145.199 -1.7002c13.7002 10.8994 33.2002 13 46.7002 1.7998c38.5 -31.9004 107.8 -31.9004 145.7 -1.5c14 11.2998 34.0996 11.0996 48.2002 0c15.7998 -12.4004 36.3994 -20.5 57.8994 -22.9004zM190.8 320
c-14.2002 0 -21.3994 17.2998 -11.2002 27.2998l96.4004 95.7002c6.59961 6.59961 17.4004 6.59961 24 0l96.4004 -95.5996c10.1992 -10.1006 3.09961 -27.4004 -11.2002 -27.4004h-65.2002v-80c0 -8.7998 -7.2002 -16 -16 -16h-32c-8.7998 0 -16 7.2002 -16 16v80h-65.2002
z" />
    <glyph glyph-name="wind-warning" unicode="&#xf776;" horiz-adv-x="640" 
d="M635.3 286.5c20.5 -65.7998 -28.5 -126.5 -91.2998 -126.5h-150c9.5 19.9004 16.0996 41.4004 19.4004 64h128.8c16 0 30.7998 10.9004 33.3994 26.5996c3.30078 20 -12.1992 37.4004 -31.5996 37.4004c-14.0996 0 -26.2002 -9.2002 -30.4004 -21.9004
c-2.09961 -6.2998 -8.5 -10.0996 -15.1992 -10.0996h-32.8008c-9.89941 0 -17.6992 9.09961 -15.6992 18.9004c10.6992 53.2998 65.5996 90.7998 124.699 72.3994c28.5 -8.89941 51.8008 -32.2002 60.7002 -60.7998zM638.1 51.0996
c11.9004 -61.2998 -34.8994 -115.1 -94.0996 -115.1c-46.4004 0 -85.2002 33.0996 -94.0996 76.9004c-2 9.7998 5.69922 19.0996 15.6992 19.0996h32.8008c6.59961 0 13.0996 -3.7998 15.1992 -10.0996c4.30078 -12.7002 16.3008 -21.9004 30.4004 -21.9004
c19.5 0 34.9004 17.4004 31.5996 37.4004c-2.59961 15.6992 -17.5 26.5996 -33.3994 26.5996h-233.3c-0.600586 0 -1 0.200195 -1.60059 0.299805c26.9004 16.2998 50.2998 37.9004 68.2998 63.7002h164.601c46.3994 0 89 -31.2998 97.8994 -76.9004zM384 256
c0 -106 -86 -192 -192 -192s-192 86 -192 192s86 192 192 192s192 -86 192 -192zM192 128c17.7002 0 32 14.2998 32 32s-14.2998 32 -32 32s-32 -14.2998 -32 -32s14.2998 -32 32 -32zM217.4 238.4l12.7998 128c1 9.39941 -6.40039 17.5996 -15.9004 17.5996h-44.5996
c-9.5 0 -16.7998 -8.2002 -15.9004 -17.5996l12.7998 -128c0.800781 -8.2002 7.7002 -14.4004 15.9004 -14.4004h19c8.2002 0 15.0996 6.2002 15.9004 14.4004z" />
  </font>
</defs>
</svg>
