<?xml version="1.0" standalone="no"?>
<!DOCTYPE svg PUBLIC "-//W3C//DTD SVG 1.1//EN" "http://www.w3.org/Graphics/SVG/1.1/DTD/svg11.dtd" >
<svg xmlns="http://www.w3.org/2000/svg" xmlns:xlink="http://www.w3.org/1999/xlink" version="1.1">
<metadata>
Created by FontForge 20201107 at Tue Mar 16 10:16:49 2021
 By Robert Madole
Copyright (c) Font Awesome
</metadata>
<!-- Font Awesome Pro 5.15.3 by @fontawesome - https://fontawesome.com License - https://fontawesome.com/license (Commercial License) --><defs>
<font id="FontAwesome5Pro-Solid" horiz-adv-x="512" >
  <font-face 
    font-family="Font Awesome 5 Pro Solid"
    font-weight="900"
    font-stretch="normal"
    units-per-em="512"
    panose-1="2 0 5 3 0 0 0 0 0 0"
    ascent="448"
    descent="-64"
    bbox="-1.00195 -64.9795 640.002 448.085"
    underline-thickness="25"
    underline-position="-50"
    unicode-range="U+0020-F8FF"
  />
    <missing-glyph />
    <glyph glyph-name="th" unicode="&#xf00a;" 
d="M149.333 392v-80c0 -13.2549 -10.7451 -24 -24 -24h-101.333c-13.2549 0 -24 10.7451 -24 24v80c0 13.2549 10.7451 24 24 24h101.333c13.2549 0 24 -10.7451 24 -24zM330.667 152c0 -13.2549 -10.7451 -24 -24.001 -24h-101.333c-13.2549 0 -24 10.7451 -24 24v80
c0 13.2549 10.7451 24 24 24h101.334c13.2549 0 24 -10.7451 24 -24v-80zM362.667 392c0 13.2549 10.7451 24 24 24h101.333c13.2549 0 24 -10.7451 24 -24v-80c0 -13.2549 -10.7451 -24 -24 -24h-101.333c-13.2549 0 -24 10.7451 -24 24v80zM330.667 312
c0 -13.2549 -10.7451 -24 -24.001 -24h-101.333c-13.2549 0 -24 10.7451 -24 24v80c0 13.2549 10.7451 24 24 24h101.334c13.2549 0 24 -10.7451 24 -24v-80zM125.333 256c13.2549 0 24 -10.7451 24 -24v-80c0 -13.2549 -10.7451 -24 -24 -24h-101.333
c-13.2549 0 -24 10.7451 -24 24v80c0 13.2549 10.7451 24 24 24h101.333zM0 72c0 13.2549 10.7451 24 24 24h101.333c13.2549 0 24 -10.7451 24 -24v-80c0 -13.2549 -10.7451 -24 -24 -24h-101.333c-13.2549 0 -24 10.7451 -24 24v80zM386.667 128
c-13.2549 0 -24 10.7451 -24 24v80c0 13.2549 10.7451 24 24 24h101.333c13.2549 0 24 -10.7451 24 -24v-80c0 -13.2549 -10.7451 -24 -24 -24h-101.333zM386.667 -32c-13.2549 0 -24 10.7451 -24 24v80c0 13.2549 10.7451 24 24 24h101.333c13.2549 0 24 -10.7451 24 -24
v-80c0 -13.2549 -10.7451 -24 -24 -24h-101.333zM181.333 72c0 13.2549 10.7451 24 24 24h101.333c13.2549 0 24 -10.7451 24 -24v-80c0 -13.2549 -10.7451 -24 -24 -24h-101.333c-13.2549 0 -24 10.7451 -24 24v80z" />
    <glyph glyph-name="home" unicode="&#xf015;" horiz-adv-x="576" 
d="M280.37 299.74c2.09082 1.68555 4.76562 2.69434 7.6582 2.69434s5.55078 -1.00879 7.6416 -2.69434l184.33 -151.74v-164c0 -8.83105 -7.16895 -16 -16 -16l-112.02 0.30957c-8.83105 0 -16.001 7.16895 -16.001 15.999c0 0.0175781 0 0.0341797 0.000976562 0.0517578
v95.6396c0 8.83105 -7.16992 16 -16 16h-64c-8.83105 0 -16 -7.16895 -16 -16v-95.71c0 -8.80371 -7.12695 -15.9561 -15.9209 -16l-112.06 -0.290039c-8.83105 0 -16 7.16895 -16 16v163.89zM571.6 196.53c2.70703 -2.20117 4.42578 -5.56152 4.42578 -9.31836
c0 -2.88867 -1.02246 -5.54004 -2.72559 -7.6123l-25.5 -31c-2.20117 -2.66309 -5.53418 -4.35059 -9.25684 -4.35059c-2.90332 0 -5.56641 1.0332 -7.64258 2.75098l-235.23 193.74c-2.09082 1.68555 -4.7666 2.69434 -7.6582 2.69434
c-2.89258 0 -5.55078 -1.00879 -7.6416 -2.69434l-235.22 -193.74c-2.0752 -1.71387 -4.73926 -2.75586 -7.63867 -2.75586c-3.73242 0 -7.07031 1.70898 -9.27148 4.38574l-25.5 31c-1.71875 2.07617 -2.7627 4.74414 -2.7627 7.64648
c0 3.72266 1.69824 7.05176 4.3623 9.25391l253.13 208.47c8.29102 6.82227 18.9668 10.9209 30.5312 10.9209s22.1787 -4.09863 30.4688 -10.9209l89.5303 -73.6602v72.6104c0 6.62305 5.37695 12 12 12h56c6.62305 0 12 -5.37695 12 -12v-138.51z" />
    <glyph glyph-name="eye" unicode="&#xf06e;" horiz-adv-x="576" 
d="M572.52 206.6c2.21387 -4.37793 3.46094 -9.38965 3.46094 -14.626c0 -5.2373 -1.24707 -10.1855 -3.46094 -14.5635c-54.1992 -105.771 -161.59 -177.41 -284.52 -177.41s-230.29 71.5898 -284.52 177.4c-2.21387 4.37793 -3.46094 9.38965 -3.46094 14.626
c0 5.2373 1.24707 10.1855 3.46094 14.5635c54.1992 105.771 161.59 177.41 284.52 177.41s230.29 -71.5898 284.52 -177.4zM288 48c0.0234375 0 0.0458984 -0.000976562 0.0703125 -0.000976562c79.4365 0 143.93 64.4922 143.93 143.93v0.0712891
c0 79.4756 -64.5244 144 -144 144s-144 -64.5244 -144 -144s64.5244 -144 144 -144zM288 288c0.0761719 0 0.160156 -0.0273438 0.237305 -0.0273438c52.8623 0 95.7803 -42.917 95.7803 -95.7793s-42.918 -95.7803 -95.7803 -95.7803s-95.7803 42.918 -95.7803 95.7803
c0 8.68945 1.16016 17.1104 3.33301 25.1162c7.93164 -5.83594 17.7432 -9.26758 28.3359 -9.26758c26.4092 0 47.8496 21.4404 47.8496 47.8496c0 10.5938 -3.44922 20.3867 -9.28516 28.3184c8.0459 2.34277 16.541 3.66797 25.3096 3.79004z" />
    <glyph glyph-name="eye-slash" unicode="&#xf070;" horiz-adv-x="640" 
d="M320 48c8.91309 0.0830078 17.542 0.976562 26 2.61035l51.8896 -40.1504c-25.0195 -6.45996 -50.9795 -10.46 -77.8896 -10.46c-122.93 0 -230.29 71.5898 -284.52 177.4c-2.21387 4.37793 -3.46094 9.38965 -3.46094 14.626c0 5.2373 1.24707 10.1855 3.46094 14.5635
c10.2393 20 22.9297 38.29 36.7197 55.5898l104.899 -81.0693c5.65039 -74.4004 67.0508 -133.11 142.9 -133.11zM633.82 -10.0996c3.76855 -2.92871 6.17676 -7.50977 6.17676 -12.6475c0 -3.69238 -1.25293 -7.09375 -3.35742 -9.80273l-19.6396 -25.2705
c-2.92871 -3.76855 -7.50879 -6.17578 -12.6465 -6.17578c-3.69727 0 -7.10254 1.25684 -9.81348 3.36621l-588.36 454.729c-3.76562 2.92871 -6.1709 7.50781 -6.1709 12.6426c0 3.69434 1.25488 7.09863 3.36133 9.80762l19.6299 25.2705
c2.92871 3.76855 7.50879 6.17578 12.6465 6.17578c3.69727 0 7.10254 -1.25684 9.81348 -3.36621l127.22 -98.3301c43.6846 23.8564 94.0967 37.6357 147.32 37.7002c122.93 0 230.29 -71.5898 284.52 -177.4c2.21387 -4.37793 3.46094 -9.38965 3.46094 -14.626
c0 -5.2373 -1.24707 -10.1855 -3.46094 -14.5635c-20.2109 -39.3887 -47.6904 -73.7881 -81.25 -102.07zM450.1 131.9c8.61035 18.3203 13.9004 38.4697 13.9004 60.0996c0 0.0273438 0.00195312 0.0527344 0.00195312 0.0800781c0 79.4316 -64.4883 143.92 -143.92 143.92
h-0.0820312c-34.6328 -0.0253906 -66.4756 -12.4902 -91.1504 -33.1104l73.6104 -56.8896c0.857422 3.20508 1.38867 6.5625 1.54004 10c-0.0185547 10.5391 -3.49023 20.3242 -9.30957 28.21c8.43164 2.46191 17.3359 3.82031 26.5576 3.82031
c52.2998 0 94.7607 -42.46 94.7607 -94.7598c0 -0.423828 -0.00292969 -0.847656 -0.00878906 -1.27051c-0.138672 -10.377 -1.97559 -20.4014 -5.2002 -29.7197z" />
    <glyph glyph-name="tty" unicode="&#xf1e4;" 
d="M5.37012 344.178c138.532 138.532 362.936 138.326 501.262 0c6.07812 -6.07812 7.07422 -15.4961 2.58301 -22.6807l-43.2139 -69.1377c-3.24023 -5.18457 -8.99902 -8.63672 -15.5576 -8.63672c-2.40137 0 -4.69531 0.490234 -6.79883 1.33105l-86.4219 34.5693
c-6.75684 2.70312 -11.5352 9.31348 -11.5352 17.0312c0 0.621094 0.0410156 1.20898 0.101562 1.81445l5.95215 59.5312c-62.1455 22.4541 -130.636 21.9863 -191.483 0l5.95312 -59.5322c0.0605469 -0.606445 0.0917969 -1.22168 0.0917969 -1.84375
c0 -7.7168 -4.76855 -14.2998 -11.5254 -17.002l-86.4238 -34.5684c-2.10254 -0.84082 -4.39648 -1.30371 -6.79785 -1.30371c-6.55859 0 -12.3174 3.4248 -15.5576 8.60938l-43.2109 69.1387c-1.75879 2.81348 -2.77539 6.1377 -2.77539 9.69727
c0 5.05859 2.04004 9.66406 5.3584 12.9824zM96 140c0 -6.62695 -5.37305 -12 -12 -12h-40c-6.62695 0 -12 5.37305 -12 12v40c0 6.62695 5.37305 12 12 12h40c6.62695 0 12 -5.37305 12 -12v-40zM192 140c0 -6.62695 -5.37305 -12 -12 -12h-40
c-6.62695 0 -12 5.37305 -12 12v40c0 6.62695 5.37305 12 12 12h40c6.62695 0 12 -5.37305 12 -12v-40zM288 140c0 -6.62695 -5.37305 -12 -12 -12h-40c-6.62695 0 -12 5.37305 -12 12v40c0 6.62695 5.37305 12 12 12h40c6.62695 0 12 -5.37305 12 -12v-40zM384 140
c0 -6.62695 -5.37305 -12 -12 -12h-40c-6.62695 0 -12 5.37305 -12 12v40c0 6.62695 5.37305 12 12 12h40c6.62695 0 12 -5.37305 12 -12v-40zM480 140c0 -6.62695 -5.37305 -12 -12 -12h-40c-6.62695 0 -12 5.37305 -12 12v40c0 6.62695 5.37305 12 12 12h40
c6.62695 0 12 -5.37305 12 -12v-40zM144 44c0 -6.62695 -5.37305 -12 -12 -12h-40c-6.62695 0 -12 5.37305 -12 12v40c0 6.62695 5.37305 12 12 12h40c6.62695 0 12 -5.37305 12 -12v-40zM240 44c0 -6.62695 -5.37305 -12 -12 -12h-40c-6.62695 0 -12 5.37305 -12 12v40
c0 6.62695 5.37305 12 12 12h40c6.62695 0 12 -5.37305 12 -12v-40zM336 44c0 -6.62695 -5.37305 -12 -12 -12h-40c-6.62695 0 -12 5.37305 -12 12v40c0 6.62695 5.37305 12 12 12h40c6.62695 0 12 -5.37305 12 -12v-40zM432 44c0 -6.62695 -5.37305 -12 -12 -12h-40
c-6.62695 0 -12 5.37305 -12 12v40c0 6.62695 5.37305 12 12 12h40c6.62695 0 12 -5.37305 12 -12v-40zM96 -52c0 -6.62695 -5.37305 -12 -12 -12h-40c-6.62695 0 -12 5.37305 -12 12v40c0 6.62695 5.37305 12 12 12h40c6.62695 0 12 -5.37305 12 -12v-40zM384 -52
c0 -6.62695 -5.37305 -12 -12 -12h-232c-6.62695 0 -12 5.37305 -12 12v40c0 6.62695 5.37305 12 12 12h232c6.62695 0 12 -5.37305 12 -12v-40zM480 -52c0 -6.62695 -5.37305 -12 -12 -12h-40c-6.62695 0 -12 5.37305 -12 12v40c0 6.62695 5.37305 12 12 12h40
c6.62695 0 12 -5.37305 12 -12v-40z" />
    <glyph glyph-name="phone-volume" unicode="&#xf2a0;" horiz-adv-x="384" 
d="M97.333 -58.9658c-129.874 129.874 -129.681 340.252 0 469.933c5.69824 5.69824 14.5273 6.63184 21.2627 2.42188l64.8174 -40.5127c4.86035 -3.03711 8.09668 -8.43652 8.09668 -14.5859c0 -2.25098 -0.458984 -4.40137 -1.24805 -6.37207l-32.4082 -81.0205
c-2.5332 -6.33496 -8.73047 -10.8145 -15.9648 -10.8145c-0.583008 0 -1.13574 0.0380859 -1.7041 0.0947266l-55.8096 5.58008c-21.0508 -58.2607 -20.6123 -122.471 0 -179.515l55.8105 5.58105c0.568359 0.0566406 1.14551 0.0859375 1.72852 0.0859375
c7.23438 0 13.4072 -4.4707 15.9414 -10.8047l32.4072 -81.0225c0.789062 -1.9707 1.22266 -4.12207 1.22266 -6.37305c0 -6.14844 -3.21094 -11.5469 -8.07129 -14.585l-64.8174 -40.5127c-2.6377 -1.64844 -5.75391 -2.60156 -9.09082 -2.60156
c-4.74316 0 -9.06152 1.91211 -12.1729 5.02344zM247.126 352.527c11.832 -20.0469 11.832 -45.0088 0 -65.0557c-3.9502 -6.69238 -13.1084 -7.95898 -18.7178 -2.58105l-5.97559 5.72656c-3.91016 3.74805 -4.79297 9.62207 -2.26074 14.4102
c2.35645 4.46191 3.69141 9.5459 3.69141 14.9395c0 5.39258 -1.33496 10.543 -3.69141 15.0049c-2.5332 4.78809 -1.64941 10.6621 2.26074 14.4102l5.97559 5.72656c5.60938 5.37793 14.7676 4.11133 18.7178 -2.58105zM338.913 443.714
c60.1396 -71.6035 60.0918 -175.882 0 -247.428c-4.47363 -5.32715 -12.5303 -5.74609 -17.5518 -0.933594l-5.79785 5.55762c-4.56055 4.37109 -4.97754 11.5293 -0.930664 16.3789c49.6875 59.5381 49.6465 145.933 0 205.422
c-4.04688 4.84961 -3.63086 12.0078 0.930664 16.3789l5.79785 5.55762c5.02148 4.8125 13.0781 4.39355 17.5518 -0.933594zM292.941 398.773c36.0498 -46.3223 36.1074 -111.149 0 -157.547c-4.39062 -5.64062 -12.6973 -6.25098 -17.8564 -1.30371l-5.81836 5.5791
c-4.39941 4.21875 -4.99805 11.0947 -1.28418 15.9307c26.5352 34.5645 26.5332 82.5723 0 117.135c-3.71387 4.83594 -3.11523 11.7109 1.28418 15.9307l5.81836 5.5791c5.15918 4.94727 13.4658 4.33691 17.8564 -1.30371z" />
    <glyph glyph-name="battery-slash" unicode="&#xf377;" horiz-adv-x="640" 
d="M64 96h223.19l82.8096 -64h-322c-26.4922 0 -48 21.5078 -48 48v224c0.0605469 4.33691 0.713867 8.53906 1.87012 12.5195l62.1299 -48v-172.52zM608 80c-0.0419922 -20.9326 -13.543 -38.7158 -32.3096 -45.1602l58.1396 -44.9395
c3.76562 -2.92871 6.1709 -7.50781 6.1709 -12.6426c0 -3.69434 -1.25488 -7.09863 -3.36133 -9.80762l-19.6396 -25.2705c-2.92773 -3.77051 -7.51074 -6.18066 -12.6504 -6.18066c-3.69922 0 -7.1084 1.25879 -9.81934 3.37109l-588.351 454.729
c-3.76562 2.92871 -6.1709 7.50781 -6.1709 12.6426c0 3.69434 1.25488 7.09863 3.36133 9.80762l19.6299 25.2705c2.92773 3.77051 7.51074 6.18066 12.6504 6.18066c3.69922 0 7.1084 -1.25879 9.81934 -3.37109l119.84 -92.6299h394.69c26.4922 0 48 -21.5078 48 -48v-16
h8c13.2461 0 24 -10.7539 24 -24v-144c0 -13.2461 -10.7539 -24 -24 -24h-8v-16zM576 160v64h-32v64h-295.88l248.42 -192h47.46v64h32z" />
    <glyph glyph-name="diagnoses" unicode="&#xf470;" horiz-adv-x="640" 
d="M496 192c-8.7998 0 -16 7.2002 -16 16s7.2002 16 16 16s16 -7.2002 16 -16s-7.2002 -16 -16 -16zM320 272c-48.5 0 -88 39.5 -88 88s39.5 88 88 88s88 -39.5 88 -88s-39.5 -88 -88 -88zM59.7998 84l-17.7002 26.7002c-8.7998 13.2998 -7.59961 34.5996 10 45.0996
c7.40039 4.40039 17.5 10 28.7002 16c31.6006 -27.2998 79 -4.2002 79.2002 36c47.0996 17.7002 103 32.2002 160 32.2002c45.0996 0 89.2998 -9.2002 129.2 -21.7998c-11.7002 -52.9004 59.5996 -81.2002 87.7002 -35.1006
c21.3994 -10.3994 39.1992 -20.2998 51.0996 -27.3994c17.5996 -10.5 18.7998 -31.9004 10 -45.1006l-17.7998 -26.6992c-10.2002 -15.1006 -29.2998 -17.8008 -42.9004 -9.80078c-16.2002 9.60059 -56.2002 31.8008 -105.3 48.6006v-90.7002h-224v90.7998
c-49.0996 -16.8994 -89.0996 -39 -105.3 -48.5996c-13.6006 -8 -32.7002 -5.5 -42.9004 9.7998zM368 104c-13.2998 0 -24 -10.7002 -24 -24s10.7002 -24 24 -24s24 10.7002 24 24s-10.7002 24 -24 24zM272 200c-13.2998 0 -24 -10.7002 -24 -24s10.7002 -24 24 -24
s24 10.7002 24 24s-10.7002 24 -24 24zM112 192c-8.7998 0 -16 7.2002 -16 16s7.2002 16 16 16s16 -7.2002 16 -16s-7.2002 -16 -16 -16zM624 0c8.7998 0 16 -7.2002 16 -16v-32c0 -8.7998 -7.2002 -16 -16 -16h-608c-8.7998 0 -16 7.2002 -16 16v32
c0 8.7998 7.2002 16 16 16h608z" />
    <glyph glyph-name="box-full" unicode="&#xf49c;" horiz-adv-x="640" 
d="M384.3 87.4004c6.5 -10.8008 26.2002 -29.7002 54.7002 -21.5l137 39.0996v-82c0 -14.5996 -10 -27.4004 -24.2002 -31l-216.399 -54.0996c-10.1006 -2.5 -20.8008 -2.5 -31 0l-216.2 54.0996c-14.2002 3.5 -24.2002 16.2998 -24.2002 31v82l137.1 -39.2002
c28.6006 -8.2002 48.3008 10.9004 54.7002 21.6006l64.2002 106.6zM194.2 304.3l-65.5 8.2998c-0.100586 2.5 -0.700195 4.90039 -0.700195 7.40039c0 70.7002 57.2998 128 128 128c69.7002 0 126 -55.7002 127.7 -125l41.7002 114.4c3 8.2998 12.1992 12.5996 20.5 9.59961
l55.5 -20.2002c8.2998 -3 12.5996 -12.2002 9.59961 -20.5l-35.7002 -98.2998l-155.3 -19.7002l-8.2002 1c5.10059 9.2002 8.2002 19.5 8.2002 30.7002c0 35.2998 -28.7002 64 -64 64s-64 -28.7002 -64 -64c0 -5.40039 0.900391 -10.5996 2.2002 -15.7002zM53.2002 279
c3.09961 6.2002 9.7002 9.7002 16.5996 8.90039l250.2 -31.9004l-91.7998 -152c-3.7998 -6.2998 -11.4004 -9.2998 -18.5 -7.2998l-197.9 56.5c-9.7998 2.7998 -14.7002 13.7998 -10.0996 23zM638.3 176.2c4.5 -9.2002 -0.299805 -20.2002 -10.2002 -23.1006l-197.899 -56.5
c-7.10059 -2 -14.7002 1 -18.5 7.30078l-91.7002 152.1l250.1 31.9004c6.90039 0.899414 13.6006 -2.7002 16.7002 -8.90039z" />
    <glyph glyph-name="box-open" unicode="&#xf49e;" horiz-adv-x="640" 
d="M425.7 192c4.5 0 9 0.599609 13.2998 1.90039l137 39.0996v-178c0 -14.5996 -10 -27.4004 -24.2002 -31l-216.399 -54.0996c-10.1006 -2.5 -20.8008 -2.5 -31 0l-216.2 54.0996c-14.2002 3.5 -24.2002 16.2998 -24.2002 31v178l137 -39.2002
c4.2998 -1.2998 8.7998 -1.89941 13.2998 -1.89941c16.9004 0 32.7998 9 41.5 23.5l64.2002 106.6l64.2998 -106.6c8.60059 -14.4004 24.5 -23.4004 41.4004 -23.4004zM638.3 304.2c4.5 -9.2002 -0.299805 -20.2002 -10.2002 -23.1006l-197.899 -56.5
c-7.10059 -2 -14.7002 1 -18.5 7.30078l-91.7002 152.1l250.1 31.9004c6.90039 0.899414 13.6006 -2.7002 16.7002 -8.90039zM53.2002 407c3.09961 6.2002 9.7002 9.7002 16.5996 8.90039l250.2 -31.9004l-91.7998 -152c-3.7998 -6.2998 -11.4004 -9.2998 -18.5 -7.2998
l-197.9 56.5c-9.7998 2.7998 -14.7002 13.7998 -10.0996 23z" />
    <glyph glyph-name="home-heart" unicode="&#xf4c9;" horiz-adv-x="576" 
d="M64 136.6c6.40039 5.30078 43.9004 37.5 224 196.4c179.3 -158.1 217.3 -190.9 224 -196.4v-184.6c0 -8.7998 -7.2002 -16 -16 -16h-416c-8.7998 0 -16 7.2002 -16 16v184.6zM378.1 162.9c-23.8994 20 -59.5996 16.3994 -81.5996 -5.80078l-8.59961 -8.69922
l-8.60059 8.69922c-21.8994 22.2002 -57.5996 25.8008 -81.5996 5.80078c-27.5 -23 -28.9004 -64.2002 -4.2998 -89.1006l84.6992 -85.5996c5.5 -5.5 14.3008 -5.5 19.8008 0l84.6992 85.5996c24.6006 24.9004 23.1006 66.1006 -4.5 89.1006zM64 136.6v0.300781
s-2.7002 -2.5 0 -0.300781zM570.7 211.7c6.59961 -5.90039 7.09961 -16 1.2002 -22.7002l-21.4004 -23.7998c-5.90039 -6.60059 -16 -7.10059 -22.5996 -1.2002l-229.301 202.3c-6.09961 5.2998 -15.1992 5.2998 -21.1992 0l-229.4 -202.2
c-6.59961 -5.89941 -16.7002 -5.39941 -22.5996 1.2002l-21.4004 23.7998c-5.90039 6.60059 -5.40039 16.7002 1.2002 22.6006l256 226c15.2998 13.7002 38.2002 13.7002 53.5 0l101.3 -89.4004v51.7002c0 8.7998 7.2002 16 16 16h64c8.7998 0 16 -7.2002 16 -16v-136.5z
M512 136.9v-0.300781c2.90039 -2.2998 0 0.300781 0 0.300781z" />
    <glyph glyph-name="drumstick" unicode="&#xf6d6;" 
d="M462.43 398.43c30.6328 -30.6309 49.5908 -72.9844 49.5908 -119.684c0 -46.6934 -18.9541 -88.9961 -49.5801 -119.626c-35.4404 -35.46 -78.4404 -63.1201 -142.44 -63.1201h-85.8301l-40.5996 -40.5801c-9.7207 -9.75 -11.0898 -24.0195 -6 -36.75
c2.77344 -6.92578 4.31738 -14.5273 4.31738 -22.4395c0 -33.291 -27.0283 -60.3193 -60.3203 -60.3193c-16.6875 0 -31.8027 6.79102 -42.7275 17.7588c-15.2695 15.2705 -19.5801 36.5 -15.0898 56.0996c-19.5996 -4.48926 -40.8301 -0.179688 -56.0996 15.0908
c-10.9766 10.9248 -17.7305 26.0264 -17.7305 42.7207c0 33.2861 27.0244 60.3105 60.3105 60.3105c7.9209 0 15.4873 -1.53027 22.4199 -4.31152c12.7598 -5.07031 27.0498 -3.69043 36.7598 6l40.5898 40.5898v85.8301c0 64 27.6602 107 63.1201 142.43
c30.6289 30.6328 72.9805 49.5898 119.679 49.5898c46.6973 0 89.002 -18.957 119.631 -49.5898z" />
    <glyph glyph-name="drumstick-bite" unicode="&#xf6d7;" 
d="M462.8 398.43c34.3203 -34.2793 50.4307 -79.5996 49.1299 -124.56c-41.9795 22.6602 -94.3594 17.5596 -128.739 -16.7998c-40.8809 -40.8398 -40.6904 -107.181 -1.05078 -151.07c-18.9736 -6.45312 -39.3203 -10.0049 -60.4648 -10.0049
c-0.475586 0 -0.950195 0.000976562 -1.4248 0.00488281h-85.8896l-40.6104 -40.5596c-9.71973 -9.75 -11.0898 -24.0205 -6 -36.75c2.77051 -6.92383 4.3125 -14.5234 4.3125 -22.4316c0 -33.3086 -27.042 -60.3506 -60.3496 -60.3506
c-16.7041 0 -31.8311 6.80078 -42.7627 17.7822c-15.2803 15.2695 -19.6006 36.5 -15.1006 56.0996c-19.6094 -4.49023 -40.8496 -0.179688 -56.1191 15.0703c-10.9395 10.9229 -17.668 26.002 -17.668 42.666c0 33.2979 27.0332 60.3301 60.3301 60.3301
c7.88965 0 15.4277 -1.51758 22.3379 -4.27637c12.7793 -5.07031 27.0791 -3.69043 36.7793 6l40.6201 40.5898v85.8301c0 64 27.6904 107 63.1699 142.43c30.666 30.6338 73.0479 49.5889 119.774 49.5889s89.0605 -18.9551 119.726 -49.5889z" />
    <glyph glyph-name="pie" unicode="&#xf705;" horiz-adv-x="576" 
d="M458.78 144l0.0595703 -0.0400391c6.99023 -4.7998 26.3506 -22.5801 59.46 -29.2002l-31 -92.8799c-4.2373 -12.7109 -16.2324 -21.8799 -30.3594 -21.8799h-337.87c-14.1201 0.0224609 -26.0996 9.2041 -30.3203 21.9199l-31 92.8799
c32.9102 6.57031 51.2598 23.5 59.5996 29.2002h0.220703c10.1699 -7 36.21 -32 85.3398 -32c50.0898 0 77.9502 27 85.2803 32h0.0791016c10.1104 -7 36.2002 -32 85.2607 -32c49.0596 0 75.1299 25.0596 85.25 32zM544 208c17.6611 0 32 -14.3389 32 -32
s-14.3389 -32 -32 -32c-32 0 -49.9404 13.4805 -61.7998 22.4199c-9.04004 6.77051 -12.7402 9.58008 -23.3799 9.58008c-10.6406 0 -14.3906 -2.80957 -23.4404 -9.58984c-11.8896 -8.92969 -29.8398 -22.4102 -61.8398 -22.4102s-49.9697 13.4902 -61.8604 22.4102
c-9.0498 6.78027 -12.79 9.58984 -23.4395 9.58984c-10.6504 0 -14.4502 -2.80957 -23.4502 -9.58984c-11.8799 -8.92969 -29.8604 -22.4102 -61.8799 -22.4102c-32.0205 0 -50 13.4697 -61.9102 22.3896c-9.08008 6.80078 -12.8496 9.61035 -23.5498 9.61035
s-14.4502 -2.80957 -23.5303 -9.61035c-11.9199 -8.91992 -29.9199 -22.3896 -61.9199 -22.3896c-17.6611 0 -32 14.3389 -32 32s14.3389 32 32 32c6.4502 0 10.3799 1.16992 14.4502 3.4502c34.5498 100.34 129.479 172.55 241.55 172.55s206.93 -72.1699 241.53 -172.48
c4.09961 -2.31934 8.0293 -3.51953 14.4697 -3.51953zM206.31 296.84c9.4707 18.9404 -19.0898 33.1602 -28.6191 14.3105l-16 -32c-9.55078 -19.1006 19.1797 -33.1406 28.6191 -14.3105zM304 272v32c0 21.1797 -32 21.1699 -32 0v-32c0 -21.1797 32 -21.1699 32 0z
M385.69 264.84c9.44922 -18.8398 38.1494 -4.74023 28.6191 14.3105l-16 32c-9.48926 18.8799 -38.0996 4.63965 -28.6191 -14.3105z" />
    <glyph glyph-name="turkey" unicode="&#xf725;" horiz-adv-x="640" 
d="M596.39 364.37c32.1299 -5.87012 52.21 -39.6602 39.9902 -71.96c-7.39941 -19.5605 -26.6201 -33.3701 -47.5195 -33.9404c-0.613281 -0.0205078 -1.25488 0.00195312 -1.87305 0.00195312c-10.4424 0 -20.1816 3.03027 -28.3877 8.25879
c-15.1396 9.69922 -33.8496 11.6191 -48.6094 1.34961c-27.5703 -19.1904 -69.9199 -57.1504 -90.6406 -120.41c-14.4092 -43.9902 -51.8994 -78.54 -97.7393 -83.0498c-4.24707 -0.413086 -8.43359 -0.620117 -12.5605 -0.620117c-57.4102 0 -101.83 39.54 -113.72 89.7197
c-0.782227 3.55469 -3.93359 6.23145 -7.70996 6.28027h-16.4297c-0.0234375 0 -0.0449219 0.00683594 -0.0673828 0.00683594c-4.41602 0 -8 -3.58398 -8 -8c0 -0.486328 0.0429688 -0.963867 0.126953 -1.42676c4.10059 -20.2432 12.418 -39.2451 23.8701 -55.5801
c28.1299 -40 72.5801 -63 121.939 -63c5.13379 0 10.3672 0.259766 15.7002 0.780273c56.8799 5.59961 105.95 46.79 125 104.93c11.4238 35.7021 32.7656 66.8389 61 90.2002c40.7002 -52.9697 65.2402 -113.91 65.2402 -163.91c0 -114.88 -128.94 -128 -288 -128
s-288 13.1299 -288 128s128.94 288 288 288c45.8301 0 89 -14.6699 127.41 -37.9004c23.8398 10.3906 32.5898 17.2705 48.0703 28c13.21 9.19043 18.0996 25.5205 14.5693 41.1904c-0.835938 3.70898 -1.28027 7.48926 -1.28027 11.4492
c0 3.21973 0.291992 6.37109 0.850586 9.43066c4.41504 24.8691 26.1709 43.8135 52.3008 43.8135c5.83203 0 11.4473 -0.942383 16.6992 -2.68359c19.8496 -6.51953 34.0898 -25.21 36.0898 -46c0.164062 -1.67676 0.222656 -3.36816 0.222656 -5.08789
c0 -11.7178 -3.90039 -22.5312 -10.4727 -31.2119c4.71582 1.40039 9.65723 2.16211 14.8252 2.16211c3.10547 0 6.14746 -0.271484 9.10449 -0.791992z" />
    <glyph glyph-name="ball-pile" unicode="&#xf77e;" horiz-adv-x="576" 
d="M80 96c44.2002 0 80 -35.7998 80 -80s-35.7998 -80 -80 -80s-80 35.7998 -80 80s35.7998 80 80 80zM288 288c-44.2002 0 -80 35.7998 -80 80s35.7998 80 80 80s80 -35.7998 80 -80s-35.7998 -80 -80 -80zM256 200c0 -44.2002 -35.7998 -80 -80 -80s-80 35.7998 -80 80
s35.7998 80 80 80s80 -35.7998 80 -80zM288 96c44.2002 0 80 -35.7998 80 -80s-35.7998 -80 -80 -80s-80 35.7998 -80 80s35.7998 80 80 80zM496 96c44.2002 0 80 -35.7998 80 -80s-35.7998 -80 -80 -80s-80 35.7998 -80 80s35.7998 80 80 80zM480 200
c0 -44.2002 -35.7998 -80 -80 -80s-80 35.7998 -80 80s35.7998 80 80 80s80 -35.7998 80 -80z" />
    <glyph glyph-name="biohazard" unicode="&#xf780;" horiz-adv-x="576" 
d="M287.9 336c-18.5 0 -36 -3.7998 -52.5 -9.5c-13.3008 10.2998 -23.6006 24.2998 -29.5 40.7002c25.1992 10.8994 53 16.8994 82.0996 16.8994c29.2002 0 57 -6.09961 82.2002 -17c-5.90039 -16.3994 -16.2002 -30.3994 -29.5 -40.6992
c-16.6006 5.7998 -34.2002 9.59961 -52.7998 9.59961zM163.6 9.2998c-47.5 35.5 -79.1992 90.7002 -83.2998 153.5c7.2998 2.10059 14.9004 3.10059 22.5 3.10059c9.2002 0 17.9004 -1.80078 26.4004 -4.60059c4.09961 -44.2998 26 -83.2002 58.8994 -109.6
c-4.09961 -16 -12.5 -30.6006 -24.5 -42.4004zM387.8 51.9004c32.7002 26.3994 54.6006 65.0996 58.7002 109.3c8.59961 2.7998 17.4004 4.7002 26.5996 4.7002c7.5 0 15 -1 22.2002 -3c-3.89941 -62.8008 -35.5996 -118 -83 -153.5c-12 11.7998 -20.3994 26.5 -24.5 42.5z
M501.3 256.9c34.6006 -20.4004 61 -53.3008 74.1006 -92.4004c1.2998 -3.7002 -0.200195 -7.7998 -3.5 -9.7998c-3.30078 -2 -7.5 -1.2998 -10 1.59961c-9.40039 10.7998 -19 19 -29.2002 25.1006c-57.2998 33.8994 -130.8 13.6992 -163.9 -45
c-33.0996 -58.7002 -13.3994 -134 43.9004 -167.9c10.2002 -6.09961 21.8994 -10.5 35.7998 -13.4004c3.7998 -0.799805 6.40039 -4.19922 6.40039 -8.09961c-0.100586 -4 -2.7002 -7.2998 -6.5 -8c-39.7002 -7.7998 -80.6006 -0.799805 -115.2 19.7002
c-18 10.5996 -32.9004 24.5 -45.2998 40.0996c-12.4004 -15.5996 -27.3008 -29.5 -45.3008 -40.0996c-34.5996 -20.5 -75.5 -27.5 -115.199 -19.7002c-3.80078 0.700195 -6.40039 4 -6.5 8c0 3.90039 2.69922 7.2998 6.39941 8.09961
c13.7998 3 25.6006 7.30078 35.7998 13.4004c57.3008 33.9004 77 109.2 43.9004 167.9c-33.0996 58.6992 -106.6 78.8994 -163.9 45c-10.1992 -6 -19.7998 -14.3008 -29.1992 -25.1006c-2.5 -2.89941 -6.7002 -3.59961 -10 -1.59961
c-3.30078 2.09961 -4.80078 6.09961 -3.5 9.7998c13.2998 39.0996 39.6992 71.9004 74.2998 92.4004c17.5996 10.3994 36.3994 16.5996 55.2998 19.8994c-6.09961 17.7002 -10 36.4004 -10 56.2002c0 41 14.5996 80.7998 41 112.2c2.5 3 6.59961 3.7002 10 1.7998
c3.2998 -1.90039 4.7998 -6 3.59961 -9.7002c-4.39941 -13.7998 -6.59961 -26.3994 -6.59961 -38.5c0 -67.7998 53.7998 -122.899 120 -122.899s120 55.0996 120 122.899c0 12.2002 -2.09961 24.7002 -6.59961 38.5c-1.2002 3.7002 0.299805 7.7998 3.59961 9.7002
c3.40039 1.90039 7.5 1.2002 10 -1.7998c26.5 -31.4004 41 -71.2002 41 -112.2c0 -19.7998 -4 -38.5 -10 -56.2002c19 -3.2998 37.7002 -9.5 55.2998 -19.8994zM287.9 127.9c26.5 0 48 21.5 48 48s-21.5 48 -48 48s-48 -21.5 -48 -48s21.5 -48 48 -48z" />
    <glyph glyph-name="bacon" unicode="&#xf7e5;" horiz-adv-x="576" 
d="M218.92 111.61c-34.8604 -34.8799 -59.6504 -44.1602 -85.9199 -54c-26 -9.76074 -53 -20.1299 -88.1699 -52.7305l-35.7598 35.5098c-12.7002 12.6104 -12.0703 33.6104 1.79004 45.0605c36.3398 29.9795 66.21 41.0996 91.0693 50.3594
c9.16992 3.41016 68.9707 19.2607 98.7207 98.0908c8.60938 22.8096 46.3496 134.58 188.979 187.72c15.8506 5.91016 27.3604 10.2002 41 20.2998c5.14941 3.80859 11.5498 6.08008 18.4404 6.08008c8.46484 0 16.1426 -3.40137 21.7393 -8.91016l37.6709 -37.3896
c-30.1504 -27.6904 -52.9102 -36.3701 -76.79 -45.3701c-28.3008 -10.6104 -57.5703 -21.5801 -97.3506 -61.3799s-50.7598 -69.0498 -61.3701 -97.3398c-9.84961 -26.3008 -19.1602 -51.1104 -54.0498 -86zM566.92 343.61
c12.7002 -12.5996 12.0801 -33.6602 -1.80957 -45.0605c-36.3701 -30.0098 -66.2402 -41.1396 -91.1104 -50.4102c-9.2002 -3.43945 -69 -19.3193 -98.7305 -98.1094c-8.93945 -23.5898 -46.7393 -134.69 -188.939 -187.69
c-15.8496 -5.89941 -27.3398 -10.1797 -40.9404 -20.2402c-5.14941 -3.81055 -11.5527 -6.08301 -18.4453 -6.08301c-8.46289 0 -16.1377 3.39844 -21.7344 8.90332l-37.6797 37.4297c30.1094 27.6699 52.8594 36.3301 76.7197 45.3301
c28.2998 10.5898 57.5098 21.54 97.2998 61.3203s50.7803 69 61.4199 97.3301c9.81055 26.3096 19.1104 51.1602 54 86c34.8906 34.8398 59.6904 44.1504 85.9502 54c26.0703 9.79004 53.0605 20.1602 88.25 52.79z" />
    <glyph glyph-name="book-medical" unicode="&#xf7e6;" horiz-adv-x="448" 
d="M448 89.5996c0 -9.59961 -3.2002 -15.999 -9.59961 -19.1992c-3.2002 -12.8008 -3.2002 -57.6006 0 -73.6006c6.39941 -6.39941 9.59961 -12.7998 9.59961 -19.2002v-16c0 -16 -12.7998 -25.5996 -25.5996 -25.5996h-326.4c-54.4004 0 -96 41.5996 -96 96v320
c0 54.4004 41.5996 96 96 96h326.4c16 0 25.5996 -9.59961 25.5996 -25.5996v-332.801zM144 280v-48c0 -4.41504 3.58496 -8 8 -8h56v-56c0 -4.41504 3.58496 -8 8 -8h48c4.41504 0 8 3.58496 8 8v56h56c4.41504 0 8 3.58496 8 8v48c0 4.41504 -3.58496 8 -8 8h-56v56
c0 4.41504 -3.58496 8 -8 8h-48c-4.41504 0 -8 -3.58496 -8 -8v-56h-56c-4.41504 0 -8 -3.58496 -8 -8zM380.8 0v64h-284.8c-16 0 -32 -12.7998 -32 -32s12.7998 -32 32 -32h284.8z" />
    <glyph glyph-name="book-user" unicode="&#xf7e7;" horiz-adv-x="448" 
d="M448 89.5996c0 -9.59961 -3.2002 -15.999 -9.59961 -19.1992c-3.2002 -12.8008 -3.2002 -57.6006 0 -73.6006c6.39941 -6.39941 9.59961 -12.7998 9.59961 -19.2002v-16c0 -16 -12.7998 -25.5996 -25.5996 -25.5996h-326.4c-54.4004 0 -96 41.5996 -96 96v320
c0 54.4004 41.5996 96 96 96h326.4c16 0 25.5996 -9.59961 25.5996 -25.5996v-332.801zM240 384c-35.3223 0 -64 -28.6777 -64 -64s28.6777 -64 64 -64s64 28.6777 64 64s-28.6777 64 -64 64zM128 166.4v-19.2002c0 -10.6006 10 -19.2002 22.4004 -19.2002h179.25
c12.3994 0 22.3994 8.58984 22.3994 19.2002v19.2002c0 31.8096 -30.0898 57.5996 -67.2002 57.5996h-4.94922c-12.2461 -5.12305 -25.8252 -7.9541 -39.9199 -7.9541c-14.0957 0 -27.5352 2.83105 -39.7803 7.9541h-5c-37.1104 0 -67.2002 -25.79 -67.2002 -57.5996z
M380.8 0v64h-284.8c-16 0 -32 -12.7998 -32 -32s12.7998 -32 32 -32h284.8z" />
    <glyph glyph-name="brackets" unicode="&#xf7e9;" horiz-adv-x="448" 
d="M144 416c8.83105 0 16 -7.16895 16 -16v-32c0 -8.83105 -7.16895 -16 -16 -16h-80v-320h80c8.83105 0 16 -7.16895 16 -16v-32c0 -8.83105 -7.16895 -16 -16 -16h-112c-17.6611 0 -32 14.3389 -32 32v384c0 17.6611 14.3389 32 32 32h112zM416 416
c17.6611 0 32 -14.3389 32 -32v-384c0 -17.6611 -14.3389 -32 -32 -32h-112c-8.83105 0 -16 7.16895 -16 16v32c0 8.83105 7.16895 16 16 16h80v320h-80c-8.83105 0 -16 7.16895 -16 16v32c0 8.83105 7.16895 16 16 16h112z" />
    <glyph glyph-name="brackets-curly" unicode="&#xf7ea;" horiz-adv-x="576" 
d="M208 416c8.83105 0 16 -7.16895 16 -16v-32c0 -8.83105 -7.16895 -16 -16 -16h-48c-17.6611 0 -32 -14.3389 -32 -32v-37.4805c0 -26.4922 -10.7412 -50.5127 -28.1201 -67.8896l-22.6299 -22.6299l22.6201 -22.6299c17.3828 -17.377 28.1289 -41.3936 28.1299 -67.8896
v-37.4805c0 -17.6611 14.3389 -32 32 -32h48c8.83105 0 16 -7.16895 16 -16v-32c0 -8.83105 -7.16895 -16 -16 -16h-48c-52.9834 0 -96 43.0166 -96 96v37.4902c-0.000976562 8.83203 -3.58398 16.8379 -9.37988 22.6299l-45.25 45.25
c-5.79395 5.79199 -9.37988 13.8027 -9.37988 22.6348c0 8.83105 3.58594 16.833 9.37988 22.625l45.25 45.2402c5.79492 5.7998 9.37695 13.8115 9.37988 22.6494v37.4805c0 52.9834 43.0166 96 96 96h48zM566.63 214.63
c5.79395 -5.79199 9.37988 -13.8027 9.37988 -22.6348c0 -8.83105 -3.58594 -16.833 -9.37988 -22.625l-45.25 -45.25c-5.7959 -5.79199 -9.37891 -13.7979 -9.37988 -22.6299v-37.4902c0 -52.9834 -43.0166 -96 -96 -96h-48c-8.83105 0 -16 7.16895 -16 16v32
c0 8.83105 7.16895 16 16 16h48c17.6611 0 32 14.3389 32 32v37.4805c0.000976562 26.4961 10.7471 50.5127 28.1299 67.8896l22.6201 22.6299l-22.6201 22.6201c-17.3838 17.3779 -28.1299 41.4121 -28.1299 67.9102v37.4697c0 17.6611 -14.3389 32 -32 32h-48
c-8.83105 0 -16 7.16895 -16 16v32c0 8.83105 7.16895 16 16 16h48c52.9834 0 96 -43.0166 96 -96v-37.4805c0.00292969 -8.83789 3.58496 -16.8496 9.37988 -22.6494z" />
    <glyph glyph-name="bread-loaf" unicode="&#xf7eb;" horiz-adv-x="640" 
d="M480 256c0 -35.3496 -26.8604 -64 -60 -64h-4v-192c0 -17.6611 -14.3389 -32 -32 -32h-288c-17.6611 0 -32 14.3389 -32 32v192h-4c-33.1396 0 -60 28.6504 -60 64c0 88.3701 107.45 160 240 160s240 -71.6299 240 -160zM400 416c132.55 0 240 -71.6299 240 -160
c0 -35.3496 -26.8604 -64 -60 -64h-4v-192c0 -17.6611 -14.3389 -32 -32 -32h-104.9c5.56934 9.35742 8.83398 20.3447 8.90039 32v164.54c37.0801 12.4004 64 48.71 64 91.46c0 67.3799 -46.7998 125.61 -119.19 159.76
c2.41016 0.0400391 4.76074 0.240234 7.19043 0.240234z" />
    <glyph glyph-name="bread-slice" unicode="&#xf7ec;" horiz-adv-x="576" 
d="M288 448c180 0 288 -93.4004 288 -169.14c0 -30.3008 -24.2402 -54.8604 -64 -54.8604v-256c0 -17.6699 -16.1201 -32 -36 -32h-376c-19.8799 0 -36 14.3301 -36 32v256c-39.7598 0 -64 24.5596 -64 54.8604c0 75.7393 108 169.14 288 169.14z" />
    <glyph glyph-name="burrito" unicode="&#xf7ed;" 
d="M307.29 217.68c14.5 3.79004 29.3203 6.32031 44.54 6.32031c0.0234375 0 0.169922 -0.0664062 0.192383 -0.0664062c41.2744 0 79.2354 -14.2969 109.197 -38.2031l-216 -215.73c-21.0283 -21 -50.0889 -33.9941 -82.126 -33.9941
c-32.0381 0 -61.0645 12.9941 -82.0938 33.9941l-47.54 47.5c-25.8799 25.8604 -36.46 60.9404 -32.7402 94.7402c32.0029 -20.3203 70.1719 -32.2266 110.851 -32.2402c90.0801 0 166.76 57.5498 195.72 137.68zM287.76 288c0 -97.0498 -79.0498 -176 -176.189 -176
c-38.2217 0.000976562 -73.7598 12.3604 -102.57 33.1699c5.79395 13.7002 14.0957 25.9873 24.4297 36.3799l216 215.73c23.9424 -29.9268 38.3301 -68.0117 38.3301 -109.28zM512 325c0 -0.0566406 -0.0380859 -0.171875 -0.0380859 -0.228516
c0 -10.9395 -2.40039 -21.3223 -6.70215 -30.6514c4.30469 -9.81738 6.73535 -20.7227 6.74023 -32.1201c0 -22 -9.37012 -42 -24.29 -56.75c-36.377 31.582 -83.9717 50.75 -135.88 50.75c-12.0674 -0.00683594 -23.708 -1.03125 -35.2197 -3
c2.0957 11.7246 3.14844 23.7119 3.14844 36.0342c0 51.5908 -19.1699 98.7393 -50.7686 134.706c14.8096 14.8896 34.75 24.2598 56.8096 24.2598c0.0185547 0 0.0966797 -0.0390625 0.115234 -0.0390625c11.4062 0 22.2588 -2.3877 32.085 -6.69141
c9.375 4.28418 19.8408 6.70996 30.8135 6.70996c33.3047 0 61.5117 -21.9951 70.877 -52.2393c30.2432 -9.31836 52.2588 -37.4688 52.3096 -70.7402z" />
    <glyph glyph-name="chart-scatter" unicode="&#xf7ee;" 
d="M496 64c8.83105 0 16 -7.16895 16 -16v-32c0 -8.83105 -7.16895 -16 -16 -16h-464c-17.6611 0 -32 14.3389 -32 32v336c0 8.83105 7.16895 16 16 16h32c8.83105 0 16 -7.16895 16 -16v-304h432zM160 128c-17.6611 0 -32 14.3389 -32 32s14.3389 32 32 32
s32 -14.3389 32 -32s-14.3389 -32 -32 -32zM416 288c-17.6611 0 -32 14.3389 -32 32s14.3389 32 32 32s32 -14.3389 32 -32s-14.3389 -32 -32 -32zM192 288c-17.6611 0 -32 14.3389 -32 32s14.3389 32 32 32s32 -14.3389 32 -32s-14.3389 -32 -32 -32zM384 128
c-17.6611 0 -32 14.3389 -32 32s14.3389 32 32 32s32 -14.3389 32 -32s-14.3389 -32 -32 -32zM288 192c-17.6611 0 -32 14.3389 -32 32s14.3389 32 32 32s32 -14.3389 32 -32s-14.3389 -32 -32 -32z" />
    <glyph glyph-name="cheese" unicode="&#xf7ef;" 
d="M0 160h512v-160c0 -17.6611 -14.3389 -32 -32 -32h-448c-17.6611 0 -32 14.3389 -32 32v160zM299.83 416c118.17 -6.2002 212.17 -104.11 212.17 -224h-512l278.7 217c5.47656 4.38477 12.4277 7.02051 19.9814 7.02051
c0.384766 0 0.767578 -0.00683594 1.14844 -0.0205078z" />
    <glyph glyph-name="cheese-swiss" unicode="&#xf7f0;" 
d="M368 112c26.4922 0 48 21.5078 48 48h96v-160c0 -17.6611 -14.3389 -32 -32 -32h-448c-17.6611 0 -32 14.3389 -32 32v160h320c0 -26.4922 21.5078 -48 48 -48zM176 16c26.4922 0 48 21.5078 48 48s-21.5078 48 -48 48s-48 -21.5078 -48 -48s21.5078 -48 48 -48z
M299.83 416c118.17 -6.2002 212.17 -104.11 212.17 -224h-512l141.84 110.46c8.69434 -8.84277 20.7646 -14.2695 34.1328 -14.2695c26.4424 0 47.9102 21.4678 47.9102 47.9102c0 9.09082 -2.53809 17.5947 -6.94238 24.8398l61.7598 48.0596
c5.47656 4.38477 12.4277 7.02051 19.9814 7.02051c0.384766 0 0.767578 -0.00683594 1.14844 -0.0205078z" />
    <glyph glyph-name="clinic-medical" unicode="&#xf7f2;" horiz-adv-x="576" 
d="M288 333l218.74 -192.9c1.54004 -1.37988 3.55957 -2.04004 5.25977 -3.19922v-184.9c0 -8.83105 -7.16895 -16 -16 -16h-416c-8.83105 0 -16 7.16895 -16 16v184.94c1.78027 1.20996 3.84961 1.88965 5.46973 3.34961zM384 72v48c0 4.41504 -3.58496 8 -8 8h-56v56
c0 4.41504 -3.58496 8 -8 8h-48c-4.41504 0 -8 -3.58496 -8 -8v-56h-56c-4.41504 0 -8 -3.58496 -8 -8v-48c0 -4.41504 3.58496 -8 8 -8h56v-56c0 -4.41504 3.58496 -8 8 -8h48c4.41504 0 8 3.58496 8 8v56h56c4.41504 0 8 3.58496 8 8zM570.69 211.72
c3.2627 -2.92969 5.30762 -7.18555 5.30762 -11.9121c0 -4.10156 -1.54688 -7.84473 -4.08789 -10.6777l-21.4004 -23.8203c-2.92969 -3.2627 -7.18457 -5.30762 -11.9111 -5.30762c-4.10742 0 -7.85449 1.55078 -10.6885 4.09766l-229.32 202.271
c-2.82031 2.48828 -6.53906 3.99902 -10.5928 3.99902c-4.05273 0 -7.75684 -1.51074 -10.5771 -3.99902l-229.32 -202.28c-2.83398 -2.54688 -6.58594 -4.10645 -10.6924 -4.10645c-4.72656 0 -8.97754 2.05371 -11.9072 5.31641l-21.4102 23.8203
c-2.54688 2.83398 -4.10645 6.58594 -4.10645 10.6934c0 4.72559 2.05371 8.97656 5.31641 11.9062l256 226c7.06934 6.3916 16.4707 10.2852 26.7412 10.2852c10.2715 0 19.6396 -3.89355 26.709 -10.2852z" />
    <glyph glyph-name="clipboard-user" unicode="&#xf7f3;" horiz-adv-x="384" 
d="M336 384c26.4922 0 48 -21.5078 48 -48v-352c0 -26.4922 -21.5078 -48 -48 -48h-288c-26.4922 0 -48 21.5078 -48 48v352c0 26.4922 21.5078 48 48 48h80c0 35.3223 28.6777 64 64 64s64 -28.6777 64 -64h80zM192 408c-13.2461 0 -24 -10.7539 -24 -24
s10.7539 -24 24 -24s24 10.7539 24 24s-10.7539 24 -24 24zM192 256c-35.3223 0 -64 -28.6777 -64 -64s28.6777 -64 64 -64s64 28.6777 64 64s-28.6777 64 -64 64zM304 19.2002l0.0996094 19.2002c0 31.8096 -30.0898 57.5996 -67.1992 57.5996h-5
c-12.2461 -5.12305 -25.8252 -7.9541 -39.9199 -7.9541c-14.0957 0 -27.5352 2.83105 -39.7803 7.9541h-5c-37.1104 0 -67.2002 -25.79 -67.2002 -57.5996v-19.2002c0 -10.6006 10 -19.2002 22.4004 -19.2002h179.199c12.4004 0 22.4004 8.58984 22.4004 19.2002z" />
    <glyph glyph-name="comment-alt-medical" unicode="&#xf7f4;" 
d="M448 448c35.3223 0 64 -28.6777 64 -64v-288c0 -35.3223 -28.6777 -64 -64 -64h-144l-124.87 -93.6504c-1.99219 -1.47168 -4.46582 -2.34766 -7.12988 -2.34766c-6.62207 0 -11.999 5.37598 -12 11.998v84h-96c-35.3223 0 -64 28.6777 -64 64v288
c0 35.3223 28.6777 64 64 64h384zM352 216v48c0 4.41504 -3.58496 8 -8 8h-56v56c0 4.41504 -3.58496 8 -8 8h-48c-4.41504 0 -8 -3.58496 -8 -8v-56h-56c-4.41504 0 -8 -3.58496 -8 -8v-48c0 -4.41504 3.58496 -8 8 -8h56v-56c0 -4.41504 3.58496 -8 8 -8h48
c4.41504 0 8 3.58496 8 8v56h56c4.41504 0 8 3.58496 8 8z" />
    <glyph glyph-name="comment-medical" unicode="&#xf7f5;" 
d="M256 416c141.39 0 256 -93.1201 256 -208s-114.61 -208 -256 -208c-0.161133 0 -0.446289 0.107422 -0.606445 0.107422c-37.5674 0 -73.5547 6.81445 -106.794 19.2725c-24.5996 -19.6299 -74.3398 -51.3799 -140.6 -51.3799
c-4.41113 0.00488281 -7.99023 3.58984 -7.99023 8.00195c0 2.12891 0.833008 4.06445 2.19043 5.49805c0.5 0.5 42.2598 45.4502 54.7998 95.7598c-35.5898 35.7402 -57 81.1807 -57 130.74c0 114.88 114.62 208 256 208zM352 184v48c0 4.41504 -3.58496 8 -8 8h-56v56
c0 4.41504 -3.58496 8 -8 8h-48c-4.41504 0 -8 -3.58496 -8 -8v-56h-56c-4.41504 0 -8 -3.58496 -8 -8v-48c0 -4.41504 3.58496 -8 8 -8h56v-56c0 -4.41504 3.58496 -8 8 -8h48c4.41504 0 8 3.58496 8 8v56h56c4.41504 0 8 3.58496 8 8z" />
    <glyph glyph-name="croissant" unicode="&#xf7f6;" 
d="M209.1 60.0596l14.4805 -86.7998c0.286133 -1.7207 0.419922 -3.44531 0.419922 -5.24707c0 -17.6611 -14.3389 -32 -32 -32c-3.98828 0 -7.80762 0.731445 -11.3301 2.06738c-26.4551 10.0859 -50.3838 25.1631 -70.6699 44.1895zM509.92 267.34
c1.33496 -3.52148 2.07715 -7.35352 2.07715 -11.3398c0 -17.6602 -14.3369 -31.998 -31.9971 -32c-1.80078 0 -3.53906 0.146484 -5.25977 0.429688l-86.7998 14.4707l77.79 99.0996c19.0254 -20.2832 34.1025 -44.208 44.1895 -70.6602zM234.9 425.41l64.0098 -208
c0.90332 -2.95801 1.40039 -6.10156 1.40039 -9.35352c0 -8.84277 -3.59473 -16.8525 -9.40039 -22.6465l-28.3105 -28.3105c-5.79395 -5.80566 -13.8066 -9.38965 -22.6494 -9.38965c-3.25195 0 -6.3916 0.486328 -9.35059 1.38965l-208 64
c-13.0586 4.0332 -22.5557 16.1865 -22.5557 30.5615c0 2.68652 0.332031 5.29492 0.956055 7.78906c23.8955 95.9551 99.5947 171.654 195.55 195.55c2.49414 0.625 5.08398 0.958984 7.77148 0.958984c14.3721 0 26.5439 -9.49512 30.5791 -22.5488zM447.74 382.41
c0.174805 -1.35254 0.25 -2.7627 0.25 -4.16211c0 -7.44043 -2.54492 -14.291 -6.81055 -19.7285l-96 -122.319c-3.98926 -5 -9.59961 -8.07031 -15.5996 -10c-0.0996094 0.209961 -0.0400391 0.419922 -0.0996094 0.620117l-64 208
c-0.980469 3.17969 -2.87012 5.76953 -4.28027 8.69922c14.0215 2.90332 28.3906 4.44727 43.2598 4.48047c49.1064 -0.078125 94.5957 -16.5947 130.95 -44.2002c6.64258 -5.06934 11.2207 -12.6963 12.3301 -21.3896zM221.8 118.43
c-1.92969 -6.01953 -4.9502 -11.6094 -10.0498 -15.5996l-122.32 -96c-5.43848 -4.26953 -12.3154 -6.83008 -19.7598 -6.83008c-1.38281 0.00195312 -2.71289 0.0898438 -4.0498 0.259766c-8.69336 1.10938 -16.3213 5.6875 -21.3896 12.3301
c-27.5244 36.1436 -43.9668 81.2637 -43.9668 130.156c0 14.8457 1.50684 29.3418 4.37598 43.3438c2.72168 -1.38184 5.6084 -2.5918 8.54004 -3.57031l208 -64c0.200195 -0.0898438 0.419922 -0.0292969 0.620117 -0.0898438z" />
    <glyph glyph-name="crutch" unicode="&#xf7f7;" 
d="M507.31 262.29c2.87109 -2.89258 4.64551 -6.87891 4.64551 -11.2725c0 -4.42285 -1.79883 -8.42969 -4.70508 -11.3271l-22.6201 -22.6309c-2.89648 -2.89648 -6.90137 -4.68945 -11.3174 -4.68945s-8.41602 1.79297 -11.3125 4.68945l-181 181
c-2.89648 2.89648 -4.68945 6.90137 -4.68945 11.3174s1.79297 8.41699 4.68945 11.3135l22.6904 22.5996c2.89551 2.89355 6.89844 4.68457 11.3115 4.68457c4.41406 0 8.41211 -1.79102 11.3076 -4.68457zM327.77 195.88l55.1006 55.1201l45.25 -45.2695l-109.68 -109.681
c-12.4922 -12.4961 -28.4805 -21.5479 -46.29 -25.6494l-120.25 -27.75l-102 -102c-2.89648 -2.89746 -6.90137 -4.69043 -11.3174 -4.69043s-8.41699 1.79297 -11.3135 4.69043l-22.6191 22.6191c-2.89746 2.89648 -4.69043 6.90137 -4.69043 11.3174
s1.79297 8.41699 4.69043 11.3135l102 102l27.7393 120.26c4.11816 17.8066 13.1738 33.7939 25.6699 46.29l109.671 109.67l45.25 -45.25l-55.1006 -55.1006zM273.2 141.31l9.30957 9.31055l-67.8896 67.8896l-9.31055 -9.30957
c-4.16113 -4.17676 -7.17969 -9.51074 -8.55957 -15.4502l-18.2998 -79.2998l79.2998 18.3193c5.94238 1.36328 11.2783 4.37695 15.4502 8.54004z" />
    <glyph glyph-name="crutches" unicode="&#xf7f8;" horiz-adv-x="640" 
d="M635.31 262.29c2.87109 -2.89258 4.64551 -6.87891 4.64551 -11.2725c0 -4.42285 -1.79883 -8.42969 -4.70508 -11.3271l-22.6201 -22.6309c-2.89648 -2.89648 -6.90137 -4.68945 -11.3174 -4.68945s-8.41602 1.79297 -11.3125 4.68945l-181 181
c-2.89648 2.89648 -4.68945 6.90137 -4.68945 11.3174s1.79297 8.41699 4.68945 11.3135l22.6904 22.5996c2.89551 2.89355 6.89844 4.68457 11.3115 4.68457c4.41406 0 8.41211 -1.79102 11.3076 -4.68457zM441 52.2402l66.3096 -66.3105
c2.89746 -2.89551 4.69043 -6.90137 4.69043 -11.3174c0 -4.41504 -1.79297 -8.41602 -4.69043 -11.3125l-22.6191 -22.6201c-2.89648 -2.89648 -6.90137 -4.68945 -11.3174 -4.68945s-8.41699 1.79297 -11.3135 4.68945l-90.3193 90.3203l35.5898 8.24023
c11.8672 2.74219 23.3154 7.20996 33.6699 13zM195.81 94.3398c-0.700195 0.660156 -1.5791 1.04004 -2.25977 1.71973l-132.29 132.25l-11.3193 -11.3096c-2.89648 -2.89648 -6.90137 -4.68945 -11.3174 -4.68945s-8.41699 1.79297 -11.3135 4.68945l-22.5996 22.6904
c-2.89355 2.89551 -4.68457 6.89844 -4.68457 11.3115c0 4.41406 1.79102 8.41211 4.68457 11.3076l181 181c2.89551 2.89453 6.89844 4.68555 11.3125 4.68555c4.41309 0 8.41211 -1.79102 11.3076 -4.68555l22.6699 -22.6191
c2.89648 -2.89648 4.68945 -6.90137 4.68945 -11.3174s-1.79297 -8.41699 -4.68945 -11.3135l-11.3496 -11.3193l77.7197 -77.7402l-31.9297 -31.9199c-4.47168 -4.49121 -8.52832 -9.22363 -12.29 -14.3398l-78.75 78.75l-67.8906 -67.8906l112.221 -112.239
l-13.2207 -57.3203zM455.77 195.88l55.1006 55.1201l45.25 -45.2695l-109.68 -109.681c-12.4922 -12.4961 -28.4805 -21.5479 -46.29 -25.6494l-120.25 -27.75l-102 -102c-2.89648 -2.89746 -6.90137 -4.69043 -11.3174 -4.69043s-8.41699 1.79297 -11.3135 4.69043
l-22.6191 22.6191c-2.89746 2.89648 -4.69043 6.90137 -4.69043 11.3174s1.79297 8.41699 4.69043 11.3135l102 102l27.7393 120.26c4.11816 17.8066 13.1738 33.7939 25.6699 46.29l109.671 109.67l45.25 -45.25l-55.1006 -55.1006zM401.2 141.31l9.30957 9.31055
l-67.8896 67.8896l-9.31055 -9.30957c-4.16113 -4.17676 -7.17969 -9.51074 -8.55957 -15.4502l-18.2998 -79.2998l79.2998 18.3193c5.94238 1.36328 11.2783 4.37695 15.4502 8.54004z" />
    <glyph glyph-name="debug" unicode="&#xf7f9;" 
d="M146.27 144.16c-0.746094 -0.107422 -1.47754 -0.161133 -2.25293 -0.161133c-8.83203 0 -16.002 7.16992 -16.002 16.002c0 8.05469 5.96484 14.7285 13.7158 15.8389l34.2695 4.90039v0.759766l98.9404 -98.9502c-6.28125 -1.66016 -12.877 -2.54688 -19.6768 -2.54688
c-20.0469 0 -38.3115 7.68945 -52.0039 20.2773l-26.3896 -17.5898c-2.58301 -1.78906 -5.74805 -2.85547 -9.125 -2.85547c-8.83008 0 -16 7.16895 -16 16c0 5.65527 2.94043 10.6289 7.375 13.4746l24.7998 16.54c-3.30566 7.02148 -5.65527 14.7568 -6.76953 22.7207z
M256 440c137 0 248 -111 248 -248s-111 -248 -248 -248s-248 111 -248 248s111 248 248 248zM256 8c0.0205078 0 0.210938 0.100586 0.231445 0.100586c39.125 0 75.3965 12.3115 105.148 33.2695l-256 256c-20.9639 -29.7549 -33.3799 -66.2041 -33.3799 -105.335
v-0.0351562c0 -101.46 82.54 -184 184 -184zM406.62 86.6299c20.9639 29.7549 33.3799 66.2041 33.3799 105.335v0.0351562c0 101.46 -82.54 184 -184 184c-0.0117188 0 -0.195312 -0.100586 -0.207031 -0.100586c-39.1309 0 -75.4082 -12.3154 -105.163 -33.2793
l56.1104 -56.1104c13.4766 10.918 30.7236 17.4805 49.4023 17.4805c20.2295 0 38.6807 -7.6748 52.5977 -20.2705l26.3799 17.5898c2.58301 1.78906 5.74805 2.85547 9.12402 2.85547c8.83105 0 16 -7.16895 16 -16c0 -5.65527 -2.94043 -10.6289 -7.37402 -13.4746
l-24.79 -16.54c3.30566 -7.02148 5.65527 -14.7568 6.76953 -22.7207l30.8809 4.41016c0.746094 0.107422 1.47754 0.161133 2.25293 0.161133c8.83203 0 16.002 -7.16992 16.002 -16.002c0 -8.05469 -5.96484 -14.7285 -13.7158 -15.8389l-34.2695 -4.90039v-22.5195
l34.25 -4.90039c7.75586 -1.10449 13.7432 -7.78125 13.7432 -15.8398c0 -8.82812 -7.16602 -15.9961 -15.9932 -16c-0.776367 0 -1.52246 0.0546875 -2.26953 0.160156l-19.4102 2.76953z" />
    <glyph glyph-name="disease" unicode="&#xf7fa;" 
d="M472.29 252.1c48.54 -16.6191 53.8301 -73.8301 8.99023 -96.79l-62 -31.7393c-17.8301 -9.12988 -29.2803 -25.2002 -30.6299 -43l-4.7002 -61.8604c-3.4502 -44.79 -65.1299 -66.7803 -104.45 -37.2197l-54.3203 40.8301
c-15.6201 11.7295 -36.96 16.1201 -57.0693 11.7295l-70 -15.2803c-50.6504 -11.0596 -94.1104 32.5605 -73.46 73.8008l28.4297 57c8.17969 16.3799 6.43945 35.1699 -4.63965 50.2393l-38.54 52.4209c-27.9307 37.9492 7 86.9092 59 82.8398l71.8994 -5.62012
c20.6602 -1.62012 40.9404 5.59961 54.2002 19.3096l46.0898 47.7207c33.4297 34.5098 98.4199 21.1494 110 -22.6201l16 -60.4502c4.60059 -17.3906 18.8604 -31.71 38.1406 -38.3105zM160 192c17.6611 0 32 14.3389 32 32s-14.3389 32 -32 32s-32 -14.3389 -32 -32
s14.3389 -32 32 -32zM288 96c17.6611 0 32 14.3389 32 32s-14.3389 32 -32 32s-32 -14.3389 -32 -32s14.3389 -32 32 -32zM304 224c8.83105 0 16 7.16895 16 16s-7.16895 16 -16 16s-16 -7.16895 -16 -16s7.16895 -16 16 -16z" />
    <glyph glyph-name="egg" unicode="&#xf7fb;" horiz-adv-x="384" 
d="M192 448c106 0 192 -214 192 -320s-86 -192 -192 -192s-192 86 -192 192s86 320 192 320z" />
    <glyph glyph-name="egg-fried" unicode="&#xf7fc;" 
d="M478.32 297.55c54.3193 -51.5498 38.8896 -149.28 -17.3906 -192.1c-47.5293 -36.1699 -97.25 -32.4502 -140.93 -73.8906c-57.7002 -54.7393 -111.64 -119.84 -204.64 -86.4492c-62.1406 22.3096 -110.561 84.8301 -114.971 150.739
c-4.40918 65.9102 38.9004 128.57 50 192.91c13.29 77.1406 38.2207 143.141 125 157.141c70.4199 11.3496 108.73 -25.1006 158.54 -66.1104c43.6602 -35.9502 104.891 -41.5303 144.391 -82.2402zM224 95.6201c61.8096 0 112 50.2803 112 112.11
c0 61.8291 -50.2598 112.119 -112 112.119s-112 -50.3096 -112 -112.119c0 -61.8105 50.2598 -112.11 112 -112.11zM216 288c8.83105 0 16 -7.16895 16 -16s-7.16895 -16 -16 -16c-22.0635 -0.0273438 -39.9727 -17.9365 -40 -40c0 -8.83105 -7.16895 -16 -16 -16
s-16 7.16895 -16 16c0.0498047 39.7148 32.2852 71.9502 72 72z" />
    <glyph glyph-name="fish-cooked" unicode="&#xf7fe;" horiz-adv-x="640" 
d="M363.44 384c152.739 0 276.56 -153.6 276.56 -192s-123.82 -192 -276.56 -192c-99.96 0 -187.271 65.7197 -235.9 121.94l-97 -79.2607c-13.4697 -11 -33.54 0.720703 -30.1504 17.5898l26.8799 131.73l-26.8691 131.71
c-3.40039 16.8701 16.6797 28.6104 30.1895 17.5498l97 -79.2598c48.5898 56.2803 135.851 122 235.851 122zM245.66 186.35c1.44922 -1.45508 3.45605 -2.35742 5.6709 -2.35742c2.21387 0 4.21973 0.902344 5.66895 2.35742l84.6299 84.6807
c1.4502 1.44824 2.34766 3.45117 2.34766 5.66113c0 2.20898 -0.897461 4.20996 -2.34766 5.6582l-11.3096 11.3105c-1.44824 1.4502 -3.45215 2.34766 -5.66113 2.34766c-2.20996 0 -4.21094 -0.897461 -5.65918 -2.34766l-84.6504 -84.6904
c-1.44629 -1.44727 -2.3418 -3.44922 -2.3418 -5.65625c0 -2.20605 0.895508 -4.20508 2.3418 -5.65332zM304.97 106.35l148.66 148.681c1.4502 1.44824 2.34766 3.45117 2.34766 5.66113c0 2.20898 -0.897461 4.20996 -2.34766 5.6582l-11.3096 11.3105
c-1.44824 1.4502 -3.45215 2.34766 -5.66113 2.34766c-2.20996 0 -4.21094 -0.897461 -5.65918 -2.34766l-148.65 -148.69c-1.44629 -1.44727 -2.3418 -3.44922 -2.3418 -5.65625c0 -2.20605 0.895508 -4.20508 2.3418 -5.65332l11.3105 -11.3105
c1.44824 -1.44629 3.44922 -2.3418 5.65625 -2.3418c2.20605 0 4.20605 0.895508 5.65332 2.3418zM501.66 175c1.4502 1.44824 2.34766 3.45117 2.34766 5.66113c0 2.22461 -0.910156 4.23828 -2.37793 5.68848l-11.3096 11.3105
c-1.44824 1.4502 -3.45215 2.34766 -5.66113 2.34766c-2.20996 0 -4.21094 -0.897461 -5.65918 -2.34766l-84.6201 -84.6904c-1.44727 -1.44727 -2.3418 -3.44922 -2.3418 -5.65625c0 -2.20605 0.894531 -4.20508 2.3418 -5.65332l11.3105 -11.3105
c1.44727 -1.44629 3.44922 -2.3418 5.65527 -2.3418c2.20703 0 4.20605 0.895508 5.6543 2.3418z" />
    <glyph glyph-name="flower-daffodil" unicode="&#xf800;" 
d="M495.87 128c9.18945 0 16.9795 -7.71973 16.0596 -16.8398c-9.98926 -98.1602 -106.359 -175.16 -223.76 -175.16h-64.3398c-117.4 0 -213.771 77 -223.76 175.16c-0.94043 9.12012 6.87012 16.8398 16.0596 16.8398h47.2598c62.9805 0 119.82 -22.2305 160.61 -57.9199
v96.6699c-9.82129 -4.32227 -20.8076 -6.80078 -32.2188 -6.80078c-44.0479 0 -79.8096 35.7617 -79.8096 79.8096c0 26.3311 12.7793 49.7012 32.4688 64.2412c-19.7051 14.5322 -32.4668 37.9375 -32.4668 64.2764c0 44.0322 35.748 79.7803 79.7793 79.7803
c26.3398 0 49.7148 -12.792 64.2471 -32.4971c14.5322 19.7051 37.9375 32.4668 64.2764 32.4668c44.0322 0 79.7803 -35.748 79.7803 -79.7793c0 -26.3398 -12.792 -49.7148 -32.4971 -64.2471c19.7285 -14.5342 32.4062 -37.8477 32.4062 -64.208
c0 -44.043 -35.7578 -79.7998 -79.7998 -79.7998c-11.4424 0 -22.3242 2.41309 -32.166 6.75781v-96.6699c40.79 35.6895 97.6104 57.9199 160.61 57.9199h47.2598zM256 256c26.4922 0 48 21.5078 48 48s-21.5078 48 -48 48s-48 -21.5078 -48 -48s21.5078 -48 48 -48z" />
    <glyph glyph-name="flower-tulip" unicode="&#xf801;" 
d="M495.87 128c9.18945 0 16.9795 -7.71973 16.0596 -16.8398c-9.98926 -98.1602 -106.359 -175.16 -223.76 -175.16h-64.3398c-117.4 0 -213.771 77 -223.76 175.16c-0.94043 9.12012 6.87012 16.8398 16.0596 16.8398h47.2598c62.9805 0 119.82 -22.2305 160.61 -57.9199
v121.92c-70.6455 0 -128 57.3545 -128 128v96l80 -48l81.1396 80l78.8604 -80l80 48v-96c0 -70.6455 -57.3545 -128 -128 -128v-121.92c40.79 35.6895 97.6104 57.9199 160.61 57.9199h47.2598z" />
    <glyph glyph-name="folder-tree" unicode="&#xf802;" horiz-adv-x="576" 
d="M544 416c17.6611 0 32 -14.3389 32 -32v-128c0 -17.6611 -14.3389 -32 -32 -32h-224c-17.6611 0 -32 14.3389 -32 32v160c0 17.6611 14.3389 32 32 32h80l32 -32h112zM544 128c17.6611 0 32 -14.3389 32 -32v-128c0 -17.6611 -14.3389 -32 -32 -32h-224
c-17.6611 0 -32 14.3389 -32 32v160c0 17.6611 14.3389 32 32 32h80l32 -32h112zM64 432v-80h192v-64h-192v-224h192v-64h-224c-17.6611 0 -32 14.3389 -32 32v400c0 8.83105 7.16895 16 16 16h32c8.83105 0 16 -7.16895 16 -16z" />
    <glyph glyph-name="glass" unicode="&#xf804;" horiz-adv-x="384" 
d="M354 448c17.6611 0 32.0029 -14.3125 32.0029 -31.9736c0 -0.680664 -0.0205078 -1.35645 -0.0625 -2.02637l-32 -448c-1.04785 -16.7188 -14.96 -30 -31.9404 -30h-256c-16.9805 0 -30.8926 13.2812 -31.9404 30l-32 448
c-0.0419922 0.669922 -0.0595703 1.31934 -0.0595703 2c0 17.6611 14.3389 32 32 32h320zM319.63 384h-251.27l6.85938 -96h237.55z" />
    <glyph glyph-name="hamburger" unicode="&#xf805;" 
d="M464 192c26.4922 0 48 -21.5078 48 -48s-21.5078 -48 -48 -48h-416c-26.4922 0 -48 21.5078 -48 48s21.5078 48 48 48h416zM480 64c8.83105 0 16 -7.16895 16 -16v-16c0 -35.3223 -28.6777 -64 -64 -64h-352c-35.3223 0 -64 28.6777 -64 64v16
c0 8.83105 7.16895 16 16 16h448zM58.6396 224c-34.5693 0 -54.6396 43.9102 -34.8193 75.8896c40.1797 64.9102 128.64 116.011 232.18 116.11c103.55 -0.0996094 192 -51.2002 232.18 -116.12c19.8008 -31.9795 -0.25 -75.8799 -34.8193 -75.8799h-394.721zM384 336
c-8.83105 0 -16 -7.16895 -16 -16s7.16895 -16 16 -16s16 7.16895 16 16s-7.16895 16 -16 16zM256 368c-8.83105 0 -16 -7.16895 -16 -16s7.16895 -16 16 -16s16 7.16895 16 16s-7.16895 16 -16 16zM128 336c-8.83105 0 -16 -7.16895 -16 -16s7.16895 -16 16 -16
s16 7.16895 16 16s-7.16895 16 -16 16z" />
    <glyph glyph-name="hard-hat" unicode="&#xf807;" 
d="M480 160v-64h-448v64c0 80.25 49.2803 148.92 119.19 177.62l40.8096 -81.6201v112c0 8.83105 7.16895 16 16 16h96c8.83105 0 16 -7.16895 16 -16v-112l40.8096 81.6201c69.9102 -28.7002 119.19 -97.3701 119.19 -177.62zM496 64c8.83105 0 16 -7.16895 16 -16v-32
c0 -8.83105 -7.16895 -16 -16 -16h-480c-8.83105 0 -16 7.16895 -16 16v32c0 8.83105 7.16895 16 16 16h480z" />
    <glyph glyph-name="head-side-brain" unicode="&#xf808;" 
d="M160 269.06c-0.09375 0.0361328 -0.191406 0.0664062 -0.290039 0.0908203c0.0595703 0.959961 0.290039 1.84961 0.290039 2.84961v-2.94043zM509.21 173c1.76367 -3.9668 2.75879 -8.38281 2.75879 -13c0 -17.6514 -14.3213 -31.9834 -31.9688 -32h-32v-64
c0 -35.3223 -28.6777 -64 -64 -64h-64v-64h-256v177.18c-39.3125 35.0439 -64 86.0303 -64 142.785v0.0351562c0 106 86 192 192 192h74.0898c70.3066 0 132.397 -34.7715 170.04 -88.25c24.6396 -35.0195 52.1396 -139.63 73.0801 -186.75zM336 240
c26.4922 0 48 21.5078 48 48s-21.5078 48 -48 48h-2.94043c-6.38477 18.6172 -24.0879 31.9727 -44.8584 31.9727c-8.64453 0 -16.752 -2.32129 -23.7314 -6.37305c-8.44629 13.4795 -23.374 22.4492 -40.4395 22.4492c-17.0664 0 -32.0537 -8.96973 -40.5 -22.4492
c-6.91309 4.00781 -14.9834 6.35156 -23.5303 6.40039c-26.4922 0 -48 -21.5078 -48 -48c-0.0400391 0 -0.0898438 0.0136719 -0.129883 0.0136719c-26.4258 0 -47.8799 -21.4541 -47.8799 -47.8799c0 -20.9727 13.5127 -38.8135 32.2998 -45.2842
c-0.0595703 -0.959961 -0.290039 -1.84961 -0.290039 -2.84961c0 -26.4922 21.5078 -48 48 -48c5.60938 0.0537109 11.0146 1.09863 16 2.94043v-50.9404h64v50.9404c4.98535 -1.8418 10.3906 -2.88672 16 -2.94043c26.4922 0 48 21.5078 48 48
c-0.0537109 5.60938 -1.09863 11.0146 -2.94043 16h50.9404z" />
    <glyph glyph-name="head-side-medical" unicode="&#xf809;" 
d="M509.21 173c1.76367 -3.9668 2.75879 -8.38281 2.75879 -13c0 -17.6514 -14.3213 -31.9834 -31.9688 -32h-32v-64c0 -35.3223 -28.6777 -64 -64 -64h-64v-64h-256v177.18c-39.3125 35.0439 -64 86.0303 -64 142.785v0.0351562c0 106 86 192 192 192h74.0898
c70.3066 0 132.397 -34.7715 170.04 -88.25c24.6396 -35.0195 52.1396 -139.63 73.0801 -186.75zM320 232v48c0 4.41504 -3.58496 8 -8 8h-56v56c0 4.41504 -3.58496 8 -8 8h-48c-4.41504 0 -8 -3.58496 -8 -8v-56h-56c-4.41504 0 -8 -3.58496 -8 -8v-48
c0 -4.41504 3.58496 -8 8 -8h56v-56c0 -4.41504 3.58496 -8 8 -8h48c4.41504 0 8 3.58496 8 8v56h56c4.41504 0 8 3.58496 8 8z" />
    <glyph glyph-name="home-alt" unicode="&#xf80a;" horiz-adv-x="576" 
d="M280.37 299.74c2.09082 1.68555 4.76562 2.69434 7.6582 2.69434s5.55078 -1.00879 7.6416 -2.69434l184.33 -151.74v-164c0 -8.83105 -7.16895 -16 -16 -16l-112.02 0.30957c-8.83105 0 -16.001 7.16895 -16.001 15.999c0 0.0175781 0 0.0341797 0.000976562 0.0517578
v95.6396c0 8.83105 -7.16992 16 -16 16h-64c-8.83105 0 -16 -7.16895 -16 -16v-95.71c0 -8.80371 -7.12695 -15.9561 -15.9209 -16l-112.06 -0.290039c-8.83105 0 -16 7.16895 -16 16v163.89zM571.6 196.53c2.70703 -2.20117 4.42578 -5.56152 4.42578 -9.31836
c0 -2.88867 -1.02246 -5.54004 -2.72559 -7.6123l-25.5 -31c-2.20117 -2.66309 -5.53418 -4.35059 -9.25684 -4.35059c-2.90332 0 -5.56641 1.0332 -7.64258 2.75098l-235.23 193.74c-2.09082 1.68555 -4.7666 2.69434 -7.6582 2.69434
c-2.89258 0 -5.55078 -1.00879 -7.6416 -2.69434l-235.22 -193.74c-2.0752 -1.71387 -4.73926 -2.75586 -7.63867 -2.75586c-3.73242 0 -7.07031 1.70898 -9.27148 4.38574l-25.5 31c-1.71875 2.07617 -2.7627 4.74414 -2.7627 7.64648
c0 3.72266 1.69824 7.05176 4.3623 9.25391l253.13 208.47c8.29102 6.82227 18.9668 10.9209 30.5312 10.9209s22.1787 -4.09863 30.4688 -10.9209z" />
    <glyph glyph-name="home-lg" unicode="&#xf80b;" horiz-adv-x="576" 
d="M570.69 211.72c3.2627 -2.92969 5.30762 -7.18555 5.30762 -11.9121c0 -4.10156 -1.54688 -7.84473 -4.08789 -10.6777l-21.4004 -23.8203c-2.92969 -3.2627 -7.18457 -5.30762 -11.9111 -5.30762c-4.10742 0 -7.85449 1.55078 -10.6885 4.09766l-229.32 202.271
c-2.82031 2.48828 -6.53906 3.99902 -10.5928 3.99902c-4.05273 0 -7.75684 -1.51074 -10.5771 -3.99902l-229.32 -202.28c-2.83398 -2.54688 -6.58594 -4.10645 -10.6924 -4.10645c-4.72656 0 -8.97754 2.05371 -11.9072 5.31641l-21.4102 23.79
c-2.54688 2.83398 -4.10645 6.58691 -4.10645 10.6934c0 4.72656 2.05371 8.97656 5.31641 11.9072l256 226c7.06934 6.39062 16.4707 10.2852 26.7412 10.2852c10.2715 0 19.6396 -3.89453 26.709 -10.2852l101.25 -89.3809v51.6904c0 8.83105 7.16895 16 16 16h64
c8.83105 0 16 -7.16895 16 -16v-136.45zM288 333l218.74 -192.9c1.54004 -1.37988 3.55957 -2.04004 5.25977 -3.19922v-184.9c0 -8.83105 -7.16895 -16 -16 -16h-128c-8.83105 0 -16 7.16895 -16 16v128c0 8.83105 -7.16895 16 -16 16h-96c-8.83105 0 -16 -7.16895 -16 -16
v-128c0 -8.83105 -7.16895 -16 -16 -16h-128c-8.83105 0 -16 7.16895 -16 16v184.94c1.78027 1.20996 3.84961 1.88965 5.46973 3.34961z" />
    <glyph glyph-name="home-lg-alt" unicode="&#xf80c;" horiz-adv-x="576" 
d="M288 333l218.74 -192.9c1.54004 -1.37988 3.55957 -2.04004 5.25977 -3.19922v-184.9c0 -8.83105 -7.16895 -16 -16 -16h-128c-8.83105 0 -16 7.16895 -16 16v128c0 8.83105 -7.16895 16 -16 16h-96c-8.83105 0 -16 -7.16895 -16 -16v-128
c0 -8.83105 -7.16895 -16 -16 -16h-128c-8.83105 0 -16 7.16895 -16 16v184.94c1.78027 1.20996 3.84961 1.88965 5.46973 3.34961zM570.69 211.72c3.2627 -2.92969 5.30762 -7.18555 5.30762 -11.9121c0 -4.10156 -1.54688 -7.84473 -4.08789 -10.6777l-21.4004 -23.8203
c-2.92969 -3.2627 -7.18457 -5.30762 -11.9111 -5.30762c-4.10742 0 -7.85449 1.55078 -10.6885 4.09766l-229.32 202.271c-2.82031 2.48828 -6.53906 3.99902 -10.5928 3.99902c-4.05273 0 -7.75684 -1.51074 -10.5771 -3.99902l-229.32 -202.28
c-2.83398 -2.54688 -6.58594 -4.10645 -10.6924 -4.10645c-4.72656 0 -8.97754 2.05371 -11.9072 5.31641l-21.4102 23.8203c-2.54688 2.83398 -4.10645 6.58594 -4.10645 10.6934c0 4.72559 2.05371 8.97656 5.31641 11.9062l256 226
c7.06934 6.3916 16.4707 10.2852 26.7412 10.2852c10.2715 0 19.6396 -3.89355 26.709 -10.2852z" />
    <glyph glyph-name="hospital-user" unicode="&#xf80d;" horiz-adv-x="640" 
d="M480 128c-52.9834 0 -96 43.0166 -96 96s43.0166 96 96 96s96 -43.0166 96 -96s-43.0166 -96 -96 -96zM528 96c61.8145 0 112.002 -50.1738 112.002 -111.988c0 -0.210938 -0.000976562 -0.420898 -0.00195312 -0.631836
c-0.139648 -26.2598 -21.7305 -47.3799 -48 -47.3799h-224c-26.2695 0 -47.8604 21.1201 -48 47.3799c-0.000976562 0.210938 0 0.40918 0 0.620117c0 61.8145 50.1855 112 112 112c0.0273438 0 0.0556641 -0.00488281 0.0830078 -0.00488281
c2.42871 0 4.77051 -0.380859 6.9668 -1.08496c12.8193 -4.4541 26.6504 -6.87402 40.9775 -6.87402s28.0938 2.41992 40.9131 6.87402c2.19922 0.704102 4.54395 1.08984 6.97656 1.08984h0.0830078zM329.91 85.5498c-25.9033 -25.8965 -41.915 -61.665 -41.915 -101.15
c0 -0.396484 0.00195312 -0.792969 0.00488281 -1.18945c0.166016 -17.7246 6.24512 -34.1309 16.3096 -47.21h-288.31c-8.83105 0 -16 7.16895 -16 16v368c0 17.6611 14.3389 32 32 32h32v64c0 17.6611 14.3389 32 32 32h160c17.6611 0 32 -14.3389 32 -32v-64h32
c17.6611 0 32 -14.3389 32 -32v-216.62c-7.98633 -5.24609 -15.3037 -11.1562 -22.0898 -17.8301zM144 44v40c0 6.62305 -5.37695 12 -12 12h-40c-6.62305 0 -12 -5.37695 -12 -12v-40c0 -6.62305 5.37695 -12 12 -12h40c6.62305 0 12 5.37695 12 12zM144 172v40
c0 6.62305 -5.37695 12 -12 12h-40c-6.62305 0 -12 -5.37695 -12 -12v-40c0 -6.62305 5.37695 -12 12 -12h40c6.62305 0 12 5.37695 12 12zM192 294v26h26c3.31152 0 6 2.68848 6 6v20c0 3.31152 -2.68848 6 -6 6h-26v26c0 3.31152 -2.68848 6 -6 6h-20
c-3.31152 0 -6 -2.68848 -6 -6v-26h-26c-3.31152 0 -6 -2.68848 -6 -6v-20c0 -3.31152 2.68848 -6 6 -6h26v-26c0 -3.31152 2.68848 -6 6 -6h20c3.31152 0 6 2.68848 6 6zM272 44v40c0 6.62305 -5.37695 12 -12 12h-40c-6.62305 0 -12 -5.37695 -12 -12v-40
c0 -6.62305 5.37695 -12 12 -12h40c6.62305 0 12 5.37695 12 12zM272 172v40c0 6.62305 -5.37695 12 -12 12h-40c-6.62305 0 -12 -5.37695 -12 -12v-40c0 -6.62305 5.37695 -12 12 -12h40c6.62305 0 12 5.37695 12 12z" />
    <glyph glyph-name="hospitals" unicode="&#xf80e;" horiz-adv-x="640" 
d="M256 352c17.6611 0 32 -14.3389 32 -32v-352c0 -17.6611 -14.3389 -32 -32 -32h-224c-17.6611 0 -32 14.3389 -32 32v352c0 17.6611 14.3389 32 32 32v64c0 17.6611 14.3389 32 32 32h160c17.6611 0 32 -14.3389 32 -32v-64zM128 44v40c0 6.62305 -5.37695 12 -12 12h-40
c-6.62305 0 -12 -5.37695 -12 -12v-40c0 -6.62305 5.37695 -12 12 -12h40c6.62305 0 12 5.37695 12 12zM128 172v40c0 6.62305 -5.37695 12 -12 12h-40c-6.62305 0 -12 -5.37695 -12 -12v-40c0 -6.62305 5.37695 -12 12 -12h40c6.62305 0 12 5.37695 12 12zM154 288
c3.31152 0 6 2.68848 6 6v26h26c3.31152 0 6 2.68848 6 6v20c0 3.31152 -2.68848 6 -6 6h-26v26c0 3.31152 -2.68848 6 -6 6h-20c-3.31152 0 -6 -2.68848 -6 -6v-26h-26c-3.31152 0 -6 -2.68848 -6 -6v-20c0 -3.31152 2.68848 -6 6 -6h26v-26c0 -3.31152 2.68848 -6 6 -6h20
zM224 44v40c0 6.62305 -5.37695 12 -12 12h-40c-6.62305 0 -12 -5.37695 -12 -12v-40c0 -6.62305 5.37695 -12 12 -12h40c6.62305 0 12 5.37695 12 12zM224 172v40c0 6.62305 -5.37695 12 -12 12h-40c-6.62305 0 -12 -5.37695 -12 -12v-40c0 -6.62305 5.37695 -12 12 -12h40
c6.62305 0 12 5.37695 12 12zM608 352c17.6611 0 32 -14.3389 32 -32v-352c0 -17.6611 -14.3389 -32 -32 -32h-224c-17.6611 0 -32 14.3389 -32 32v352c0 17.6611 14.3389 32 32 32v64c0 17.6611 14.3389 32 32 32h160c17.6611 0 32 -14.3389 32 -32v-64zM480 44v40
c0 6.62305 -5.37695 12 -12 12h-40c-6.62305 0 -12 -5.37695 -12 -12v-40c0 -6.62305 5.37695 -12 12 -12h40c6.62305 0 12 5.37695 12 12zM480 172v40c0 6.62305 -5.37695 12 -12 12h-40c-6.62305 0 -12 -5.37695 -12 -12v-40c0 -6.62305 5.37695 -12 12 -12h40
c6.62305 0 12 5.37695 12 12zM506 288c3.31152 0 6 2.68848 6 6v26h26c3.31152 0 6 2.68848 6 6v20c0 3.31152 -2.68848 6 -6 6h-26v26c0 3.31152 -2.68848 6 -6 6h-20c-3.31152 0 -6 -2.68848 -6 -6v-26h-26c-3.31152 0 -6 -2.68848 -6 -6v-20c0 -3.31152 2.68848 -6 6 -6
h26v-26c0 -3.31152 2.68848 -6 6 -6h20zM576 44v40c0 6.62305 -5.37695 12 -12 12h-40c-6.62305 0 -12 -5.37695 -12 -12v-40c0 -6.62305 5.37695 -12 12 -12h40c6.62305 0 12 5.37695 12 12zM576 172v40c0 6.62305 -5.37695 12 -12 12h-40c-6.62305 0 -12 -5.37695 -12 -12
v-40c0 -6.62305 5.37695 -12 12 -12h40c6.62305 0 12 5.37695 12 12z" />
    <glyph glyph-name="hotdog" unicode="&#xf80f;" 
d="M488.56 424.56c14.4766 -14.4795 23.4346 -34.498 23.4346 -56.5703s-8.95801 -42.0693 -23.4346 -56.5488l-352 -352c-14.5518 -15.0674 -34.9814 -24.4199 -57.5615 -24.4199c-44.1523 0 -80 35.8467 -80 80c0 22.5801 9.375 42.9873 24.4424 57.5391l352 352
c14.4795 14.4766 34.498 23.4346 56.5703 23.4346s42.0693 -8.95801 56.5488 -23.4346zM438.63 329.37c2.89648 2.89648 4.68457 6.90137 4.68457 11.3174c0 8.83105 -7.16992 16.002 -16.002 16.002c-4.41602 0 -8.41602 -1.79297 -11.3125 -4.68945
c-12.4102 -12.4102 -21.7598 -14 -34.71 -16.2305c-14.4004 -2.46973 -32.3203 -5.55957 -51.9199 -25.1494c-19.6006 -19.5898 -22.6699 -37.5205 -25.1396 -51.9199c-2.24023 -12.9502 -3.84082 -22.3105 -16.2402 -34.71
c-12.4004 -12.4004 -21.7002 -14.0098 -34.7002 -16.2305c-14.4004 -2.46973 -32.3203 -5.5498 -51.9199 -25.1396c-19.6006 -19.5898 -22.6699 -37.5205 -25.1504 -51.9199c-2.21973 -12.9502 -3.80957 -22.29 -16.2197 -34.7002s-21.71 -14.0098 -34.71 -16.2305
c-14.4004 -2.46973 -32.3203 -5.5498 -51.9199 -25.1396c-2.89648 -2.89648 -4.68457 -6.90137 -4.68457 -11.3174c0 -8.83105 7.16992 -16.002 16.002 -16.002c4.41602 0 8.41602 1.79297 11.3125 4.68945c12.4004 12.4004 21.7598 14 34.7002 16.2305
c14.3994 2.46973 32.3301 5.55957 51.9297 25.1494c19.6006 19.5898 22.6699 37.5205 25.1396 51.9199c2.23047 12.9502 3.83008 22.2998 16.2305 34.7002s21.75 14 34.7002 16.2197c14.3994 2.48047 32.3193 5.56055 51.9199 25.1504
c19.5996 19.5898 22.6699 37.5195 25.1494 51.9199c2.23047 12.9502 3.83008 22.3096 16.2305 34.71s21.7598 14 34.7002 16.2305c14.4102 2.46973 32.3301 5.5498 51.9297 25.1396zM31.4404 125.82l-11.5508 11.5498c-24.9893 24.9902 -26.6592 63.8398 -3.71973 86.7803
l207.68 207.68c22.9404 22.9395 61.79 21.2803 86.79 -3.71973l11.54 -11.5508zM480.56 258.18l11.5508 -11.54c24.9893 -25 26.6592 -63.8496 3.71973 -86.79l-207.68 -207.68c-22.9404 -22.9395 -61.79 -21.2803 -86.79 3.71973l-11.54 11.5508z" />
    <glyph glyph-name="island-tropical" unicode="&#xf811;" horiz-adv-x="448" 
d="M336.53 416c56.4697 0 103.16 -35.4297 111.29 -81.6396c0.104492 -0.649414 0.163086 -1.30371 0.163086 -1.98242c0 -6.83203 -5.54785 -12.3799 -12.3799 -12.3799c-0.0683594 0 -0.135742 0.000976562 -0.203125 0.00195312h-35.4004l-16 32l-16 -32h-101.72
c11.2002 -48.1396 28.7197 -143.13 18.5195 -231.82c51.9404 -17.1299 92 -62.4492 99 -118.13c2.31055 -18.3096 -13.3398 -34.0498 -31.7998 -34.0498h-319.88c-19.7305 0 -34.6504 17.7002 -31.7598 37.2197c10.3457 69.3457 70.2324 122.75 142.439 122.75h53.3301
c10 42.8799 25 122.88 21 202.5l-71 -71c-5.36035 -5.35938 -14.1396 -4.25 -18.5 1.9502c-25.0801 35.7002 -19.6699 87.5801 14.54 122.58h-30.1699l-16 32l-16 -32h-35.4004c-0.0673828 -0.000976562 -0.131836 -0.0136719 -0.199219 -0.0136719
c-6.83301 0 -12.3799 5.54785 -12.3799 12.3799c0 0.678711 0.0546875 1.34473 0.15918 1.99414c8.12988 46.21 54.8203 81.6396 111.29 81.6396c50.25 0 92.3105 -28.29 106.761 -67.0801c20.6396 21.2598 51.4199 35.0801 86.2998 35.0801z" />
    <glyph glyph-name="laptop-medical" unicode="&#xf812;" horiz-adv-x="640" 
d="M232 224c-4.41504 0 -8 3.58496 -8 8v48c0 4.41504 3.58496 8 8 8h56v56c0 4.41504 3.58496 8 8 8h48c4.41504 0 8 -3.58496 8 -8v-56h56c4.41504 0 8 -3.58496 8 -8v-48c0 -4.41504 -3.58496 -8 -8 -8h-56v-56c0 -4.41504 -3.58496 -8 -8 -8h-48
c-4.41504 0 -8 3.58496 -8 8v56h-56zM576 400v-336h-512v336c0.0771484 26.4561 21.5439 47.9229 48 48h416c26.4561 -0.0771484 47.9229 -21.5439 48 -48zM512 128v256h-384v-256h384zM624 32c8.83105 0 16 -7.16895 16 -16v-16
c-0.104492 -35.2744 -28.7256 -63.8955 -64 -64h-512c-35.2744 0.104492 -63.8955 28.7256 -64 64v16c0 8.83105 7.16895 16 16 16h239.23c-0.230469 -14.5303 14.0791 -32 32.7695 -32h60.7998c18.0303 0 32 12.1904 32.7402 32h242.46z" />
    <glyph glyph-name="meat" unicode="&#xf814;" 
d="M444 379.48c66.71 -66.6709 86.7598 -154.9 49.3398 -204.301c-1.81055 -3.31641 -4.03809 -6.32031 -6.66016 -9c-38.7295 -38.6895 -113.91 -102.149 -183.8 -102.149h-100.47l-8.60059 -8.58984c-9.71973 -9.75 -11.0996 -24.0205 -6 -36.75
c2.77246 -6.92676 4.31543 -14.5293 4.31543 -22.4404c0 -33.3135 -27.0459 -60.3604 -60.3594 -60.3604c-16.7148 0 -31.8506 6.80859 -42.7852 17.8008c-15.29 15.2695 -19.6006 36.5 -15.1104 56.0996c-19.6201 -4.49023 -40.8701 -0.179688 -56.1299 15.0996
c-10.9395 10.9229 -17.667 26.002 -17.667 42.667c0 33.2969 27.0322 60.3301 60.3301 60.3301c7.88867 0 15.4268 -1.51758 22.3369 -4.27637c12.79 -5.07031 27.0801 -3.69043 36.79 6l8.60938 8.59961v100.37c0 69.8203 63.54 144.92 102.261 183.6
c2.21387 2.21289 4.63672 4.14648 7.2998 5.82031c16.7002 13.21 37.8301 20 61.4697 20c45.9404 0 100.28 -24.0498 144.83 -68.5195zM452.73 200.09c24.2998 24.2598 11.1494 91.6104 -42.7305 145.45c-33.6396 33.5898 -76.0996 54.46 -110.82 54.46
c-10.4893 0 -25.0498 -2.0498 -34.7695 -11.7598c-10.9297 -10.9199 -14.4805 -30.7803 -9.74023 -54.4805c6.13965 -30.6797 25.2598 -63.8398 52.4502 -91c33.6299 -33.5996 76.0996 -54.4697 110.82 -54.4697c10.4893 0 25.0293 2.0498 34.79 11.7998zM331.89 320.77
c9.81055 9.80078 29.7002 5.84082 44.4199 -8.86914c14.7207 -14.71 18.6904 -34.5605 8.88086 -44.3701c-9.81055 -9.81055 -29.7002 -5.83008 -44.4209 8.87012c-14.7197 14.6992 -18.6895 34.5693 -8.87988 44.3691z" />
    <glyph glyph-name="pager" unicode="&#xf815;" 
d="M448 384c35.3223 0 64 -28.6777 64 -64v-256c0 -35.3223 -28.6777 -64 -64 -64h-384c-35.3223 0 -64 28.6777 -64 64v256c0 35.3223 28.6777 64 64 64h384zM160 80v48h-80c-8.83105 0 -16 -7.16895 -16 -16v-16c0 -8.83105 7.16895 -16 16 -16h80zM288 96v16
c0 8.83105 -7.16895 16 -16 16h-80v-48h80c8.83105 0 16 7.16895 16 16zM448 224v64c0 17.6611 -14.3389 32 -32 32h-320c-17.6611 0 -32 -14.3389 -32 -32v-64c0 -17.6611 14.3389 -32 32 -32h320c17.6611 0 32 14.3389 32 32z" />
    <glyph glyph-name="pepper-hot" unicode="&#xf816;" 
d="M330.67 184.88h107.46l37.0498 -38.54c-48.5293 -87.4697 -206.54 -210.34 -419.18 -210.34c-30.9072 0 -56 25.0928 -56 56s25.0928 56 56 56c141.58 0 163.44 181.24 221.92 250.82l52.75 -24.2207v-89.7197zM461.76 313.25
c30.8984 -28.1729 50.2402 -68.7275 50.2402 -113.795v-0.145508c0 -13.6797 -2.2998 -26.6895 -5.55957 -39.3096l-54.6807 56.8799h-89.0898v78.2402l-74.6699 34.29c22.3398 14.0498 48.3398 22.5898 76.3398 22.5898
c20.2783 -0.0078125 39.6836 -4.32031 57.1602 -11.96c18.4502 37.2197 8.25977 61.96 1.40039 72.3203c-0.896484 1.29883 -1.42676 2.88184 -1.42676 4.57715c0 2.20117 0.884766 4.19727 2.31641 5.65234l22.9004 23c1.45117 1.47559 3.46777 2.39453 5.69922 2.39453
c2.5166 0 4.76367 -1.16504 6.23047 -2.98438c18.5596 -23.4805 35.2998 -71.9102 3.13965 -131.75z" />
    <glyph glyph-name="pizza" unicode="&#xf817;" horiz-adv-x="576" 
d="M403.22 44.9199l22.0498 -22.0703c6.46094 -6.45996 6.44043 -17.3896 -0.419922 -23.3896c-112.909 -99.2197 -292.229 -82.0898 -382.229 51.3701c-56.8301 84.29 -56.8301 198.04 0 282.34c89.9697 133.46 269.32 150.59 382.18 51.3701
c6.86035 -6.03027 6.87988 -16.9297 0.419922 -23.3896l-22 -22.0703c-81.8594 81.8896 -215 81.2197 -296 -2.11035c-77 -79.2002 -77 -210.75 0 -289.939c81 -83.3301 214.13 -84.0303 296 -2.11035zM131.9 67.5498c-68.6807 68.7305 -68.6807 180.17 0 248.9
c31.8213 31.8555 75.8389 51.5732 124.379 51.5732c48.5391 0 92.5088 -19.7178 124.331 -51.5732l-124.36 -124.45l124.36 -124.45c-31.8223 -31.8555 -75.8398 -51.5732 -124.379 -51.5732c-48.54 0 -92.5098 19.7178 -124.331 51.5732zM256.25 96
c-8.83105 0 -16 -7.16895 -16 -16s7.16895 -16 16 -16s16 7.16895 16 16s-7.16895 16 -16 16zM208.25 304v0c-8.83105 0 -16 -7.16895 -16 -16s7.16895 -16 16 -16s16 7.16895 16 16s-7.16895 16 -16 16zM160.25 208h0.0800781h-0.0800781c-8.83105 0 -16 -7.16895 -16 -16
s7.16895 -16 16 -16s16 7.16895 16 16s-7.16895 16 -16 16zM523.24 347.87c33.0215 -43.1875 52.6465 -97.5645 52.6465 -156.076s-19.625 -112.477 -52.6465 -155.664c-5.79004 -7.55957 -17.2207 -7.91992 -23.9502 -1.18945l-21.4199 21.4395
c66.7002 77.8398 66.7002 193.4 0 271.24l21.4199 21.4395c6.72949 6.73047 18.1602 6.36035 23.9502 -1.18945zM455.19 304.87c25.4541 -30.6055 40.7695 -70.1045 40.7695 -112.984s-15.3154 -82.21 -40.7695 -112.815l-112.841 112.93l42.8301 42.7402
c2.07422 -6.28613 7.98145 -10.834 14.9502 -10.8701c8.83105 0 16 7.16895 16 16c-0.0126953 6.98828 -4.5625 12.917 -10.8604 15zM448.1 160c8.83105 0 16 7.16895 16 16s-7.16895 16 -16 16c-8.83008 0 -16 -7.16895 -16 -16s7.16992 -16 16 -16z" />
    <glyph glyph-name="pizza-slice" unicode="&#xf818;" 
d="M158.87 447.85c181.91 -17.1699 332.02 -164.93 352.899 -345.71c1.87012 -16.2197 -7.89941 -31.54 -23.6191 -35.8994l-56.9404 -15.7803c-7.94043 186.39 -134.86 311.51 -322.479 317l14.8096 56.2705c4.12988 15.6992 19.1699 25.6396 35.3301 24.1191z
M100.4 335.85c176.069 -1.95996 294.88 -119.25 299.149 -294.14l-379 -105.1c-1.37793 -0.381836 -2.82324 -0.59375 -4.32227 -0.59375c-8.94629 0 -16.21 7.26367 -16.21 16.21c0 1.42871 0.18457 2.81348 0.532227 4.13379zM128 32c17.6611 0 32 14.3389 32 32
s-14.3389 32 -32 32s-32 -14.3389 -32 -32s14.3389 -32 32 -32zM176 184c17.6611 0 32 14.3389 32 32s-14.3389 32 -32 32s-32 -14.3389 -32 -32s14.3389 -32 32 -32zM280 80c17.6611 0 32 14.3389 32 32s-14.3389 32 -32 32s-32 -14.3389 -32 -32s14.3389 -32 32 -32z" />
    <glyph glyph-name="rings-wedding" unicode="&#xf81b;" 
d="M351.25 287.23c90.0498 -7.74023 160.75 -83.2305 160.75 -175.23c0 -0.0263672 0.0644531 -0.173828 0.0644531 -0.200195c0 -97.0986 -78.832 -175.931 -175.931 -175.931c-55.4473 0 -104.938 25.7061 -137.193 65.8408
c-7.55078 -1.0752 -15.1084 -1.65234 -22.9404 -1.70996c-97.1367 0 -176 78.8633 -176 176c0 81.6201 55.6396 150.07 131 170l-35 70l32 32h96l32 -32l-35 -70c75.3604 -19.9297 131 -88.3799 131 -170c0 -0.0126953 0.0800781 0.00390625 0.0800781 -0.00878906
c0 -52.1904 -22.8486 -99.0859 -59.0801 -131.222c-18.7578 12.0352 -32.0801 31.7295 -35.7305 54.6309c18.9941 19.9346 30.6768 46.9307 30.7305 76.5996c0 11.7402 -2.32031 22.8496 -5.69043 33.4902c-34.6191 -18.9199 -58.3096 -55.2803 -58.3096 -97.4902
c0 -0.0126953 0.0800781 -0.0771484 0.0800781 -0.0898438c0 -61.8145 50.1855 -112 112 -112s112 50.1855 112 112c0 46.2676 -28.1162 86.0205 -68.1797 103.09c-4.95312 26.002 -14.9199 50.667 -28.6504 72.2305zM64 176c0 -58.5195 45.2803 -106.16 102.55 -111
c-4.20312 14.9658 -6.49805 30.7109 -6.5498 47c0 64.3203 34.9404 119.76 86.5 150.31c-19.3096 15.8105 -43.6504 25.6904 -70.5 25.6904c-61.7842 -0.0664062 -111.934 -50.2158 -112 -112z" />
    <glyph glyph-name="salad" unicode="&#xf81e;" 
d="M96 192c-52.9834 0 -96 43.0166 -96 96s43.0166 96 96 96c8.71191 -0.120117 17.1523 -1.43066 25.1504 -3.75c17.1318 39.8779 56.6729 67.835 102.797 67.835s85.7705 -27.957 102.902 -67.835c7.99805 2.31934 16.4385 3.62988 25.1504 3.75
c28.6904 0 54.1396 -12.8398 71.7305 -32.7803c-2.61035 0.160156 -5.08008 0.780273 -7.73047 0.780273c-70.6094 -0.0771484 -127.923 -57.3906 -128 -128c0.144531 -11.0654 1.72754 -21.7891 4.54004 -32h-52.54v152c0 4.41504 -3.58496 8 -8 8h-16
c-4.41504 0 -8 -3.58496 -8 -8v-145.37l-103 103c-1.44824 1.44727 -3.44922 2.34277 -5.65625 2.34277s-4.20605 -0.895508 -5.65332 -2.34277l-11.3203 -11.3203c-1.44727 -1.44727 -2.34277 -3.44922 -2.34277 -5.65527c0 -2.20703 0.895508 -4.20605 2.34277 -5.6543
l87 -87h-73.3701zM320 224c0 0.0488281 -0.0332031 0.0546875 -0.0332031 0.102539c0 52.9121 42.958 95.8701 95.8701 95.8701s95.8701 -42.958 95.8701 -95.8701c0 -11.7217 -2.10938 -22.9561 -5.9668 -33.3428c-3.40625 0.791016 -6.92969 1.2207 -10.5703 1.24023
h-169.29c-3.68262 9.9707 -5.77148 20.7822 -5.87988 32zM495.17 160c9.15039 0 16.8896 -7.71973 16.0996 -16.8398c-6.60938 -76.1602 -57.8691 -139.03 -127.27 -163.65v-11.5098c0 -17.6611 -14.3389 -32 -32 -32h-192c-17.6611 0 -32 14.3389 -32 32v11.3096
c-69.7305 24.46 -121.31 87.4805 -127.94 163.851c-0.799805 9.12012 6.94043 16.8398 16.1104 16.8398h479z" />
    <glyph glyph-name="sandwich" unicode="&#xf81f;" 
d="M480 416c17.6611 0 32 -14.3389 32 -32v-96c0 -17.6611 -14.3389 -32 -32 -32h-448c-17.6611 0 -32 14.3389 -32 32v96c0 17.6611 14.3389 32 32 32h448zM497.9 192.71c7.90625 -0.918945 14.0723 -7.63477 14.0996 -15.7803v-32.1396
c-0.104492 -8.88965 -7.33789 -16.0781 -16.252 -16.0781c-0.542969 0 -1.0791 0.0263672 -1.6084 0.078125c-28.5195 2.59961 -45.9395 11.3604 -60.4092 18.5996c-14.6104 7.31055 -25.1904 12.6104 -49.6104 12.6104s-35 -5.2998 -49.6396 -12.6201
c-17.2607 -8.62988 -38.7002 -19.3799 -78.2607 -19.3799c-39.5596 0 -61.0801 10.7305 -78.3398 19.3799c-14.6797 7.32031 -25.2998 12.6201 -49.7695 12.6201c-24.4707 0 -35.1104 -5.2998 -49.75 -12.6299c-14.5107 -7.23047 -31.9307 -15.96 -60.5107 -18.5898
c-0.52832 -0.0527344 -1.04785 -0.0751953 -1.59082 -0.0751953c-8.91211 0 -16.1592 7.18555 -16.2588 16.0752v32.1396c0.0175781 8.15137 6.1875 14.875 14.0996 15.79c15.1602 1.66992 24.1602 6.16992 35.6699 11.9102
c17.2305 8.64941 38.7607 19.3799 78.3408 19.3799s61.0801 -10.75 78.3594 -19.3799c14.6699 -7.32031 25.3301 -12.6201 49.75 -12.6201s35 5.2998 49.6406 12.6201c17.2598 8.62988 38.7197 19.3799 78.2598 19.3799s61 -10.75 78.2695 -19.3896
c11.5107 -5.73047 20.4307 -10.2207 35.5107 -11.9004zM480 96c17.6611 0 32 -14.3389 32 -32v-64c0 -17.6611 -14.3389 -32 -32 -32h-448c-17.6611 0 -32 14.3389 -32 32v64c0 17.6611 14.3389 32 32 32h192l96 -48l96 48h64z" />
    <glyph glyph-name="sausage" unicode="&#xf820;" 
d="M447.83 378.17c37.29 -13.1699 64.1699 -48.3701 64.1699 -90.1699c0 -194.09 -157.91 -352 -352 -352c-41.7998 0 -77 26.8799 -90.1699 64.21l-45.6504 -15.21c-1.8252 -0.608398 -3.78125 -0.942383 -5.80957 -0.942383c-10.123 0 -18.3438 8.20605 -18.3701 18.3223
v59.2402c0.0185547 10.1172 8.24121 18.3223 18.3633 18.3223c2.03223 0 3.98828 -0.331055 5.81641 -0.942383l45.6504 -15.1699c13.1699 37.29 48.3701 64.1699 90.1699 64.1699c88.2197 0 160 71.7803 160 160c0 41.7998 26.8799 77 64.21 90.1699l-15.21 45.6504
c-0.611328 1.82812 -0.946289 3.78711 -0.946289 5.81934c0 10.1221 8.20898 18.3418 18.3262 18.3604h59.2402c10.1172 -0.0185547 18.3223 -8.24121 18.3223 -18.3633c0 -2.03223 -0.331055 -3.98828 -0.942383 -5.81641zM160 48c132.34 0 240 107.66 240 240
c0 8.83105 -7.16895 16 -16 16s-16 -7.16895 -16 -16c0 -114.69 -93.3096 -208 -208 -208c-8.83105 0 -16 -7.16895 -16 -16s7.16895 -16 16 -16z" />
    <glyph glyph-name="shish-kebab" unicode="&#xf821;" 
d="M126.55 192.41l129.86 -129.83c5.53809 -5.54004 8.96484 -13.1992 8.96484 -21.6445c0 -8.44434 -3.42676 -16.0947 -8.96484 -21.6357l-42.2998 -42.2998c-5.54004 -5.54297 -13.2012 -8.97461 -21.6494 -8.97461s-16.1016 3.43164 -21.6406 8.97461l-129.82 129.82
c-5.54297 5.53906 -8.97461 13.2012 -8.97461 21.6484c0 8.44824 3.43164 16.1016 8.97461 21.6416l42.2695 42.2998c5.54102 5.53809 13.2002 8.96484 21.6445 8.96484c8.44531 0 16.0957 -3.42676 21.6357 -8.96484zM234.77 300.62l129.811 -129.851
c5.54297 -5.53906 8.97461 -13.2002 8.97461 -21.6484s-3.43164 -16.1016 -8.97461 -21.6406l-42.2998 -42.3008c-5.54102 -5.53809 -13.2002 -8.96484 -21.6445 -8.96484s-16.0957 3.42676 -21.6357 8.96484l-129.82 129.86
c-5.53809 5.54004 -8.96484 13.1992 -8.96484 21.6445c0 8.44434 3.42676 16.0947 8.96484 21.6357l42.3008 42.2998c5.54199 5.53809 13.2021 8.96582 21.6484 8.96582c8.44727 0 16.0986 -3.42773 21.6406 -8.96582zM4.5498 -25.5195l61.7705 61.7295l33.9492 -33.9404
l-61.7793 -61.7295c-2.80566 -2.81348 -6.68945 -4.55664 -10.9727 -4.55664s-8.16211 1.74316 -10.9678 4.55664l-12 12c-2.81348 2.80469 -4.55566 6.68848 -4.55566 10.9717s1.74219 8.16309 4.55566 10.9688zM511.21 363.93
c0.544922 -4.11914 0.766602 -8.31641 0.766602 -12.584c0 -19.8916 -6.10645 -38.3682 -16.5469 -53.6553c-5.37012 -7.84082 -16.8193 -8.4707 -23.54 -1.75l-12.29 12.29c-5.21973 5.22949 -5.61914 13.1592 -1.90918 19.5498
c4.05078 7.02637 6.40137 15.1777 6.40137 23.8643c0 2.11035 -0.136719 4.1875 -0.401367 6.22559c-1.98047 15.4502 -10.9102 28.4502 -25.1309 36.4502c-6.62891 3.76758 -14.3906 5.91895 -22.5547 5.91895c-8.53809 0 -16.5312 -2.35449 -23.3652 -6.44922
c-25.6094 -15.1104 -29.2295 -43.9297 -19.6094 -63.3604c11.1895 -22.5801 7.62988 -47.9893 -9.08984 -64.7197l-24.4805 -24.46l-33.9297 33.9297l24.4697 24.4502c2.28027 2.33008 1.44043 6.56055 0 9.49023c-22.29 44.8799 -6.7998 97.8799 35.8604 124.59
c14.5449 9.02051 31.8994 14.2285 50.2578 14.2285c17.3652 0 33.6504 -4.66016 47.6719 -12.7988c26.3604 -15.5293 43.6396 -41.5 47.4199 -71.21z" />
    <glyph glyph-name="sickle" unicode="&#xf822;" 
d="M129.94 139.31l73.4297 -73.3594c2.89648 -2.89648 4.68945 -6.90137 4.68945 -11.3174s-1.79297 -8.41699 -4.68945 -11.3125l-22.6201 -22.6201c-2.89648 -2.89746 -6.90137 -4.69043 -11.3174 -4.69043s-8.41602 1.79297 -11.3125 4.69043l-2.74023 2.74023
l-82.75 -82.75c-2.89648 -2.89746 -6.90137 -4.69043 -11.3174 -4.69043s-8.41602 1.79297 -11.3125 4.69043l-45.3096 45.25c-2.89746 2.89551 -4.69043 6.90039 -4.69043 11.3164s1.79297 8.41699 4.69043 11.3135l82.7393 82.7393l-2.73926 2.75
c-2.89746 2.89648 -4.69043 6.90137 -4.69043 11.3174s1.79297 8.41699 4.69043 11.3135l22.6191 22.6191c2.89648 2.89746 6.90137 4.69043 11.3174 4.69043s8.41699 -1.79297 11.3135 -4.69043zM320 448c128 0 181.17 -100.72 191.82 -155.39
c1.64941 -8.41016 -9.06055 -13.3799 -14.1406 -6.48047c-12.6465 17.0596 -28.6416 31.0898 -47.3301 41.4199c-44.4697 24.9004 -100.96 23.2402 -144.05 -4c-70.7598 -44.7295 -85.4102 -131.8 -46.8799 -196l-35.4199 -35.4199l-31.71 30.0898
c-45.7002 45.6904 -70.1504 111.2 -56.4102 174.34c17.8701 82.1309 88.1201 151.44 184.12 151.44z" />
    <glyph glyph-name="soup" unicode="&#xf823;" 
d="M191.11 301.5c-2.75684 17.0176 -10.8018 32.3604 -22.4004 44.0996c-21.8916 22.291 -36.6543 51.7773 -40.5996 84.4004c-0.0585938 0.560547 -0.0898438 1.11426 -0.0898438 1.69043c0 9.00195 7.30859 16.3096 16.3105 16.3096h0.0791016h16.3994
c0.0537109 0.000976562 0.104492 -0.015625 0.157227 -0.015625c8.10156 0 14.8145 -5.99316 15.9434 -13.7842c2.87891 -20.6689 12.4248 -39.3281 26.3994 -53.5c19.5088 -19.7441 32.7725 -45.8184 36.6006 -74.7002c1.2998 -9.5 -6.5 -18 -16.2998 -18h-16.5
c-8.02246 0 -14.6943 5.84766 -16 13.5zM303.11 301.5h-0.0507812c-2.75586 17.0176 -10.8008 32.3604 -22.3994 44.0996c-21.8926 22.291 -36.6543 51.7773 -40.6006 84.4004c-1.19922 9.5 6.5 18 16.3008 18h16.3994
c0.0703125 0.000976562 0.136719 -0.0146484 0.207031 -0.0146484c8.10156 0 14.8154 -5.99414 15.9434 -13.7852c2.87891 -20.6689 12.4248 -39.3281 26.3994 -53.5c19.5088 -19.7441 32.7725 -45.8184 36.6006 -74.7002c1.2998 -9.5 -6.5 -18 -16.2998 -18h-16.5
c-8.02246 0 -14.6943 5.84766 -16 13.5zM480 256c17.6611 0 32 -14.3389 32 -32c0 -94.7002 -51.5596 -177.16 -128 -221.45v-34.5498c0 -17.6611 -14.3389 -32 -32 -32h-192c-17.6611 0 -32 14.3389 -32 32v34.5498c-76.4404 44.29 -128 126.75 -128 221.45
c0 17.6611 14.3389 32 32 32h448z" />
    <glyph glyph-name="stretcher" unicode="&#xf825;" horiz-adv-x="640" 
d="M608 320c17.6611 0 32 -14.3389 32 -32v-32c0 -17.6611 -14.3389 -32 -32 -32h-430.38c-19.0225 0 -36.1133 8.28809 -47.8398 21.4805l-121.7 128c-5.02148 5.65137 -8.09277 13.1016 -8.09277 21.249c0 9.51074 4.15723 18.0576 10.7529 23.9209l23.9199 21.2695
c5.65234 5.02441 13.1045 8.09766 21.2549 8.09766c9.5127 0 18.0615 -4.15918 23.9248 -10.7578l112.16 -117.26h416zM515.78 53.0703c17.0781 -11.498 28.2578 -31.0225 28.2578 -53.1396c0 -35.3232 -28.6777 -64 -64 -64c-35.3232 0 -64 28.6768 -64 64
c0 4.25879 0.416992 8.42188 1.21191 12.4492l-49.25 43.1006l-49.25 -43.1006c0.820312 -4.08887 1.28809 -8.20605 1.28809 -12.5352c0 -35.3604 -28.709 -64.0693 -64.0703 -64.0693c-35.3604 0 -64.0693 28.709 -64.0693 64.0693
c0 13.3145 4.06934 25.6846 11.0312 35.9355c4.62891 6.84961 10.4404 12.6611 17.29 17.29c10.0078 6.87305 22.2041 10.9131 35.251 10.9131c7.34082 0 14.3877 -1.27441 20.9297 -3.61328l43 37.6299l-107.4 94h97.1699l58.8301 -51.4805l58.7998 51.4805h97.2002
l-107.4 -94l43 -37.6299c6.54199 2.33887 13.6699 3.59668 21.0117 3.59668c13.0469 0 25.1611 -4.02344 35.1689 -10.8965zM256 -16c8.83105 0 16 7.16895 16 16s-7.16895 16 -16 16s-16 -7.16895 -16 -16s7.16895 -16 16 -16zM480 -16c8.83105 0 16 7.16895 16 16
s-7.16895 16 -16 16s-16 -7.16895 -16 -16s7.16895 -16 16 -16z" />
    <glyph glyph-name="taco" unicode="&#xf826;" 
d="M256 256c130.18 0 237.86 -107.4 255.68 -247.08c2.76074 -21.5801 -12.6797 -40.9199 -32.2393 -40.9199h-446.881c-19.5596 0 -34.9893 19.3398 -32.2393 40.9199c17.8193 139.68 125.5 247.08 255.68 247.08zM112 32c8.83105 0 16 7.16895 16 16s-7.16895 16 -16 16
s-16 -7.16895 -16 -16s7.16895 -16 16 -16zM176 96c8.83105 0 16 7.16895 16 16s-7.16895 16 -16 16s-16 -7.16895 -16 -16s7.16895 -16 16 -16zM7.33008 168.52c-0.0302734 0.0800781 -0.0498047 0.170898 0.0195312 0.240234
c-5.15918 17.2998 -10.9697 36.9199 -4.15918 55c7.14941 19.0703 24.7598 29.3604 40.3096 38.46c9.49023 5.53027 19.3203 11.29 23.71 17.5303c4.74023 6.71973 7.33008 18.54 9.83008 30c3.9502 18.0801 8.44043 38.5801 23.6396 50.6396
c15.6807 12.4502 36 11.0508 54 9.81055c10.79 -0.759766 21.96 -1.5 29.1807 1.09961c6.88965 2.50977 15.0801 10.1406 23 17.5098c47.7197 44.46 69.3301 27.0205 98.3799 -0.0498047c7.87988 -7.37012 16.0693 -15 23 -17.5098
c7.17969 -2.59961 18.3896 -1.86035 29.1797 -1.09961c18 1.18945 38.3105 2.63965 54 -9.81055c15.2002 -12.0596 19.6904 -32.5596 23.6396 -50.6396c2.5 -11.4902 5.09082 -23.3105 9.83008 -30c4.39062 -6.24023 14.2207 -11.9902 23.71 -17.5303
c15.5508 -9.09961 33.1602 -19.4004 40.3105 -38.46c6.83984 -18.0596 0.979492 -37.6797 -4.16016 -55c-0.0302734 -0.0800781 -0.0800781 -0.169922 -0.0800781 -0.259766c-2.49609 -8.98633 -4.05762 -18.4297 -4.53027 -28.0898
c-52.1396 89.1201 -143.05 147.64 -244.14 147.64s-192 -58.5098 -244.14 -147.62c-0.473633 9.67676 -2.03516 19.1367 -4.53027 28.1396z" />
    <glyph glyph-name="tanakh" unicode="&#xf827;" horiz-adv-x="448" 
d="M318 308.56l-17.4199 -29.1895l-17.4805 29.1895h34.9004zM283.14 203.44l17.4404 29.1699l17.4697 -29.1699h-34.9102zM224.05 151.37l-16.7998 28.0703h33.5801zM130 203.44l17.4199 29.1895l17.4805 -29.1895h-34.9004zM164.89 308.56l-17.4199 -29.1699
l-17.4697 29.1699h34.8896zM352 448c54.4004 0 96 -41.5996 96 -96v-320c0 -54.4004 -41.5996 -96 -96 -96h-326.4c-12.7998 0 -25.5996 9.59961 -25.5996 25.5996v16c0 6.40039 3.2002 12.8008 9.59961 19.2002c3.2002 16 3.2002 60.7998 0 73.6006
c-6.39941 3.2002 -9.59961 9.59961 -9.59961 19.1992v332.801c0 16 9.59961 25.5996 25.5996 25.5996h326.4zM105.41 322.41c-1.66113 -2.87793 -2.61133 -6.25879 -2.61133 -9.81738c0 -3.71973 1.03809 -7.19824 2.84082 -10.1631l27.79 -46.4297l-27.6602 -46.2695
c-1.80078 -3.00293 -2.84961 -6.53711 -2.84961 -10.29c0 -11.0352 8.95605 -19.9951 19.9902 -20h56.3896l27.7002 -46.2803c3.41895 -5.80371 9.71973 -9.68066 16.9375 -9.68066c0.0205078 0 0.0419922 0 0.0625 0.000976562
c7.32422 0.00488281 13.7207 3.93457 17.2002 9.81934l27.5898 46.1201h56.2998c0.00976562 0 0.00683594 -0.0214844 0.0175781 -0.0214844c7.48438 0 14.0205 4.09863 17.4824 10.1719c1.66406 2.87988 2.61719 6.26367 2.61719 9.82715
c0 3.72363 -1.04102 7.20605 -2.84668 10.1729l-27.79 46.4297l27.6797 46.2695c1.80176 3.00293 2.84961 6.53711 2.84961 10.29c0 11.0352 -8.95605 19.9951 -19.9893 20h-56.3604l-27.7002 46.2803c-3.41895 5.80371 -9.71973 9.68066 -16.9375 9.68066
c-0.0205078 0 -0.0410156 0 -0.0625 -0.000976562c-0.0117188 0.000976562 -0.00976562 0.0214844 -0.0214844 0.0214844c-7.33105 0 -13.7461 -3.95215 -17.2285 -9.84082l-27.5898 -46.1406h-56.2998c-0.00976562 0 -0.00683594 0.0214844 -0.0175781 0.0214844
c-7.48438 0 -14.0205 -4.09766 -17.4824 -10.1709zM352 0c19.2002 0 32 12.7998 32 32s-16 32 -32 32h-284.8v-64h284.8zM224 360.62l16.7998 -28.0605h-33.5801zM192.88 203.44l-31.4697 52.5596l31.4102 52.5801h62.2998l31.4697 -52.5801l-31.4102 -52.5596h-62.2998z
" />
    <glyph glyph-name="user-hard-hat" unicode="&#xf82c;" horiz-adv-x="448" 
d="M88 272c-4.41504 0 -8 3.58496 -8 8v32c0 4.41504 3.58496 8 8 8h8c0 0.0117188 -0.078125 -0.0283203 -0.078125 -0.0166016c0 46.3828 28.2559 86.2178 68.4785 103.217l27.5996 -55.2002v64c0 8.83105 7.16895 16 16 16h32c8.83105 0 16 -7.16895 16 -16v-64
l27.5996 55.2002c40.2227 -16.999 68.4004 -56.7822 68.4004 -103.165v-0.0351562h8c4.41504 0 8 -3.58496 8 -8v-32c0 -4.41504 -3.58496 -8 -8 -8h-272zM313.6 96c74.1777 0 134.4 -60.2227 134.4 -134.4c0 -14.1289 -11.4707 -25.5996 -25.5996 -25.5996h-396.801
c-14.1289 0 -25.5996 11.4707 -25.5996 25.5996c0 74.1777 60.2227 134.4 134.4 134.4h16.6992c22.1426 -10.2109 47.085 -15.9072 73.0498 -15.9072c25.9639 0 50.6084 5.69629 72.751 15.9072h16.6992zM224 128c-65.2197 0 -118.44 48.9404 -126.39 112h252.779
c-7.94922 -63.0596 -61.1699 -112 -126.39 -112z" />
    <glyph glyph-name="user-headset" unicode="&#xf82d;" horiz-adv-x="448" 
d="M320 96c70.6455 0 128 -57.3545 128 -128c0 -17.6611 -14.3389 -32 -32 -32h-384c-17.6611 0 -32 14.3389 -32 32c0 70.6455 57.3545 128 128 128h23.0996c22.1426 -10.2109 47.085 -15.9072 73.0498 -15.9072c25.9639 0 50.6084 5.69629 72.751 15.9072h23.0996zM48 224
c-8.83105 0 -16 7.16895 -16 16v16c0 105.87 86.1299 192 192 192s192 -86.1299 192 -192v-16c-0.0771484 -61.7783 -50.2217 -111.923 -112 -112h-96c-17.6611 0 -32 14.3389 -32 32s14.3389 32 32 32h32c17.6611 0 32 -14.3389 32 -32h32
c44.1299 0.0498047 79.9502 35.8701 80 80v16c0 88.2197 -71.7803 160 -160 160s-160 -71.7803 -160 -160v-16c0 -8.83105 -7.16895 -16 -16 -16zM208 224c-35.3047 -0.0380859 -63.9619 -28.6953 -64 -64c0 -1.19043 0.290039 -2.2998 0.349609 -3.46973
c-29.25 23.4697 -48.3496 59.0498 -48.3496 99.4697c0 70.6455 57.3545 128 128 128s128 -57.3545 128 -128v-16c-0.0273438 -26.4795 -21.5205 -47.9727 -48 -48h-8.58984c-11.0605 19.1572 -31.7197 31.9941 -55.4102 32h-32z" />
    <glyph glyph-name="user-md-chat" unicode="&#xf82e;" horiz-adv-x="640" 
d="M104 24c0 13.2461 10.7539 24 24 24s24 -10.7539 24 -24s-10.7539 -24 -24 -24s-24 10.7539 -24 24zM224 192c-70.6455 0 -128 57.3545 -128 128s57.3545 128 128 128s128 -57.3545 128 -128s-57.3545 -128 -128 -128zM320 159.35
c71.1797 -3.41992 128 -61.7197 128 -133.75v-41.5996c0 -26.4922 -21.5078 -48 -48 -48h-352c-26.4922 0 -48 21.5078 -48 48v41.5996c0 66.5605 48.4902 121.4 112 132.141v-80.3398c-23.1191 -6.89355 -40.0049 -28.3291 -40.0049 -53.6758
c0 -30.9072 25.0928 -56 56 -56s56 25.0928 56 56c0 25.3467 -16.876 46.7822 -39.9951 53.6758v81.5996c7.75293 -0.956055 15.4023 -2.74414 22.5801 -5.20996c17.8682 -6.29395 37.2383 -9.69922 57.248 -9.69922c22.6797 0 44.3389 4.39941 64.1719 12.3896v-46.1006
c-36.4404 -7.48828 -63.9473 -39.75 -64 -78.3799v-42.0498c0 -0.0292969 0.0166016 -0.0566406 0.0166016 -0.0859375c0 -8.0957 6.02539 -14.7959 13.833 -15.8545l31.1699 -4.24023c0.508789 -0.101562 1.02832 -0.148438 1.56738 -0.148438
c3.87402 0 7.1084 2.75977 7.84277 6.41895l3.14062 15.6904c0.100586 0.507812 0.148438 1.02637 0.148438 1.56445c0 3.87695 -2.76465 7.11426 -6.42871 7.84473l-19.29 3.86035v25c0 23.25 15.6396 44.5801 38.4297 49
c3.08008 0.620117 6.22949 0.943359 9.49023 0.943359c26.4912 0 48.0059 -21.4697 48.0801 -47.9434v-26.9102l-19.2695 -3.85938c-3.66406 -0.731445 -6.43457 -3.96191 -6.43457 -7.83984c0 -0.537109 0.0527344 -1.0625 0.154297 -1.57031l3.13965 -15.6904
c0.735352 -3.65918 3.96289 -6.4248 7.83691 -6.4248c0.539062 0 1.06445 0.0537109 1.57324 0.155273l32.1396 6.44922c7.32324 1.46582 12.8604 7.93848 12.8604 15.6904v40c-0.0673828 38.6162 -27.5693 70.8633 -64 78.3496v49zM512 448
c70.6904 0 128 -50.1504 128 -112s-57.3096 -112 -128 -112c-8.95215 0.00585938 -17.5918 0.818359 -26.0996 2.37012c-22.8701 -17.2305 -55.3809 -34.3604 -95.2207 -34.3604c-2.67969 0 -5.01953 1.87012 -6.10938 5
c-0.375977 1.04297 -0.579102 2.18066 -0.579102 3.35254c0 2.13086 0.677734 4.10449 1.8291 5.71777c12.209 17.2305 22.7324 35.8047 31.29 55.3701c-20.3604 19.8301 -33.1104 45.79 -33.1104 74.5498c0 61.8496 57.3096 112 128 112z" />
    <glyph glyph-name="users-medical" unicode="&#xf830;" horiz-adv-x="640" 
d="M96 224c-35.3076 0.0332031 -63.9668 28.6924 -64 64c0 35.3223 28.6777 64 64 64s64 -28.6777 64 -64s-28.6777 -64 -64 -64zM320 192c-0.0205078 0 -0.0400391 -0.000976562 -0.0595703 -0.000976562c-61.7822 0 -111.94 50.1582 -111.94 111.939v0.0615234
c0 61.8145 50.1855 112 112 112s112 -50.1855 112 -112s-50.1855 -112 -112 -112zM352 96c0 -52.5303 25.7803 -98.8096 65 -128h-241c-26.4922 0 -48 21.5078 -48 48v28.7998c0.0166016 63.5732 51.627 115.184 115.2 115.2h8.2998c20.9004 -10 43.9004 -16 68.5 -16
c14.6055 0.0859375 28.7256 2.25098 42.0898 6.16992c-6.16992 -17 -10.0898 -35.0703 -10.0898 -54.1699zM173.1 173.4c-40.2061 -21.9053 -68.9023 -62.1396 -75.1992 -109.4h-65.9004c-17.6611 0 -32 14.3389 -32 32v32c0.0332031 35.3076 28.6924 63.9668 64 64h64
c0.0234375 0 0.0556641 0.0078125 0.0791016 0.0078125c17.5625 0 33.4775 -7.11035 45.0205 -18.6074zM512 224c70.6455 0 128 -57.3545 128 -128s-57.3545 -128 -128 -128s-128 57.3545 -128 128s57.3545 128 128 128zM576 80v32
c0 2.94141 -2.38867 5.33008 -5.33008 5.33008h-37.3398v37.3398c0 2.94141 -2.38867 5.33008 -5.33008 5.33008h-32c-2.94141 0 -5.33008 -2.38867 -5.33008 -5.33008v-37.3398h-37.3398c-2.94141 0 -5.33008 -2.38867 -5.33008 -5.33008v-32
c0 -2.94141 2.38867 -5.33008 5.33008 -5.33008h37.3398v-37.3398c0 -2.94141 2.38867 -5.33008 5.33008 -5.33008h32c2.94141 0 5.33008 2.38867 5.33008 5.33008v37.3398h37.3398c2.94141 0 5.33008 2.38867 5.33008 5.33008z" />
    <glyph glyph-name="walker" unicode="&#xf831;" horiz-adv-x="448" 
d="M416 55.1201c19.1611 -11.0635 31.9316 -31.7695 31.9316 -55.4668c0 -35.3223 -28.6777 -64 -64 -64c-35.3232 0 -64 28.6777 -64 64c0 23.6973 12.9072 44.4033 32.0684 55.4668v168.88h-224.19l-64.5293 -274.76
c-1.31738 -7.50879 -7.8623 -13.2373 -15.7451 -13.2373c-0.939453 0 -1.86035 0.0810547 -2.75488 0.237305l-31.54 5.47949c-7.50977 1.31641 -13.2383 7.86133 -13.2383 15.7461c0 0.942383 0.0810547 1.86621 0.238281 2.76465l95.7598 407.77
c7.50195 45.3115 46.9053 80.001 94.3291 80.001c0.110352 0 0.220703 -0.000976562 0.331055 -0.000976562h129.34c52.9834 0 96 -43.0166 96 -96v-296.88zM352 288v64c0 17.6611 -14.3389 32 -32 32h-129.34c-0.0273438 0 -0.0537109 -0.0302734 -0.0810547 -0.0302734
c-15.8447 0 -29.0068 -11.5732 -31.4893 -26.7197l-16.2598 -69.25h209.17zM384 -16c8.83105 0 16 7.16895 16 16s-7.16895 16 -16 16s-16 -7.16895 -16 -16s7.16895 -16 16 -16z" />
    <glyph glyph-name="webcam" unicode="&#xf832;" horiz-adv-x="448" 
d="M402.29 9.40039c9.06543 -5.64844 15.0723 -15.6846 15.0801 -27.1406v-14.2598c0 -17.6611 -14.3389 -32 -32 -32h-320c-17.6611 0 -32 14.3389 -32 32v14.2598c0 0.00976562 -0.0341797 -0.000976562 -0.0341797 0.00976562c0 11.4307 6.00684 21.4697 15.0342 27.1309
l49.1895 30.75c-58.1094 40.46 -96.2295 107.659 -96.2295 183.85c0 123.71 100.29 224 224 224s224 -100.29 224 -224c0 -76.1904 -38.1201 -143.39 -96.2305 -183.85zM225.29 64c88.2881 0.0224609 160 71.707 160 160c0 88.3066 -71.6934 160 -160 160
s-160 -71.6934 -160 -160s71.6934 -160 160 -160zM225.29 352c70.626 -0.0224609 128 -57.3682 128 -128c0 -70.6455 -57.3545 -128 -128 -128s-128 57.3545 -128 128s57.3545 128 128 128zM225.29 272c8.83105 0 16 7.16895 16 16s-7.16895 16 -16 16
c-44.1299 -0.0498047 -79.9502 -35.8701 -80 -80c0 -8.83105 7.16895 -16 16 -16s16 7.16895 16 16c0.0273438 26.4795 21.5205 47.9727 48 48z" />
    <glyph glyph-name="webcam-slash" unicode="&#xf833;" horiz-adv-x="640" 
d="M163.46 191.08c15.1299 -72.2803 80.1201 -130.08 163.54 -126.38l163.7 -126.54c-3.32031 -1.29883 -6.94434 -2.06445 -10.7002 -2.16016h-320c-17.6611 0 -32 14.3389 -32 32v14.2598c0 0.00976562 -0.0341797 -0.000976562 -0.0341797 0.00976562
c0 11.4307 6.00684 21.4697 15.0342 27.1309l49.2305 30.75c-58.1104 40.46 -96.2305 107.659 -96.2305 183.85c0 6.24023 0.429688 12.3799 0.929688 18.4902zM633.82 -10.0996c3.76855 -2.92871 6.17676 -7.50977 6.17676 -12.6475
c0 -3.69238 -1.25293 -7.09375 -3.35742 -9.80273l-19.6396 -25.2705c-2.92871 -3.76855 -7.50879 -6.17578 -12.6465 -6.17578c-3.69727 0 -7.10254 1.25684 -9.81348 3.36621l-588.36 454.729c-3.76562 2.92871 -6.1709 7.50781 -6.1709 12.6426
c0 3.69434 1.25488 7.09863 3.36133 9.80762l19.6299 25.2705c2.92871 3.76855 7.50879 6.17578 12.6465 6.17578c3.69727 0 7.10254 -1.25684 9.81348 -3.36621l101.54 -78.4297c40.998 50.0117 103.174 81.7998 172.826 81.7998h0.173828c123.71 0 224 -100.29 224 -224
c0 -49.21 -16.2998 -94.3604 -43.2998 -131.21zM320 272c8.83105 0 16 7.16895 16 16s-7.16895 16 -16 16c-23.292 -0.0595703 -44.2402 -10.1162 -58.7598 -26.1396l25.2998 -19.5508c8.61914 8.46484 20.4385 13.6855 33.46 13.6904zM450.12 131.88
c18.7275 25.8623 29.8613 57.7832 29.8799 92.1201c0 88.3066 -71.6934 160 -160 160c-49.1504 0 -92.4404 -22.6201 -121.58 -57.6396l24.6504 -19c23.457 27.3613 58.2383 44.6426 97.0693 44.6426c70.5684 0 127.86 -57.292 127.86 -127.86v-0.142578
c-0.0234375 -26.9863 -8.61816 -52.1191 -23.1104 -72.6201z" />
  </font>
</defs>
</svg>
