<?xml version="1.0" standalone="no"?>
<!DOCTYPE svg PUBLIC "-//W3C//DTD SVG 1.1//EN" "http://www.w3.org/Graphics/SVG/1.1/DTD/svg11.dtd" >
<svg xmlns="http://www.w3.org/2000/svg" xmlns:xlink="http://www.w3.org/1999/xlink" version="1.1">
<metadata>
Created by FontForge 20201107 at Tue Mar 16 10:16:52 2021
 By Robert Madole
Copyright (c) Font Awesome
</metadata>
<!-- Font Awesome Pro 5.15.3 by @fontawesome - https://fontawesome.com License - https://fontawesome.com/license (Commercial License) --><defs>
<font id="FontAwesome5Pro-Solid" horiz-adv-x="448" >
  <font-face 
    font-family="Font Awesome 5 Pro Solid"
    font-weight="900"
    font-stretch="normal"
    units-per-em="512"
    panose-1="2 0 5 3 0 0 0 0 0 0"
    ascent="448"
    descent="-64"
    bbox="-0.0996094 -64.0947 640.038 448.057"
    underline-thickness="25"
    underline-position="-50"
    unicode-range="U+0020-F8FF"
  />
    <missing-glyph />
    <glyph glyph-name="align-left" unicode="&#xf036;" 
d="M12.8301 96c-7.07617 0 -12.8301 5.74414 -12.8301 12.8193v0.0107422v38.3398v0.00976562c0 7.07617 5.74414 12.8203 12.8193 12.8203h0.0107422h262.34h0.00976562c7.07617 0 12.8203 -5.74414 12.8203 -12.8193v-0.0107422v-38.3398v-0.00976562
c0 -7.07617 -5.74414 -12.8203 -12.8193 -12.8203h-0.0107422h-262.34zM12.8301 352c-7.07617 0 -12.8301 5.74414 -12.8301 12.8193v0.0107422v38.3398v0.00976562c0 7.07617 5.74414 12.8203 12.8193 12.8203h0.0107422h262.34h0.00976562
c7.07617 0 12.8203 -5.74414 12.8203 -12.8193v-0.0107422v-38.3398v-0.00976562c0 -7.07617 -5.74414 -12.8203 -12.8193 -12.8203h-0.0107422h-262.34zM432 288c8.83105 0 16 -7.16895 16 -16v-32c0 -8.83105 -7.16895 -16 -16 -16h-416c-8.83105 0 -16 7.16895 -16 16v32
c0 8.83105 7.16895 16 16 16h416zM432 32c8.83105 0 16 -7.16895 16 -16v-32c0 -8.83105 -7.16895 -16 -16 -16h-416c-8.83105 0 -16 7.16895 -16 16v32c0 8.83105 7.16895 16 16 16h416z" />
    <glyph glyph-name="align-center" unicode="&#xf037;" 
d="M432 288c8.83105 0 16 -7.16895 16 -16v-32c0 -8.83105 -7.16895 -16 -16 -16h-416c-8.83105 0 -16 7.16895 -16 16v32c0 8.83105 7.16895 16 16 16h416zM432 32c8.83105 0 16 -7.16895 16 -16v-32c0 -8.83105 -7.16895 -16 -16 -16h-416c-8.83105 0 -16 7.16895 -16 16
v32c0 8.83105 7.16895 16 16 16h416zM108.1 352c-6.67773 0 -12.0996 5.42188 -12.0996 12.0996v39.8105c0 6.67285 5.41699 12.0898 12.0898 12.0898h0.00976562h231.811c6.67285 0 12.0898 -5.41699 12.0898 -12.0898v-39.8105v-0.00976562
c0 -6.67285 -5.41699 -12.0898 -12.0898 -12.0898h-231.811zM339.91 96h-231.811c-6.67773 0 -12.0996 5.42188 -12.0996 12.0996v39.8105c0 6.67285 5.41699 12.0898 12.0898 12.0898h0.00976562h231.811c6.67285 0 12.0898 -5.41699 12.0898 -12.0898v-39.8105
v-0.00976562c0 -6.67285 -5.41699 -12.0898 -12.0898 -12.0898z" />
    <glyph glyph-name="align-right" unicode="&#xf038;" 
d="M16 224c-8.83105 0 -16 7.16895 -16 16v32c0 8.83105 7.16895 16 16 16h416c8.83105 0 16 -7.16895 16 -16v-32c0 -8.83105 -7.16895 -16 -16 -16h-416zM432 32c8.83105 0 16 -7.16895 16 -16v-32c0 -8.83105 -7.16895 -16 -16 -16h-416c-8.83105 0 -16 7.16895 -16 16
v32c0 8.83105 7.16895 16 16 16h416zM435.17 416c7.07617 0 12.8301 -5.74414 12.8301 -12.8193v-0.0107422v-38.3398v-0.00976562c0 -7.07617 -5.74414 -12.8203 -12.8193 -12.8203h-0.0107422h-262.34h-0.00976562c-7.07617 0 -12.8203 5.74414 -12.8203 12.8193
v0.0107422v38.3398v0.00976562c0 7.07617 5.74414 12.8203 12.8193 12.8203h0.0107422h262.34zM435.17 160c7.07617 0 12.8301 -5.74414 12.8301 -12.8193v-0.0107422v-38.3398v-0.00976562c0 -7.07617 -5.74414 -12.8203 -12.8193 -12.8203h-0.0107422h-262.34h-0.00976562
c-7.07617 0 -12.8203 5.74414 -12.8203 12.8193v0.0107422v38.3398v0.00976562c0 7.07617 5.74414 12.8203 12.8193 12.8203h0.0107422h262.34z" />
    <glyph glyph-name="align-justify" unicode="&#xf039;" 
d="M432 32c8.83105 0 16 -7.16895 16 -16v-32c0 -8.83105 -7.16895 -16 -16 -16h-416c-8.83105 0 -16 7.16895 -16 16v32c0 8.83105 7.16895 16 16 16h416zM432 160c8.83105 0 16 -7.16895 16 -16v-32c0 -8.83105 -7.16895 -16 -16 -16h-416c-8.83105 0 -16 7.16895 -16 16
v32c0 8.83105 7.16895 16 16 16h416zM432 288c8.83105 0 16 -7.16895 16 -16v-32c0 -8.83105 -7.16895 -16 -16 -16h-416c-8.83105 0 -16 7.16895 -16 16v32c0 8.83105 7.16895 16 16 16h416zM432 416c8.83105 0 16 -7.16895 16 -16v-32c0 -8.83105 -7.16895 -16 -16 -16
h-416c-8.83105 0 -16 7.16895 -16 16v32c0 8.83105 7.16895 16 16 16h416z" />
    <glyph glyph-name="list" unicode="&#xf03a;" horiz-adv-x="512" 
d="M80 80c8.83105 0 16 -7.16895 16 -16v-64c0 -8.83105 -7.16895 -16 -16 -16h-64c-8.83105 0 -16 7.16895 -16 16v64c0 8.83105 7.16895 16 16 16h64zM80 400c8.83105 0 16 -7.16895 16 -16v-64c0 -8.83105 -7.16895 -16 -16 -16h-64c-8.83105 0 -16 7.16895 -16 16v64
c0 8.83105 7.16895 16 16 16h64zM80 240c8.83105 0 16 -7.16895 16 -16v-64c0 -8.83105 -7.16895 -16 -16 -16h-64c-8.83105 0 -16 7.16895 -16 16v64c0 8.83105 7.16895 16 16 16h64zM496 64c8.83105 0 16 -7.16895 16 -16v-32c0 -8.83105 -7.16895 -16 -16 -16h-320
c-8.83105 0 -16 7.16895 -16 16v32c0 8.83105 7.16895 16 16 16h320zM496 384c8.83105 0 16 -7.16895 16 -16v-32c0 -8.83105 -7.16895 -16 -16 -16h-320c-8.83105 0 -16 7.16895 -16 16v32c0 8.83105 7.16895 16 16 16h320zM496 224c8.83105 0 16 -7.16895 16 -16v-32
c0 -8.83105 -7.16895 -16 -16 -16h-320c-8.83105 0 -16 7.16895 -16 16v32c0 8.83105 7.16895 16 16 16h320z" />
    <glyph glyph-name="outdent" unicode="&#xf03b;" 
d="M100.69 84.71l-96 95.9805c-2.89453 2.89551 -4.68555 6.89844 -4.68555 11.3115c0 4.41406 1.79102 8.41211 4.68555 11.3076l96 96c9.97949 10 27.3096 3.01074 27.3096 -11.3096v-191.98c0 -14.2393 -17.3096 -21.3096 -27.3096 -11.3096zM432 32
c8.83105 0 16 -7.16895 16 -16v-32c0 -8.83105 -7.16895 -16 -16 -16h-416c-8.83105 0 -16 7.16895 -16 16v32c0 8.83105 7.16895 16 16 16h416zM435.17 160c7.07617 0 12.8301 -5.74414 12.8301 -12.8193v-0.0107422v-38.3398v-0.00976562
c0 -7.07617 -5.74414 -12.8203 -12.8193 -12.8203h-0.0107422h-230.34h-0.00976562c-7.07617 0 -12.8203 5.74414 -12.8203 12.8193v0.0107422v38.3398v0.00976562c0 7.07617 5.74414 12.8203 12.8193 12.8203h0.0107422h230.34zM435.17 288
c7.07617 0 12.8301 -5.74414 12.8301 -12.8193v-0.0107422v-38.3398v-0.00976562c0 -7.07617 -5.74414 -12.8203 -12.8193 -12.8203h-0.0107422h-230.34h-0.00976562c-7.07617 0 -12.8203 5.74414 -12.8203 12.8193v0.0107422v38.3398v0.00976562
c0 7.07617 5.74414 12.8203 12.8193 12.8203h0.0107422h230.34zM432 416c8.83105 0 16 -7.16895 16 -16v-32c0 -8.83105 -7.16895 -16 -16 -16h-416c-8.83105 0 -16 7.16895 -16 16v32c0 8.83105 7.16895 16 16 16h416z" />
    <glyph glyph-name="indent" unicode="&#xf03c;" 
d="M27.3096 84.7002c-9.97949 -10 -27.3096 -3.00977 -27.3096 11.2998v192c0 14.2197 17.2695 21.3398 27.3096 11.3203l96 -96c2.89453 -2.89648 4.68555 -6.89941 4.68555 -11.3125s-1.79102 -8.41211 -4.68555 -11.3076zM432 32c8.83105 0 16 -7.16895 16 -16v-32
c0 -8.83105 -7.16895 -16 -16 -16h-416c-8.83105 0 -16 7.16895 -16 16v32c0 8.83105 7.16895 16 16 16h416zM435.17 160c7.07617 0 12.8301 -5.74414 12.8301 -12.8193v-0.0107422v-38.3398v-0.00976562c0 -7.07617 -5.74414 -12.8203 -12.8193 -12.8203h-0.0107422
h-230.34h-0.00976562c-7.07617 0 -12.8203 5.74414 -12.8203 12.8193v0.0107422v38.3398v0.00976562c0 7.07617 5.74414 12.8203 12.8193 12.8203h0.0107422h230.34zM435.17 288c7.07617 0 12.8301 -5.74414 12.8301 -12.8193v-0.0107422v-38.3398v-0.00976562
c0 -7.07617 -5.74414 -12.8203 -12.8193 -12.8203h-0.0107422h-230.34h-0.00976562c-7.07617 0 -12.8203 5.74414 -12.8203 12.8193v0.0107422v38.3398v0.00976562c0 7.07617 5.74414 12.8203 12.8193 12.8203h0.0107422h230.34zM432 416c8.83105 0 16 -7.16895 16 -16v-32
c0 -8.83105 -7.16895 -16 -16 -16h-416c-8.83105 0 -16 7.16895 -16 16v32c0 8.83105 7.16895 16 16 16h416z" />
    <glyph glyph-name="tasks" unicode="&#xf0ae;" horiz-adv-x="512" 
d="M139.61 412.5l17 -16.5c2.13281 -2.18066 3.44922 -5.16797 3.44922 -8.45605c0 -3.33496 -1.35352 -6.35547 -3.54004 -8.54395l-72.1992 -72.1904l-15.5898 -15.6191c-2.29297 -2.17969 -5.39941 -3.51758 -8.80859 -3.51758
c-3.41016 0 -6.50977 1.33789 -8.80176 3.51758l-47.5898 47.3994c-2.18066 2.17383 -3.53125 5.18262 -3.53125 8.50195c0 3.31836 1.35059 6.3252 3.53125 8.49805l15.7002 15.7197c2.17285 2.18164 5.18164 3.53125 8.50098 3.53125s6.3252 -1.34961 8.49902 -3.53125
l22.6992 -22.1191l63.6807 63.3096c2.17285 2.18066 5.18262 3.53125 8.50098 3.53125c3.31934 0 6.3252 -1.35059 8.49902 -3.53125zM139.61 253.31l16.9795 -17c2.125 -2.16504 3.43652 -5.13574 3.43652 -8.40625c0 -3.31641 -1.34863 -6.32031 -3.52637 -8.49316
l-72.2002 -72.2197l-15.7002 -15.6904c-2.29004 -2.17871 -5.39551 -3.5166 -8.80273 -3.5166c-3.4082 0 -6.50586 1.33789 -8.79688 3.5166l-47.4697 47.5c-2.18066 2.17285 -3.53125 5.18262 -3.53125 8.50195c0 3.31836 1.35059 6.3252 3.53125 8.49805l15.7002 15.6904
c2.17285 2.18066 5.18164 3.53125 8.50098 3.53125s6.3252 -1.35059 8.49902 -3.53125l22.6992 -22.1006l63.6807 63.7197c2.17285 2.18164 5.18262 3.53125 8.50098 3.53125c3.31934 0 6.3252 -1.34961 8.49902 -3.53125zM64 80c26.4922 0 48 -21.5078 48 -48
s-21.5078 -48 -48 -48c-26.4697 0 -48.5898 21.5 -48.5898 48s22.0996 48 48.5898 48zM496 64c8.83105 0 16 -7.16895 16 -16v-32c0 -8.83105 -7.16895 -16 -16 -16h-288c-8.83105 0 -16 7.16895 -16 16v32c0 8.83105 7.16895 16 16 16h288zM496 384
c8.83105 0 16 -7.16895 16 -16v-32c0 -8.83105 -7.16895 -16 -16 -16h-288c-8.83105 0 -16 7.16895 -16 16v32c0 8.83105 7.16895 16 16 16h288zM496 224c8.83105 0 16 -7.16895 16 -16v-32c0 -8.83105 -7.16895 -16 -16 -16h-288c-8.83105 0 -16 7.16895 -16 16v32
c0 8.83105 7.16895 16 16 16h288z" />
    <glyph glyph-name="list-ul" unicode="&#xf0ca;" horiz-adv-x="512" 
d="M48 400c26.4922 0 48 -21.5078 48 -48s-21.5078 -48 -48 -48s-48 21.5078 -48 48s21.5078 48 48 48zM48 240c26.4922 0 48 -21.5078 48 -48s-21.5078 -48 -48 -48s-48 21.5078 -48 48s21.5078 48 48 48zM48 80c26.4922 0 48 -21.5078 48 -48s-21.5078 -48 -48 -48
s-48 21.5078 -48 48s21.5078 48 48 48zM496 64c8.83105 0 16 -7.16895 16 -16v-32c0 -8.83105 -7.16895 -16 -16 -16h-320c-8.83105 0 -16 7.16895 -16 16v32c0 8.83105 7.16895 16 16 16h320zM496 384c8.83105 0 16 -7.16895 16 -16v-32c0 -8.83105 -7.16895 -16 -16 -16
h-320c-8.83105 0 -16 7.16895 -16 16v32c0 8.83105 7.16895 16 16 16h320zM496 224c8.83105 0 16 -7.16895 16 -16v-32c0 -8.83105 -7.16895 -16 -16 -16h-320c-8.83105 0 -16 7.16895 -16 16v32c0 8.83105 7.16895 16 16 16h320z" />
    <glyph glyph-name="list-ol" unicode="&#xf0cb;" horiz-adv-x="512" 
d="M61.7695 47c19.6104 -5.12012 28.7002 -20.5 28.7305 -34.8799c0 -21.3701 -14.3398 -44.1201 -48.5 -44.1201c-16.6201 0 -29.29 4.75 -37 9.44043c-5.82031 4.21973 -6.34961 9.80957 -2.62988 15.9395l5.58984 9.31055c3.86035 6.61914 9.11035 7 15.5996 3.11914
c4.76758 -1.95996 10.0107 -3.07617 15.4707 -3.11914c10.1602 0 14.3594 3.5 14.3594 8.21973c0 6.64941 -5.60938 9.08984 -15.9395 9.08984h-4.73047c-5.95996 0 -9.25 2.12012 -12.25 7.87988l-1.0498 1.92969c-2.4502 4.75 -1.2002 9.81055 2.7998 14.8809l5.61035 7
c3.47461 4.32422 7.0957 8.37695 11 12.3096h-22.8301c-4.41504 0 -8 3.58496 -8 8v16c0 4.41504 3.58496 8 8 8h57c7.5 0 11.3398 -4 11.3398 -11.3496v-3.31055c0.0136719 -0.299805 0.0175781 -0.595703 0.0175781 -0.899414
c0 -5.10449 -1.9248 -9.76367 -5.08789 -13.29zM496 224c8.83105 0 16 -7.16895 16 -16v-32c0 -8.83105 -7.16895 -16 -16 -16h-320c-8.83105 0 -16 7.16895 -16 16v32c0 8.83105 7.16895 16 16 16h320zM496 384c8.83105 0 16 -7.16895 16 -16v-32
c0 -8.83105 -7.16895 -16 -16 -16h-320c-8.83105 0 -16 7.16895 -16 16v32c0 8.83105 7.16895 16 16 16h320zM496 64c8.83105 0 16 -7.16895 16 -16v-32c0 -8.83105 -7.16895 -16 -16 -16h-320c-8.83105 0 -16 7.16895 -16 16v32c0 8.83105 7.16895 16 16 16h320zM16 288
c-4.41504 0 -8 3.58496 -8 8v16c0 4.41504 3.58496 8 8 8h16v64h-8c-4.4082 0.0078125 -7.98145 3.59766 -7.98145 8.00781c0 1.2832 0.303711 2.49707 0.841797 3.57227l8 16c1.31055 2.62012 4.01367 4.41406 7.13965 4.41992h24c4.41504 0 8 -3.58496 8 -8v-88h16
c4.41504 0 8 -3.58496 8 -8v-16c0 -4.41504 -3.58496 -8 -8 -8h-64zM12.0898 128c-7.00977 0 -12.0898 4 -12.0898 11.4102v4c0 47.2803 51 56.3994 50.9697 69.1201c0 7.18945 -5.9502 8.75 -9.2793 8.75c-0.0185547 0 -0.0380859 0.000976562 -0.0566406 0.000976562
c-3.65918 0 -6.97949 -1.46582 -9.40332 -3.84082c-5.12012 -4.91016 -10.5107 -7 -16.1201 -2.44043l-8.58008 6.87988c-5.7998 4.53027 -7.16992 9.78027 -2.7998 15.3701c6.65918 8.75 19.0996 18.75 40.46 18.75c19.4697 0 44.4697 -10.5 44.4697 -39.5596
c0 -37.7607 -45.0498 -46.1504 -48.3398 -56.4404h38.6797c4.41504 0 8 -3.58496 8 -8v-16c0 -4.41504 -3.58496 -8 -8 -8h-67.9102z" />
    <glyph glyph-name="strikethrough" unicode="&#xf0cc;" horiz-adv-x="512" 
d="M496 224c8.83105 0 16 -7.16895 16 -16v-32c0 -8.83105 -7.16895 -16 -16 -16h-480c-8.83105 0 -16 7.16895 -16 16v32c0 8.83105 7.16895 16 16 16h102.29c-11.6797 16.5303 -19.7803 35.4697 -21.7803 56.3604c-0.385742 3.97559 -0.577148 7.88281 -0.577148 11.96
c0 68.2266 55.3633 123.624 123.577 123.68h68c50.1416 0 93.5244 -28.7686 114.521 -70.7998l0.529297 -1c1.07324 -2.14844 1.70215 -4.57715 1.70215 -7.13965c0 -6.26562 -3.61035 -11.6953 -8.86133 -14.3203l-42.9404 -21.4707
c-2.14941 -1.07324 -4.5791 -1.70312 -7.14355 -1.70312c-6.2627 0 -11.6895 3.60645 -14.3164 8.85352c-8.18652 16.374 -25.0859 27.5801 -44.623 27.5801h-0.0371094h-66.79c-24.0352 -0.000976562 -43.5479 -19.5059 -43.5479 -43.541
c0 -19.5742 12.9414 -36.1494 30.7285 -41.6289l87.1699 -26.8301h202.1zM315.76 128h94.3906c2.6084 -7.7373 4.44434 -15.9834 5.33984 -24.3604c0.385742 -3.97559 0.577148 -7.88281 0.577148 -11.96c0 -68.2266 -55.3633 -123.624 -123.577 -123.68h-68
c-50.1416 0 -93.5244 28.7686 -114.521 70.7998l-0.529297 1c-1.07324 2.14844 -1.70215 4.57715 -1.70215 7.13965c0 6.26562 3.61035 11.6953 8.86133 14.3203l42.9404 21.4707c2.14941 1.07324 4.5791 1.70312 7.14355 1.70312
c6.2627 0 11.6895 -3.60645 14.3164 -8.85352c8.18652 -16.374 25.0859 -27.5801 44.623 -27.5801h0.0371094h66.79c24.0254 0.0224609 43.5273 19.5244 43.5498 43.5498c-0.0117188 15.3828 -8.07227 28.8594 -20.2402 36.4502z" />
    <glyph glyph-name="underline" unicode="&#xf0cd;" 
d="M32 384c-8.83105 0 -16 7.16895 -16 16v32c0 8.83105 7.16895 16 16 16h144c8.83105 0 16 -7.16895 16 -16v-32c0 -8.83105 -7.16895 -16 -16 -16h-32v-160c0 -44.1533 35.8467 -80 80 -80s80 35.8467 80 80v160h-32c-8.83105 0 -16 7.16895 -16 16v32
c0 8.83105 7.16895 16 16 16h144c8.83105 0 16 -7.16895 16 -16v-32c0 -8.83105 -7.16895 -16 -16 -16h-32v-160c0 -88.2197 -71.7803 -160 -160 -160s-160 71.7803 -160 160v160h-32zM432 0c8.83105 0 16 -7.16895 16 -16v-32c0 -8.83105 -7.16895 -16 -16 -16h-416
c-8.83105 0 -16 7.16895 -16 16v32c0 8.83105 7.16895 16 16 16h416z" />
    <glyph glyph-name="sort-alpha-down" unicode="&#xf15d;" 
d="M176 96c14.2197 0 21.3496 -17.2598 11.3301 -27.3096l-80 -96c-2.89551 -2.89453 -6.89844 -4.68555 -11.3125 -4.68555c-4.41309 0 -8.41211 1.79102 -11.3076 4.68555l-80 96c-10.0703 10.0693 -2.90039 27.3096 11.29 27.3096h48v304c0 8.83105 7.16895 16 16 16h32
c8.83105 0 16 -7.16895 16 -16v-304h48zM416 160c8.83105 0 16 -7.16895 16 -16v-17.6299c0 -9.51074 -4.14355 -18.0566 -10.7402 -23.9199l-61.2598 -70.4502h56c8.83105 0 16 -7.16895 16 -16v-32c0 -8.83105 -7.16895 -16 -16 -16h-128c-8.83105 0 -16 7.16895 -16 16
v17.6299c0 9.51074 4.14355 18.0566 10.7402 23.9199l61.2598 70.4502h-56c-8.83105 0 -16 7.16895 -16 16v32c0 8.83105 7.16895 16 16 16h128zM447.06 245.38c0.600586 -1.67969 0.931641 -3.49512 0.931641 -5.37988c0 -8.82812 -7.16406 -15.9951 -15.9912 -16h-24.8398
c-0.015625 0 -0.0263672 -0.00195312 -0.0419922 -0.00195312c-7.11426 0 -13.1514 4.6543 -15.2285 11.082l-4.40918 12.9199h-71l-4.4209 -12.9199c-2.07617 -6.42773 -8.10938 -11.0801 -15.2246 -11.0801h-0.00488281h-24.8301
c-8.82715 0.00488281 -15.9863 7.17773 -15.9863 16.0049c0 1.88574 0.326172 3.69531 0.926758 5.375l59.2695 160c2.20996 6.19043 8.125 10.6201 15.0703 10.6201h41.4395c6.94531 0 12.8604 -4.42969 15.0703 -10.6201zM335.61 304h32.7793l-16.3896 48z" />
    <glyph glyph-name="sort-alpha-up" unicode="&#xf15e;" 
d="M16 288c-14.2197 0 -21.3496 17.2598 -11.3096 27.3096l80 96c2.89551 2.89453 6.89844 4.68555 11.3115 4.68555c4.41406 0 8.41211 -1.79102 11.3076 -4.68555l80 -96c10.0703 -10.0693 2.90039 -27.3096 -11.3096 -27.3096h-48v-304c0 -8.83105 -7.16895 -16 -16 -16
h-32c-8.83105 0 -16 7.16895 -16 16v304h-48zM416 160c8.83105 0 16 -7.16895 16 -16v-17.6299c0 -9.51074 -4.14355 -18.0566 -10.7402 -23.9199l-61.2598 -70.4502h56c8.83105 0 16 -7.16895 16 -16v-32c0 -8.83105 -7.16895 -16 -16 -16h-128
c-8.83105 0 -16 7.16895 -16 16v17.6299c0 9.51074 4.14355 18.0566 10.7402 23.9199l61.2598 70.4502h-56c-8.83105 0 -16 7.16895 -16 16v32c0 8.83105 7.16895 16 16 16h128zM447.06 245.38c0.600586 -1.67969 0.931641 -3.49512 0.931641 -5.37988
c0 -8.82812 -7.16406 -15.9951 -15.9912 -16h-24.8398c-0.015625 0 -0.0263672 -0.00195312 -0.0419922 -0.00195312c-7.11426 0 -13.1514 4.6543 -15.2285 11.082l-4.40918 12.9199h-71l-4.4209 -12.9199c-2.07617 -6.42773 -8.10938 -11.0801 -15.2246 -11.0801
h-0.00488281h-24.8301c-8.82715 0.00488281 -15.9863 7.17773 -15.9863 16.0049c0 1.88574 0.326172 3.69531 0.926758 5.375l59.2695 160c2.20996 6.19043 8.125 10.6201 15.0703 10.6201h41.4395c6.94531 0 12.8604 -4.42969 15.0703 -10.6201zM335.61 304h32.7793
l-16.3896 48z" />
    <glyph glyph-name="sort-amount-down" unicode="&#xf160;" horiz-adv-x="512" 
d="M304 32c8.83105 0 16 -7.16895 16 -16v-32c0 -8.83105 -7.16895 -16 -16 -16h-64c-8.83105 0 -16 7.16895 -16 16v32c0 8.83105 7.16895 16 16 16h64zM176 96c14.2197 0 21.3496 -17.2598 11.3301 -27.3096l-80 -96
c-2.89551 -2.89453 -6.89844 -4.68555 -11.3125 -4.68555c-4.41309 0 -8.41211 1.79102 -11.3076 4.68555l-80 96c-10.0801 10.0693 -2.90039 27.3096 11.29 27.3096h48v304c0 8.83105 7.16895 16 16 16h32c8.83105 0 16 -7.16895 16 -16v-304h48zM432 288
c8.83105 0 16 -7.16895 16 -16v-32c0 -8.83105 -7.16895 -16 -16 -16h-192c-8.83105 0 -16 7.16895 -16 16v32c0 8.83105 7.16895 16 16 16h192zM368 160c8.83105 0 16 -7.16895 16 -16v-32c0 -8.83105 -7.16895 -16 -16 -16h-128c-8.83105 0 -16 7.16895 -16 16v32
c0 8.83105 7.16895 16 16 16h128zM496 416c8.83105 0 16 -7.16895 16 -16v-32c0 -8.83105 -7.16895 -16 -16 -16h-256c-8.83105 0 -16 7.16895 -16 16v32c0 8.83105 7.16895 16 16 16h256z" />
    <glyph glyph-name="sort-amount-up" unicode="&#xf161;" horiz-adv-x="512" 
d="M304 32c8.83105 0 16 -7.16895 16 -16v-32c0 -8.83105 -7.16895 -16 -16 -16h-64c-8.83105 0 -16 7.16895 -16 16v32c0 8.83105 7.16895 16 16 16h64zM16 288c-14.2305 0 -21.3496 17.2598 -11.3096 27.3096l80 96c2.89551 2.89453 6.89844 4.68555 11.3115 4.68555
c4.41406 0 8.41211 -1.79102 11.3076 -4.68555l80 -96c10.0703 -10.0693 2.90039 -27.3096 -11.3096 -27.3096h-48v-304c0 -8.83105 -7.16895 -16 -16 -16h-32c-8.83105 0 -16 7.16895 -16 16v304h-48zM432 288c8.83105 0 16 -7.16895 16 -16v-32
c0 -8.83105 -7.16895 -16 -16 -16h-192c-8.83105 0 -16 7.16895 -16 16v32c0 8.83105 7.16895 16 16 16h192zM368 160c8.83105 0 16 -7.16895 16 -16v-32c0 -8.83105 -7.16895 -16 -16 -16h-128c-8.83105 0 -16 7.16895 -16 16v32c0 8.83105 7.16895 16 16 16h128zM496 416
c8.83105 0 16 -7.16895 16 -16v-32c0 -8.83105 -7.16895 -16 -16 -16h-256c-8.83105 0 -16 7.16895 -16 16v32c0 8.83105 7.16895 16 16 16h256z" />
    <glyph glyph-name="sort-numeric-down" unicode="&#xf162;" 
d="M304 352c-8.82422 0.0078125 -15.9775 7.18945 -15.9775 16.0156c0 2.57129 0.608398 5.00098 1.6875 7.1543l16 32c2.62598 5.23926 8.03613 8.8252 14.29 8.83008h48c8.83105 0 16 -7.16895 16 -16v-112h16c8.83105 0 16 -7.16895 16 -16v-32
c0 -8.83105 -7.16895 -16 -16 -16h-96c-8.83105 0 -16 7.16895 -16 16v32c0 8.83105 7.16895 16 16 16h16v64h-16zM330.15 189.09c53.4502 14.25 101.85 -25.8799 101.869 -77.0898v-10.7695c0 -70.3906 -28.25 -107.24 -86.25 -132
c-8.36914 -3.58008 -18.0293 1.2793 -20.8994 9.90918l-9.90039 20c-2.62012 7.87012 0.610352 16.9404 8.18066 20.3408c7.59961 3.28516 14.6064 7.64258 20.8496 12.9092c-47.6396 4.76074 -83.0996 51.4805 -68.8496 102.53c7.62793 26.2793 28.5596 46.9287 55 54.1699
zM352 92c11.0381 0 20 8.96191 20 20s-8.96191 20 -20 20s-20 -8.96191 -20 -20s8.96191 -20 20 -20zM176 96c14.2197 0 21.3496 -17.2598 11.3301 -27.3096l-80 -96c-2.89551 -2.89453 -6.89844 -4.68555 -11.3125 -4.68555c-4.41309 0 -8.41211 1.79102 -11.3076 4.68555
l-80 96c-10.0703 10.0693 -2.90039 27.3096 11.29 27.3096h48v304c0 8.83105 7.16895 16 16 16h32c8.83105 0 16 -7.16895 16 -16v-304h48z" />
    <glyph glyph-name="sort-numeric-up" unicode="&#xf163;" 
d="M330.17 189.09c53.4502 14.25 101.83 -25.8799 101.85 -77.0898v-10.7695c0 -70.3906 -28.25 -107.24 -86.25 -132c-8.36914 -3.58008 -18.0293 1.2793 -20.8994 9.90918l-9.90039 20c-2.62012 7.87012 0.610352 16.9404 8.18066 20.3408
c7.59961 3.28516 14.6064 7.64258 20.8496 12.9092c-47.6396 4.76074 -83.0996 51.4805 -68.8301 102.53c7.62891 26.2793 28.5596 46.9287 55 54.1699zM352 92c11.0381 0 20 8.96191 20 20s-8.96191 20 -20 20s-20 -8.96191 -20 -20s8.96191 -20 20 -20zM304 352
c-8.82422 0.0078125 -15.9775 7.18945 -15.9775 16.0156c0 2.57129 0.608398 5.00098 1.6875 7.1543l16 32c2.62598 5.23926 8.03613 8.8252 14.29 8.83008h48c8.83105 0 16 -7.16895 16 -16v-112h16c8.83105 0 16 -7.16895 16 -16v-32c0 -8.83105 -7.16895 -16 -16 -16h-96
c-8.83105 0 -16 7.16895 -16 16v32c0 8.83105 7.16895 16 16 16h16v64h-16zM107.31 411.31l80 -96c10.0703 -10.0693 2.90039 -27.3096 -11.3096 -27.3096h-48v-304c0 -8.83105 -7.16895 -16 -16 -16h-32c-8.83105 0 -16 7.16895 -16 16v304h-48
c-14.2197 0 -21.3496 17.2598 -11.3096 27.3096l80 96c2.89551 2.89453 6.89844 4.68555 11.3115 4.68555c4.41406 0 8.41211 -1.79102 11.3076 -4.68555z" />
    <glyph glyph-name="paragraph" unicode="&#xf1dd;" 
d="M448 400v-32c0 -8.83105 -7.16895 -16 -16 -16h-48v-368c0 -8.83105 -7.16895 -16 -16 -16h-32c-8.83105 0 -16 7.16895 -16 16v368h-32v-368c0 -8.83105 -7.16895 -16 -16 -16h-32c-8.83105 0 -16 7.16895 -16 16v112h-32c-88.3066 0 -160 71.6934 -160 160
s71.6934 160 160 160h240c8.83105 0 16 -7.16895 16 -16z" />
    <glyph glyph-name="h1" unicode="&#xf313;" horiz-adv-x="576" 
d="M304 352c8.83105 0 16 -7.16895 16 -16v-34.9404c0 -7.20801 -5.85156 -13.0596 -13.0596 -13.0596h-18.9404v-192h18.9404c7.20801 0 13.0596 -5.85156 13.0596 -13.0596v-34.9404c0 -8.83105 -7.16895 -16 -16 -16h-96c-8.83105 0 -16 7.16895 -16 16v34.9404
c0 7.20801 5.85156 13.0596 13.0596 13.0596h18.9404v64h-128v-64h18.9404c7.20801 0 13.0596 -5.85156 13.0596 -13.0596v-37.8809c0 -7.20801 -5.85156 -13.0596 -13.0596 -13.0596h-98.9404c-8.83105 0 -16 7.16895 -16 16v34.9404
c0 7.20801 5.85156 13.0596 13.0596 13.0596h18.9404v192h-18.9404c-7.20801 0 -13.0596 5.85156 -13.0596 13.0596v34.9404c0 8.83105 7.16895 16 16 16h96c8.83105 0 16 -7.16895 16 -16v-34.9404c0 -7.20801 -5.85156 -13.0596 -13.0596 -13.0596h-18.9404v-64h128v64
h-18.9404c-7.20801 0 -13.0596 5.85156 -13.0596 13.0596v37.8809c0 7.20801 5.85156 13.0596 13.0596 13.0596h98.9404zM560 96c8.83105 0 16 -7.16895 16 -16v-32c0 -8.83105 -7.16895 -16 -16 -16h-160c-8.83105 0 -16 7.16895 -16 16v32c0 8.83105 7.16895 16 16 16h48
v160h-24c-13.2354 0.0126953 -23.9629 10.7852 -23.9629 24.0234c0 3.85059 0.908203 7.49023 2.52246 10.7168l24 48c3.93652 7.86621 12.0547 13.251 21.4404 13.2598h40c13.2461 0 24 -10.7539 24 -24v-232h48z" />
    <glyph glyph-name="h2" unicode="&#xf314;" horiz-adv-x="576" 
d="M560 96c8.83105 0 16 -7.16895 16 -16v-32c0 -8.83105 -7.16895 -16 -16 -16h-181.86c-0.0263672 0 -0.0517578 0.015625 -0.078125 0.015625c-8.05664 0 -14.7246 5.98926 -15.792 13.7539c-1.02246 6.79004 -1.59863 13.6133 -1.70996 20.6602
c0 111.351 142.101 132.38 142.101 184.561c0 23.3799 -19.3105 33.8398 -38.2197 33.8398c-18.9102 0 -33.0801 -11.1396 -43.8506 -26c-2.94434 -3.95605 -7.66504 -6.49707 -12.9717 -6.49707c-3.28223 0 -6.33789 0.981445 -8.8877 2.66699l-28.2607 18.5996
c-4.29199 2.79492 -7.10547 7.64258 -7.10547 13.1406c0 3.03027 0.862305 5.86133 2.35547 8.25977c22.0107 35.6201 59.5898 57 103.42 57c59.1904 0 106.86 -36.5498 106.86 -96.3799c0 -93.0498 -118.21 -116.67 -135.21 -159.62h119.21zM304 352
c8.83105 0 16 -7.16895 16 -16v-34.9404c0 -7.20801 -5.85156 -13.0596 -13.0596 -13.0596h-18.9404v-192h18.9404c7.20801 0 13.0596 -5.85156 13.0596 -13.0596v-34.9404c0 -8.83105 -7.16895 -16 -16 -16h-96c-8.83105 0 -16 7.16895 -16 16v34.9404
c0 7.20801 5.85156 13.0596 13.0596 13.0596h18.9404v64h-128v-64h18.9404c7.20801 0 13.0596 -5.85156 13.0596 -13.0596v-37.8809c0 -7.20801 -5.85156 -13.0596 -13.0596 -13.0596h-98.9404c-8.83105 0 -16 7.16895 -16 16v34.9404
c0 7.20801 5.85156 13.0596 13.0596 13.0596h18.9404v192h-18.9404c-7.20801 0 -13.0596 5.85156 -13.0596 13.0596v34.9404c0 8.83105 7.16895 16 16 16h96c8.83105 0 16 -7.16895 16 -16v-34.9404c0 -7.20801 -5.85156 -13.0596 -13.0596 -13.0596h-18.9404v-64h128v64
h-18.9404c-7.20801 0 -13.0596 5.85156 -13.0596 13.0596v37.8809c0 7.20801 5.85156 13.0596 13.0596 13.0596h98.9404z" />
    <glyph glyph-name="h3" unicode="&#xf315;" horiz-adv-x="576" 
d="M499 230.31c44.2695 -11.3594 77 -44.9492 77 -92.25c0 -57.1992 -45.4902 -106.06 -116.49 -106.06c-37.5098 0 -74.6094 12.79 -102.26 37.5498c-3.21777 2.83398 -5.2334 6.99707 -5.2334 11.6182c0 3.23926 0.998047 6.24707 2.70312 8.73242l19.75 28.7998
c2.97656 4.25586 7.91699 7.02051 13.5 7.02051c3.92969 0 7.53906 -1.37988 10.3701 -3.68066c16.5205 -13.6602 35.6201 -22.8301 57.7002 -22.8301c27.46 0 47.3896 15.4697 47.3896 36.79c0 28.1602 -28.8496 38.4805 -57.79 38.4805h-15.9492
c-5.84082 0 -12.4902 4.20996 -14.8408 9.41992l-8.40918 18.5898c-0.80957 1.95801 -1.29883 4.11035 -1.38086 6.33984c0.205078 3.81738 1.6084 7.34668 3.83008 10.1699l53.1006 61.0996c2.54004 2.90039 4.89941 5.4502 7.18945 7.90039h-85.1797
c-8.83105 0 -16 7.16895 -16 16v32c0 8.83105 7.16895 16 16 16h167.12c0.0957031 0.00195312 0.185547 -0.00195312 0.282227 -0.00195312c8.74609 0 15.8633 -7.0332 15.998 -15.748v-23.3203c-0.0195312 -3.96094 -1.53223 -7.58105 -4 -10.3096zM304 352
c8.83105 0 16 -7.16895 16 -16v-34.9404c0 -7.20801 -5.85156 -13.0596 -13.0596 -13.0596h-18.9404v-192h18.9404c7.20801 0 13.0596 -5.85156 13.0596 -13.0596v-34.9404c0 -8.83105 -7.16895 -16 -16 -16h-96c-8.83105 0 -16 7.16895 -16 16v34.9404
c0 7.20801 5.85156 13.0596 13.0596 13.0596h18.9404v64h-128v-64h18.9404c7.20801 0 13.0596 -5.85156 13.0596 -13.0596v-37.8809c0 -7.20801 -5.85156 -13.0596 -13.0596 -13.0596h-98.9404c-8.83105 0 -16 7.16895 -16 16v34.9404
c0 7.20801 5.85156 13.0596 13.0596 13.0596h18.9404v192h-18.9404c-7.20801 0 -13.0596 5.85156 -13.0596 13.0596v34.9404c0 8.83105 7.16895 16 16 16h96c8.83105 0 16 -7.16895 16 -16v-34.9404c0 -7.20801 -5.85156 -13.0596 -13.0596 -13.0596h-18.9404v-64h128v64
h-18.9404c-7.20801 0 -13.0596 5.85156 -13.0596 13.0596v37.8809c0 7.20801 5.85156 13.0596 13.0596 13.0596h98.9404z" />
    <glyph glyph-name="alarm-clock" unicode="&#xf34e;" horiz-adv-x="512" 
d="M96 448c25.1729 -0.00195312 48.1172 -9.75586 65.2002 -25.6797l-145.9 -121.58c-9.57422 14.7402 -15.2236 32.4072 -15.2998 51.2598c0 52.9834 43.0166 96 96 96zM416 448c52.9834 0 96 -43.0166 96 -96c-0.0820312 -18.8398 -5.72559 -36.4961 -15.29 -51.2305
l-145.89 121.57c17.082 15.9111 40.0186 25.6553 65.1797 25.6602zM256 384c123.74 0 224 -100.29 224 -224c0 -0.0351562 -0.104492 -0.253906 -0.104492 -0.289062c0 -50.1582 -16.6191 -96.4648 -44.6455 -133.711l40.0996 -40.0596
c2.89746 -2.89648 4.69043 -6.90137 4.69043 -11.3174s-1.79297 -8.41699 -4.69043 -11.3135l-22.6299 -22.6191c-2.89551 -2.89453 -6.89844 -4.68555 -11.3115 -4.68555c-4.41406 0 -8.41211 1.79102 -11.3086 4.68555l-40.0996 40.0898
c-37.2715 -28.0547 -83.9873 -44.6904 -134.186 -44.6904c-50.1992 0 -96.543 16.6357 -133.814 44.6904l-40.0596 -40.1201c-2.89648 -2.89746 -6.90137 -4.69043 -11.3174 -4.69043s-8.41699 1.79297 -11.3135 4.69043l-22.6191 22.6201
c-2.89746 2.89648 -4.69043 6.90137 -4.69043 11.3174s1.79297 8.41602 4.69043 11.3125l40.0996 40.0898c-28.0508 37.2559 -44.79 83.7686 -44.79 133.952v0.0478516c0 123.71 100.3 224 224 224zM346 92.4902c2.19043 2.7373 3.51758 6.21387 3.51758 9.98926
c0 5.05566 -2.35059 9.56738 -6.01758 12.501l-55.5 44.3994v112.62c0 8.83105 -7.16895 16 -16 16h-32c-8.83105 0 -16 -7.16895 -16 -16v-124.16c0 -12.6338 5.8418 -23.8975 15 -31.2295l64.5098 -51.6201c2.7373 -2.19043 6.21484 -3.51758 9.98926 -3.51758
c5.05664 0 9.56836 2.35059 12.501 6.01758z" />
    <glyph glyph-name="chess" unicode="&#xf439;" horiz-adv-x="512" 
d="M74 240l-33.9102 90.3799c-0.655273 1.74707 -1.01953 3.64551 -1.01953 5.62012c0 8.83105 7.16895 16 16 16h0.0195312h56.9102v32h-24c-4.41504 0 -8 3.58496 -8 8v16c0 4.41504 3.58496 8 8 8h24v24c0 4.41504 3.58496 8 8 8h16c4.41504 0 8 -3.58496 8 -8v-24h24
c4.41504 0 8 -3.58496 8 -8v-16c0 -4.41504 -3.58496 -8 -8 -8h-24v-32h56.8896c0.00683594 0 0.0078125 -0.00683594 0.0146484 -0.00683594c8.83008 0 16 -7.16992 16 -16c0 -1.97461 -0.359375 -3.86621 -1.01465 -5.61328l-33.8896 -90.3799h10
c8.83105 0 16 -7.16895 16 -16v-16c0 -8.83105 -7.16895 -16 -16 -16h-15.9404c0.142578 -44.1934 5.69141 -86.9287 15.9404 -128h-128c10.249 41.0713 15.7979 83.8066 15.9404 128h-15.9404c-8.83105 0 -16 7.16895 -16 16v16c0 8.83105 7.16895 16 16 16h10z
M247.16 -11.5801c5.24805 -2.62598 8.83984 -8.0459 8.83984 -14.3096v-22.1104c0 -8.83105 -7.16895 -16 -16 -16h-224c-8.83105 0 -16 7.16895 -16 16v22.1104c0.000976562 6.26562 3.59668 11.6855 8.84961 14.3096l23.1504 11.5801v16c0 8.83105 7.16895 16 16 16h160
c8.83105 0 16 -7.16895 16 -16v-16zM339.93 146.2l-24.5693 20.7998c-6.94434 5.86133 -11.3438 14.6143 -11.3604 24.4004v58.5996c0 3.31152 2.68848 6 6 6h26.3896c3.31152 0 6 -2.68848 6 -6v-26h24.71v26c0 3.31152 2.68848 6 6 6h53.8105c3.31152 0 6 -2.68848 6 -6
v-26h24.71v26c0 3.31152 2.68848 6 6 6h26.3799c3.31152 0 6 -2.68848 6 -6v-58.54c0 -0.0107422 0.0185547 -0.0126953 0.0185547 -0.0234375c0 -9.79297 -4.40918 -18.5645 -11.3486 -24.4365l-24.5996 -20.79l3.29004 -82.21h-126.721zM384 144v-32h32v32
c0 8.83105 -7.16895 16 -16 16s-16 -7.16895 -16 -16zM503.16 -11.5801c5.24805 -2.62598 8.83984 -8.0459 8.83984 -14.3096v-22.1104c0 -8.83105 -7.16895 -16 -16 -16h-192c-8.83105 0 -16 7.16895 -16 16v22.1104c0.000976562 6.26562 3.59668 11.6855 8.84961 14.3096
l23.1504 11.5801v16c0 8.83105 7.16895 16 16 16h128c8.83105 0 16 -7.16895 16 -16v-16z" />
    <glyph glyph-name="chess-bishop" unicode="&#xf43a;" horiz-adv-x="320" 
d="M8 160.12c0 73.3799 59.8096 181.08 112.6 225.37c-14 3.41992 -24.5996 15.5098 -24.5996 30.5098c0 17.6611 14.3389 32 32 32h64c17.6611 0 32 -14.3389 32 -32c0 -15.0498 -10.5996 -27.0898 -24.5996 -30.5098c24.3994 -20.4902 50.0693 -54.6807 70.8691 -92.5898
l-107.89 -107.931c-1.44727 -1.44727 -2.3418 -3.44922 -2.3418 -5.65625c0 -2.20605 0.894531 -4.20508 2.3418 -5.65332l11.3105 -11.3105c1.44727 -1.44629 3.44922 -2.3418 5.65527 -2.3418c2.20703 0 4.20605 0.895508 5.6543 2.3418l100.31 100.33
c15.96 -35.46 26.6904 -71.9492 26.6904 -102.56c0 -51.6006 -22.1396 -73.8301 -56 -84.6006v-43.5195h-192v43.5195c-33.8604 10.7705 -56 32.9609 -56 84.6006zM304 0c8.83105 0 16 -7.16895 16 -16v-32c0 -8.83105 -7.16895 -16 -16 -16h-288
c-8.83105 0 -16 7.16895 -16 16v32c0 8.83105 7.16895 16 16 16h288z" />
    <glyph glyph-name="chess-bishop-alt" unicode="&#xf43b;" horiz-adv-x="256" 
d="M64 160c-8.83105 0 -16 7.16895 -16 16v16c0 8.83105 7.16895 16 16 16h11.6699c-15.9902 6.66992 -26.4795 25.0898 -26.4795 50.4297c0 40.4502 31.0996 97.3301 59.6797 117.2c-8.17969 2.78027 -12.8701 10.5205 -12.8701 19.6396
c0 11.4502 8.08008 20.7305 19.5303 20.7305h24.9395c11.4502 0 19.5303 -9.28027 19.5303 -20.7305c0 -9.11914 -4.69043 -16.8594 -12.8604 -19.6396c11.6602 -8.11035 23.6406 -22.5195 33.8604 -39.3301l-51.8301 -51.8193
c-0.72168 -0.724609 -1.16895 -1.72363 -1.16895 -2.82617c0 -1.10156 0.447266 -2.10059 1.16895 -2.82422l5.66016 -5.66016c0.723633 -0.724609 1.72559 -1.17383 2.83008 -1.17383c1.10547 0 2.10547 0.449219 2.83008 1.17383l48.5898 48.5898
c10.5303 -20.9902 17.7295 -44.0098 17.7295 -63.3301c0 -25.3398 -10.4795 -43.7598 -26.4795 -50.4297h11.6699c8.83105 0 16 -7.16895 16 -16v-16c0 -8.83105 -7.16895 -16 -16 -16h-14.8896c2.07324 -32.8154 7.16113 -65.0449 14.8896 -96h-128
c7.72852 30.9551 12.8164 63.1846 14.8896 96h-14.8896zM247.16 -11.5801c5.24805 -2.62598 8.83984 -8.0459 8.83984 -14.3096v-22.1104c0 -8.83105 -7.16895 -16 -16 -16h-224c-8.83105 0 -16 7.16895 -16 16v22.1104
c0.000976562 6.26562 3.59668 11.6855 8.84961 14.3096l23.1504 11.5801v16c0 8.83105 7.16895 16 16 16h160c8.83105 0 16 -7.16895 16 -16v-16z" />
    <glyph glyph-name="chess-board" unicode="&#xf43c;" horiz-adv-x="512" 
d="M255.9 447.8v-64h-64v64h64zM0 383.83h64v-64h-64v64zM128 447.8v-64h-64v64h64zM192 191.9h64v-64h-64v64zM0 255.88h64v-64h-64v64zM383.85 447.8v-64h-64v64h64zM511.85 447.8v-64h-64v64h64zM128 191.9v-64h-64v64h64zM511.8 0h-64v64h64v-64zM511.8 128h-64v64h64
v-64zM383.85 -64v64h64v-64h-64zM511.85 255.88h-64v64h64v-64zM128 -64v64h64v-64h-64zM0 -64v64h64v-64h-64zM255.9 -64v64h64v-64h-64zM0 127.93h64v-64h-64v64zM319.88 319.85h-64v64h64v-64zM255.88 191.85v64h64v-64h-64zM191.88 63.8496h64v-64h-64v64z
M319.88 127.85v64h64v-64h-64zM319.88 255.8v64h64v-64h-64zM319.88 63.8701h64v-64h-64v64zM64 63.9502h64v-64h-64v64zM192 319.85h-64v64h64v-64zM383.92 63.9502v64h64v-64h-64zM255.92 255.88h-64v64h64v-64zM383.92 383.83h64v-64h-64v64zM255.92 127.93h64v-64h-64
v64zM191.92 255.88l0.0800781 -64h-64v64h63.9199zM383.84 191.88v64h64v-64h-64zM128 319.85v-64h-64v64h64zM128 127.93h64v-64h-64v64z" />
    <glyph glyph-name="chess-clock" unicode="&#xf43d;" horiz-adv-x="640" 
d="M519.38 205l5.62012 -5.58984c2.18066 -2.17383 3.53125 -5.18262 3.53125 -8.50195c0 -3.31836 -1.35059 -6.3252 -3.53125 -8.49805l-50.8604 -50.96c-2.17285 -2.18066 -5.18262 -3.53125 -8.50098 -3.53125c-3.31934 0 -6.3252 1.35059 -8.49902 3.53125
l-5.64941 5.66016c-2.18066 2.17285 -3.53125 5.18262 -3.53125 8.50098c0 3.31934 1.35059 6.3252 3.53125 8.49902l50.8896 50.8896c2.17383 2.18066 5.18262 3.53125 8.50195 3.53125c3.31836 0 6.3252 -1.35059 8.49805 -3.53125zM599.9 320
c22.0762 0 40 -17.9238 40 -40v-272c0 -22.0762 -17.9238 -40 -40 -40h-560c-22.0771 0 -40 17.9238 -40 40v272c0 22.0762 17.9229 40 40 40h112.279v48.0596h-40.1797c-8.83105 0 -16 7.16992 -16 16v15.9404c0 8.83105 7.16895 16 16 16h128
c8.83105 0 16 -7.16895 16 -16v-15.9404c0 -8.83008 -7.16895 -16 -16 -16h-39.8496v-48.0596h183.75v16c0 8.83105 7.16895 16 16 16h128c8.83008 0 16 -7.16895 16 -16v-16h56zM176.2 31.9404c61.7871 0 112 50.1631 112 111.949v0.0507812
c0 61.8145 -50.1855 112 -112 112s-112 -50.1855 -112 -112s50.1855 -112 112 -112zM464.2 31.9404c61.7871 0 112 50.1631 112 111.949v0.0507812c0 61.8145 -50.1855 112 -112 112s-112 -50.1855 -112 -112s50.1855 -112 112 -112zM180.2 223.86
c6.62305 0 12 -5.37695 12 -12v-72c0 -6.62305 -5.37695 -12 -12 -12h-8c-6.62305 0 -12 5.37695 -12 12v72c0 6.62305 5.37695 12 12 12h8z" />
    <glyph glyph-name="chess-clock-alt" unicode="&#xf43e;" horiz-adv-x="640" 
d="M600 320c22.0703 -0.09375 39.9668 -18.0254 40 -40.1104v-271.89c0 -22.0762 -17.9238 -40 -40 -40h-560c-22.0762 0 -40 17.9238 -40 40v271.89c0.0332031 22.085 17.9297 40.0166 40 40.1104h55.9102v16c0 8.83105 7.16895 16 16 16h128c8.83008 0 16 -7.16895 16 -16
v-16h183.84v48h-39.75c-8.83105 0 -16 7.16895 -16 16v16c0 8.83105 7.16895 16 16 16h128c8.83105 0 16 -7.16895 16 -16v-16c0 -8.83105 -7.16895 -16 -16 -16h-40.25v-48h112.25zM175.93 31.9404c61.7979 0 111.973 50.1582 112 111.949v0.0507812
c0 61.8145 -50.1855 112 -112 112s-112 -50.1855 -112 -112s50.1855 -112 112 -112zM463.82 31.9404c61.7969 0 111.972 50.1582 112 111.949v0.0507812c0 61.8145 -50.1855 112 -112 112s-112 -50.1855 -112 -112s50.1855 -112 112 -112zM231.12 205l5.66016 -5.65039
c2.18066 -2.17285 3.53125 -5.18262 3.53125 -8.50098c0 -3.31934 -1.35059 -6.3252 -3.53125 -8.49902l-50.8906 -50.8994c-2.17285 -2.18066 -5.18262 -3.53125 -8.50098 -3.53125c-3.31934 0 -6.3252 1.35059 -8.49902 3.53125l-5.65918 5.66016
c-2.18164 2.17285 -3.53125 5.18262 -3.53125 8.50098c0 3.31934 1.34961 6.3252 3.53125 8.49902l50.8896 50.8896c2.17285 2.18066 5.18262 3.53125 8.50098 3.53125c3.31934 0 6.3252 -1.35059 8.49902 -3.53125zM467.82 223.84c6.62305 0 12 -5.35645 12 -11.9795
v-0.0205078v-72c0 -6.62305 -5.37695 -12 -12 -12h-8c-6.62305 0 -12 5.37695 -12 12v72c0 6.62305 5.37695 12 12 12h8z" />
    <glyph glyph-name="chess-king" unicode="&#xf43f;" 
d="M400 0c8.83105 0 16 -7.16895 16 -16v-32c0 -8.83105 -7.16895 -16 -16 -16h-352c-8.83105 0 -16 7.16895 -16 16v32c0 8.83105 7.16895 16 16 16h352zM416 288c17.6494 -0.0136719 31.9688 -14.3477 31.9688 -32.001c0 -3.32129 -0.507812 -6.52539 -1.44922 -9.53906
l-73.0791 -214.46h-298.881l-73.0791 214.46c-0.941406 3.01367 -1.45508 6.21875 -1.45508 9.54004c0 17.6533 14.3252 31.9863 31.9746 32h160v48h-40c-4.41504 0 -8 3.58496 -8 8v48c0 4.41504 3.58496 8 8 8h40v40c0 4.41504 3.58496 8 8 8h48
c4.41504 0 8 -3.58496 8 -8v-40h40c4.41504 0 8 -3.58496 8 -8v-48c0 -4.41504 -3.58496 -8 -8 -8h-40v-48h160z" />
    <glyph glyph-name="chess-king-alt" unicode="&#xf440;" horiz-adv-x="320" 
d="M106 240l-33.9102 90.3799c-0.655273 1.74707 -1.01953 3.64551 -1.01953 5.62012c0 8.83105 7.16895 16 16 16h0.0195312h56.9102v32h-24c-4.41504 0 -8 3.58496 -8 8v16c0 4.41504 3.58496 8 8 8h24v24c0 4.41504 3.58496 8 8 8h16c4.41504 0 8 -3.58496 8 -8v-24h24
c4.41504 0 8 -3.58496 8 -8v-16c0 -4.41504 -3.58496 -8 -8 -8h-24v-32h56.8896c0.00683594 0 0.0078125 -0.00683594 0.0146484 -0.00683594c8.83008 0 16 -7.16992 16 -16c0 -1.97461 -0.359375 -3.86621 -1.01465 -5.61328l-33.8896 -90.3799h10
c8.83105 0 16 -7.16895 16 -16v-16c0 -8.83105 -7.16895 -16 -16 -16h-15.9404c0.142578 -44.1934 5.69141 -86.9287 15.9404 -128h-128c10.249 41.0713 15.7979 83.8066 15.9404 128h-15.9404c-8.83105 0 -16 7.16895 -16 16v16c0 8.83105 7.16895 16 16 16h10z
M279.16 -11.5801c5.24805 -2.62598 8.83984 -8.0459 8.83984 -14.3096v-22.1104c0 -8.83105 -7.16895 -16 -16 -16h-224c-8.83105 0 -16 7.16895 -16 16v22.1104c0.000976562 6.26562 3.59668 11.6855 8.84961 14.3096l23.1504 11.5801v16c0 8.83105 7.16895 16 16 16h160
c8.83105 0 16 -7.16895 16 -16v-16z" />
    <glyph glyph-name="chess-knight" unicode="&#xf441;" horiz-adv-x="384" 
d="M19 175.53c-11.2041 4.98145 -19 16.1963 -19 29.2393v0.0205078v137.21c0 0.0195312 -0.00292969 0.0419922 -0.00292969 0.0625c0 6.60742 2.67578 12.5957 7.00293 16.9375l9 9l-14.21 28.4199c-1.13867 2.27344 -1.79004 4.85547 -1.79004 7.56934v0.0107422
c0 6.62305 5.37695 12 12 12h147.94c106 0 191.92 -86 191.92 -192v-192h-319.86v14.5195c0 0.0078125 -0.078125 -0.03125 -0.078125 -0.0244141c0 31.3145 18.0312 58.4512 44.2686 71.585l57.2197 28.6504c15.751 7.87695 26.5303 24.1348 26.5303 42.9297v0.00976562
v50.3301l-22.1201 -11.0801c-6.19238 -3.09668 -10.8369 -8.78906 -12.5508 -15.6504l-9.21973 -30.6494c-2.81152 -9.35645 -9.77051 -16.9043 -18.7598 -20.5l-12.7803 -5.12012c-3.66895 -1.46777 -7.7168 -2.27246 -11.9082 -2.27246
c-4.61621 0 -9.00586 0.979492 -12.9717 2.74219zM52 320c-11.0381 0 -20 -8.96191 -20 -20s8.96191 -20 20 -20s20 8.96191 20 20s-8.96191 20 -20 20zM368 0c8.83105 0 16 -7.16895 16 -16v-32c0 -8.83105 -7.16895 -16 -16 -16h-352c-8.83105 0 -16 7.16895 -16 16v32
c0 8.83105 7.16895 16 16 16h352z" />
    <glyph glyph-name="chess-knight-alt" unicode="&#xf442;" horiz-adv-x="320" 
d="M311.16 -11.5801c5.24805 -2.62598 8.83984 -8.0459 8.83984 -14.3096v-22.1104c0 -8.83105 -7.16895 -16 -16 -16h-288c-8.83105 0 -16 7.16895 -16 16v22.1104c0.000976562 6.26562 3.59668 11.6855 8.84961 14.3096l23.1504 11.5801v16c0 8.83105 7.16895 16 16 16
h224c8.83105 0 16 -7.16895 16 -16v-16zM45.5498 212.48c-7.99121 3.56348 -13.5498 11.5703 -13.5498 20.8799v97.8994c0.00488281 4.7207 1.91309 9.00293 5 12.1104l6.37012 6.34961l-10.1006 20.2803c-0.807617 1.625 -1.26953 3.46777 -1.26953 5.40527v0.0351562
v0.0195312c0 4.70703 3.81641 8.5293 8.51953 8.54004h92.3203c76.54 0 139.16 -62.6201 139.16 -139.16v-148.84c0 -13.6904 -9 -24.1504 -16 -32h-192c-31.5801 31.5801 -23.1299 84.7803 16.6797 105l46.54 23.7002c9.9707 4.46387 16.9004 14.4609 16.9004 26.084
v0.00585938v37.21l-14.2002 -5.42969c-4.40332 -2.20996 -7.70508 -6.26465 -8.91992 -11.1504l-6.53027 -21.8701c-1.99121 -6.66602 -6.93555 -12.0469 -13.3301 -14.6201l-9.08984 -3.64941c-2.60254 -1.04785 -5.47656 -1.62305 -8.45312 -1.62305
c-3.28223 0 -6.40137 0.702148 -9.2168 1.96289zM80.0703 320c-8.80273 -0.0332031 -15.9404 -7.18945 -15.9404 -16c0 -8.83105 7.1709 -16 16.001 -16c8.83105 0 16 7.16992 16 16c0 8.83105 -7.16895 16 -16 16h-0.0605469z" />
    <glyph glyph-name="chess-pawn" unicode="&#xf443;" horiz-adv-x="320" 
d="M105.1 224c-29.3896 18.3799 -49.0996 50.7803 -49.0996 88c0 57.3994 46.6006 104 104 104s104 -46.6006 104 -104c0 -37.2197 -19.71 -69.6201 -49.0996 -88h25.0996c8.83105 0 16 -7.16895 16 -16v-32c0 -8.83105 -7.16895 -16 -16 -16h-16v-5.49023
c0 -44 4.11035 -86.5996 24 -122.51h-176c19.8604 35.9102 24 78.5098 24 122.51v5.49023h-16c-8.83105 0 -16 7.16895 -16 16v32c0 8.83105 7.16895 16 16 16h25.0996zM304 0c8.83105 0 16 -7.16895 16 -16v-32c0 -8.83105 -7.16895 -16 -16 -16h-288
c-8.83105 0 -16 7.16895 -16 16v32c0 8.83105 7.16895 16 16 16h288z" />
    <glyph glyph-name="chess-pawn-alt" unicode="&#xf444;" horiz-adv-x="256" 
d="M64 160c-8.83105 0 -16 7.16895 -16 16v16c0 8.83105 7.16895 16 16 16h16.4404c-19.7158 14.5762 -32.3711 37.9893 -32.3711 64.3672c0 44.1533 35.8467 80 80 80s80 -35.8467 80 -80c0 -26.3779 -12.7939 -49.791 -32.5098 -64.3672h16.4404
c8.83105 0 16 -7.16895 16 -16v-16c0 -8.83105 -7.16895 -16 -16 -16h-14.8896c2.07324 -32.8154 7.16113 -65.0449 14.8896 -96h-128c7.72852 30.9551 12.8164 63.1846 14.8896 96h-14.8896zM247.16 -11.5801c5.24805 -2.62598 8.83984 -8.0459 8.83984 -14.3096v-22.1104
c0 -8.83105 -7.16895 -16 -16 -16h-224c-8.83105 0 -16 7.16895 -16 16v22.1104c0.000976562 6.26562 3.59668 11.6855 8.84961 14.3096l23.1504 11.5801v16c0 8.83105 7.16895 16 16 16h160c8.83105 0 16 -7.16895 16 -16v-16z" />
    <glyph glyph-name="chess-queen" unicode="&#xf445;" horiz-adv-x="512" 
d="M256 336c-30.9072 0 -56 25.0928 -56 56s25.0928 56 56 56s56 -25.0928 56 -56s-25.0928 -56 -56 -56zM432 0c8.83105 0 16 -7.16895 16 -16v-32c0 -8.83105 -7.16895 -16 -16 -16h-352c-8.83105 0 -16 7.16895 -16 16v32c0 8.83105 7.16895 16 16 16h352zM504.87 263.84
c4.30566 -2.86816 7.11914 -7.77344 7.11914 -13.3311c0 -2.56445 -0.604492 -4.98926 -1.67969 -7.13867l-102.55 -211.37h-303.52l-102.55 211.33c-1.0752 2.14941 -1.70508 4.58008 -1.70508 7.14453c0 5.55762 2.83887 10.457 7.14453 13.3252l28.5703 16
c7.35938 4.91016 16.8096 2.5498 22.0898 -4.54004c8.6543 -11.709 22.4922 -19.2686 38.1572 -19.2686c1.13672 0 2.26562 0.0400391 3.38281 0.119141c25.6699 1.73926 44.6699 24.7998 44.6699 50.4893c0 7.39648 6.00391 13.4004 13.4004 13.4004h38.7695
c6.04004 0 11.6104 -3.99023 12.8604 -9.91016c4.57715 -21.7363 23.8789 -38.0752 46.9688 -38.0752s42.3936 16.3389 46.9707 38.0752c1.25 5.91016 6.86035 9.91016 12.8604 9.91016h38.7695c7.39648 0 13.4004 -6.00391 13.4004 -13.4004
c0 -23.5293 15.7002 -45.46 38.8398 -49.75c2.95898 -0.576172 5.9541 -0.918945 9.08105 -0.918945c15.6064 0 29.4688 7.5293 38.1494 19.1494c5.37988 7.13965 14.8496 9.67969 22.29 4.67969z" />
    <glyph glyph-name="chess-queen-alt" unicode="&#xf446;" horiz-adv-x="256" 
d="M67.3701 256l-44.5 95.7305c-0.454102 0.905273 -0.720703 1.92969 -0.720703 3.01172c0 2.33887 1.19629 4.40137 3.01074 5.60742l10.0801 6.7207c1.05762 0.675781 2.31641 1.07812 3.66309 1.07812c2.34277 0 4.41113 -1.18555 5.63672 -2.98828
c3.64453 -4.92871 9.46973 -8.11035 16.0635 -8.11035c0.479492 0 0.955078 0.0166016 1.42676 0.0498047c10.8096 0.730469 18.8096 10.4404 18.8096 21.2607c0.00585938 3.11035 2.53027 5.63379 5.64062 5.63965h16.3291
c0.0380859 0.000976562 0.0742188 -0.00195312 0.112305 -0.00195312c2.56641 0 4.7207 -1.77734 5.29785 -4.16797c1.93945 -9.14258 10.0635 -16.0107 19.7803 -16.0107c9.71582 0 17.8408 6.86816 19.7803 16.0107c0.577148 2.39062 2.72949 4.1709 5.2959 4.1709
c0.0380859 0 0.0761719 0 0.114258 -0.000976562h16.3291c3.10059 -0.00585938 5.61816 -2.51367 5.64062 -5.61035c0 -10 6.60938 -19.1895 16.3496 -21c1.24707 -0.242188 2.50879 -0.386719 3.8252 -0.386719c6.57031 0 12.4072 3.16699 16.0654 8.05664
c2.25977 3 6.25 4.08008 9.37988 2l10.0596 -6.70996c1.81445 -1.20605 3 -3.27051 3 -5.61035c0 -1.08105 -0.255859 -2.10352 -0.709961 -3.00879l-44.5 -95.7305h3.37012c8.83105 0 16 -7.16895 16 -16v-16c0 -8.83105 -7.16895 -16 -16 -16h-16v-14
c0 -44.8945 5.57812 -88.3154 16 -130h-128c10.4219 41.6846 16 85.1055 16 130v14h-16c-8.83105 0 -16 7.16895 -16 16v16c0 8.83105 7.16895 16 16 16h3.37012zM128 400c-13.2461 0 -24 10.7539 -24 24s10.7539 24 24 24s24 -10.7539 24 -24s-10.7539 -24 -24 -24z
M247.16 -11.5996c5.24805 -2.62598 8.83984 -8.02637 8.83984 -14.29v-22.1104c0 -8.83105 -7.16895 -16 -16 -16h-224c-8.83105 0 -16 7.16895 -16 16v22.1104c0.000976562 6.26562 3.59668 11.6855 8.84961 14.3096l23.1504 11.5801v16c0 8.83105 7.16895 16 16 16h160
c8.83105 0 16 -7.16895 16 -16v-16z" />
    <glyph glyph-name="chess-rook" unicode="&#xf447;" horiz-adv-x="384" 
d="M368 416c8.83105 0 16 -7.16895 16 -16v-176l-64 -32c0 -47.7197 1.54004 -95 13.21 -160h-282.42c11.6699 65 13.21 111.67 13.21 160l-64 32v176c0 8.83105 7.16895 16 16 16h56.0996c8.83105 0 16 -7.16895 16 -16v-48h47.9004v48c0 8.83105 7.16895 16 16 16h80
c8.83105 0 16 -7.16895 16 -16v-48h48v48c0 8.83105 7.16895 16 16 16h56zM224 128v64c0 17.6611 -14.3389 32 -32 32s-32 -14.3389 -32 -32v-64h64zM368 0c8.83105 0 16 -7.16895 16 -16v-32c0 -8.83105 -7.16895 -16 -16 -16h-352c-8.83105 0 -16 7.16895 -16 16v32
c0 8.83105 7.16895 16 16 16h352z" />
    <glyph glyph-name="chess-rook-alt" unicode="&#xf448;" horiz-adv-x="320" 
d="M311.16 -11.5801c5.24805 -2.62598 8.83984 -8.0459 8.83984 -14.3096v-22.1104c0 -8.83105 -7.16895 -16 -16 -16h-288c-8.83105 0 -16 7.16895 -16 16v22.1104c0.000976562 6.26562 3.59668 11.6855 8.84961 14.3096l23.1504 11.5801v16c0 8.83105 7.16895 16 16 16
h224c8.83105 0 16 -7.16895 16 -16v-16zM71.8096 237.68l-30.5996 31.0303c-5.69629 5.7793 -9.20996 13.7168 -9.20996 22.4639v0.00585938v84.8203c0 4.41504 3.58496 8 8 8h35.1904c4.41504 0 8 -3.58496 8 -8v-40h32.9395v40c0 4.41504 3.58496 8 8 8h71.75
c4.41504 0 8 -3.58496 8 -8v-40h32.9404v40c0 4.41504 3.58398 8 8 8h35.1797c4.41504 0 8 -3.58496 8 -8v-84.7402l0.00292969 -0.0126953c0 -8.73633 -3.50879 -16.6602 -9.19336 -22.4375l-30.6191 -31.1094l14.4795 -173.7h-205.34zM136.41 216.41v-47.1797h47.1797
v47.1797c0 13.0195 -10.5703 23.5898 -23.5898 23.5898s-23.5898 -10.5703 -23.5898 -23.5898z" />
    <glyph glyph-name="user-lock" unicode="&#xf502;" horiz-adv-x="640" 
d="M224 192c-70.6455 0 -128 57.3545 -128 128s57.3545 128 128 128s128 -57.3545 128 -128s-57.3545 -128 -128 -128zM320 128v-160c0.0791016 -11.6504 3.3418 -22.6367 8.90039 -32h-280.9c-26.4922 0 -48 21.5078 -48 48v41.5996
c0.0166016 74.1699 60.2305 134.384 134.4 134.4h16.6992c22.1426 -10.2109 47.085 -15.9072 73.0498 -15.9072c25.9639 0 50.6084 5.69629 72.751 15.9072h16.6992c5 0 9.7002 -1 14.5 -1.5c-5.06641 -9.00684 -8.02539 -19.4561 -8.09961 -30.5zM608 160
c17.6611 0 32 -14.3389 32 -32v-160c0 -17.6611 -14.3389 -32 -32 -32h-224c-17.6611 0 -32 14.3389 -32 32v160c0 17.6611 14.3389 32 32 32h32v80c0 44.1533 35.8467 80 80 80s80 -35.8467 80 -80v-80h32zM496 16c17.6611 0 32 14.3389 32 32s-14.3389 32 -32 32
s-32 -14.3389 -32 -32s14.3389 -32 32 -32zM528 160v80c0 17.6611 -14.3389 32 -32 32s-32 -14.3389 -32 -32v-80h64z" />
    <glyph glyph-name="mind-share" unicode="&#xf677;" horiz-adv-x="640" 
d="M410.4 174.9c-58.4004 -8.60059 -109.801 -53.8008 -122.4 -110.9v324c0 33.0996 27 60 60.2002 60c28.2002 0 51.5996 -19.2998 58.2002 -45.2002c0.699219 0 1.39941 0.200195 2.09961 0.200195c33.2002 0 60.2002 -26.9004 60.2002 -60
c0 -4.59961 -0.600586 -9 -1.60059 -13.2002c27.4004 -11.2002 46.7002 -38 46.7002 -69.2998c0 -8.7002 -2 -16.7998 -4.7998 -24.5c-17 -7.5 -29 -24.7998 -29 -44.7998v-15.2002h-51c-5.2998 0 -11.5996 -0.0996094 -18.5996 -1.09961zM195.8 448
c33.2002 0 60.2002 -26.9004 60.2002 -60l0.0996094 -352.5c0 -37.2998 -30.3994 -67.5 -67.7998 -67.5c-29.8994 0 -55 19.4004 -64 46.0996c-3.7002 -0.599609 -7.39941 -1.09961 -11.2998 -1.09961c-37.5 0 -67.7998 30.2002 -67.7998 67.5
c0 4.5 0.5 8.90039 1.2998 13.2002c-27.2998 11.2998 -46.5 38 -46.5 69.2998c0 27.7998 15.4004 51.7998 38 64.7998c-4.7998 9.90039 -7.7998 20.9004 -7.7998 32.7002c0 31.2998 19.2998 58.0996 46.7002 69.2998c-1 4.2998 -1.60059 8.7002 -1.60059 13.2002
c0 33.0996 26.9004 60 60.2002 60c0.700195 0 1.40039 -0.200195 2.09961 -0.200195c6.7002 25.9004 30.1006 45.2002 58.2002 45.2002zM635 108.2c6.7002 -6.60059 6.7002 -17.7998 0.0996094 -24.5l-96 -95.2002c-10.0996 -10 -27 -2.59961 -27 12.2002v47.2002h-64
c-65.8994 0 -69.2998 -68.9004 -60.2998 -95.5c3.7998 -11.2002 -8 -20.9004 -17.7998 -14.4004c-35 23.2998 -56.0996 67 -48.2998 113.7c7.7998 47 46.2998 84.5996 93.3994 91.5c5.80078 0.899414 11.4004 0.799805 17 0.799805h79.9004v47.2002
c0 14.7998 16.9004 22.2002 27 12.2002z" />
    <glyph glyph-name="alarm-exclamation" unicode="&#xf843;" horiz-adv-x="512" 
d="M96 448c25.1729 -0.00195312 48.1172 -9.75586 65.2002 -25.6797l-145.9 -121.58c-9.57422 14.7402 -15.2236 32.4072 -15.2998 51.2598c0 52.9834 43.0166 96 96 96zM416 448c52.9834 0 96 -43.0166 96 -96c-0.0820312 -18.8398 -5.72559 -36.4961 -15.29 -51.2305
l-145.89 121.57c17.082 15.9111 40.0186 25.6553 65.1797 25.6602zM256 384c123.74 0 224 -100.29 224 -224c0 -0.0351562 -0.104492 -0.253906 -0.104492 -0.289062c0 -50.1582 -16.6191 -96.4648 -44.6455 -133.711l40.0996 -40.0596
c2.89746 -2.89648 4.69043 -6.90137 4.69043 -11.3174s-1.79297 -8.41699 -4.69043 -11.3135l-22.6299 -22.6191c-2.89551 -2.89453 -6.89844 -4.68555 -11.3115 -4.68555c-4.41406 0 -8.41211 1.79102 -11.3086 4.68555l-40.0996 40.0898
c-37.2715 -28.0547 -83.9873 -44.6904 -134.186 -44.6904c-50.1992 0 -96.543 16.6357 -133.814 44.6904l-40.0596 -40.1201c-2.89648 -2.89746 -6.90137 -4.69043 -11.3174 -4.69043s-8.41699 1.79297 -11.3135 4.69043l-22.6191 22.6201
c-2.89746 2.89648 -4.69043 6.90137 -4.69043 11.3174s1.79297 8.41602 4.69043 11.3125l40.0996 40.0898c-28.0508 37.2559 -44.79 83.7686 -44.79 133.952v0.0478516c0 123.71 100.3 224 224 224zM256 32c17.6611 0 32 14.3389 32 32s-14.3389 32 -32 32
s-32 -14.3389 -32 -32s14.3389 -32 32 -32zM281.4 142.4l12.7998 128c0.0537109 0.53125 0.0800781 1.05371 0.0800781 1.59961c0 8.82422 -7.15918 15.9893 -15.9805 16h-44.5996c-8.82324 -0.046875 -15.9746 -7.20898 -15.9746 -16.0439
c0 -0.524414 0.0253906 -1.04395 0.0742188 -1.55566l12.7998 -128c0.811523 -8.06641 7.62402 -14.3906 15.9004 -14.4004h19c8.27637 0.00976562 15.0889 6.33398 15.9004 14.4004z" />
    <glyph glyph-name="alarm-plus" unicode="&#xf844;" horiz-adv-x="512" 
d="M96 448c25.1729 -0.00195312 48.1172 -9.75586 65.2002 -25.6797l-145.9 -121.58c-9.57422 14.7402 -15.2236 32.4072 -15.2998 51.2598c0 52.9834 43.0166 96 96 96zM416 448c52.9834 0 96 -43.0166 96 -96c-0.0820312 -18.8398 -5.72559 -36.4961 -15.29 -51.2305
l-145.89 121.57c17.082 15.9111 40.0186 25.6553 65.1797 25.6602zM256 384c123.74 0 224 -100.29 224 -224c0 -0.0351562 -0.104492 -0.253906 -0.104492 -0.289062c0 -50.1582 -16.6191 -96.4648 -44.6455 -133.711l40.0996 -40.0596
c2.89746 -2.89648 4.69043 -6.90137 4.69043 -11.3174s-1.79297 -8.41699 -4.69043 -11.3135l-22.6299 -22.6191c-2.89551 -2.89453 -6.89844 -4.68555 -11.3115 -4.68555c-4.41406 0 -8.41211 1.79102 -11.3086 4.68555l-40.0996 40.0898
c-37.2715 -28.0547 -83.9873 -44.6904 -134.186 -44.6904c-50.1992 0 -96.543 16.6357 -133.814 44.6904l-40.0596 -40.1201c-2.89648 -2.89746 -6.90137 -4.69043 -11.3174 -4.69043s-8.41699 1.79297 -11.3135 4.69043l-22.6191 22.6201
c-2.89746 2.89648 -4.69043 6.90137 -4.69043 11.3174s1.79297 8.41602 4.69043 11.3125l40.0996 40.0898c-28.0508 37.2559 -44.79 83.7686 -44.79 133.952v0.0478516c0 123.71 100.3 224 224 224zM368 152v16c0 8.83105 -7.16895 16 -16 16h-72v72
c0 8.83105 -7.16895 16 -16 16h-16c-8.83105 0 -16 -7.16895 -16 -16v-72h-72c-8.83105 0 -16 -7.16895 -16 -16v-16c0 -8.83105 7.16895 -16 16 -16h72v-72c0 -8.83105 7.16895 -16 16 -16h16c8.83105 0 16 7.16895 16 16v72h72c8.83105 0 16 7.16895 16 16z" />
    <glyph glyph-name="alarm-snooze" unicode="&#xf845;" horiz-adv-x="512" 
d="M96 448c25.1729 -0.00195312 48.1172 -9.75586 65.2002 -25.6797l-145.9 -121.58c-9.57422 14.7402 -15.2236 32.4072 -15.2998 51.2598c0 52.9834 43.0166 96 96 96zM416 448c52.9834 0 96 -43.0166 96 -96c-0.0820312 -18.8398 -5.72559 -36.4961 -15.29 -51.2305
l-145.89 121.57c17.082 15.9111 40.0186 25.6553 65.1797 25.6602zM256 384c123.74 0 224 -100.29 224 -224c0 -0.0351562 -0.104492 -0.253906 -0.104492 -0.289062c0 -50.1582 -16.6191 -96.4648 -44.6455 -133.711l40.0996 -40.0596
c2.89746 -2.89648 4.69043 -6.90137 4.69043 -11.3174s-1.79297 -8.41699 -4.69043 -11.3135l-22.6299 -22.6191c-2.89551 -2.89453 -6.89844 -4.68555 -11.3115 -4.68555c-4.41406 0 -8.41211 1.79102 -11.3086 4.68555l-40.0996 40.0898
c-37.2715 -28.0547 -83.9873 -44.6904 -134.186 -44.6904c-50.1992 0 -96.543 16.6357 -133.814 44.6904l-40.0596 -40.1201c-2.89648 -2.89746 -6.90137 -4.69043 -11.3174 -4.69043s-8.41699 1.79297 -11.3135 4.69043l-22.6191 22.6201
c-2.89746 2.89648 -4.69043 6.90137 -4.69043 11.3174s1.79297 8.41602 4.69043 11.3125l40.0996 40.0898c-28.0508 37.2559 -44.79 83.7686 -44.79 133.952v0.0478516c0 123.71 100.3 224 224 224zM338.7 225c3.28809 4.10742 5.29492 9.33398 5.29492 15
c0 13.2441 -10.752 23.9971 -23.9951 24h-128c-8.83105 0 -16 -7.16895 -16 -16v-16c0 -8.83105 7.16895 -16 16 -16h78l-96.7402 -121c-3.28809 -4.10742 -5.26465 -9.33398 -5.26465 -15c0 -13.2461 10.7539 -24 24 -24h0.00488281h128c8.83105 0 16 7.16895 16 16v16
c0 8.83105 -7.16895 16 -16 16h-78.0996z" />
    <glyph glyph-name="align-slash" unicode="&#xf846;" horiz-adv-x="640" 
d="M633.82 -10.0996c3.76855 -2.92871 6.17676 -7.50977 6.17676 -12.6475c0 -3.69238 -1.25293 -7.09375 -3.35742 -9.80273l-19.6396 -25.2705c-2.92871 -3.76855 -7.50879 -6.17578 -12.6465 -6.17578c-3.69727 0 -7.10254 1.25684 -9.81348 3.36621l-588.36 454.72
c-3.76562 2.92871 -6.1709 7.50781 -6.1709 12.6426c0 3.69434 1.25488 7.09766 3.36133 9.80762l19.6299 25.2695c2.92871 3.76855 7.50879 6.17676 12.6465 6.17676c3.69727 0 7.10254 -1.25684 9.81348 -3.36621l51.54 -39.7998
c1.97266 6.43164 7.93848 11.124 15 11.1797h416c8.83105 0 16 -7.16895 16 -16v-32c0 -8.83105 -7.16895 -16 -16 -16h-362.69l82.8105 -64h279.88c8.83105 0 16 -7.16895 16 -16v-32c0 -8.83105 -7.16895 -16 -16 -16h-197.08l82.8105 -64h114.27
c8.83105 0 16 -7.16895 16 -16v-32c0 -8.83105 -7.16895 -16 -16 -16h-31.46zM112 32h258l82.8301 -64h-340.83c-8.83105 0 -16 7.16895 -16 16v32c0 8.83105 7.16895 16 16 16zM112 96c-8.83105 0 -16 7.16895 -16 16v32c0 8.83105 7.16895 16 16 16h92.4102l82.7998 -64
h-175.21z" />
    <glyph glyph-name="bags-shopping" unicode="&#xf847;" horiz-adv-x="576" 
d="M448 224h-256c-17.6611 0 -32 -14.3389 -32 -32v-224h-128c-17.6611 0 -32 14.3389 -32 32v256c0 17.6611 14.3389 32 32 32h96v64c0 52.9834 43.0166 96 96 96s96 -43.0166 96 -96v-64h96c17.6611 0 32 -14.3389 32 -32v-32zM176 352v-64h96v64
c0 26.4922 -21.5078 48 -48 48s-48 -21.5078 -48 -48zM544 192c17.6611 0 32 -14.3389 32 -32v-192c0 -17.6611 -14.3389 -32 -32 -32h-320c-17.6611 0 -32 14.3389 -32 32v192c0 17.6611 14.3389 32 32 32h320zM480 96v24c0 4.41504 -3.58496 8 -8 8h-16
c-4.41504 0 -8 -3.58496 -8 -8v-24c-0.0380859 -35.3291 -28.667 -64.0039 -64.0049 -64.0039c-2.15137 0 -4.27832 0.106445 -6.375 0.313477c-33.25 3.23047 -57.6201 33.1201 -57.6201 66.5303v21.1602c0 4.41504 -3.58496 8 -8 8h-16c-4.41504 0 -8 -3.58496 -8 -8
v-20.6602c0 -48.79 35 -92.3398 83.3701 -98.5303c4.12695 -0.541016 8.23633 -0.81543 12.5098 -0.81543c53.0117 0 96.0586 43.0088 96.1201 96.0059z" />
    <glyph glyph-name="bell-exclamation" unicode="&#xf848;" 
d="M224 -64c-35.3223 0 -64 28.6777 -64 64h128c0 -35.3223 -28.6777 -64 -64 -64zM439.39 85.71c5.33496 -5.60352 8.61133 -13.1895 8.61133 -21.5293c0 -0.0605469 -0.000976562 -0.120117 -0.000976562 -0.180664c-0.0996094 -16.4004 -12.9805 -32 -32.0996 -32
h-383.801c-19.0996 0 -31.9893 15.5996 -32.0996 32c0 0.0585938 -0.000976562 0.123047 -0.000976562 0.181641c0 8.34082 3.27637 15.9229 8.61133 21.5283c19.3193 20.7598 55.4697 51.9902 55.4697 154.29c0 77.7002 54.4795 139.9 127.9 155.16v20.8398
c0 17.6611 14.3379 32 32 32c17.6611 0 32 -14.3389 32 -32v-20.8398c73.46 -15.2598 127.939 -77.46 127.939 -155.16c0 -102.29 36.1504 -133.53 55.4697 -154.29zM224 96c17.6611 0 32 14.3389 32 32s-14.3389 32 -32 32s-32 -14.3389 -32 -32s14.3389 -32 32 -32z
M249.4 206.4l12.7998 96c0.0537109 0.53125 0.0800781 1.05371 0.0800781 1.59961c0 8.82422 -7.15918 15.9893 -15.9805 16h-44.5996c-8.82324 -0.046875 -15.9746 -7.20898 -15.9746 -16.0439c0 -0.524414 0.0253906 -1.04395 0.0742188 -1.55566l12.7998 -96
c0.811523 -8.06641 7.62402 -14.3906 15.9004 -14.4004h19c8.27637 0.00976562 15.0889 6.33398 15.9004 14.4004z" />
    <glyph glyph-name="bell-plus" unicode="&#xf849;" 
d="M224 -64c-35.3223 0 -64 28.6777 -64 64h128c0 -35.3223 -28.6777 -64 -64 -64zM439.39 85.71c5.33496 -5.60352 8.61133 -13.1895 8.61133 -21.5293c0 -0.0605469 -0.000976562 -0.120117 -0.000976562 -0.180664c-0.0996094 -16.4004 -12.9805 -32 -32.0996 -32
h-383.801c-19.0996 0 -31.9893 15.5996 -32.0996 32c0 0.0585938 -0.000976562 0.123047 -0.000976562 0.181641c0 8.34082 3.27637 15.9229 8.61133 21.5283c19.3193 20.7598 55.4697 51.9902 55.4697 154.29c0 77.7002 54.4795 139.9 127.9 155.16v20.8398
c0 17.6611 14.3379 32 32 32c17.6611 0 32 -14.3389 32 -32v-20.8398c73.46 -15.2598 127.939 -77.46 127.939 -155.16c0 -102.29 36.1504 -133.53 55.4697 -154.29zM320 200v16c0 8.83105 -7.16895 16 -16 16h-56v56c0 8.83105 -7.16895 16 -16 16h-16
c-8.83105 0 -16 -7.16895 -16 -16v-56h-56c-8.83105 0 -16 -7.16895 -16 -16v-16c0 -8.83105 7.16895 -16 16 -16h56v-56c0 -8.83105 7.16895 -16 16 -16h16c8.83105 0 16 7.16895 16 16v56h56c8.83105 0 16 7.16895 16 16z" />
    <glyph glyph-name="biking" unicode="&#xf84a;" horiz-adv-x="640" 
d="M400 352c-26.4922 0 -48 21.5078 -48 48s21.5078 48 48 48s48 -21.5078 48 -48s-21.5078 -48 -48 -48zM396 231l-41.3604 33.1104l-58.25 -49.9199l41.3604 -27.5703c8.60547 -5.7373 14.248 -15.5117 14.25 -26.6201v-128c0 -17.6611 -14.3389 -32 -32 -32
s-32 14.3389 -32 32v110.88l-81.7305 54.5205c-8.60742 5.7373 -14.2686 15.5068 -14.2686 26.6191c0 9.71777 4.3418 18.4297 11.1895 24.3008l112 96c5.58887 4.80176 12.8965 7.70117 20.8359 7.70117c7.55566 0 14.502 -2.62891 19.9736 -7.02148l71.2197 -57h52.7803
c17.6611 0 32 -14.3389 32 -32s-14.3389 -32 -32 -32h-64c-0.0205078 0 -0.0625 0.0117188 -0.0830078 0.0117188c-7.53125 0 -14.457 2.61621 -19.917 6.98828zM512 192c70.6455 0 128 -57.3545 128 -128s-57.3545 -128 -128 -128s-128 57.3545 -128 128
s57.3545 128 128 128zM512 0c35.3223 0 64 28.6777 64 64s-28.6777 64 -64 64s-64 -28.6777 -64 -64s28.6777 -64 64 -64zM128 192c70.6455 0 128 -57.3545 128 -128s-57.3545 -128 -128 -128s-128 57.3545 -128 128s57.3545 128 128 128zM128 0c35.3223 0 64 28.6777 64 64
s-28.6777 64 -64 64s-64 -28.6777 -64 -64s28.6777 -64 64 -64z" />
    <glyph glyph-name="biking-mountain" unicode="&#xf84b;" horiz-adv-x="640" 
d="M400 352c-26.4922 0 -48 21.5078 -48 48s21.5078 48 48 48s48 -21.5078 48 -48s-21.5078 -48 -48 -48zM172.71 277.84l-40.8301 49.1797c-5.66016 6.80078 -5.03027 16.79 1.33984 22.3408l58.1201 48.7598c31.9004 27.7002 80.6104 22.6494 108.811 -11.2998
c5.64941 -6.79004 5.0293 -16.79 -1.35059 -22.3301l-104.319 -88.9102c-6.38086 -5.5498 -16.1201 -4.54004 -21.7705 2.25977zM240 96c8.83105 0 16 -7.16895 16 -16v-32c0 -8.83105 -7.16895 -16 -16 -16h-5.19043c-2.1709 -7.2627 -5.11816 -14.3379 -8.65918 -20.8896
l3.66992 -3.66992c2.89648 -2.89648 4.68945 -6.90137 4.68945 -11.3174s-1.79297 -8.41699 -4.68945 -11.3135l-22.6299 -22.6299c-2.89648 -2.89648 -6.90137 -4.68945 -11.3174 -4.68945s-8.41699 1.79297 -11.3135 4.68945l-3.66992 3.66992
c-6.55273 -3.53809 -13.627 -6.48145 -20.8896 -8.64941v-5.2002c0 -8.83105 -7.16895 -16 -16 -16h-32c-8.83105 0 -16 7.16895 -16 16v5.2002c-7.26074 2.1709 -14.3359 5.11426 -20.8896 8.64941l-3.66992 -3.66992
c-2.89648 -2.89648 -6.90137 -4.68945 -11.3174 -4.68945s-8.41699 1.79297 -11.3135 4.68945l-22.6299 22.6299c-2.89648 2.89648 -4.68945 6.90137 -4.68945 11.3174s1.79297 8.41699 4.68945 11.3135l3.66992 3.66992c-3.53906 6.55176 -6.4834 13.626 -8.64941 20.8896
h-5.2002c-8.83105 0 -16 7.16895 -16 16v32c0 8.83105 7.16895 16 16 16h5.2002c2.16699 7.2627 5.11133 14.3369 8.64941 20.8896l-3.66992 3.66992c-2.89648 2.89648 -4.68945 6.90137 -4.68945 11.3174s1.79297 8.41699 4.68945 11.3135l22.6299 22.6299
c2.89648 2.89648 6.90137 4.68945 11.3174 4.68945s8.41699 -1.79297 11.3135 -4.68945l3.66992 -3.66992c6.55176 3.53906 13.626 6.4834 20.8896 8.64941v5.2002c0 8.83105 7.16895 16 16 16h32c8.83105 0 16 -7.16895 16 -16v-5.2002
c7.2627 -2.16699 14.3369 -5.11133 20.8896 -8.64941l3.66992 3.66992c2.89648 2.89648 6.90137 4.68945 11.3174 4.68945s8.41699 -1.79297 11.3135 -4.68945l22.6299 -22.6299c2.89648 -2.89648 4.68945 -6.90137 4.68945 -11.3174s-1.79297 -8.41699 -4.68945 -11.3135
l-3.66992 -3.66992c3.53906 -6.55176 6.4834 -13.626 8.64941 -20.8896h5.2002zM128 0c35.3223 0 64 28.6777 64 64s-28.6777 64 -64 64s-64 -28.6777 -64 -64s28.6777 -64 64 -64zM624 96c8.83105 0 16 -7.16895 16 -16v-32c0 -8.83105 -7.16895 -16 -16 -16h-5.2002
c-2.16406 -7.2627 -5.10449 -14.3369 -8.63965 -20.8896l3.66992 -3.66992c2.89648 -2.89648 4.68945 -6.90137 4.68945 -11.3174s-1.79297 -8.41699 -4.68945 -11.3135l-22.6299 -22.6299c-2.89648 -2.89648 -6.90137 -4.68945 -11.3174 -4.68945
s-8.41699 1.79297 -11.3125 4.68945l-3.66992 3.66992c-6.55664 -3.53809 -13.6348 -6.48145 -20.9004 -8.64941v-5.2002c0 -8.83105 -7.16895 -16 -16 -16h-32c-8.83105 0 -16 7.16895 -16 16v5.2002c-7.26074 2.17188 -14.335 5.11523 -20.8896 8.64941l-3.66992 -3.66992
c-2.89648 -2.89648 -6.90137 -4.68945 -11.3174 -4.68945s-8.41699 1.79297 -11.3135 4.68945l-22.6299 22.6299c-2.89648 2.89648 -4.68945 6.90137 -4.68945 11.3174s1.79297 8.41699 4.68945 11.3135l3.66992 3.66992c-3.53906 6.55176 -6.4834 13.626 -8.64941 20.8896
h-5.2002c-8.83105 0 -16 7.16895 -16 16v32c0 8.83105 7.16895 16 16 16h5.19043c2.17383 7.26367 5.12402 14.3379 8.66992 20.8896l-3.66992 3.66992c-2.89746 2.89648 -4.69043 6.90137 -4.69043 11.3174s1.79297 8.41699 4.69043 11.3135l22.6299 22.6299
c2.89551 2.89648 6.90137 4.68945 11.3174 4.68945c4.41504 0 8.41602 -1.79297 11.3125 -4.68945l3.66992 -3.66992c6.54883 3.53906 13.6201 6.4834 20.8799 8.64941v5.2002c0 8.83105 7.16895 16 16 16h32c8.83105 0 16 -7.16895 16 -16v-5.2002
c7.2627 -2.16699 14.3369 -5.11133 20.8896 -8.64941l3.66992 3.66992c2.89648 2.89648 6.90137 4.68945 11.3174 4.68945s8.41699 -1.79297 11.3135 -4.68945l22.6299 -22.6299c2.89648 -2.89648 4.68945 -6.90137 4.68945 -11.3174s-1.79297 -8.41699 -4.68945 -11.3135
l-3.66992 -3.66992c3.53906 -6.55176 6.4834 -13.626 8.64941 -20.8896h5.2002zM512 0c35.3223 0 64 28.6777 64 64s-28.6777 64 -64 64s-64 -28.6777 -64 -64s28.6777 -64 64 -64zM396 231l-41.3604 33.1104l-58.2393 -49.9199l41.3496 -27.5703
c8.60547 -5.7373 14.248 -15.5117 14.25 -26.6201v-128c0 -17.6611 -14.3389 -32 -32 -32s-32 14.3389 -32 32v110.88l-81.7402 54.5205c-8.60449 5.73828 -14.2627 15.5059 -14.2627 26.6152c0 9.71973 4.34277 18.4336 11.1934 24.3047l112 96
c5.58887 4.80176 12.8965 7.70117 20.8359 7.70117c7.55566 0 14.502 -2.62891 19.9736 -7.02148l71.2197 -57h52.7803c17.6611 0 32 -14.3389 32 -32s-14.3389 -32 -32 -32h-64c-0.00878906 0 -0.0390625 0.0117188 -0.0478516 0.0117188
c-7.54297 0 -14.4795 2.61523 -19.9521 6.98828z" />
    <glyph glyph-name="border-all" unicode="&#xf84c;" 
d="M416 416c17.6611 0 32 -14.3389 32 -32v-384c0 -17.6611 -14.3389 -32 -32 -32h-384c-17.6611 0 -32 14.3389 -32 32v384c0 17.6611 14.3389 32 32 32h384zM384 352h-128v-128h128v128zM192 352h-128v-128h128v128zM64 32h128v128h-128v-128zM256 32h128v128h-128v-128z
" />
    <glyph glyph-name="border-bottom" unicode="&#xf84d;" 
d="M208 160c-8.83105 0 -16 7.16895 -16 16v32c0 8.83105 7.16895 16 16 16h32c8.83105 0 16 -7.16895 16 -16v-32c0 -8.83105 -7.16895 -16 -16 -16h-32zM304 160c-8.83105 0 -16 7.16895 -16 16v32c0 8.83105 7.16895 16 16 16h32c8.83105 0 16 -7.16895 16 -16v-32
c0 -8.83105 -7.16895 -16 -16 -16h-32zM432 224c8.83105 0 16 -7.16895 16 -16v-32c0 -8.83105 -7.16895 -16 -16 -16h-32c-8.83105 0 -16 7.16895 -16 16v32c0 8.83105 7.16895 16 16 16h32zM112 160c-8.83105 0 -16 7.16895 -16 16v32c0 8.83105 7.16895 16 16 16h32
c8.83105 0 16 -7.16895 16 -16v-32c0 -8.83105 -7.16895 -16 -16 -16h-32zM432 128c8.83105 0 16 -7.16895 16 -16v-32c0 -8.83105 -7.16895 -16 -16 -16h-32c-8.83105 0 -16 7.16895 -16 16v32c0 8.83105 7.16895 16 16 16h32zM432 320c8.83105 0 16 -7.16895 16 -16v-32
c0 -8.83105 -7.16895 -16 -16 -16h-32c-8.83105 0 -16 7.16895 -16 16v32c0 8.83105 7.16895 16 16 16h32zM208 64c-8.83105 0 -16 7.16895 -16 16v32c0 8.83105 7.16895 16 16 16h32c8.83105 0 16 -7.16895 16 -16v-32c0 -8.83105 -7.16895 -16 -16 -16h-32zM208 256
c-8.83105 0 -16 7.16895 -16 16v32c0 8.83105 7.16895 16 16 16h32c8.83105 0 16 -7.16895 16 -16v-32c0 -8.83105 -7.16895 -16 -16 -16h-32zM208 352c-8.83105 0 -16 7.16895 -16 16v32c0 8.83105 7.16895 16 16 16h32c8.83105 0 16 -7.16895 16 -16v-32
c0 -8.83105 -7.16895 -16 -16 -16h-32zM304 352c-8.83105 0 -16 7.16895 -16 16v32c0 8.83105 7.16895 16 16 16h32c8.83105 0 16 -7.16895 16 -16v-32c0 -8.83105 -7.16895 -16 -16 -16h-32zM432 416c8.83105 0 16 -7.16895 16 -16v-32c0 -8.83105 -7.16895 -16 -16 -16
h-32c-8.83105 0 -16 7.16895 -16 16v32c0 8.83105 7.16895 16 16 16h32zM16 160c-8.83105 0 -16 7.16895 -16 16v32c0 8.83105 7.16895 16 16 16h32c8.83105 0 16 -7.16895 16 -16v-32c0 -8.83105 -7.16895 -16 -16 -16h-32zM16 64c-8.83105 0 -16 7.16895 -16 16v32
c0 8.83105 7.16895 16 16 16h32c8.83105 0 16 -7.16895 16 -16v-32c0 -8.83105 -7.16895 -16 -16 -16h-32zM16 256c-8.83105 0 -16 7.16895 -16 16v32c0 8.83105 7.16895 16 16 16h32c8.83105 0 16 -7.16895 16 -16v-32c0 -8.83105 -7.16895 -16 -16 -16h-32zM16 352
c-8.83105 0 -16 7.16895 -16 16v32c0 8.83105 7.16895 16 16 16h32c8.83105 0 16 -7.16895 16 -16v-32c0 -8.83105 -7.16895 -16 -16 -16h-32zM112 352c-8.83105 0 -16 7.16895 -16 16v32c0 8.83105 7.16895 16 16 16h32c8.83105 0 16 -7.16895 16 -16v-32
c0 -8.83105 -7.16895 -16 -16 -16h-32zM432 32c8.83105 0 16 -7.16895 16 -16v-32c0 -8.83105 -7.16895 -16 -16 -16h-416c-8.83105 0 -16 7.16895 -16 16v32c0 8.83105 7.16895 16 16 16h416z" />
    <glyph glyph-name="border-inner" unicode="&#xf84e;" 
d="M48 32c8.83105 0 16 -7.16895 16 -16v-32c0 -8.83105 -7.16895 -16 -16 -16h-32c-8.83105 0 -16 7.16895 -16 16v32c0 8.83105 7.16895 16 16 16h32zM16 256c-8.83105 0 -16 7.16895 -16 16v32c0 8.83105 7.16895 16 16 16h32c8.83105 0 16 -7.16895 16 -16v-32
c0 -8.83105 -7.16895 -16 -16 -16h-32zM304 352c-8.83105 0 -16 7.16895 -16 16v32c0 8.83105 7.16895 16 16 16h32c8.83105 0 16 -7.16895 16 -16v-32c0 -8.83105 -7.16895 -16 -16 -16h-32zM48 128c8.83105 0 16 -7.16895 16 -16v-32c0 -8.83105 -7.16895 -16 -16 -16h-32
c-8.83105 0 -16 7.16895 -16 16v32c0 8.83105 7.16895 16 16 16h32zM112 352c-8.83105 0 -16 7.16895 -16 16v32c0 8.83105 7.16895 16 16 16h32c8.83105 0 16 -7.16895 16 -16v-32c0 -8.83105 -7.16895 -16 -16 -16h-32zM16 352c-8.83105 0 -16 7.16895 -16 16v32
c0 8.83105 7.16895 16 16 16h32c8.83105 0 16 -7.16895 16 -16v-32c0 -8.83105 -7.16895 -16 -16 -16h-32zM336 32c8.83105 0 16 -7.16895 16 -16v-32c0 -8.83105 -7.16895 -16 -16 -16h-32c-8.83105 0 -16 7.16895 -16 16v32c0 8.83105 7.16895 16 16 16h32zM432 320
c8.83105 0 16 -7.16895 16 -16v-32c0 -8.83105 -7.16895 -16 -16 -16h-32c-8.83105 0 -16 7.16895 -16 16v32c0 8.83105 7.16895 16 16 16h32zM432 416c8.83105 0 16 -7.16895 16 -16v-32c0 -8.83105 -7.16895 -16 -16 -16h-32c-8.83105 0 -16 7.16895 -16 16v32
c0 8.83105 7.16895 16 16 16h32zM432 224c8.83105 0 16 -7.16895 16 -16v-32c0 -8.83105 -7.16895 -16 -16 -16h-176v-176c0 -8.83105 -7.16895 -16 -16 -16h-32c-8.83105 0 -16 7.16895 -16 16v176h-176c-8.83105 0 -16 7.16895 -16 16v32c0 8.83105 7.16895 16 16 16h176
v176c0 8.83105 7.16895 16 16 16h32c8.83105 0 16 -7.16895 16 -16v-176h176zM144 32c8.83105 0 16 -7.16895 16 -16v-32c0 -8.83105 -7.16895 -16 -16 -16h-32c-8.83105 0 -16 7.16895 -16 16v32c0 8.83105 7.16895 16 16 16h32zM432 128c8.83105 0 16 -7.16895 16 -16v-32
c0 -8.83105 -7.16895 -16 -16 -16h-32c-8.83105 0 -16 7.16895 -16 16v32c0 8.83105 7.16895 16 16 16h32zM432 32c8.83105 0 16 -7.16895 16 -16v-32c0 -8.83105 -7.16895 -16 -16 -16h-32c-8.83105 0 -16 7.16895 -16 16v32c0 8.83105 7.16895 16 16 16h32z" />
    <glyph glyph-name="border-left" unicode="&#xf84f;" 
d="M240 224c8.83105 0 16 -7.16895 16 -16v-32c0 -8.83105 -7.16895 -16 -16 -16h-32c-8.83105 0 -16 7.16895 -16 16v32c0 8.83105 7.16895 16 16 16h32zM336 224c8.83105 0 16 -7.16895 16 -16v-32c0 -8.83105 -7.16895 -16 -16 -16h-32c-8.83105 0 -16 7.16895 -16 16v32
c0 8.83105 7.16895 16 16 16h32zM432 224c8.83105 0 16 -7.16895 16 -16v-32c0 -8.83105 -7.16895 -16 -16 -16h-32c-8.83105 0 -16 7.16895 -16 16v32c0 8.83105 7.16895 16 16 16h32zM144 224c8.83105 0 16 -7.16895 16 -16v-32c0 -8.83105 -7.16895 -16 -16 -16h-32
c-8.83105 0 -16 7.16895 -16 16v32c0 8.83105 7.16895 16 16 16h32zM240 32c8.83105 0 16 -7.16895 16 -16v-32c0 -8.83105 -7.16895 -16 -16 -16h-32c-8.83105 0 -16 7.16895 -16 16v32c0 8.83105 7.16895 16 16 16h32zM336 32c8.83105 0 16 -7.16895 16 -16v-32
c0 -8.83105 -7.16895 -16 -16 -16h-32c-8.83105 0 -16 7.16895 -16 16v32c0 8.83105 7.16895 16 16 16h32zM432 32c8.83105 0 16 -7.16895 16 -16v-32c0 -8.83105 -7.16895 -16 -16 -16h-32c-8.83105 0 -16 7.16895 -16 16v32c0 8.83105 7.16895 16 16 16h32zM432 128
c8.83105 0 16 -7.16895 16 -16v-32c0 -8.83105 -7.16895 -16 -16 -16h-32c-8.83105 0 -16 7.16895 -16 16v32c0 8.83105 7.16895 16 16 16h32zM432 320c8.83105 0 16 -7.16895 16 -16v-32c0 -8.83105 -7.16895 -16 -16 -16h-32c-8.83105 0 -16 7.16895 -16 16v32
c0 8.83105 7.16895 16 16 16h32zM240 128c8.83105 0 16 -7.16895 16 -16v-32c0 -8.83105 -7.16895 -16 -16 -16h-32c-8.83105 0 -16 7.16895 -16 16v32c0 8.83105 7.16895 16 16 16h32zM240 320c8.83105 0 16 -7.16895 16 -16v-32c0 -8.83105 -7.16895 -16 -16 -16h-32
c-8.83105 0 -16 7.16895 -16 16v32c0 8.83105 7.16895 16 16 16h32zM144 32c8.83105 0 16 -7.16895 16 -16v-32c0 -8.83105 -7.16895 -16 -16 -16h-32c-8.83105 0 -16 7.16895 -16 16v32c0 8.83105 7.16895 16 16 16h32zM240 416c8.83105 0 16 -7.16895 16 -16v-32
c0 -8.83105 -7.16895 -16 -16 -16h-32c-8.83105 0 -16 7.16895 -16 16v32c0 8.83105 7.16895 16 16 16h32zM336 416c8.83105 0 16 -7.16895 16 -16v-32c0 -8.83105 -7.16895 -16 -16 -16h-32c-8.83105 0 -16 7.16895 -16 16v32c0 8.83105 7.16895 16 16 16h32zM432 416
c8.83105 0 16 -7.16895 16 -16v-32c0 -8.83105 -7.16895 -16 -16 -16h-32c-8.83105 0 -16 7.16895 -16 16v32c0 8.83105 7.16895 16 16 16h32zM144 416c8.83105 0 16 -7.16895 16 -16v-32c0 -8.83105 -7.16895 -16 -16 -16h-32c-8.83105 0 -16 7.16895 -16 16v32
c0 8.83105 7.16895 16 16 16h32zM48 416c8.83105 0 16 -7.16895 16 -16v-416c0 -8.83105 -7.16895 -16 -16 -16h-32c-8.83105 0 -16 7.16895 -16 16v416c0 8.83105 7.16895 16 16 16h32z" />
    <glyph glyph-name="border-none" unicode="&#xf850;" 
d="M240 224c8.83105 0 16 -7.16895 16 -16v-32c0 -8.83105 -7.16895 -16 -16 -16h-32c-8.83105 0 -16 7.16895 -16 16v32c0 8.83105 7.16895 16 16 16h32zM336 224c8.83105 0 16 -7.16895 16 -16v-32c0 -8.83105 -7.16895 -16 -16 -16h-32c-8.83105 0 -16 7.16895 -16 16v32
c0 8.83105 7.16895 16 16 16h32zM432 224c8.83105 0 16 -7.16895 16 -16v-32c0 -8.83105 -7.16895 -16 -16 -16h-32c-8.83105 0 -16 7.16895 -16 16v32c0 8.83105 7.16895 16 16 16h32zM144 224c8.83105 0 16 -7.16895 16 -16v-32c0 -8.83105 -7.16895 -16 -16 -16h-32
c-8.83105 0 -16 7.16895 -16 16v32c0 8.83105 7.16895 16 16 16h32zM240 32c8.83105 0 16 -7.16895 16 -16v-32c0 -8.83105 -7.16895 -16 -16 -16h-32c-8.83105 0 -16 7.16895 -16 16v32c0 8.83105 7.16895 16 16 16h32zM336 32c8.83105 0 16 -7.16895 16 -16v-32
c0 -8.83105 -7.16895 -16 -16 -16h-32c-8.83105 0 -16 7.16895 -16 16v32c0 8.83105 7.16895 16 16 16h32zM432 32c8.83105 0 16 -7.16895 16 -16v-32c0 -8.83105 -7.16895 -16 -16 -16h-32c-8.83105 0 -16 7.16895 -16 16v32c0 8.83105 7.16895 16 16 16h32zM432 128
c8.83105 0 16 -7.16895 16 -16v-32c0 -8.83105 -7.16895 -16 -16 -16h-32c-8.83105 0 -16 7.16895 -16 16v32c0 8.83105 7.16895 16 16 16h32zM432 320c8.83105 0 16 -7.16895 16 -16v-32c0 -8.83105 -7.16895 -16 -16 -16h-32c-8.83105 0 -16 7.16895 -16 16v32
c0 8.83105 7.16895 16 16 16h32zM240 128c8.83105 0 16 -7.16895 16 -16v-32c0 -8.83105 -7.16895 -16 -16 -16h-32c-8.83105 0 -16 7.16895 -16 16v32c0 8.83105 7.16895 16 16 16h32zM240 320c8.83105 0 16 -7.16895 16 -16v-32c0 -8.83105 -7.16895 -16 -16 -16h-32
c-8.83105 0 -16 7.16895 -16 16v32c0 8.83105 7.16895 16 16 16h32zM144 32c8.83105 0 16 -7.16895 16 -16v-32c0 -8.83105 -7.16895 -16 -16 -16h-32c-8.83105 0 -16 7.16895 -16 16v32c0 8.83105 7.16895 16 16 16h32zM240 416c8.83105 0 16 -7.16895 16 -16v-32
c0 -8.83105 -7.16895 -16 -16 -16h-32c-8.83105 0 -16 7.16895 -16 16v32c0 8.83105 7.16895 16 16 16h32zM336 416c8.83105 0 16 -7.16895 16 -16v-32c0 -8.83105 -7.16895 -16 -16 -16h-32c-8.83105 0 -16 7.16895 -16 16v32c0 8.83105 7.16895 16 16 16h32zM432 416
c8.83105 0 16 -7.16895 16 -16v-32c0 -8.83105 -7.16895 -16 -16 -16h-32c-8.83105 0 -16 7.16895 -16 16v32c0 8.83105 7.16895 16 16 16h32zM48 224c8.83105 0 16 -7.16895 16 -16v-32c0 -8.83105 -7.16895 -16 -16 -16h-32c-8.83105 0 -16 7.16895 -16 16v32
c0 8.83105 7.16895 16 16 16h32zM48 32c8.83105 0 16 -7.16895 16 -16v-32c0 -8.83105 -7.16895 -16 -16 -16h-32c-8.83105 0 -16 7.16895 -16 16v32c0 8.83105 7.16895 16 16 16h32zM48 128c8.83105 0 16 -7.16895 16 -16v-32c0 -8.83105 -7.16895 -16 -16 -16h-32
c-8.83105 0 -16 7.16895 -16 16v32c0 8.83105 7.16895 16 16 16h32zM48 320c8.83105 0 16 -7.16895 16 -16v-32c0 -8.83105 -7.16895 -16 -16 -16h-32c-8.83105 0 -16 7.16895 -16 16v32c0 8.83105 7.16895 16 16 16h32zM48 416c8.83105 0 16 -7.16895 16 -16v-32
c0 -8.83105 -7.16895 -16 -16 -16h-32c-8.83105 0 -16 7.16895 -16 16v32c0 8.83105 7.16895 16 16 16h32zM144 416c8.83105 0 16 -7.16895 16 -16v-32c0 -8.83105 -7.16895 -16 -16 -16h-32c-8.83105 0 -16 7.16895 -16 16v32c0 8.83105 7.16895 16 16 16h32z" />
    <glyph glyph-name="border-outer" unicode="&#xf851;" 
d="M208 160c-8.83105 0 -16 7.16895 -16 16v32c0 8.83105 7.16895 16 16 16h32c8.83105 0 16 -7.16895 16 -16v-32c0 -8.83105 -7.16895 -16 -16 -16h-32zM304 160c-8.83105 0 -16 7.16895 -16 16v32c0 8.83105 7.16895 16 16 16h32c8.83105 0 16 -7.16895 16 -16v-32
c0 -8.83105 -7.16895 -16 -16 -16h-32zM112 160c-8.83105 0 -16 7.16895 -16 16v32c0 8.83105 7.16895 16 16 16h32c8.83105 0 16 -7.16895 16 -16v-32c0 -8.83105 -7.16895 -16 -16 -16h-32zM208 64c-8.83105 0 -16 7.16895 -16 16v32c0 8.83105 7.16895 16 16 16h32
c8.83105 0 16 -7.16895 16 -16v-32c0 -8.83105 -7.16895 -16 -16 -16h-32zM208 256c-8.83105 0 -16 7.16895 -16 16v32c0 8.83105 7.16895 16 16 16h32c8.83105 0 16 -7.16895 16 -16v-32c0 -8.83105 -7.16895 -16 -16 -16h-32zM416 416c17.6611 0 32 -14.3389 32 -32v-384
c0 -17.6611 -14.3389 -32 -32 -32h-384c-17.6611 0 -32 14.3389 -32 32v384c0 17.6611 14.3389 32 32 32h384zM384 32v320h-320v-320h320z" />
    <glyph glyph-name="border-right" unicode="&#xf852;" 
d="M240 224c8.83105 0 16 -7.16895 16 -16v-32c0 -8.83105 -7.16895 -16 -16 -16h-32c-8.83105 0 -16 7.16895 -16 16v32c0 8.83105 7.16895 16 16 16h32zM336 224c8.83105 0 16 -7.16895 16 -16v-32c0 -8.83105 -7.16895 -16 -16 -16h-32c-8.83105 0 -16 7.16895 -16 16v32
c0 8.83105 7.16895 16 16 16h32zM144 224c8.83105 0 16 -7.16895 16 -16v-32c0 -8.83105 -7.16895 -16 -16 -16h-32c-8.83105 0 -16 7.16895 -16 16v32c0 8.83105 7.16895 16 16 16h32zM240 32c8.83105 0 16 -7.16895 16 -16v-32c0 -8.83105 -7.16895 -16 -16 -16h-32
c-8.83105 0 -16 7.16895 -16 16v32c0 8.83105 7.16895 16 16 16h32zM336 32c8.83105 0 16 -7.16895 16 -16v-32c0 -8.83105 -7.16895 -16 -16 -16h-32c-8.83105 0 -16 7.16895 -16 16v32c0 8.83105 7.16895 16 16 16h32zM240 128c8.83105 0 16 -7.16895 16 -16v-32
c0 -8.83105 -7.16895 -16 -16 -16h-32c-8.83105 0 -16 7.16895 -16 16v32c0 8.83105 7.16895 16 16 16h32zM240 320c8.83105 0 16 -7.16895 16 -16v-32c0 -8.83105 -7.16895 -16 -16 -16h-32c-8.83105 0 -16 7.16895 -16 16v32c0 8.83105 7.16895 16 16 16h32zM144 32
c8.83105 0 16 -7.16895 16 -16v-32c0 -8.83105 -7.16895 -16 -16 -16h-32c-8.83105 0 -16 7.16895 -16 16v32c0 8.83105 7.16895 16 16 16h32zM240 416c8.83105 0 16 -7.16895 16 -16v-32c0 -8.83105 -7.16895 -16 -16 -16h-32c-8.83105 0 -16 7.16895 -16 16v32
c0 8.83105 7.16895 16 16 16h32zM336 416c8.83105 0 16 -7.16895 16 -16v-32c0 -8.83105 -7.16895 -16 -16 -16h-32c-8.83105 0 -16 7.16895 -16 16v32c0 8.83105 7.16895 16 16 16h32zM48 224c8.83105 0 16 -7.16895 16 -16v-32c0 -8.83105 -7.16895 -16 -16 -16h-32
c-8.83105 0 -16 7.16895 -16 16v32c0 8.83105 7.16895 16 16 16h32zM48 32c8.83105 0 16 -7.16895 16 -16v-32c0 -8.83105 -7.16895 -16 -16 -16h-32c-8.83105 0 -16 7.16895 -16 16v32c0 8.83105 7.16895 16 16 16h32zM48 128c8.83105 0 16 -7.16895 16 -16v-32
c0 -8.83105 -7.16895 -16 -16 -16h-32c-8.83105 0 -16 7.16895 -16 16v32c0 8.83105 7.16895 16 16 16h32zM48 320c8.83105 0 16 -7.16895 16 -16v-32c0 -8.83105 -7.16895 -16 -16 -16h-32c-8.83105 0 -16 7.16895 -16 16v32c0 8.83105 7.16895 16 16 16h32zM48 416
c8.83105 0 16 -7.16895 16 -16v-32c0 -8.83105 -7.16895 -16 -16 -16h-32c-8.83105 0 -16 7.16895 -16 16v32c0 8.83105 7.16895 16 16 16h32zM144 416c8.83105 0 16 -7.16895 16 -16v-32c0 -8.83105 -7.16895 -16 -16 -16h-32c-8.83105 0 -16 7.16895 -16 16v32
c0 8.83105 7.16895 16 16 16h32zM432 416c8.83105 0 16 -7.16895 16 -16v-416c0 -8.83105 -7.16895 -16 -16 -16h-32c-8.83105 0 -16 7.16895 -16 16v416c0 8.83105 7.16895 16 16 16h32z" />
    <glyph glyph-name="border-style" unicode="&#xf853;" 
d="M240 32c8.83105 0 16 -7.16895 16 -16v-32c0 -8.83105 -7.16895 -16 -16 -16h-32c-8.83105 0 -16 7.16895 -16 16v32c0 8.83105 7.16895 16 16 16h32zM144 32c8.83105 0 16 -7.16895 16 -16v-32c0 -8.83105 -7.16895 -16 -16 -16h-32c-8.83105 0 -16 7.16895 -16 16v32
c0 8.83105 7.16895 16 16 16h32zM336 32c8.83105 0 16 -7.16895 16 -16v-32c0 -8.83105 -7.16895 -16 -16 -16h-32c-8.83105 0 -16 7.16895 -16 16v32c0 8.83105 7.16895 16 16 16h32zM432 224c8.83105 0 16 -7.16895 16 -16v-32c0 -8.83105 -7.16895 -16 -16 -16h-32
c-8.83105 0 -16 7.16895 -16 16v32c0 8.83105 7.16895 16 16 16h32zM432 128c8.83105 0 16 -7.16895 16 -16v-32c0 -8.83105 -7.16895 -16 -16 -16h-32c-8.83105 0 -16 7.16895 -16 16v32c0 8.83105 7.16895 16 16 16h32zM432 32c8.83105 0 16 -7.16895 16 -16v-32
c0 -8.83105 -7.16895 -16 -16 -16h-32c-8.83105 0 -16 7.16895 -16 16v32c0 8.83105 7.16895 16 16 16h32zM432 320c8.83105 0 16 -7.16895 16 -16v-32c0 -8.83105 -7.16895 -16 -16 -16h-32c-8.83105 0 -16 7.16895 -16 16v32c0 8.83105 7.16895 16 16 16h32zM432 416
c8.83105 0 16 -7.16895 16 -16v-32c0 -8.83105 -7.16895 -16 -16 -16h-368v-368c0 -8.83105 -7.16895 -16 -16 -16h-32c-8.83105 0 -16 7.16895 -16 16v400c0 17.6611 14.3389 32 32 32h400z" />
    <glyph glyph-name="border-style-alt" unicode="&#xf854;" 
d="M208 352c-8.83105 0 -16 7.16895 -16 16v32c0 8.83105 7.16895 16 16 16h32c8.83105 0 16 -7.16895 16 -16v-32c0 -8.83105 -7.16895 -16 -16 -16h-32zM304 352c-8.83105 0 -16 7.16895 -16 16v32c0 8.83105 7.16895 16 16 16h32c8.83105 0 16 -7.16895 16 -16v-32
c0 -8.83105 -7.16895 -16 -16 -16h-32zM112 352c-8.83105 0 -16 7.16895 -16 16v32c0 8.83105 7.16895 16 16 16h32c8.83105 0 16 -7.16895 16 -16v-32c0 -8.83105 -7.16895 -16 -16 -16h-32zM16 160c-8.83105 0 -16 7.16895 -16 16v32c0 8.83105 7.16895 16 16 16h32
c8.83105 0 16 -7.16895 16 -16v-32c0 -8.83105 -7.16895 -16 -16 -16h-32zM16 256c-8.83105 0 -16 7.16895 -16 16v32c0 8.83105 7.16895 16 16 16h32c8.83105 0 16 -7.16895 16 -16v-32c0 -8.83105 -7.16895 -16 -16 -16h-32zM16 352c-8.83105 0 -16 7.16895 -16 16v32
c0 8.83105 7.16895 16 16 16h32c8.83105 0 16 -7.16895 16 -16v-32c0 -8.83105 -7.16895 -16 -16 -16h-32zM16 64c-8.83105 0 -16 7.16895 -16 16v32c0 8.83105 7.16895 16 16 16h32c8.83105 0 16 -7.16895 16 -16v-32c0 -8.83105 -7.16895 -16 -16 -16h-32zM432 416
c8.83105 0 16 -7.16895 16 -16v-400c0 -17.6611 -14.3389 -32 -32 -32h-400c-8.83105 0 -16 7.16895 -16 16v32c0 8.83105 7.16895 16 16 16h368v368c0 8.83105 7.16895 16 16 16h32z" />
    <glyph glyph-name="border-top" unicode="&#xf855;" 
d="M240 224c8.83105 0 16 -7.16895 16 -16v-32c0 -8.83105 -7.16895 -16 -16 -16h-32c-8.83105 0 -16 7.16895 -16 16v32c0 8.83105 7.16895 16 16 16h32zM336 224c8.83105 0 16 -7.16895 16 -16v-32c0 -8.83105 -7.16895 -16 -16 -16h-32c-8.83105 0 -16 7.16895 -16 16v32
c0 8.83105 7.16895 16 16 16h32zM432 224c8.83105 0 16 -7.16895 16 -16v-32c0 -8.83105 -7.16895 -16 -16 -16h-32c-8.83105 0 -16 7.16895 -16 16v32c0 8.83105 7.16895 16 16 16h32zM144 224c8.83105 0 16 -7.16895 16 -16v-32c0 -8.83105 -7.16895 -16 -16 -16h-32
c-8.83105 0 -16 7.16895 -16 16v32c0 8.83105 7.16895 16 16 16h32zM240 32c8.83105 0 16 -7.16895 16 -16v-32c0 -8.83105 -7.16895 -16 -16 -16h-32c-8.83105 0 -16 7.16895 -16 16v32c0 8.83105 7.16895 16 16 16h32zM336 32c8.83105 0 16 -7.16895 16 -16v-32
c0 -8.83105 -7.16895 -16 -16 -16h-32c-8.83105 0 -16 7.16895 -16 16v32c0 8.83105 7.16895 16 16 16h32zM432 32c8.83105 0 16 -7.16895 16 -16v-32c0 -8.83105 -7.16895 -16 -16 -16h-32c-8.83105 0 -16 7.16895 -16 16v32c0 8.83105 7.16895 16 16 16h32zM432 128
c8.83105 0 16 -7.16895 16 -16v-32c0 -8.83105 -7.16895 -16 -16 -16h-32c-8.83105 0 -16 7.16895 -16 16v32c0 8.83105 7.16895 16 16 16h32zM432 320c8.83105 0 16 -7.16895 16 -16v-32c0 -8.83105 -7.16895 -16 -16 -16h-32c-8.83105 0 -16 7.16895 -16 16v32
c0 8.83105 7.16895 16 16 16h32zM240 128c8.83105 0 16 -7.16895 16 -16v-32c0 -8.83105 -7.16895 -16 -16 -16h-32c-8.83105 0 -16 7.16895 -16 16v32c0 8.83105 7.16895 16 16 16h32zM240 320c8.83105 0 16 -7.16895 16 -16v-32c0 -8.83105 -7.16895 -16 -16 -16h-32
c-8.83105 0 -16 7.16895 -16 16v32c0 8.83105 7.16895 16 16 16h32zM144 32c8.83105 0 16 -7.16895 16 -16v-32c0 -8.83105 -7.16895 -16 -16 -16h-32c-8.83105 0 -16 7.16895 -16 16v32c0 8.83105 7.16895 16 16 16h32zM48 224c8.83105 0 16 -7.16895 16 -16v-32
c0 -8.83105 -7.16895 -16 -16 -16h-32c-8.83105 0 -16 7.16895 -16 16v32c0 8.83105 7.16895 16 16 16h32zM48 32c8.83105 0 16 -7.16895 16 -16v-32c0 -8.83105 -7.16895 -16 -16 -16h-32c-8.83105 0 -16 7.16895 -16 16v32c0 8.83105 7.16895 16 16 16h32zM48 128
c8.83105 0 16 -7.16895 16 -16v-32c0 -8.83105 -7.16895 -16 -16 -16h-32c-8.83105 0 -16 7.16895 -16 16v32c0 8.83105 7.16895 16 16 16h32zM48 320c8.83105 0 16 -7.16895 16 -16v-32c0 -8.83105 -7.16895 -16 -16 -16h-32c-8.83105 0 -16 7.16895 -16 16v32
c0 8.83105 7.16895 16 16 16h32zM432 416c8.83105 0 16 -7.16895 16 -16v-32c0 -8.83105 -7.16895 -16 -16 -16h-416c-8.83105 0 -16 7.16895 -16 16v32c0 8.83105 7.16895 16 16 16h416z" />
    <glyph glyph-name="burger-soda" unicode="&#xf858;" horiz-adv-x="640" 
d="M352 272c0 -8.83105 -7.16895 -16 -16 -16h-320c-8.83105 0 -16 7.16895 -16 16v32c0 8.83105 7.16895 16 16 16h141.26l24.4307 97.7002c4.3457 17.3867 20.084 30.2998 38.8096 30.2998h51.5c8.83105 0 16 -7.16895 16 -16v-16c0 -8.83105 -7.16895 -16 -16 -16
h-45.2598l-20 -80h129.26c8.83105 0 16 -7.16895 16 -16v-32zM263.55 129.78c3.59961 -6.81152 8.32422 -12.8203 14.0303 -17.9004c-13.2451 -11.7129 -21.5684 -28.8428 -21.5684 -47.8965c0 -16.7344 6.44629 -31.9756 16.9883 -43.373
c-10.4102 -8.79492 -16.999 -21.9297 -17 -36.6104c0 -0.0283203 0.046875 -0.133789 0.046875 -0.161133c0 -16.4707 5.0166 -31.7793 13.6035 -44.4785c-4.10645 -2.06445 -8.76465 -3.27734 -13.6504 -3.36035h-160
c-0.0488281 0 -0.0957031 0.0273438 -0.144531 0.0273438c-16.8564 0 -30.6748 13.1113 -31.8057 29.6826l-25.7803 258.29h253.11c-9.01953 -8.54004 -17.3701 -17.5303 -24.0898 -27.4004c-7.09277 -10.3809 -11.2402 -23.0605 -11.2402 -36.5713
c0 -10.9238 2.71191 -21.2188 7.5 -30.248zM624 0c8.83105 0 16 -7.16895 16 -16c0 -26.4922 -21.5078 -48 -48 -48h-256c-26.4922 0 -48 21.5078 -48 48c0 8.83105 7.16895 16 16 16h320zM608 96c17.6611 0 32 -14.3389 32 -32s-14.3389 -32 -32 -32h-288
c-17.6611 0 -32 14.3389 -32 32s14.3389 32 32 32h288zM293.74 178.59c29.4697 43.2803 94.3193 77.4805 170.26 77.4102s140.8 -34.1299 170.26 -77.4102c14.4707 -21.3203 -0.179688 -50.5898 -25.5293 -50.5898h-289.45c-25.3506 0 -40.0703 29.2695 -25.54 50.5898z
M544 208c-8.83105 0 -16 -7.16895 -16 -16s7.16895 -16 16 -16s16 7.16895 16 16s-7.16895 16 -16 16zM464 224c-8.83105 0 -16 -7.16895 -16 -16s7.16895 -16 16 -16s16 7.16895 16 16s-7.16895 16 -16 16zM384 208c-8.83105 0 -16 -7.16895 -16 -16s7.16895 -16 16 -16
s16 7.16895 16 16s-7.16895 16 -16 16z" />
    <glyph glyph-name="car-building" unicode="&#xf859;" horiz-adv-x="640" 
d="M213.52 -7.07031v-28.2393c0.0683594 -10.3779 2.82129 -20.2021 7.54004 -28.6904h-205.06c-8.83105 0 -16 7.16895 -16 16v464c0 17.6611 14.3389 32 32 32h288c17.6611 0 32 -14.3389 32 -32v-130.18c-33.6367 -5.8584 -62.9443 -24.4463 -82.5703 -50.7402
c-2.11133 2.94629 -5.54395 4.87012 -9.42969 4.91992h-40c-6.62305 0 -12 -5.37695 -12 -12v-40c0 -6.62305 5.37695 -12 12 -12h21.6396l-7.5498 -20.71c-25.3145 -15.7256 -42.0898 -43.7246 -42.0898 -75.6924v-0.147461v-28.6904
c0 -0.00683594 0.0195312 -0.0585938 0.0195312 -0.0654297c0 -22.0723 8.10547 -42.2656 21.5 -57.7646zM208 356v-40c0 -6.62305 5.37695 -12 12 -12h40c6.62305 0 12 5.37695 12 12v40c0 6.62305 -5.37695 12 -12 12h-40c-6.62305 0 -12 -5.37695 -12 -12zM144 60v40
c0 6.62305 -5.37695 12 -12 12h-40c-6.62305 0 -12 -5.37695 -12 -12v-40c0 -6.62305 5.37695 -12 12 -12h40c6.62305 0 12 5.37695 12 12zM144 188v40c0 6.62305 -5.37695 12 -12 12h-40c-6.62305 0 -12 -5.37695 -12 -12v-40c0 -6.62305 5.37695 -12 12 -12h40
c6.62305 0 12 5.37695 12 12zM144 316v40c0 6.62305 -5.37695 12 -12 12h-40c-6.62305 0 -12 -5.37695 -12 -12v-40c0 -6.62305 5.37695 -12 12 -12h40c6.62305 0 12 5.37695 12 12zM604.58 132.44c20.7979 -8.61914 35.4082 -29.0947 35.4199 -52.9902v-28.6904
c-0.0478516 -18.0068 -8.42285 -34.0439 -21.5195 -44.46v-41.6094c-0.00585938 -15.832 -12.8584 -28.6846 -28.6904 -28.6904h-28.6904c-15.8311 0.00585938 -28.6846 12.8584 -28.6895 28.6904v35.3096h-200.83v-35.3096c0 -15.8311 -12.8506 -28.6846 -28.6797 -28.6904
h-28.6904c-15.8203 0.0166016 -28.6602 12.8662 -28.6602 28.6904v41.6094c-13.0967 10.416 -21.4717 26.4531 -21.5195 44.46v28.6904c0.0126953 23.8984 14.6221 44.376 35.4199 53l4.5498 11.3496l17.8301 49.0801c14.6582 36.9893 50.7236 63.1211 92.9043 63.1211
c0.111328 0 0.223633 -0.000976562 0.335938 -0.000976562h113.859c0.103516 0 0.160156 0.0566406 0.263672 0.0566406c42.1758 0 78.2842 -26.1885 92.9365 -63.1768l17.8701 -49.0801zM335.11 164l-12.1104 -36h218l-12.0703 36c-6.58008 16.9004 -22.3994 28 -40 28
h-113.819c-17.6406 0 -33.4707 -11.0801 -40 -28zM300 40.1504c14.4004 0 36 -2.40039 36 11.96c0 14.3594 -21.5996 35.8896 -36 35.8896s-24 -9.55957 -24 -23.9199s9.59961 -23.9297 24 -23.9297zM564 40.1504c14.4004 0 24 9.58008 24 23.9297
s-9.59961 23.9199 -24 23.9199s-36 -21.46 -36 -35.8496c0 -14.3906 21.5996 -12 36 -12z" />
    <glyph glyph-name="car-bus" unicode="&#xf85a;" horiz-adv-x="640" 
d="M604.58 132.44c20.7979 -8.61914 35.4082 -29.0947 35.4199 -52.9902v-28.6904c-0.0478516 -18.0068 -8.42285 -34.0439 -21.5195 -44.46v-38.2998c0 -17.6611 -14.3389 -32 -32 -32h-22.0703c-17.6611 0 -32 14.3389 -32 32v32h-200.79v-32
c0 -17.6611 -14.3389 -32 -32 -32h-22.0703c-17.6611 0 -32 14.3389 -32 32v38.29c-13.0967 10.416 -21.4717 26.4531 -21.5195 44.46v28.6904c0.00683594 23.9004 14.6191 44.3799 35.4199 53l4.5498 11.3594l17.8398 49.0801
c14.6523 36.9883 50.7139 63.1211 92.8906 63.1211c0.113281 0 0.226562 -0.000976562 0.339844 -0.000976562h113.859c0.103516 0 0.160156 0.0566406 0.263672 0.0566406c42.1758 0 78.2842 -26.1885 92.9365 -63.1768l17.8701 -49.0801zM335.11 164l-12.1104 -36h218
l-12.0703 36c-6.58008 16.9004 -22.3994 28 -40 28h-113.819c-17.6406 0 -33.4707 -11.0801 -40 -28zM300 40.1504c14.4004 0 36 -2.40039 36 11.96c0 14.3594 -21.5996 35.8896 -36 35.8896s-24 -9.58008 -24 -23.9297c0 -14.3506 9.59961 -23.9199 24 -23.9199z
M564 40.1504c14.4004 0 24 9.55957 24 23.9199c0 14.3594 -9.59961 23.9297 -24 23.9297s-36 -21.46 -36 -35.8496c0 -14.3906 21.5996 -12 36 -12zM252.12 204.77l-17.9502 -49.4795c-21.2695 -13.21 -35.3701 -34.7998 -40 -59.29h-67v-32
c0 -17.6611 -14.3389 -32 -32 -32h-23.1699c-17.6611 0 -32 14.3389 -32 32v32h-10.6699c-16.1875 0 -29.3301 13.1426 -29.3301 29.3301v259.81c0 35.2002 77.9404 62.8604 176 62.8604s176 -27.6602 176 -62.8604v-99.3193
c-24.1797 -4.19922 -46.2832 -15.0508 -64 -30.5605v98.0703c0 8.09668 -6.57324 14.6699 -14.6699 14.6699h-81.3301v-144h69.7695c-3.69336 -6.08984 -6.94629 -12.5586 -9.64941 -19.2305zM80 136c13.2461 0 24 10.7539 24 24s-10.7539 24 -24 24s-24 -10.7539 -24 -24
s10.7539 -24 24 -24zM160 224v144h-81.3301c-8.09668 0 -14.6699 -6.57324 -14.6699 -14.6699v-114.66c0 -8.09668 6.57324 -14.6699 14.6699 -14.6699h81.3301z" />
    <glyph glyph-name="cars" unicode="&#xf85b;" horiz-adv-x="640" 
d="M252.13 204.77l-4.66016 -12.7695h-139.88v-32c0 -17.6611 -14.3389 -32 -32 -32h-22.0703c-17.6611 0 -32 14.3389 -32 32v38.2998c-13.0967 10.416 -21.4717 26.4531 -21.5195 44.46v28.6904c0.0166016 23.9014 14.6396 44.3799 35.4502 52.9902l4.5498 11.3594
l17.8398 49.0801c14.6523 36.9883 50.7139 63.1211 92.8906 63.1211c0.113281 0 0.226562 -0.000976562 0.339844 -0.000976562h113.859c0.113281 0 0.179688 0.0566406 0.292969 0.0566406c42.1768 0 78.2852 -26.1885 92.9375 -63.1768l17.8398 -49.0801l4.58008 -11.3594
c15.7529 -6.57227 27.916 -19.9336 32.9004 -36.4404h-38.4102c-0.148438 0.000976562 -0.235352 0.0742188 -0.382812 0.0742188c-55.6172 0 -103.232 -34.5303 -122.558 -83.3047zM111.11 356l-12.1104 -36h218l-12.0703 36c-6.58008 16.9004 -22.3994 28 -40 28h-113.819
c-17.6406 0 -33.4707 -11.0801 -40 -28zM76 232.15c14.4004 0 36 -2.40039 36 11.96c0 14.3594 -21.5996 35.8896 -36 35.8896s-24 -9.58008 -24 -23.9297c0 -14.3506 9.59961 -23.9199 24 -23.9199zM604.58 132.44c20.7979 -8.61914 35.4082 -29.0947 35.4199 -52.9902
v-28.6904c-0.0478516 -18.0068 -8.42285 -34.0439 -21.5195 -44.46v-38.2998c0 -17.6611 -14.3389 -32 -32 -32h-22.0703c-17.6611 0 -32 14.3389 -32 32v32h-200.79v-32c0 -17.6611 -14.3389 -32 -32 -32h-22.0703c-17.6611 0 -32 14.3389 -32 32v38.29
c-13.0967 10.416 -21.4717 26.4531 -21.5195 44.46v28.6904c0.00683594 23.9004 14.6191 44.3799 35.4199 53l4.5498 11.3594l17.8398 49.0801c14.6523 36.9883 50.7139 63.1211 92.8906 63.1211c0.113281 0 0.226562 -0.000976562 0.339844 -0.000976562h113.859
c0.103516 0 0.160156 0.0566406 0.263672 0.0566406c42.1758 0 78.2842 -26.1885 92.9365 -63.1768l17.8701 -49.0801zM335.11 164l-12.1104 -36h218l-12.0703 36c-6.58008 16.9004 -22.3994 28 -40 28h-113.819c-17.6406 0 -33.4707 -11.0801 -40 -28zM300 40.1504
c14.4004 0 36 -2.40039 36 11.96c0 14.3594 -21.5996 35.8896 -36 35.8896s-24 -9.55957 -24 -23.9199s9.59961 -23.9297 24 -23.9297zM564 40.1504c14.4004 0 24 9.58008 24 23.9297s-9.59961 23.9199 -24 23.9199s-36 -21.46 -36 -35.8496c0 -14.3906 21.5996 -12 36 -12z
" />
    <glyph glyph-name="coin" unicode="&#xf85c;" horiz-adv-x="512" 
d="M0 128v30.3799c12.5996 -15.0195 29.1504 -28.3799 48 -40.3799v-64.3301c-30 20.96 -48 46.5605 -48 74.3301zM256 96c-141.33 0 -256 64.4404 -256 144s114.67 144 256 144s256 -64.4404 256 -144s-114.67 -144 -256 -144zM80 35.4902v64.5098
c28.1904 -13.1201 60.6104 -23 96 -29v-64.3096c-36.3398 5.98926 -68.9102 15.9092 -96 28.7998zM464 53.6699v64.3203c18.8496 12.0098 35.4004 25.3799 48 40.3799v-30.3701c0 -27.7695 -17.9502 -53.3301 -48 -74.3301zM336 6.66992v64.3301
c35.3896 6 67.8096 15.8799 96 29v-64.5303c-27.0898 -12.8896 -59.6602 -22.7998 -96 -28.7998zM208 66.7998c15.9189 -1.73633 31.6514 -2.6709 48 -2.7998c16.3486 0.128906 32.0811 1.06348 48 2.7998v-64.0898c-15.6201 -1.50977 -31.4902 -2.70996 -48 -2.70996
s-32.3799 1.2002 -48 2.70996v64.0898z" />
    <glyph glyph-name="construction" unicode="&#xf85d;" horiz-adv-x="640" 
d="M634.66 -12.1699c14.4795 -22.5605 -2.17969 -51.8301 -29.5098 -51.8301h-570.301c-27.3301 0 -43.9893 29.2695 -29.5098 51.8301l285.16 444.25c13.6201 21.2295 45.3799 21.2295 59 0zM308 288c-15.4541 0 -28 -12.5459 -28 -28s12.5459 -28 28 -28s28 12.5459 28 28
s-12.5459 28 -28 28zM304 16v32.7695c0 0.0107422 0.0332031 0.000976562 0.0332031 0.0117188c0 11.2686 -5.85352 21.1807 -14.6836 26.8584l-83.0596 53.6699l-29.75 -109.109c-0.364258 -1.34082 -0.556641 -2.74414 -0.556641 -4.19922
c0 -7.37598 5.00195 -13.5928 11.7969 -15.4414c1.32227 -0.363281 2.70898 -0.55957 4.14648 -0.55957h0.0732422c7.37598 0 13.5918 5.00586 15.4404 11.7998l18.25 66.8906l46.3096 -29.9209v-32.7695c0 -8.83105 7.16895 -16 16 -16s16 7.16895 16 16zM352 0h198.8
l-71.8594 111.94c-2.84668 4.43262 -7.80078 7.37012 -13.4551 7.37012c-6.26953 0 -11.7021 -3.61328 -14.3252 -8.87012l-21.1602 -42.4404l-87.6699 54l-10.5498 52.7002c-3.7207 18.6094 -18.1104 33.3193 -35.5605 37.1396l-24.5801 7.28027
c-3.39258 0.763672 -6.86816 1.20898 -10.4902 1.20898c-15.6768 0 -29.6035 -7.5498 -38.3398 -19.209l-11.6094 -15.4902c-2.00391 -2.67188 -3.21484 -5.99414 -3.21484 -9.58691c0 -5.76172 3.05078 -10.8154 7.625 -13.6328l103.949 -64
c0.0302734 -0.0703125 0.110352 -0.0703125 0.110352 -0.0703125l94.7998 -58.3398h-35.6396c-6.72461 -0.0107422 -12.4746 -4.16992 -14.8301 -10.0596z" />
    <glyph glyph-name="digging" unicode="&#xf85e;" horiz-adv-x="576" 
d="M272 352c-26.4922 0 -48 21.5078 -48 48s21.5078 48 48 48s48 -21.5078 48 -48s-21.5078 -48 -48 -48zM209.76 90.6396c8.60156 -5.73828 14.2402 -15.5117 14.2402 -26.6182v-0.0214844v-96c0 -17.6611 -14.3389 -32 -32 -32s-32 14.3389 -32 32v78.8896
l-60.6104 40.4102l-36.5996 -128.16c-3.82715 -13.3936 -16.1592 -23.2227 -30.7754 -23.2227c-17.668 0 -32.0117 14.3447 -32.0117 32.0127c0 3.05176 0.427734 6.00391 1.22754 8.80078l57.4199 201l71.5596 -39c27.2334 -14.874 53.75 -30.9043 79.5498 -48.0908z
M311.07 32h40.9297l9.84961 16.7695l-336.6 184.301c-14.6201 7.98926 -20.4502 26.75 -11.6201 40.8496c0.69043 1.11719 1.45312 2.16406 2.2998 3.16016l56 64c5.86621 6.7002 14.4746 10.918 24.0703 10.9199h72.7305c16.5098 0 32.7295 -3.90039 48.0693 -10
c2.52246 -0.589844 4.97559 -1.50488 7.21973 -2.66992c1 -0.469727 2.11035 -0.629883 3.11035 -1.12988c35.584 -17.6289 61.8242 -51.1299 69.7197 -91.2002l23.9902 -121.2l65.2998 -35.6201l31.8604 54.29c13 21.6602 44.7803 20.4404 56.0703 -2.14941l101.93 -206.32
h-320l24.71 74.1201c4.2373 12.7109 16.2324 21.8799 30.3604 21.8799zM105.9 243l38.9697 45h-34.3301l-28.1299 -32.1504zM199.64 191.87l48.2305 -26.3105l-13.5 67.54z" />
    <glyph glyph-name="drone-alt" unicode="&#xf860;" horiz-adv-x="640" 
d="M288 312c0 -13.2461 -10.7539 -24 -24 -24h-240c-13.2461 0 -24 10.7539 -24 24s10.7539 24 24 24h97.6104c3.18457 9.30566 11.999 16.0029 22.3779 16.0029s19.207 -6.69727 22.3916 -16.0029h97.6201c13.2461 0 24 -10.7539 24 -24zM616.4 335.93h0.0634766
c12.9922 0 23.54 -10.5479 23.54 -23.54c0 -12.9658 -10.5068 -23.498 -23.4639 -23.54l-240.81 -0.769531c-12.8086 0.219727 -23.1367 10.6865 -23.1367 23.5469c0 12.8086 10.249 23.2432 22.9863 23.543l98 0.310547c2.97949 9.6084 11.9336 16.5967 22.5166 16.5967
c10.5322 0 19.4609 -6.91992 22.4834 -16.457zM472 210.35v45.6504h48v-64.0498c0 -17.6611 -14.3389 -32 -32 -32h-45.4004c29.3662 -28.5381 48.9531 -67.2461 53.3301 -110.24c0.0517578 -0.521484 0.0751953 -1.03516 0.0751953 -1.57031
c0 -8.88574 -7.19629 -16.1045 -16.0752 -16.1396h-16.25c-8.33984 0.0195312 -14.7598 6.58008 -15.6797 14.8701c-4.22559 37.6162 -24.4072 70.4648 -53.7402 91.3799l-32.9199 -32.9297c-5.79199 -5.79102 -13.8008 -9.37012 -22.6299 -9.37012h-37.4902
c-8.8291 0 -16.8379 3.5791 -22.6299 9.37012l-32.9199 32.9297c-29.3105 -20.9219 -49.4697 -53.7705 -53.6699 -91.3799c-0.919922 -8.29004 -7.33984 -14.8701 -15.6797 -14.8701h-16.25c-8.87891 0.0351562 -16.0771 7.2373 -16.0771 16.124
c0 0.535156 0.0253906 1.06445 0.0771484 1.58594c4.37695 42.9941 23.9639 81.7021 53.3301 110.24h-45.4004c-17.6611 0 -32 14.3389 -32 32v64.0498h48v-45.6504l96.8203 29.0508c17.4775 5.24512 35.9746 8.06445 55.1514 8.06445s37.7002 -2.81934 55.1787 -8.06445z
" />
    <glyph glyph-name="dryer" unicode="&#xf861;" 
d="M384 448c35.3223 0 64 -28.6777 64 -64v-416c0 -17.6611 -14.3389 -32 -32 -32h-384c-17.6611 0 -32 14.3389 -32 32v416c0 35.3223 28.6777 64 64 64h320zM184 384c-13.2461 0 -24 -10.7539 -24 -24s10.7539 -24 24 -24s24 10.7539 24 24s-10.7539 24 -24 24zM64 360
c0 -13.2461 10.7539 -24 24 -24s24 10.7539 24 24s-10.7539 24 -24 24s-24 -10.7539 -24 -24zM224 0c79.4756 0 144 64.5244 144 144s-64.5244 144 -144 144s-144 -64.5244 -144 -144s64.5244 -144 144 -144zM216 176c0 -22.6699 -11.9502 -34.6201 -20.6904 -43.3604
c-7.83984 -7.83984 -11.3096 -11.7598 -11.3096 -20.6992c0 -8.94043 3.46973 -12.8203 11.3896 -20.6602c7.41992 -7.40039 17.1602 -17.1406 19.9307 -33.75c0.0761719 -0.448242 0.114258 -0.901367 0.114258 -1.37012c0 -4.48926 -3.63184 -8.13574 -8.11426 -8.16016
h-16.3203c-3.72461 0.0253906 -6.84863 2.60449 -7.70996 6.07031c-1.37012 5.14941 -4.78027 8.76953 -10.5996 14.5898c-8.74023 8.71973 -20.6904 20.6396 -20.6904 43.2803c0 22.6396 12 34.5898 20.6904 43.3594c7.83984 7.83984 11.3096 11.7002 11.3096 20.7002
s-3.46973 12.8301 -11.3604 20.6699c-7.41992 7.41992 -17.1592 17.1602 -19.9297 33.7998c-0.0761719 0.448242 -0.115234 0.901367 -0.115234 1.37012c0 4.48926 3.63184 8.13574 8.11523 8.16016h16.29c3.71973 -0.0224609 6.84082 -2.59277 7.70996 -6.0498
c1.36035 -5.16992 4.78027 -8.7998 10.5996 -14.6201c8.74023 -8.74023 20.6904 -20.6904 20.6904 -43.3301zM296 176c0 -22.6699 -11.9502 -34.6201 -20.6904 -43.3604c-7.83984 -7.83984 -11.3096 -11.7598 -11.3096 -20.6992
c0 -8.94043 3.46973 -12.8203 11.3398 -20.6602c7.41992 -7.40039 17.1602 -17.1406 19.9297 -33.75c0.0771484 -0.448242 0.114258 -0.901367 0.114258 -1.37109c0 -4.47168 -3.60449 -8.10742 -8.06348 -8.15918h-16.3203
c-3.72461 0.0253906 -6.84863 2.60449 -7.70996 6.07031c-1.37012 5.14941 -4.78027 8.76953 -10.5996 14.5898c-8.74023 8.71973 -20.6904 20.6396 -20.6904 43.2803c0 22.6396 12 34.5898 20.6904 43.3594c7.83984 7.83984 11.3096 11.7002 11.3096 20.7002
s-3.46973 12.8301 -11.3604 20.6699c-7.41992 7.41992 -17.1592 17.1602 -19.9297 33.7998c-0.0761719 0.448242 -0.115234 0.901367 -0.115234 1.37012c0 4.48926 3.63184 8.13574 8.11523 8.16016h16.29c3.71973 -0.0224609 6.84082 -2.59277 7.70996 -6.0498
c1.36035 -5.16992 4.78027 -8.7998 10.5996 -14.6201c8.74023 -8.74023 20.6904 -20.6904 20.6904 -43.3301z" />
    <glyph glyph-name="dryer-alt" unicode="&#xf862;" 
d="M384 448c35.3223 0 64 -28.6777 64 -64v-416c0 -17.6611 -14.3389 -32 -32 -32h-384c-17.6611 0 -32 14.3389 -32 32v416c0 35.3223 28.6777 64 64 64h320zM184 384c-13.2461 0 -24 -10.7539 -24 -24s10.7539 -24 24 -24s24 10.7539 24 24s-10.7539 24 -24 24zM64 360
c0 -13.2461 10.7539 -24 24 -24s24 10.7539 24 24s-10.7539 24 -24 24s-24 -10.7539 -24 -24zM224 0c79.4756 0 144 64.5244 144 144s-64.5244 144 -144 144s-144 -64.5244 -144 -144s64.5244 -144 144 -144zM224 256c61.8145 0 112 -50.1855 112 -112
s-50.1855 -112 -112 -112s-112 50.1855 -112 112s50.1855 112 112 112zM224 64c44.1504 0.00390625 79.9941 35.7891 79.9941 79.9404c0 44.1533 -35.8467 80 -80 80c-38.6533 0 -70.9404 -27.4727 -78.3838 -63.9404h38.3896c4.41504 0 8 -3.58496 8 -8v-16
c0 -4.41504 -3.58496 -8 -8 -8h-38.3896c7.44336 -36.4678 39.7363 -64 78.3896 -64z" />
    <glyph glyph-name="farm" unicode="&#xf864;" horiz-adv-x="576" 
d="M221.5 356.92c-13.5918 -6.04199 -24.6104 -16.5801 -31.2598 -29.8301l-55.4805 -111c-4.29004 -8.60645 -6.74707 -18.3701 -6.75977 -28.6299v-251.46h-128v400c0 0.0263672 0 -0.0410156 0 -0.0146484c0 61.7764 50.1543 111.931 111.931 111.931
c54.5615 0 100.058 -39.125 109.939 -90.8262zM572.62 201.78c2.14941 -4.30371 3.37793 -9.1875 3.37988 -14.3203v-251.46h-128v96h-160v-96h-128v251.46c0.00683594 5.12109 1.23535 9.99512 3.37988 14.29l55.4902 111c3.31543 6.63184 8.82324 11.9072 15.6201 14.9297
l120.51 53.5605c3.9668 1.76367 8.4082 2.74316 13.0254 2.74316s9.00781 -0.979492 12.9746 -2.74316l120.51 -53.5303c6.79688 -3.02246 12.3047 -8.29785 15.6201 -14.9297zM416 128v96h-96v-96h96z" />
    <glyph glyph-name="font-case" unicode="&#xf866;" horiz-adv-x="640" 
d="M229.88 362.31l121.28 -341.199c0.540039 -1.60449 0.837891 -3.3252 0.837891 -5.11035c0 -8.83008 -7.16797 -15.999 -15.998 -16h-50.6201c-7.04395 0.000976562 -13.0264 4.56055 -15.1602 10.8896l-19.0693 53.1104h-150.301l-19.0693 -53.1104
c-2.13379 -6.3291 -8.11621 -10.8887 -15.1602 -10.8896h-50.6201c-8.8252 0.00683594 -15.9834 7.17676 -15.9834 16.0029c0 1.78516 0.292969 3.50293 0.833008 5.10742l121.271 341.199c4.29297 12.6133 16.2363 21.6904 30.293 21.6904h0.00683594h47.1602
l-0.00292969 0.00683594c14.0576 0 26.0098 -9.08398 30.3027 -21.6973zM129.58 144h92.8398l-46.4199 129.26zM624 288c8.83105 0 16 -7.16895 16 -16v-256c0 -8.83105 -7.16895 -16 -16 -16h-32c-8.83105 0 -16 7.16895 -16 16v1.80957
c-18.9004 -11.0293 -40.5801 -17.8096 -64 -17.8096c-70.6094 0.0771484 -127.923 57.3906 -128 128v32c0.0771484 70.6094 57.3906 127.923 128 128c23.4199 0 45.0996 -6.80957 64 -17.8096v1.80957c0 8.83105 7.16895 16 16 16h32zM560 128v32
c0 26.4922 -21.5078 48 -48 48s-48 -21.5078 -48 -48v-32c0 -26.4922 21.5078 -48 48 -48s48 21.5078 48 48z" />
    <glyph glyph-name="game-board" unicode="&#xf867;" horiz-adv-x="512" 
d="M256 288v-96h-96v96h96zM256 96v96h96v-96h-96zM480 448c17.6611 0 32 -14.3389 32 -32v-448c0 -17.6611 -14.3389 -32 -32 -32h-448c-17.6611 0 -32 14.3389 -32 32v448c0 17.6611 14.3389 32 32 32h448zM448 288v96h-96v-96h-96v96h-96v-96h-96v-96h96v-96h-96v-96h96
v96h96v-96h96v96h96v96h-96v96h96z" />
    <glyph glyph-name="game-board-alt" unicode="&#xf868;" horiz-adv-x="512" 
d="M480 448c17.6611 0 32 -14.3389 32 -32v-448c0 -17.6611 -14.3389 -32 -32 -32h-448c-17.6611 0 -32 14.3389 -32 32v448c0 17.6611 14.3389 32 32 32h448zM448 192v192h-192v-192h-192v-192h192v192h192z" />
    </font>
</defs>
</svg>
